<?xml version="1.0" standalone="no"?>
<!DOCTYPE svg PUBLIC "-//W3C//DTD SVG 1.1//EN" "http://www.w3.org/Graphics/SVG/1.1/DTD/svg11.dtd" >
<svg>
<metadata>
Created by FontForge 20120731 at Fri May  5 11:14:46 2017
 By www-data
Digitized data copyright 2012-2016, The Mozilla Foundation and Telefonica S.A.
</metadata>
<defs>
<font id="FiraSansExtraCondensed-SemiBold" horiz-adv-x="460" >
  <font-face 
    font-family="Fira Sans Extra Condensed SemiBold"
    font-weight="600"
    font-stretch="ultra-condensed"
    units-per-em="1000"
    panose-1="2 11 6 3 5 0 0 2 0 4"
    ascent="800"
    descent="-200"
    x-height="530"
    cap-height="692"
    bbox="-650 -354 1360 1161"
    underline-thickness="50"
    underline-position="-50"
    unicode-range="U+000D-FEFF"
  />
<missing-glyph horiz-adv-x="666" 
d="M543 1050v-1400h-420v1400h420zM489 998h-311v-1296h311v1296zM409.5 419q25.5 -32 25.5 -83q0 -53 -22.5 -82t-72.5 -36v-45q0 -11 -7.5 -17.5t-17.5 -6.5t-17.5 6.5t-7.5 17.5v84q53 3 72 19.5t19 57.5q0 33 -13 51t-48 18q-29 0 -52 -11q-8 -3 -13 -3q-11 0 -17.5 6.5
t-6.5 16.5q0 19 29.5 29t63.5 10q60 0 85.5 -32zM340 110q10 -10 10 -25q0 -16 -10 -26.5t-25 -10.5t-25 10.5t-10 26.5q0 15 10 25t25 10t25 -10z" />
    <glyph glyph-name="fi" unicode="fi" horiz-adv-x="501" 
d="M405 717l-38 -86q-44 22 -95 22q-35 0 -49.5 -15t-14.5 -48v-60h241v-530h-136v433h-105v-433h-136v433h-67v97h67v64q0 70 45.5 116t137.5 46q83 0 150 -39z" />
    <glyph glyph-name="fl" unicode="fl" horiz-adv-x="530" 
d="M529 3q-36 -19 -79 -19q-59 0 -92 35t-33 95v533q-33 9 -59 9q-33 0 -45.5 -14.5t-12.5 -48.5v-63h80l-16 -97h-64v-433h-136v433h-67v97h67v65q0 70 44.5 115.5t127.5 45.5q47 0 96 -17l121 12v-631q0 -27 23 -27q10 0 20 4z" />
    <glyph glyph-name=".notdef" horiz-adv-x="666" 
d="M543 1050v-1400h-420v1400h420zM489 998h-311v-1296h311v1296zM409.5 419q25.5 -32 25.5 -83q0 -53 -22.5 -82t-72.5 -36v-45q0 -11 -7.5 -17.5t-17.5 -6.5t-17.5 6.5t-7.5 17.5v84q53 3 72 19.5t19 57.5q0 33 -13 51t-48 18q-29 0 -52 -11q-8 -3 -13 -3q-11 0 -17.5 6.5
t-6.5 16.5q0 19 29.5 29t63.5 10q60 0 85.5 -32zM340 110q10 -10 10 -25q0 -16 -10 -26.5t-25 -10.5t-25 10.5t-10 26.5q0 15 10 25t25 10t25 -10z" />
    <glyph glyph-name="nonmarkingreturn" unicode="&#xd;" horiz-adv-x="192" 
 />
    <glyph glyph-name="space" unicode=" " horiz-adv-x="192" 
 />
    <glyph glyph-name="A" unicode="A" horiz-adv-x="501" 
d="M363 0l-31 158h-166l-31 -158h-140l171 692h170l170 -692h-143zM186 261h126l-63 326z" />
    <glyph glyph-name="Aacute" unicode="&#xc1;" horiz-adv-x="501" 
d="M363 0l-31 158h-166l-31 -158h-140l171 692h170l170 -692h-143zM186 261h126l-63 326zM314 936l52 -101l-197 -83l-35 68z" />
    <glyph glyph-name="Abreve" unicode="&#x102;" horiz-adv-x="501" 
d="M363 0l-31 158h-166l-31 -158h-140l171 692h170l170 -692h-143zM186 261h126l-63 326zM149.5 793.5q-36.5 40.5 -41.5 108.5l73 15q16 -67 69 -67q56 0 70 67l74 -15q-5 -68 -42 -108.5t-102 -40.5q-64 0 -100.5 40.5z" />
    <glyph glyph-name="uni1EAE" unicode="&#x1eae;" horiz-adv-x="501" 
d="M363 0l-31 158h-166l-31 -158h-140l171 692h170l170 -692h-143zM186 261h126l-63 326zM149.5 777.5q-36.5 40.5 -41.5 108.5l73 15q16 -67 69 -67q56 0 70 67l74 -15q-5 -68 -42 -108.5t-102 -40.5q-64 0 -100.5 40.5zM318 1104l81 -69l-140 -141l-53 45z" />
    <glyph glyph-name="uni1EB6" unicode="&#x1eb6;" horiz-adv-x="501" 
d="M363 0l-31 158h-166l-31 -158h-140l171 692h170l170 -692h-143zM186 261h126l-63 326zM149.5 793.5q-36.5 40.5 -41.5 108.5l73 15q16 -67 69 -67q56 0 70 67l74 -15q-5 -68 -42 -108.5t-102 -40.5q-64 0 -100.5 40.5zM193 -203q-22 23 -22 58q0 34 22 56.5t57 22.5
q36 0 58 -22.5t22 -56.5q0 -35 -22 -58t-58 -23q-35 0 -57 23z" />
    <glyph glyph-name="uni1EB0" unicode="&#x1eb0;" horiz-adv-x="501" 
d="M363 0l-31 158h-166l-31 -158h-140l171 692h170l170 -692h-143zM186 261h126l-63 326zM150.5 777.5q-36.5 40.5 -41.5 108.5l73 15q16 -67 69 -67q56 0 70 67l74 -15q-5 -68 -42 -108.5t-102 -40.5q-64 0 -100.5 40.5zM190 1104l113 -165l-55 -45l-139 141z" />
    <glyph glyph-name="uni1EB2" unicode="&#x1eb2;" horiz-adv-x="501" 
d="M363 0l-31 158h-166l-31 -158h-140l171 692h170l170 -692h-143zM186 261h126l-63 326zM149.5 777.5q-36.5 40.5 -41.5 108.5l73 15q16 -67 69 -67q56 0 70 67l74 -15q-5 -68 -42 -108.5t-102 -40.5q-64 0 -100.5 40.5zM210 976q32 3 45 11.5t13 28.5q0 16 -8 24.5
t-23 8.5q-14 0 -24.5 -3t-25.5 -10l-22 60q38 25 90 25q50 0 77 -26t27 -71q0 -38 -18 -61t-51 -30v-44h-80v87z" />
    <glyph glyph-name="uni1EB4" unicode="&#x1eb4;" horiz-adv-x="501" 
d="M363 0l-31 158h-166l-31 -158h-140l171 692h170l170 -692h-143zM186 261h126l-63 326zM150.5 777.5q-36.5 40.5 -41.5 108.5l73 15q16 -67 69 -67q56 0 70 67l74 -15q-5 -68 -42 -108.5t-102 -40.5q-64 0 -100.5 40.5zM269.5 941.5q-13.5 6.5 -30.5 17.5q-21 16 -35 16
t-23 -9t-21 -31l-65 28q16 45 43.5 72.5t62.5 27.5q18 0 31 -6t31 -17q21 -16 36 -16q13 0 22 9t21 29l65 -27q-16 -47 -43.5 -73.5t-61.5 -26.5q-19 0 -32.5 6.5z" />
    <glyph glyph-name="uni01CD" unicode="&#x1cd;" horiz-adv-x="501" 
d="M363 0l-31 158h-166l-31 -158h-140l171 692h170l170 -692h-143zM186 261h126l-63 326zM361 928l48 -50l-117 -127h-82l-116 127l48 50l109 -82z" />
    <glyph glyph-name="Acircumflex" unicode="&#xc2;" horiz-adv-x="501" 
d="M363 0l-31 158h-166l-31 -158h-140l171 692h170l170 -692h-143zM186 261h126l-63 326zM141 760l-48 50l117 127h82l116 -127l-48 -50l-110 82z" />
    <glyph glyph-name="uni1EA4" unicode="&#x1ea4;" horiz-adv-x="501" 
d="M363 0l-31 158h-166l-31 -158h-140l171 692h170l170 -692h-143zM186 261h126l-63 326zM142 724l-48 50l117 127h82l116 -127l-48 -50l-110 82zM447 1068l81 -69l-140 -141l-53 45z" />
    <glyph glyph-name="uni1EAC" unicode="&#x1eac;" horiz-adv-x="501" 
d="M363 0l-31 158h-166l-31 -158h-140l171 692h170l170 -692h-143zM186 261h126l-63 326zM141 760l-48 50l117 127h82l116 -127l-48 -50l-110 82zM193 -203q-22 23 -22 58q0 34 22 56.5t57 22.5q36 0 58 -22.5t22 -56.5q0 -35 -22 -58t-58 -23q-35 0 -57 23z" />
    <glyph glyph-name="uni1EA6" unicode="&#x1ea6;" horiz-adv-x="501" 
d="M363 0l-31 158h-166l-31 -158h-140l171 692h170l170 -692h-143zM186 261h126l-63 326zM141 724l-48 50l117 127h82l116 -127l-48 -50l-110 82zM57 1068l113 -165l-55 -45l-139 141z" />
    <glyph glyph-name="uni1EA8" unicode="&#x1ea8;" horiz-adv-x="501" 
d="M363 0l-31 158h-166l-31 -158h-140l171 692h170l170 -692h-143zM186 261h126l-63 326zM141 724l-48 50l117 127h82l116 -127l-48 -50l-110 82zM354 930q32 3 45 11.5t13 28.5q0 16 -8 24.5t-23 8.5q-14 0 -24.5 -3t-25.5 -10l-22 60q38 25 90 25q50 0 77 -26t27 -71
q0 -38 -18 -61t-51 -30v-44h-80v87z" />
    <glyph glyph-name="uni1EAA" unicode="&#x1eaa;" horiz-adv-x="501" 
d="M363 0l-31 158h-166l-31 -158h-140l171 692h170l170 -692h-143zM186 261h126l-63 326zM141 724l-48 50l117 127h82l116 -127l-48 -50l-110 82zM268.5 941.5q-13.5 6.5 -30.5 17.5q-21 16 -35 16t-23 -9t-21 -31l-65 28q16 45 43.5 72.5t62.5 27.5q18 0 31 -6t31 -17
q21 -16 36 -16q13 0 22 9t21 29l65 -27q-16 -47 -43.5 -73.5t-61.5 -26.5q-19 0 -32.5 6.5z" />
    <glyph glyph-name="uni0200" unicode="&#x200;" horiz-adv-x="501" 
d="M363 0l-31 158h-166l-31 -158h-140l171 692h170l170 -692h-143zM186 261h126l-63 326zM141 974l79 -188l-66 -32l-101 173zM287 974l72 -186l-67 -29l-95 171z" />
    <glyph glyph-name="Adieresis" unicode="&#xc4;" horiz-adv-x="501" 
d="M363 0l-31 158h-166l-31 -158h-140l171 692h170l170 -692h-143zM186 261h126l-63 326zM208.5 893.5q19.5 -20.5 19.5 -50.5t-19.5 -50.5t-49.5 -20.5q-29 0 -49 20.5t-20 50.5t20 50.5t49 20.5q30 0 49.5 -20.5zM400.5 893.5q19.5 -20.5 19.5 -50.5t-19.5 -50.5
t-49.5 -20.5q-29 0 -49.5 20.5t-20.5 50.5t20.5 50.5t49.5 20.5q30 0 49.5 -20.5z" />
    <glyph glyph-name="uni01DE" unicode="&#x1de;" horiz-adv-x="501" 
d="M363 0l-31 158h-166l-31 -158h-140l171 692h170l170 -692h-143zM186 261h126l-63 326zM205.5 867.5q19.5 -20.5 19.5 -50.5t-19.5 -50.5t-49.5 -20.5q-29 0 -49 20.5t-20 50.5t20 50.5t49 20.5q30 0 49.5 -20.5zM397.5 867.5q19.5 -20.5 19.5 -50.5t-19.5 -50.5
t-49.5 -20.5q-29 0 -49.5 20.5t-20.5 50.5t20.5 50.5t49.5 20.5q30 0 49.5 -20.5zM378 934h-252v93h252v-93z" />
    <glyph glyph-name="uni0226" unicode="&#x226;" horiz-adv-x="501" 
d="M363 0l-31 158h-166l-31 -158h-140l171 692h170l170 -692h-143zM186 261h126l-63 326zM308 903q22 -23 22 -58q0 -34 -22 -56.5t-57 -22.5q-36 0 -58 22.5t-22 56.5q0 35 22 58t58 23q35 0 57 -23z" />
    <glyph glyph-name="uni1EA0" unicode="&#x1ea0;" horiz-adv-x="501" 
d="M363 0l-31 158h-166l-31 -158h-140l171 692h170l170 -692h-143zM186 261h126l-63 326zM193 -203q-22 23 -22 58q0 34 22 56.5t57 22.5q36 0 58 -22.5t22 -56.5q0 -35 -22 -58t-58 -23q-35 0 -57 23z" />
    <glyph glyph-name="uni01E0" unicode="&#x1e0;" horiz-adv-x="501" 
d="M363 0l-31 158h-166l-31 -158h-140l171 692h170l170 -692h-143zM186 261h126l-63 326zM308 876q22 -23 22 -58q0 -34 -22 -56.5t-57 -22.5q-36 0 -58 22.5t-22 56.5q0 35 22 58t58 23q35 0 57 -23zM377 935h-252v93h252v-93z" />
    <glyph glyph-name="Agrave" unicode="&#xc0;" horiz-adv-x="501" 
d="M363 0l-31 158h-166l-31 -158h-140l171 692h170l170 -692h-143zM186 261h126l-63 326zM185 936l180 -117l-35 -67l-197 83z" />
    <glyph glyph-name="uni1EA2" unicode="&#x1ea2;" horiz-adv-x="501" 
d="M363 0l-31 158h-166l-31 -158h-140l171 692h170l170 -692h-143zM186 261h126l-63 326zM211 851q32 3 45 11.5t13 28.5q0 16 -8 24.5t-23 8.5q-14 0 -24.5 -3t-25.5 -10l-22 60q38 25 90 25q50 0 77 -26t27 -71q0 -38 -18 -61t-51 -30v-44h-80v87z" />
    <glyph glyph-name="uni0202" unicode="&#x202;" horiz-adv-x="501" 
d="M363 0l-31 158h-166l-31 -158h-140l171 692h170l170 -692h-143zM186 261h126l-63 326zM352.5 900q36.5 -42 41.5 -118l-74 -14q-16 80 -70 80q-53 0 -69 -80l-73 14q5 76 41 118t101 42q66 0 102.5 -42z" />
    <glyph glyph-name="uni2C6D" unicode="&#x2c6d;" horiz-adv-x="570" 
d="M524 108q8 -14 27 -22l-40 -101q-44 9 -71.5 25t-42.5 42q-25 -33 -59.5 -50t-81.5 -17q-103 0 -163.5 87t-60.5 261q0 122 29 206.5t79 126.5t113 42q82 0 133 -63l10 47h120v-545q0 -25 8 -39zM375 137v414q-19 25 -40 38t-50 13q-52 0 -79 -60t-27 -209
q0 -139 25.5 -192t76.5 -53q56 0 94 49z" />
    <glyph glyph-name="Amacron" unicode="&#x100;" horiz-adv-x="501" 
d="M363 0l-31 158h-166l-31 -158h-140l171 692h170l170 -692h-143zM186 261h126l-63 326zM377 787h-252v93h252v-93z" />
    <glyph glyph-name="Aogonek" unicode="&#x104;" horiz-adv-x="501" 
d="M358 -51.5q-20 -25.5 -20 -55.5q0 -47 44 -47q16 0 48 7l-8 -86q-31 -7 -57 -7q-56 0 -90.5 29t-34.5 81q0 96 119 152l-27 136h-166l-31 -158h-140l171 692h170l170 -692h-72q-56 -26 -76 -51.5zM186 261h126l-63 326z" />
    <glyph glyph-name="Aring" unicode="&#xc5;" horiz-adv-x="501" 
d="M363 0l-31 158h-166l-31 -158h-140l171 692h170l170 -692h-143zM186 261h126l-63 326zM336 949.5q31 -33.5 31 -89.5t-31 -89.5t-85 -33.5q-53 0 -84.5 34t-31.5 89t31.5 89t84.5 34q54 0 85 -33.5zM223.5 901.5q-9.5 -12.5 -9.5 -41.5q0 -30 9.5 -42.5t27.5 -12.5
q38 0 38 55q0 29 -9.5 41.5t-28.5 12.5q-18 0 -27.5 -12.5z" />
    <glyph glyph-name="Aringacute" unicode="&#x1fa;" horiz-adv-x="501" 
d="M363 0l-31 158h-166l-31 -158h-140l171 692h170l170 -692h-143zM186 261h126l-63 326zM335 935.5q31 -33.5 31 -89.5t-31 -89.5t-85 -33.5q-53 0 -84.5 34t-31.5 89t31.5 89t84.5 34q54 0 85 -33.5zM222.5 887.5q-9.5 -12.5 -9.5 -41.5q0 -30 9.5 -42.5t27.5 -12.5
q38 0 38 55q0 29 -9.5 41.5t-28.5 12.5q-18 0 -27.5 -12.5zM314 1161l52 -101l-197 -83l-35 68z" />
    <glyph glyph-name="uni023A" unicode="&#x23a;" horiz-adv-x="501" 
d="M378 0l-34 158h-94l-50 -231l-48 11l48 220h-46l-33 -158h-126l171 692h151l13 61l48 -10l-26 -118l154 -625h-128zM175 255h46l52 238l-24 113zM272 255h52l-26 121z" />
    <glyph glyph-name="Atilde" unicode="&#xc3;" horiz-adv-x="501" 
d="M363 0l-31 158h-166l-31 -158h-140l171 692h170l170 -692h-143zM186 261h126l-63 326zM270.5 778.5q-13.5 6.5 -31.5 18.5q-11 9 -19 13t-16 4q-14 0 -23 -9.5t-21 -32.5l-65 30q16 48 43.5 76.5t62.5 28.5q18 0 30.5 -6t31.5 -18q11 -9 19 -13t17 -4q13 0 22.5 9.5
t20.5 30.5l65 -29q-16 -50 -43.5 -77.5t-61.5 -27.5q-18 0 -31.5 6.5z" />
    <glyph glyph-name="AE" unicode="&#xc6;" horiz-adv-x="696" 
d="M483 104h190v-104h-308l-21 158h-172l-42 -158h-148l223 692h437l-14 -103h-218l28 -188h197v-102h-181zM200 261h130l-43 326z" />
    <glyph glyph-name="AEacute" unicode="&#x1fc;" horiz-adv-x="696" 
d="M483 104h190v-104h-308l-21 158h-172l-42 -158h-148l223 692h437l-14 -103h-218l28 -188h197v-102h-181zM200 261h130l-43 326zM461 936l52 -101l-197 -83l-35 68z" />
    <glyph glyph-name="uni01E2" unicode="&#x1e2;" horiz-adv-x="696" 
d="M483 104h190v-104h-308l-21 158h-172l-42 -158h-148l223 692h437l-14 -103h-218l28 -188h197v-102h-181zM200 261h130l-43 326zM524 787h-252v93h252v-93z" />
    <glyph glyph-name="B" unicode="B" horiz-adv-x="510" 
d="M452.5 313q38.5 -39 38.5 -113q0 -102 -68.5 -151t-186.5 -49h-183v692h160q121 0 187.5 -45t66.5 -132q0 -58 -32.5 -96t-85.5 -53q65 -14 103.5 -53zM195 590v-180h36q49 0 71 23.5t22 68.5t-23.5 66.5t-74.5 21.5h-31zM318.5 128.5q27.5 23.5 27.5 77.5q0 55 -25.5 81
t-80.5 26h-45v-208h42q54 0 81.5 23.5z" />
    <glyph glyph-name="uni1E02" unicode="&#x1e02;" horiz-adv-x="510" 
d="M452.5 313q38.5 -39 38.5 -113q0 -102 -68.5 -151t-186.5 -49h-183v692h160q121 0 187.5 -45t66.5 -132q0 -58 -32.5 -96t-85.5 -53q65 -14 103.5 -53zM195 590v-180h36q49 0 71 23.5t22 68.5t-23.5 66.5t-74.5 21.5h-31zM318.5 128.5q27.5 23.5 27.5 77.5q0 55 -25.5 81
t-80.5 26h-45v-208h42q54 0 81.5 23.5zM302 903q22 -23 22 -58q0 -34 -22 -56.5t-57 -22.5q-36 0 -58 22.5t-22 56.5q0 35 22 58t58 23q35 0 57 -23z" />
    <glyph glyph-name="uni1E04" unicode="&#x1e04;" horiz-adv-x="510" 
d="M452.5 313q38.5 -39 38.5 -113q0 -102 -68.5 -151t-186.5 -49h-183v692h160q121 0 187.5 -45t66.5 -132q0 -58 -32.5 -96t-85.5 -53q65 -14 103.5 -53zM195 590v-180h36q49 0 71 23.5t22 68.5t-23.5 66.5t-74.5 21.5h-31zM318.5 128.5q27.5 23.5 27.5 77.5q0 55 -25.5 81
t-80.5 26h-45v-208h42q54 0 81.5 23.5zM201 -203q-22 23 -22 58q0 34 22 56.5t57 22.5q36 0 58 -22.5t22 -56.5q0 -35 -22 -58t-58 -23q-35 0 -57 23z" />
    <glyph glyph-name="uniA7B4" unicode="&#xa7b4;" horiz-adv-x="510" 
d="M452.5 314q38.5 -38 38.5 -112q0 -69 -30.5 -114t-80 -66.5t-107.5 -21.5q-40 0 -78 8v-216h-142v900h162q121 0 186.5 -45t65.5 -132q0 -59 -32.5 -96.5t-85.5 -52.5q65 -14 103.5 -52zM346 211q0 54 -23.5 78t-73.5 24h-14l8 97h8q36 0 54.5 22.5t18.5 67.5
q0 47 -23 68.5t-73 21.5h-33v-481q23 -4 54 -4q97 0 97 106z" />
    <glyph glyph-name="uni0181" unicode="&#x181;" horiz-adv-x="629" 
d="M570.5 313q38.5 -39 38.5 -113q0 -102 -68.5 -151t-186.5 -49h-183v589h-18q-40 0 -40 -44q0 -32 17 -71l-87 -38q-19 28 -29 56.5t-10 65.5q0 61 39.5 97.5t114.5 36.5h173q121 0 187.5 -45t66.5 -132q0 -58 -32.5 -96t-85.5 -53q65 -14 103.5 -53zM313 590v-180h36
q49 0 71 23.5t22 68.5t-23.5 66.5t-74.5 21.5h-31zM436.5 128.5q27.5 23.5 27.5 77.5q0 55 -25.5 81t-80.5 26h-45v-208h42q54 0 81.5 23.5z" />
    <glyph glyph-name="uni0181.ss02" horiz-adv-x="497" 
d="M421.5 387q59.5 -54 59.5 -161q0 -115 -62 -170.5t-178 -55.5h-188v692h361l-14 -109h-205v-142h55q112 0 171.5 -54zM311.5 132q22.5 27 22.5 93q0 60 -23.5 87.5t-74.5 27.5h-41v-235h43q51 0 73.5 27z" />
    <glyph glyph-name="uni0243" unicode="&#x243;" horiz-adv-x="522" 
d="M464.5 313q38.5 -39 38.5 -113q0 -102 -68.5 -151t-186.5 -49h-183v174h-50v74h50v444h160q121 0 187.5 -45t66.5 -132q0 -58 -32.5 -96t-85.5 -53q65 -14 103.5 -53zM207 590v-180h36q49 0 71 23.5t22 68.5t-23.5 66.5t-74.5 21.5h-31zM330.5 128.5q27.5 23.5 27.5 77.5
q0 55 -25.5 81t-80.5 26h-45v-65h86v-74h-86v-69h42q54 0 81.5 23.5z" />
    <glyph glyph-name="uni0182" unicode="&#x182;" horiz-adv-x="497" 
d="M421.5 387q59.5 -54 59.5 -161q0 -115 -62 -170.5t-178 -55.5h-188v692h361l-14 -109h-205v-142h55q112 0 171.5 -54zM311.5 132q22.5 27 22.5 93q0 60 -23.5 87.5t-74.5 27.5h-41v-235h43q51 0 73.5 27z" />
    <glyph glyph-name="C" unicode="C" horiz-adv-x="480" 
d="M387.5 689.5q42.5 -18.5 81.5 -55.5l-67 -79q-25 23 -49.5 34.5t-52.5 11.5q-57 0 -89 -58.5t-32 -195.5q0 -134 32 -193t90 -59q31 0 54.5 12.5t53.5 38.5l66 -77q-79 -85 -184 -85q-119 0 -189 91.5t-70 271.5q0 119 33 200t91.5 121t134.5 40q54 0 96.5 -18.5z" />
    <glyph glyph-name="Cacute" unicode="&#x106;" horiz-adv-x="480" 
d="M387.5 689.5q42.5 -18.5 81.5 -55.5l-67 -79q-25 23 -49.5 34.5t-52.5 11.5q-57 0 -89 -58.5t-32 -195.5q0 -134 32 -193t90 -59q31 0 54.5 12.5t53.5 38.5l66 -77q-79 -85 -184 -85q-119 0 -189 91.5t-70 271.5q0 119 33 200t91.5 121t134.5 40q54 0 96.5 -18.5z
M361 936l52 -101l-197 -83l-35 68z" />
    <glyph glyph-name="Cacute.loclPLK" horiz-adv-x="480" 
d="M387.5 689.5q42.5 -18.5 81.5 -55.5l-67 -79q-25 23 -49.5 34.5t-52.5 11.5q-57 0 -89 -58.5t-32 -195.5q0 -134 32 -193t90 -59q31 0 54.5 12.5t53.5 38.5l66 -77q-79 -85 -184 -85q-119 0 -189 91.5t-70 271.5q0 119 33 200t91.5 121t134.5 40q54 0 96.5 -18.5z
M315 952l100 -59l-117 -154l-61 37z" />
    <glyph glyph-name="Ccaron" unicode="&#x10c;" horiz-adv-x="480" 
d="M387.5 689.5q42.5 -18.5 81.5 -55.5l-67 -79q-25 23 -49.5 34.5t-52.5 11.5q-57 0 -89 -58.5t-32 -195.5q0 -134 32 -193t90 -59q31 0 54.5 12.5t53.5 38.5l66 -77q-79 -85 -184 -85q-119 0 -189 91.5t-70 271.5q0 119 33 200t91.5 121t134.5 40q54 0 96.5 -18.5z
M408 928l48 -50l-117 -127h-82l-116 127l48 50l109 -82z" />
    <glyph glyph-name="Ccedilla" unicode="&#xc7;" horiz-adv-x="480" 
d="M322 -14v-41q86 -14 86 -92q0 -49 -33.5 -78.5t-90.5 -29.5q-54 0 -94 28l32 61q27 -12 52 -12q37 0 37 32q0 20 -18 29t-58 9l11 96q-100 16 -157 106.5t-57 252.5q0 119 33 200t91.5 121t134.5 40q54 0 96.5 -18.5t81.5 -55.5l-67 -79q-25 23 -49.5 34.5t-52.5 11.5
q-57 0 -89 -58.5t-32 -195.5q0 -134 32 -193t90 -59q31 0 54.5 12.5t53.5 38.5l66 -77q-68 -72 -153 -83z" />
    <glyph glyph-name="Ccircumflex" unicode="&#x108;" horiz-adv-x="480" 
d="M387.5 689.5q42.5 -18.5 81.5 -55.5l-67 -79q-25 23 -49.5 34.5t-52.5 11.5q-57 0 -89 -58.5t-32 -195.5q0 -134 32 -193t90 -59q31 0 54.5 12.5t53.5 38.5l66 -77q-79 -85 -184 -85q-119 0 -189 91.5t-70 271.5q0 119 33 200t91.5 121t134.5 40q54 0 96.5 -18.5z
M188 760l-48 50l117 127h82l116 -127l-48 -50l-110 82z" />
    <glyph glyph-name="Cdotaccent" unicode="&#x10a;" horiz-adv-x="480" 
d="M387.5 689.5q42.5 -18.5 81.5 -55.5l-67 -79q-25 23 -49.5 34.5t-52.5 11.5q-57 0 -89 -58.5t-32 -195.5q0 -134 32 -193t90 -59q31 0 54.5 12.5t53.5 38.5l66 -77q-79 -85 -184 -85q-119 0 -189 91.5t-70 271.5q0 119 33 200t91.5 121t134.5 40q54 0 96.5 -18.5z
M355 903q22 -23 22 -58q0 -34 -22 -56.5t-57 -22.5q-36 0 -58 22.5t-22 56.5q0 35 22 58t58 23q35 0 57 -23z" />
    <glyph glyph-name="uniA7B3" unicode="&#xa7b3;" horiz-adv-x="473" 
d="M319 301l158 -452h-151l-93 356l-90 -356h-148l153 446l-141 397h151l77 -308l81 308h146z" />
    <glyph glyph-name="uni0187" unicode="&#x187;" horiz-adv-x="480" 
d="M603 810l-40 -82q-16 9 -27.5 13t-25.5 4q-21 0 -31 -13t-10 -41v-57l-63 -75q-28 21 -53 31.5t-53 10.5q-57 0 -89 -58.5t-32 -195.5q0 -134 32 -193t90 -59q31 0 54.5 12.5t53.5 38.5l66 -77q-79 -85 -184 -85q-119 0 -189 91.5t-70 271.5q0 118 33 199.5t88.5 121.5
t123.5 40q39 0 73 -17v9q0 70 37 108.5t101 38.5q62 0 115 -37z" />
    <glyph glyph-name="uni023B" unicode="&#x23b;" horiz-adv-x="480" 
d="M475 69q-79 -85 -184 -85q-34 0 -62 7l-14 -64l-49 11l15 70q-71 36 -110 121t-39 218q0 119 33 200t91.5 121t134.5 40q21 0 42 -3l10 48l50 -10l-11 -51q43 -18 87 -58l-67 -79q-24 22 -43 31l-105 -480q22 -11 47 -11q31 0 54.5 12.5t53.5 38.5zM212 151l98 450h-10
q-57 0 -89 -58.5t-32 -195.5q0 -133 33 -196z" />
    <glyph glyph-name="D" unicode="D" horiz-adv-x="545" 
d="M369 665.5q64 -26.5 104 -102t40 -214.5q0 -195 -77.5 -272t-206.5 -77h-176v692h164q88 0 152 -26.5zM195 588v-484h42q42 0 70.5 20.5t44.5 74.5t16 150q0 98 -16.5 150t-44.5 70.5t-70 18.5h-42z" />
    <glyph glyph-name="uni01F1" unicode="&#x1f1;" horiz-adv-x="964" 
d="M369 665.5q64 -26.5 104 -102t40 -214.5q0 -195 -77.5 -272t-206.5 -77h-176v692h164q88 0 152 -26.5zM195 588v-484h42q42 0 70.5 20.5t44.5 74.5t16 150q0 98 -16.5 150t-44.5 70.5t-70 18.5h-42zM944 692v-108l-258 -470h262l-14 -114h-401v107l258 474h-233v111h386z
" />
    <glyph glyph-name="uni01C4" unicode="&#x1c4;" horiz-adv-x="964" 
d="M369 665.5q64 -26.5 104 -102t40 -214.5q0 -195 -77.5 -272t-206.5 -77h-176v692h164q88 0 152 -26.5zM195 588v-484h42q42 0 70.5 20.5t44.5 74.5t16 150q0 98 -16.5 150t-44.5 70.5t-70 18.5h-42zM944 692v-108l-258 -470h262l-14 -114h-401v107l258 474h-233v111h386z
M857 928l48 -50l-117 -127h-82l-116 127l48 50l109 -82z" />
    <glyph glyph-name="uni0189" unicode="&#x189;" horiz-adv-x="562" 
d="M386 665.5q64 -26.5 104 -102t40 -214.5q0 -195 -77.5 -272t-206.5 -77h-176v309h-55v88h55v295h164q88 0 152 -26.5zM324.5 124.5q28.5 20.5 44.5 74.5t16 150q0 98 -16.5 150t-44.5 70.5t-70 18.5h-42v-191h91v-88h-91v-205h42q42 0 70.5 20.5z" />
    <glyph glyph-name="Eth" unicode="&#xd0;" horiz-adv-x="562" 
d="M386 665.5q64 -26.5 104 -102t40 -214.5q0 -195 -77.5 -272t-206.5 -77h-176v309h-55v88h55v295h164q88 0 152 -26.5zM324.5 124.5q28.5 20.5 44.5 74.5t16 150q0 98 -16.5 150t-44.5 70.5t-70 18.5h-42v-191h91v-88h-91v-205h42q42 0 70.5 20.5z" />
    <glyph glyph-name="Dcaron" unicode="&#x10e;" horiz-adv-x="545" 
d="M369 665.5q64 -26.5 104 -102t40 -214.5q0 -195 -77.5 -272t-206.5 -77h-176v692h164q88 0 152 -26.5zM195 588v-484h42q42 0 70.5 20.5t44.5 74.5t16 150q0 98 -16.5 150t-44.5 70.5t-70 18.5h-42zM356 928l48 -50l-117 -127h-82l-116 127l48 50l109 -82z" />
    <glyph glyph-name="uni1E12" unicode="&#x1e12;" horiz-adv-x="545" 
d="M369 665.5q64 -26.5 104 -102t40 -214.5q0 -195 -77.5 -272t-206.5 -77h-176v692h164q88 0 152 -26.5zM195 588v-484h42q42 0 70.5 20.5t44.5 74.5t16 150q0 98 -16.5 150t-44.5 70.5t-70 18.5h-42zM145 -248l-48 50l117 133h82l116 -133l-48 -50l-110 89z" />
    <glyph glyph-name="Dcroat" unicode="&#x110;" horiz-adv-x="562" 
d="M386 665.5q64 -26.5 104 -102t40 -214.5q0 -195 -77.5 -272t-206.5 -77h-176v309h-55v88h55v295h164q88 0 152 -26.5zM324.5 124.5q28.5 20.5 44.5 74.5t16 150q0 98 -16.5 150t-44.5 70.5t-70 18.5h-42v-191h91v-88h-91v-205h42q42 0 70.5 20.5z" />
    <glyph glyph-name="uni1E0A" unicode="&#x1e0a;" horiz-adv-x="545" 
d="M369 665.5q64 -26.5 104 -102t40 -214.5q0 -195 -77.5 -272t-206.5 -77h-176v692h164q88 0 152 -26.5zM195 588v-484h42q42 0 70.5 20.5t44.5 74.5t16 150q0 98 -16.5 150t-44.5 70.5t-70 18.5h-42zM303 903q22 -23 22 -58q0 -34 -22 -56.5t-57 -22.5q-36 0 -58 22.5
t-22 56.5q0 35 22 58t58 23q35 0 57 -23z" />
    <glyph glyph-name="uni1E0C" unicode="&#x1e0c;" horiz-adv-x="545" 
d="M369 665.5q64 -26.5 104 -102t40 -214.5q0 -195 -77.5 -272t-206.5 -77h-176v692h164q88 0 152 -26.5zM195 588v-484h42q42 0 70.5 20.5t44.5 74.5t16 150q0 98 -16.5 150t-44.5 70.5t-70 18.5h-42zM198 -203q-22 23 -22 58q0 34 22 56.5t57 22.5q36 0 58 -22.5t22 -56.5
q0 -35 -22 -58t-58 -23q-35 0 -57 23z" />
    <glyph glyph-name="uni018A" unicode="&#x18a;" horiz-adv-x="664" 
d="M487 665.5q64 -26.5 104 -102t40 -214.5q0 -195 -77.5 -272t-206.5 -77h-176v589h-18q-40 0 -40 -44q0 -32 17 -71l-87 -38q-19 28 -29 56.5t-10 65.5q0 61 39.5 97.5t114.5 36.5h177q88 0 152 -26.5zM425.5 124.5q28.5 20.5 44.5 74.5t16 150q0 98 -16.5 150t-44.5 70.5
t-70 18.5h-42v-484h42q42 0 70.5 20.5z" />
    <glyph glyph-name="uni1E0E" unicode="&#x1e0e;" horiz-adv-x="545" 
d="M369 665.5q64 -26.5 104 -102t40 -214.5q0 -195 -77.5 -272t-206.5 -77h-176v692h164q88 0 152 -26.5zM195 588v-484h42q42 0 70.5 20.5t44.5 74.5t16 150q0 98 -16.5 150t-44.5 70.5t-70 18.5h-42zM382 -183h-252v93h252v-93z" />
    <glyph glyph-name="uni018B" unicode="&#x18b;" horiz-adv-x="497" 
d="M443 0h-184q-243 0 -243 221q0 107 61 163.5t177 56.5h48v142h-214v109h355v-692zM302 105v235h-35q-56 0 -80 -28t-24 -91q0 -64 24 -90t79 -26h36z" />
    <glyph glyph-name="uni01F2" unicode="&#x1f2;" horiz-adv-x="915" 
d="M369 665.5q64 -26.5 104 -102t40 -214.5q0 -195 -77.5 -272t-206.5 -77h-176v692h164q88 0 152 -26.5zM195 588v-484h42q42 0 70.5 20.5t44.5 74.5t16 150q0 98 -16.5 150t-44.5 70.5t-70 18.5h-42zM898 530v-97l-205 -327h209l-12 -106h-344v98l205 327h-187v105h334z
" />
    <glyph glyph-name="uni01C5" unicode="&#x1c5;" horiz-adv-x="915" 
d="M369 665.5q64 -26.5 104 -102t40 -214.5q0 -195 -77.5 -272t-206.5 -77h-176v692h164q88 0 152 -26.5zM195 588v-484h42q42 0 70.5 20.5t44.5 74.5t16 150q0 98 -16.5 150t-44.5 70.5t-70 18.5h-42zM898 530v-97l-205 -327h209l-12 -106h-344v98l205 327h-187v105h334z
M839 801l48 -51l-116 -133h-83l-116 133l48 51l109 -91z" />
    <glyph glyph-name="E" unicode="E" horiz-adv-x="433" 
d="M408 692l-15 -103h-198v-186h173v-102h-173v-197h211v-104h-353v692h355z" />
    <glyph glyph-name="Eacute" unicode="&#xc9;" horiz-adv-x="433" 
d="M408 692l-15 -103h-198v-186h173v-102h-173v-197h211v-104h-353v692h355zM294 936l52 -101l-197 -83l-35 68z" />
    <glyph glyph-name="Ebreve" unicode="&#x114;" horiz-adv-x="433" 
d="M408 692l-15 -103h-198v-186h173v-102h-173v-197h211v-104h-353v692h355zM129.5 793.5q-36.5 40.5 -41.5 108.5l73 15q16 -67 69 -67q56 0 70 67l74 -15q-5 -68 -42 -108.5t-102 -40.5q-64 0 -100.5 40.5z" />
    <glyph glyph-name="Ecaron" unicode="&#x11a;" horiz-adv-x="433" 
d="M408 692l-15 -103h-198v-186h173v-102h-173v-197h211v-104h-353v692h355zM341 928l48 -50l-117 -127h-82l-116 127l48 50l109 -82z" />
    <glyph glyph-name="uni0228" unicode="&#x228;" horiz-adv-x="433" 
d="M195 104h211v-104h-142v-55q86 -14 86 -92q0 -49 -33.5 -78.5t-90.5 -29.5q-54 0 -94 28l32 61q27 -12 52 -12q37 0 37 32q0 20 -18 29t-58 9l12 108h-136v692h355l-15 -103h-198v-186h173v-102h-173v-197z" />
    <glyph glyph-name="Ecircumflex" unicode="&#xca;" horiz-adv-x="433" 
d="M408 692l-15 -103h-198v-186h173v-102h-173v-197h211v-104h-353v692h355zM121 760l-48 50l117 127h82l116 -127l-48 -50l-110 82z" />
    <glyph glyph-name="uni1EBE" unicode="&#x1ebe;" horiz-adv-x="433" 
d="M408 692l-15 -103h-198v-186h173v-102h-173v-197h211v-104h-353v692h355zM122 724l-48 50l117 127h82l116 -127l-48 -50l-110 82zM427 1068l81 -69l-140 -141l-53 45z" />
    <glyph glyph-name="uni1EC6" unicode="&#x1ec6;" horiz-adv-x="433" 
d="M408 692l-15 -103h-198v-186h173v-102h-173v-197h211v-104h-353v692h355zM121 760l-48 50l117 127h82l116 -127l-48 -50l-110 82zM171 -203q-22 23 -22 58q0 34 22 56.5t57 22.5q36 0 58 -22.5t22 -56.5q0 -35 -22 -58t-58 -23q-35 0 -57 23z" />
    <glyph glyph-name="uni1EC0" unicode="&#x1ec0;" horiz-adv-x="433" 
d="M408 692l-15 -103h-198v-186h173v-102h-173v-197h211v-104h-353v692h355zM121 724l-48 50l117 127h82l116 -127l-48 -50l-110 82zM37 1068l113 -165l-55 -45l-139 141z" />
    <glyph glyph-name="uni1EC2" unicode="&#x1ec2;" horiz-adv-x="433" 
d="M408 692l-15 -103h-198v-186h173v-102h-173v-197h211v-104h-353v692h355zM121 724l-48 50l117 127h82l116 -127l-48 -50l-110 82zM334 930q32 3 45 11.5t13 28.5q0 16 -8 24.5t-23 8.5q-14 0 -24.5 -3t-25.5 -10l-22 60q38 25 90 25q50 0 77 -26t27 -71q0 -38 -18 -61
t-51 -30v-44h-80v87z" />
    <glyph glyph-name="uni1EC4" unicode="&#x1ec4;" horiz-adv-x="433" 
d="M408 692l-15 -103h-198v-186h173v-102h-173v-197h211v-104h-353v692h355zM121 724l-48 50l117 127h82l116 -127l-48 -50l-110 82zM248.5 941.5q-13.5 6.5 -30.5 17.5q-21 16 -35 16t-23 -9t-21 -31l-65 28q16 45 43.5 72.5t62.5 27.5q18 0 31 -6t31 -17q21 -16 36 -16
q13 0 22 9t21 29l65 -27q-16 -47 -43.5 -73.5t-61.5 -26.5q-19 0 -32.5 6.5z" />
    <glyph glyph-name="uni0204" unicode="&#x204;" horiz-adv-x="433" 
d="M408 692l-15 -103h-198v-186h173v-102h-173v-197h211v-104h-353v692h355zM121 974l79 -188l-66 -32l-101 173zM267 974l72 -186l-67 -29l-95 171z" />
    <glyph glyph-name="Edieresis" unicode="&#xcb;" horiz-adv-x="433" 
d="M408 692l-15 -103h-198v-186h173v-102h-173v-197h211v-104h-353v692h355zM188.5 893.5q19.5 -20.5 19.5 -50.5t-19.5 -50.5t-49.5 -20.5q-29 0 -49 20.5t-20 50.5t20 50.5t49 20.5q30 0 49.5 -20.5zM380.5 893.5q19.5 -20.5 19.5 -50.5t-19.5 -50.5t-49.5 -20.5
q-29 0 -49.5 20.5t-20.5 50.5t20.5 50.5t49.5 20.5q30 0 49.5 -20.5z" />
    <glyph glyph-name="Edotaccent" unicode="&#x116;" horiz-adv-x="433" 
d="M408 692l-15 -103h-198v-186h173v-102h-173v-197h211v-104h-353v692h355zM288 903q22 -23 22 -58q0 -34 -22 -56.5t-57 -22.5q-36 0 -58 22.5t-22 56.5q0 35 22 58t58 23q35 0 57 -23z" />
    <glyph glyph-name="uni1EB8" unicode="&#x1eb8;" horiz-adv-x="433" 
d="M408 692l-15 -103h-198v-186h173v-102h-173v-197h211v-104h-353v692h355zM171 -203q-22 23 -22 58q0 34 22 56.5t57 22.5q36 0 58 -22.5t22 -56.5q0 -35 -22 -58t-58 -23q-35 0 -57 23z" />
    <glyph glyph-name="Egrave" unicode="&#xc8;" horiz-adv-x="433" 
d="M408 692l-15 -103h-198v-186h173v-102h-173v-197h211v-104h-353v692h355zM165 936l180 -117l-35 -67l-197 83z" />
    <glyph glyph-name="uni1EBA" unicode="&#x1eba;" horiz-adv-x="433" 
d="M408 692l-15 -103h-198v-186h173v-102h-173v-197h211v-104h-353v692h355zM191 851q32 3 45 11.5t13 28.5q0 16 -8 24.5t-23 8.5q-14 0 -24.5 -3t-25.5 -10l-22 60q38 25 90 25q50 0 77 -26t27 -71q0 -38 -18 -61t-51 -30v-44h-80v87z" />
    <glyph glyph-name="uni0206" unicode="&#x206;" horiz-adv-x="433" 
d="M408 692l-15 -103h-198v-186h173v-102h-173v-197h211v-104h-353v692h355zM332.5 900q36.5 -42 41.5 -118l-74 -14q-16 80 -70 80q-53 0 -69 -80l-73 14q5 76 41 118t101 42q66 0 102.5 -42z" />
    <glyph glyph-name="Emacron" unicode="&#x112;" horiz-adv-x="433" 
d="M408 692l-15 -103h-198v-186h173v-102h-173v-197h211v-104h-353v692h355zM357 787h-252v93h252v-93z" />
    <glyph glyph-name="Eogonek" unicode="&#x118;" horiz-adv-x="433" 
d="M195 104h211v-104h-32q-56 -26 -76 -51.5t-20 -55.5q0 -47 44 -47q17 0 48 7l-8 -86q-31 -7 -57 -7q-56 0 -90.5 29t-34.5 81q0 78 79 130h-206v692h355l-15 -103h-198v-186h173v-102h-173v-197z" />
    <glyph glyph-name="uni0190" unicode="&#x190;" horiz-adv-x="446" 
d="M343.5 685.5q46.5 -22.5 87.5 -67.5l-66 -70q-57 55 -108 55q-39 0 -57.5 -25t-18.5 -65q0 -46 22.5 -71t65.5 -25h57l-16 -104h-44q-50 0 -74.5 -28.5t-24.5 -81.5q0 -55 24 -83t68 -28q33 0 59.5 14t55.5 44l75 -69q-75 -96 -203 -96q-66 0 -117.5 25.5t-80.5 73
t-29 112.5q0 76 39 119.5t107 52.5q-65 16 -97 56t-32 102q0 51 25.5 92.5t72 65.5t105.5 24q58 0 104.5 -22.5z" />
    <glyph glyph-name="uni018E" unicode="&#x18e;" horiz-adv-x="433" 
d="M31 692h348v-692h-352v104h211v197h-173v102h173v186h-207v103z" />
    <glyph glyph-name="uni01A9" unicode="&#x1a9;" horiz-adv-x="413" 
d="M397 692v-105h-237l146 -214v-63l-150 -203h241v-107h-381v105l170 235l-170 248v104h381z" />
    <glyph glyph-name="uni0246" unicode="&#x246;" horiz-adv-x="433" 
d="M288 301l-40 -197h158v-104h-179l-15 -73l-48 11l13 62h-124v692h266l12 61l48 -9l-11 -52h40l-15 -103h-46l-38 -186h59v-102h-80zM195 589v-186h64l38 186h-102zM195 104h3l40 197h-43v-197z" />
    <glyph glyph-name="uni1EBC" unicode="&#x1ebc;" horiz-adv-x="433" 
d="M408 692l-15 -103h-198v-186h173v-102h-173v-197h211v-104h-353v692h355zM250.5 778.5q-13.5 6.5 -31.5 18.5q-11 9 -19 13t-16 4q-14 0 -23 -9.5t-21 -32.5l-65 30q16 48 43.5 76.5t62.5 28.5q18 0 30.5 -6t31.5 -18q11 -9 19 -13t17 -4q13 0 22.5 9.5t20.5 30.5l65 -29
q-16 -50 -43.5 -77.5t-61.5 -27.5q-18 0 -31.5 6.5z" />
    <glyph glyph-name="uni01B7" unicode="&#x1b7;" horiz-adv-x="446" 
d="M383 346q47 -50 47 -143q0 -63 -27 -112.5t-78.5 -77.5t-122.5 -28q-68 0 -116.5 24.5t-84.5 73.5l76 65q29 -30 54.5 -43.5t59.5 -13.5q45 0 69 30t24 87q0 58 -25 82t-79 24h-77v84l154 189h-222v105h365v-102l-157 -190q93 -4 140 -54z" />
    <glyph glyph-name="uni01EE" unicode="&#x1ee;" horiz-adv-x="446" 
d="M383 346q47 -50 47 -143q0 -63 -27 -112.5t-78.5 -77.5t-122.5 -28q-68 0 -116.5 24.5t-84.5 73.5l76 65q29 -30 54.5 -43.5t59.5 -13.5q45 0 69 30t24 87q0 58 -25 82t-79 24h-77v84l154 189h-222v105h365v-102l-157 -190q93 -4 140 -54zM327 928l48 -50l-117 -127h-82
l-116 127l48 50l109 -82z" />
    <glyph glyph-name="uni01B8" unicode="&#x1b8;" horiz-adv-x="446" 
d="M445 83q-37 -49 -86 -73.5t-116 -24.5q-71 0 -122 27t-78 76t-27 112q0 93 47 143.5t140 56.5l-157 190v102h365v-105h-222l154 -189v-84h-77q-54 0 -79 -25.5t-25 -85.5q0 -55 23 -83.5t67 -28.5q34 0 60 13.5t57 43.5z" />
    <glyph glyph-name="F" unicode="F" horiz-adv-x="403" 
d="M53 0v692h344l-15 -103h-187v-202h163v-103h-163v-284h-142z" />
    <glyph glyph-name="uni1E1E" unicode="&#x1e1e;" horiz-adv-x="403" 
d="M53 0v692h344l-15 -103h-187v-202h163v-103h-163v-284h-142zM290 903q22 -23 22 -58q0 -34 -22 -56.5t-57 -22.5q-36 0 -58 22.5t-22 56.5q0 35 22 58t58 23q35 0 57 -23z" />
    <glyph glyph-name="uni0191" unicode="&#x191;" horiz-adv-x="403" 
d="M195 589v-202h163v-103h-163v-339q0 -81 -46 -122.5t-121 -41.5q-71 0 -121 41l49 81q15 -9 26.5 -13t28.5 -4q42 0 42 51v755h344l-15 -103h-187z" />
    <glyph glyph-name="G" unicode="G" horiz-adv-x="541" 
d="M412.5 686.5q46.5 -21.5 86.5 -61.5l-69 -71q-30 26 -57 37.5t-60 11.5q-65 0 -100 -57.5t-35 -199.5q0 -100 12.5 -156t36.5 -78t64 -22t77 24v177h-73l-14 102h220v-339q-44 -33 -98.5 -51t-109.5 -18q-132 0 -196.5 87.5t-64.5 274.5q0 120 36 201t98 120.5t141 39.5
q59 0 105.5 -21.5z" />
    <glyph glyph-name="uni01F4" unicode="&#x1f4;" horiz-adv-x="541" 
d="M412.5 686.5q46.5 -21.5 86.5 -61.5l-69 -71q-30 26 -57 37.5t-60 11.5q-65 0 -100 -57.5t-35 -199.5q0 -100 12.5 -156t36.5 -78t64 -22t77 24v177h-73l-14 102h220v-339q-44 -33 -98.5 -51t-109.5 -18q-132 0 -196.5 87.5t-64.5 274.5q0 120 36 201t98 120.5t141 39.5
q59 0 105.5 -21.5zM357 936l52 -101l-197 -83l-35 68z" />
    <glyph glyph-name="uni0194" unicode="&#x194;" horiz-adv-x="484" 
d="M316 84q29 -60 42 -101.5t13 -84.5q0 -117 -127 -117q-64 0 -95.5 30.5t-31.5 85.5q0 39 13 80t43 107l-178 608h142l107 -517l107 517h138zM262.5 -52q-5.5 22 -18.5 59q-12 -34 -18 -58t-6 -44q0 -31 24 -31t24 32q0 20 -5.5 42z" />
    <glyph glyph-name="Gbreve" unicode="&#x11e;" horiz-adv-x="541" 
d="M412.5 686.5q46.5 -21.5 86.5 -61.5l-69 -71q-30 26 -57 37.5t-60 11.5q-65 0 -100 -57.5t-35 -199.5q0 -100 12.5 -156t36.5 -78t64 -22t77 24v177h-73l-14 102h220v-339q-44 -33 -98.5 -51t-109.5 -18q-132 0 -196.5 87.5t-64.5 274.5q0 120 36 201t98 120.5t141 39.5
q59 0 105.5 -21.5zM192.5 793.5q-36.5 40.5 -41.5 108.5l73 15q16 -67 69 -67q56 0 70 67l74 -15q-5 -68 -42 -108.5t-102 -40.5q-64 0 -100.5 40.5z" />
    <glyph glyph-name="Gcaron" unicode="&#x1e6;" horiz-adv-x="541" 
d="M412.5 686.5q46.5 -21.5 86.5 -61.5l-69 -71q-30 26 -57 37.5t-60 11.5q-65 0 -100 -57.5t-35 -199.5q0 -100 12.5 -156t36.5 -78t64 -22t77 24v177h-73l-14 102h220v-339q-44 -33 -98.5 -51t-109.5 -18q-132 0 -196.5 87.5t-64.5 274.5q0 120 36 201t98 120.5t141 39.5
q59 0 105.5 -21.5zM404 928l48 -50l-117 -127h-82l-116 127l48 50l109 -82z" />
    <glyph glyph-name="Gcircumflex" unicode="&#x11c;" horiz-adv-x="541" 
d="M412.5 686.5q46.5 -21.5 86.5 -61.5l-69 -71q-30 26 -57 37.5t-60 11.5q-65 0 -100 -57.5t-35 -199.5q0 -100 12.5 -156t36.5 -78t64 -22t77 24v177h-73l-14 102h220v-339q-44 -33 -98.5 -51t-109.5 -18q-132 0 -196.5 87.5t-64.5 274.5q0 120 36 201t98 120.5t141 39.5
q59 0 105.5 -21.5zM184 760l-48 50l117 127h82l116 -127l-48 -50l-110 82z" />
    <glyph glyph-name="Gcommaaccent" unicode="&#x122;" horiz-adv-x="541" 
d="M412.5 686.5q46.5 -21.5 86.5 -61.5l-69 -71q-30 26 -57 37.5t-60 11.5q-65 0 -100 -57.5t-35 -199.5q0 -100 12.5 -156t36.5 -78t64 -22t77 24v177h-73l-14 102h220v-339q-44 -33 -98.5 -51t-109.5 -18q-132 0 -196.5 87.5t-64.5 274.5q0 120 36 201t98 120.5t141 39.5
q59 0 105.5 -21.5zM340.5 -91q18.5 -20 18.5 -50q0 -17 -4.5 -33.5t-17.5 -47.5l-38 -93h-67l26 115q-33 21 -33 59q0 30 18.5 50t48.5 20t48.5 -20z" />
    <glyph glyph-name="Gdotaccent" unicode="&#x120;" horiz-adv-x="541" 
d="M412.5 686.5q46.5 -21.5 86.5 -61.5l-69 -71q-30 26 -57 37.5t-60 11.5q-65 0 -100 -57.5t-35 -199.5q0 -100 12.5 -156t36.5 -78t64 -22t77 24v177h-73l-14 102h220v-339q-44 -33 -98.5 -51t-109.5 -18q-132 0 -196.5 87.5t-64.5 274.5q0 120 36 201t98 120.5t141 39.5
q59 0 105.5 -21.5zM351 903q22 -23 22 -58q0 -34 -22 -56.5t-57 -22.5q-36 0 -58 22.5t-22 56.5q0 35 22 58t58 23q35 0 57 -23z" />
    <glyph glyph-name="uni0193" unicode="&#x193;" horiz-adv-x="510" 
d="M634 810l-41 -82q-15 9 -26.5 13t-26.5 4q-41 0 -41 -54v-66l-63 -66q-32 23 -60.5 33.5t-62.5 10.5q-65 0 -100 -57.5t-35 -199.5q0 -100 12.5 -156t36.5 -78t64 -22t77 24v177h-73l-14 102h220v-339q-44 -33 -98.5 -51t-109.5 -18q-132 0 -196.5 87.5t-64.5 274.5
q0 120 35.5 201t95.5 120.5t134 39.5q43 0 84 -18v10q0 70 37 108.5t101 38.5q62 0 115 -37z" />
    <glyph glyph-name="uni0241" unicode="&#x241;" horiz-adv-x="416" 
d="M119 326l43 16q51 18 73 50t22 94q0 54 -21 85.5t-58 31.5q-28 0 -53.5 -13.5t-56.5 -40.5l-68 69q41 45 88.5 67.5t105.5 22.5q96 0 152.5 -60t56.5 -158q0 -87 -30.5 -130.5t-91.5 -68.5l-21 -9v-282h-142z" />
    <glyph glyph-name="uni01E4" unicode="&#x1e4;" horiz-adv-x="555" 
d="M559 175h-58v-121q-45 -33 -99 -51t-111 -18q-130 0 -194.5 89.5t-64.5 272.5q0 116 36 197t98 122t140 41q114 0 193 -82l-71 -75q-30 27 -55.5 39.5t-58.5 12.5q-136 0 -136 -256q0 -96 12.5 -152t37.5 -80t65 -24q45 0 85 26v59h-83v83h83v55h-85l-12 91h220v-146h58
v-83z" />
    <glyph glyph-name="uni021C" unicode="&#x21c;" horiz-adv-x="428" 
d="M298 684q45 -24 69.5 -66.5t24.5 -95.5q0 -67 -33.5 -108t-104.5 -56q77 -8 115.5 -47t38.5 -115q0 -107 -84.5 -186.5t-266.5 -118.5l-11 106q84 27 131 56.5t66 64.5t19 82q0 52 -25.5 77.5t-78.5 25.5h-56l16 104h42q43 0 65 26t22 74q0 44 -17.5 70t-54.5 26
q-27 0 -54.5 -14t-59.5 -41l-64 70q81 90 196 90q60 0 105 -24z" />
    <glyph glyph-name="H" unicode="H" horiz-adv-x="552" 
d="M357 0v305h-162v-305h-142v692h142v-276h162v276h142v-692h-142z" />
    <glyph glyph-name="Hbar" unicode="&#x126;" horiz-adv-x="561" 
d="M548 586v-83h-44v-503h-142v305h-162v-305h-142v503h-45v83h45v106h142v-106h162v106h142v-106h44zM362 416v87h-162v-87h162z" />
    <glyph glyph-name="uni021E" unicode="&#x21e;" horiz-adv-x="552" 
d="M357 0v305h-162v-305h-142v692h142v-276h162v276h142v-692h-142zM387 928l48 -50l-117 -127h-82l-116 127l48 50l109 -82z" />
    <glyph glyph-name="Hcircumflex" unicode="&#x124;" horiz-adv-x="552" 
d="M357 0v305h-162v-305h-142v692h142v-276h162v276h142v-692h-142zM167 760l-48 50l117 127h82l116 -127l-48 -50l-110 82z" />
    <glyph glyph-name="uni1E24" unicode="&#x1e24;" horiz-adv-x="552" 
d="M357 0v305h-162v-305h-142v692h142v-276h162v276h142v-692h-142zM219 -203q-22 23 -22 58q0 34 22 56.5t57 22.5q36 0 58 -22.5t22 -56.5q0 -35 -22 -58t-58 -23q-35 0 -57 23z" />
    <glyph glyph-name="uniA7AA" unicode="&#xa7aa;" horiz-adv-x="671" 
d="M617 692v-692h-142v305h-162v-305h-142v589h-18q-40 0 -40 -44q0 -32 17 -71l-87 -38q-19 28 -29 56.5t-10 65.5q0 61 39.5 97.5t114.5 36.5h155v-276h162v276h142z" />
    <glyph glyph-name="uniA78D" unicode="&#xa78d;" horiz-adv-x="514" 
d="M461 692v-692h-141v263q-29 -29 -59 -42t-70 -13q-77 0 -125 52.5t-48 145.5v286h139v-276q0 -56 19 -78.5t55 -22.5q53 0 89 44v333h141z" />
    <glyph glyph-name="uniA78D.ss02" horiz-adv-x="497" 
d="M302 0v252h-280v440h141v-329h139v329h141v-692h-141z" />
    <glyph glyph-name="uni01F6" unicode="&#x1f6;" horiz-adv-x="787" 
d="M744.5 388.5q6.5 -64.5 6.5 -131.5q0 -145 -61 -208.5t-154 -63.5q-79 0 -129 44t-50 126v150h-162v-305h-142v692h142v-276h162v276h142v-538q0 -36 11.5 -52t34.5 -16q32 0 51 38t19 137q0 106 -21 269h133q11 -77 17.5 -141.5z" />
    <glyph glyph-name="I" unicode="I" horiz-adv-x="248" 
d="M195 692v-692h-142v692h142z" />
    <glyph glyph-name="IJ" unicode="&#x132;" horiz-adv-x="512" 
d="M195 692v-692h-142v692h142zM461 102q0 -112 -50 -169.5t-137 -91.5l-38 100q36 18 54 38.5t24 49t6 78.5v585h141v-590z" />
    <glyph glyph-name="Iacute" unicode="&#xcd;" horiz-adv-x="248" 
d="M195 692v-692h-142v692h142zM187 936l52 -101l-197 -83l-35 68z" />
    <glyph glyph-name="Ibreve" unicode="&#x12c;" horiz-adv-x="248" 
d="M195 692v-692h-142v692h142zM22.5 793.5q-36.5 40.5 -41.5 108.5l73 15q16 -67 69 -67q56 0 70 67l74 -15q-5 -68 -42 -108.5t-102 -40.5q-64 0 -100.5 40.5z" />
    <glyph glyph-name="uni01CF" unicode="&#x1cf;" horiz-adv-x="248" 
d="M195 692v-692h-142v692h142zM234 928l48 -50l-117 -127h-82l-116 127l48 50l109 -82z" />
    <glyph glyph-name="Icircumflex" unicode="&#xce;" horiz-adv-x="248" 
d="M195 692v-692h-142v692h142zM14 760l-48 50l117 127h82l116 -127l-48 -50l-110 82z" />
    <glyph glyph-name="uni0208" unicode="&#x208;" horiz-adv-x="248" 
d="M195 692v-692h-142v692h142zM14 974l79 -188l-66 -32l-101 173zM160 974l72 -186l-67 -29l-95 171z" />
    <glyph glyph-name="Idieresis" unicode="&#xcf;" horiz-adv-x="248" 
d="M195 692v-692h-142v692h142zM81.5 893.5q19.5 -20.5 19.5 -50.5t-19.5 -50.5t-49.5 -20.5q-29 0 -49 20.5t-20 50.5t20 50.5t49 20.5q30 0 49.5 -20.5zM273.5 893.5q19.5 -20.5 19.5 -50.5t-19.5 -50.5t-49.5 -20.5q-29 0 -49.5 20.5t-20.5 50.5t20.5 50.5t49.5 20.5
q30 0 49.5 -20.5z" />
    <glyph glyph-name="uni1E2E" unicode="&#x1e2e;" horiz-adv-x="248" 
d="M195 692v-692h-142v692h142zM189 1069l81 -69l-140 -141l-53 45zM71.5 869.5q19.5 -20.5 19.5 -50.5q0 -31 -19.5 -51.5t-49.5 -20.5q-29 0 -49 20.5t-20 51.5q0 29 20 50t49 21q30 0 49.5 -20.5zM273.5 869.5q19.5 -20.5 19.5 -50.5q0 -31 -19.5 -51.5t-49.5 -20.5
q-29 0 -49 20.5t-20 51.5q0 29 20 50t49 21q30 0 49.5 -20.5z" />
    <glyph glyph-name="Idotaccent" unicode="&#x130;" horiz-adv-x="248" 
d="M195 692v-692h-142v692h142zM181 903q22 -23 22 -58q0 -34 -22 -56.5t-57 -22.5q-36 0 -58 22.5t-22 56.5q0 35 22 58t58 23q35 0 57 -23z" />
    <glyph glyph-name="uni1ECA" unicode="&#x1eca;" horiz-adv-x="248" 
d="M195 692v-692h-142v692h142zM66 -203q-22 23 -22 58q0 34 22 56.5t57 22.5q36 0 58 -22.5t22 -56.5q0 -35 -22 -58t-58 -23q-35 0 -57 23z" />
    <glyph glyph-name="Igrave" unicode="&#xcc;" horiz-adv-x="248" 
d="M195 692v-692h-142v692h142zM58 936l180 -117l-35 -67l-197 83z" />
    <glyph glyph-name="uni1EC8" unicode="&#x1ec8;" horiz-adv-x="248" 
d="M195 692v-692h-142v692h142zM84 851q32 3 45 11.5t13 28.5q0 16 -8 24.5t-23 8.5q-14 0 -24.5 -3t-25.5 -10l-22 60q38 25 90 25q50 0 77 -26t27 -71q0 -38 -18 -61t-51 -30v-44h-80v87z" />
    <glyph glyph-name="uni020A" unicode="&#x20a;" horiz-adv-x="248" 
d="M195 692v-692h-142v692h142zM225.5 900q36.5 -42 41.5 -118l-74 -14q-16 80 -70 80q-53 0 -69 -80l-73 14q5 76 41 118t101 42q66 0 102.5 -42z" />
    <glyph glyph-name="Imacron" unicode="&#x12a;" horiz-adv-x="248" 
d="M195 692v-692h-142v692h142zM250 787h-252v93h252v-93z" />
    <glyph glyph-name="Iogonek" unicode="&#x12e;" horiz-adv-x="248" 
d="M195 692v-692h-33q-56 -26 -76 -51.5t-20 -55.5q0 -47 44 -47q17 0 48 7l-8 -86q-32 -7 -57 -7q-56 0 -90.5 29t-34.5 81q0 80 85 134v688h142z" />
    <glyph glyph-name="uni0196" unicode="&#x196;" horiz-adv-x="327" 
d="M331 25q-50 -41 -121 -41q-75 0 -121 41.5t-46 122.5v544h142v-552q0 -51 42 -51q17 0 28.5 4t26.5 13z" />
    <glyph glyph-name="uni0197" unicode="&#x197;" horiz-adv-x="275" 
d="M270 411v-103h-61v-308h-142v308h-61v103h61v281h142v-281h61z" />
    <glyph glyph-name="Itilde" unicode="&#x128;" horiz-adv-x="248" 
d="M195 692v-692h-142v692h142zM143.5 778.5q-13.5 6.5 -31.5 18.5q-11 9 -19 13t-16 4q-14 0 -23 -9.5t-21 -32.5l-65 30q16 48 43.5 76.5t62.5 28.5q18 0 30.5 -6t31.5 -18q11 -9 19 -13t17 -4q13 0 22.5 9.5t20.5 30.5l65 -29q-16 -50 -43.5 -77.5t-61.5 -27.5
q-18 0 -31.5 6.5z" />
    <glyph glyph-name="J" unicode="J" horiz-adv-x="264" 
d="M213 102q0 -112 -50 -169.5t-137 -91.5l-38 100q36 18 54 38.5t24 49t6 78.5v585h141v-590z" />
    <glyph glyph-name="Jcircumflex" unicode="&#x134;" horiz-adv-x="264" 
d="M213 102q0 -112 -50 -169.5t-137 -91.5l-38 100q36 18 54 38.5t24 49t6 78.5v585h141v-590zM32 760l-48 50l117 127h82l116 -127l-48 -50l-110 82z" />
    <glyph glyph-name="uniA7B2" unicode="&#xa7b2;" horiz-adv-x="300" 
d="M304 -104q-31 17 -64 30q-28 -145 -183 -145q-61 0 -94 31t-33 84q0 58 37 89t104 31q15 0 33 -2v678h142v-695q47 -17 88 -43zM91.5 -124.5q12.5 20.5 12.5 63.5v9q-12 3 -33 3q-31 0 -45 -12.5t-14 -38.5q0 -45 39 -45q28 0 40.5 20.5z" />
    <glyph glyph-name="uni0248" unicode="&#x248;" horiz-adv-x="280" 
d="M274 290h-61v-188q0 -112 -50 -169.5t-137 -91.5l-38 100q36 18 54 38.5t24 49t6 78.5v183h-62v106h62v296h141v-296h61v-106z" />
    <glyph glyph-name="K" unicode="K" horiz-adv-x="529" 
d="M195 692v-692h-142v692h142zM523 692l-181 -312l196 -380h-155l-184 369l183 323h141z" />
    <glyph glyph-name="uni01E8" unicode="&#x1e8;" horiz-adv-x="529" 
d="M195 692v-692h-142v692h142zM523 692l-181 -312l196 -380h-155l-184 369l183 323h141zM383 928l48 -50l-117 -127h-82l-116 127l48 50l109 -82z" />
    <glyph glyph-name="Kcommaaccent" unicode="&#x136;" horiz-adv-x="529" 
d="M195 692v-692h-142v692h142zM523 692l-181 -312l196 -380h-155l-184 369l183 323h141zM319.5 -91q18.5 -20 18.5 -50q0 -17 -4.5 -33.5t-17.5 -47.5l-38 -93h-67l26 115q-33 21 -33 59q0 30 18.5 50t48.5 20t48.5 -20z" />
    <glyph glyph-name="uni0198" unicode="&#x198;" horiz-adv-x="542" 
d="M199 369l98 213q29 67 62 96.5t89 29.5q55 0 103 -37l-38 -78q-13 7 -21 10.5t-20 3.5q-17 0 -28 -11t-24 -39l-82 -178l200 -379h-155zM195 692v-692h-142v692h142z" />
    <glyph glyph-name="L" unicode="L" horiz-adv-x="421" 
d="M195 692v-578h220l-15 -114h-347v692h142z" />
    <glyph glyph-name="uni01C7" unicode="&#x1c7;" horiz-adv-x="663" 
d="M195 692v-578h220l-15 -114h-347v692h142zM612 102q0 -112 -50 -169.5t-137 -91.5l-38 100q36 18 54 38.5t24 49t6 78.5v585h141v-590z" />
    <glyph glyph-name="Lacute" unicode="&#x139;" horiz-adv-x="421" 
d="M195 692v-578h220l-15 -114h-347v692h142zM187 936l52 -101l-197 -83l-35 68z" />
    <glyph glyph-name="uni023D" unicode="&#x23d;" horiz-adv-x="435" 
d="M209 114h220l-15 -114h-347v310h-61v106h61v276h142v-276h61v-106h-61v-196z" />
    <glyph glyph-name="uniA7AD" unicode="&#xa7ad;" horiz-adv-x="507" 
d="M501 114l-15 -114h-347v255q-68 2 -102 35t-34 90q0 53 30 82t76 29q18 0 30 -3v204h142v-353q42 3 95 14l14 -77q-46 -13 -109 -18v-144h220zM139 337v79q-12 2 -18 2q-29 0 -29 -37q0 -44 47 -44z" />
    <glyph glyph-name="Lcaron" unicode="&#x13d;" horiz-adv-x="421" 
d="M195 692v-578h220l-15 -114h-347v692h142zM303 487l45 204l-101 15l-19 -207z" />
    <glyph glyph-name="uni1E3C" unicode="&#x1e3c;" horiz-adv-x="421" 
d="M195 692v-578h220l-15 -114h-347v692h142zM116 -248l-48 50l117 133h82l116 -133l-48 -50l-110 89z" />
    <glyph glyph-name="Lcommaaccent" unicode="&#x13b;" horiz-adv-x="421" 
d="M195 692v-578h220l-15 -114h-347v692h142zM275.5 -91q18.5 -20 18.5 -50q0 -17 -4.5 -33.5t-17.5 -47.5l-38 -93h-67l26 115q-33 21 -33 59q0 30 18.5 50t48.5 20t48.5 -20z" />
    <glyph glyph-name="Ldot" unicode="&#x13f;" horiz-adv-x="421" 
d="M195 692v-578h220l-15 -114h-347v692h142zM387 453q22 -23 22 -58q0 -34 -22 -56.5t-57 -22.5q-36 0 -58 22.5t-22 56.5q0 35 22 58t58 23q35 0 57 -23z" />
    <glyph glyph-name="uni1E36" unicode="&#x1e36;" horiz-adv-x="421" 
d="M195 692v-578h220l-15 -114h-347v692h142zM169 -203q-22 23 -22 58q0 34 22 56.5t57 22.5q36 0 58 -22.5t22 -56.5q0 -35 -22 -58t-58 -23q-35 0 -57 23z" />
    <glyph glyph-name="uni01C8" unicode="&#x1c8;" horiz-adv-x="645" 
d="M195 692v-578h220l-15 -114h-347v692h142zM593 31q0 -69 -22.5 -116t-61 -76.5t-96.5 -56.5l-45 98q31 18 49.5 35.5t29 44.5t10.5 69v501h136v-499zM582 777q22 -23 22 -58q0 -34 -22 -56.5t-57 -22.5q-36 0 -58 22.5t-22 56.5q0 35 22 58t58 23q35 0 57 -23z" />
    <glyph glyph-name="Lslash" unicode="&#x141;" horiz-adv-x="457" 
d="M230 114h220l-15 -114h-347v234l-38 -27l-44 77l82 61v347h142v-245l97 69l46 -77l-143 -103v-222z" />
    <glyph glyph-name="M" unicode="M" horiz-adv-x="666" 
d="M632 0h-134l-9 284l-2 61q-1 31 -2 72t-1 90l1 57l-86 -489h-133l-91 489q3 -66 3 -131q0 -74 -3 -152l-9 -281h-132l43 692h175l83 -481l76 481h178z" />
    <glyph glyph-name="uni1E3E" unicode="&#x1e3e;" horiz-adv-x="666" 
d="M632 0h-134l-9 284l-2 61q-1 31 -2 72t-1 90l1 57l-86 -489h-133l-91 489q3 -66 3 -131q0 -74 -3 -152l-9 -281h-132l43 692h175l83 -481l76 481h178zM395 936l52 -101l-197 -83l-35 68z" />
    <glyph glyph-name="uni1E40" unicode="&#x1e40;" horiz-adv-x="666" 
d="M632 0h-134l-9 284l-2 61q-1 31 -2 72t-1 90l1 57l-86 -489h-133l-91 489q3 -66 3 -131q0 -74 -3 -152l-9 -281h-132l43 692h175l83 -481l76 481h178zM389 903q22 -23 22 -58q0 -34 -22 -56.5t-57 -22.5q-36 0 -58 22.5t-22 56.5q0 35 22 58t58 23q35 0 57 -23z" />
    <glyph glyph-name="uni019C" unicode="&#x19c;" horiz-adv-x="754" 
d="M701 692v-692h-124l-9 62q-28 -40 -58.5 -58.5t-69.5 -18.5q-42 0 -73.5 23.5t-48.5 64.5q-31 -46 -63 -67t-72 -21q-65 0 -102.5 49t-37.5 126v532h142v-526q0 -74 45 -74q20 0 37 15.5t35 48.5v4v532h141v-526q0 -34 11.5 -54t32.5 -20q22 0 39 15.5t34 51.5v533h141z
" />
    <glyph glyph-name="N" unicode="N" horiz-adv-x="549" 
d="M496 0h-176l-162 558l3 -28q7 -66 11.5 -123t4.5 -130v-277h-124v692h176l163 -559q-8 44 -14 110.5t-6 136.5v312h124v-692z" />
    <glyph glyph-name="uni01CA" unicode="&#x1ca;" horiz-adv-x="813" 
d="M496 0h-176l-162 558l3 -28q7 -66 11.5 -123t4.5 -130v-277h-124v692h176l163 -559q-8 44 -14 110.5t-6 136.5v312h124v-692zM762 102q0 -112 -50 -169.5t-137 -91.5l-38 100q36 18 54 38.5t24 49t6 78.5v585h141v-590z" />
    <glyph glyph-name="Nacute" unicode="&#x143;" horiz-adv-x="549" 
d="M496 0h-176l-162 558l3 -28q7 -66 11.5 -123t4.5 -130v-277h-124v692h176l163 -559q-8 44 -14 110.5t-6 136.5v312h124v-692zM341 936l52 -101l-197 -83l-35 68z" />
    <glyph glyph-name="Nacute.loclPLK" horiz-adv-x="549" 
d="M496 0h-176l-162 558l3 -28q7 -66 11.5 -123t4.5 -130v-277h-124v692h176l163 -559q-8 44 -14 110.5t-6 136.5v312h124v-692zM295 952l100 -59l-117 -154l-61 37z" />
    <glyph glyph-name="Ncaron" unicode="&#x147;" horiz-adv-x="549" 
d="M496 0h-176l-162 558l3 -28q7 -66 11.5 -123t4.5 -130v-277h-124v692h176l163 -559q-8 44 -14 110.5t-6 136.5v312h124v-692zM388 928l48 -50l-117 -127h-82l-116 127l48 50l109 -82z" />
    <glyph glyph-name="uni1E4A" unicode="&#x1e4a;" horiz-adv-x="549" 
d="M496 0h-176l-162 558l3 -28q7 -66 11.5 -123t4.5 -130v-277h-124v692h176l163 -559q-8 44 -14 110.5t-6 136.5v312h124v-692zM164 -248l-48 50l117 133h82l116 -133l-48 -50l-110 89z" />
    <glyph glyph-name="Ncommaaccent" unicode="&#x145;" horiz-adv-x="549" 
d="M496 0h-176l-162 558l3 -28q7 -66 11.5 -123t4.5 -130v-277h-124v692h176l163 -559q-8 44 -14 110.5t-6 136.5v312h124v-692zM323.5 -91q18.5 -20 18.5 -50q0 -17 -4.5 -33.5t-17.5 -47.5l-38 -93h-67l26 115q-33 21 -33 59q0 30 18.5 50t48.5 20t48.5 -20z" />
    <glyph glyph-name="uni1E44" unicode="&#x1e44;" horiz-adv-x="549" 
d="M496 0h-176l-162 558l3 -28q7 -66 11.5 -123t4.5 -130v-277h-124v692h176l163 -559q-8 44 -14 110.5t-6 136.5v312h124v-692zM335 903q22 -23 22 -58q0 -34 -22 -56.5t-57 -22.5q-36 0 -58 22.5t-22 56.5q0 35 22 58t58 23q35 0 57 -23z" />
    <glyph glyph-name="uni1E46" unicode="&#x1e46;" horiz-adv-x="549" 
d="M496 0h-176l-162 558l3 -28q7 -66 11.5 -123t4.5 -130v-277h-124v692h176l163 -559q-8 44 -14 110.5t-6 136.5v312h124v-692zM217 -203q-22 23 -22 58q0 34 22 56.5t57 22.5q36 0 58 -22.5t22 -56.5q0 -35 -22 -58t-58 -23q-35 0 -57 23z" />
    <glyph glyph-name="uni01F8" unicode="&#x1f8;" horiz-adv-x="549" 
d="M496 0h-176l-162 558l3 -28q7 -66 11.5 -123t4.5 -130v-277h-124v692h176l163 -559q-8 44 -14 110.5t-6 136.5v312h124v-692zM212 936l180 -117l-35 -67l-197 83z" />
    <glyph glyph-name="Eng" unicode="&#x14a;" horiz-adv-x="549" 
d="M496 692v-747q0 -81 -46 -122.5t-121 -41.5q-71 0 -121 41l49 81q15 -9 26.5 -13t28.5 -4q42 0 42 51v63h-34l-162 558l3 -28q7 -66 11.5 -123t4.5 -130v-277h-124v692h176l163 -559q-8 44 -14 110.5t-6 136.5v312h124z" />
    <glyph glyph-name="Eng.ss01" horiz-adv-x="541" 
d="M494 0h-1v-55q0 -81 -46 -122.5t-121 -41.5q-71 0 -121 41l49 81q15 -9 26.5 -13t28.5 -4q42 0 42 51v64h1v508q0 49 -13 70.5t-42 21.5t-51.5 -17t-50.5 -51v-533h-142v692h124l10 -64q34 40 72 60t85 20q73 0 111.5 -47.5t38.5 -127.5v-533z" />
    <glyph glyph-name="uni019D" unicode="&#x19d;" horiz-adv-x="549" 
d="M496 692v-692h-176l-162 558l3 -28q7 -66 11.5 -123t4.5 -130v-332q0 -79 -43 -121.5t-112 -42.5q-67 0 -117 41l49 74q17 -9 28.5 -13t27.5 -4q43 0 43 56v757h176l163 -559q-8 44 -14 110.5t-6 136.5v312h124z" />
    <glyph glyph-name="uni019D.ss01" horiz-adv-x="541" 
d="M455.5 660.5q38.5 -47.5 38.5 -127.5v-533h-142v509q0 49 -13 70.5t-42 21.5t-51.5 -17t-50.5 -51v-588q0 -81 -46 -122.5t-121 -41.5q-71 0 -121 41l49 81q15 -9 26.5 -13t28.5 -4q42 0 42 51v755h124l10 -64q34 40 72 60t85 20q73 0 111.5 -47.5z" />
    <glyph glyph-name="uni01CB" unicode="&#x1cb;" horiz-adv-x="788" 
d="M496 0h-176l-162 558l3 -28q7 -66 11.5 -123t4.5 -130v-277h-124v692h176l163 -559q-8 44 -14 110.5t-6 136.5v312h124v-692zM736 31q0 -69 -22.5 -116t-61 -76.5t-96.5 -56.5l-45 98q31 18 49.5 35.5t29 44.5t10.5 69v501h136v-499zM725 777q22 -23 22 -58
q0 -34 -22 -56.5t-57 -22.5q-36 0 -58 22.5t-22 56.5q0 35 22 58t58 23q35 0 57 -23z" />
    <glyph glyph-name="uni0220" unicode="&#x220;" horiz-adv-x="541" 
d="M455.5 660.5q38.5 -47.5 38.5 -127.5v-741h-142v717q0 49 -13 70.5t-42 21.5t-51.5 -17t-50.5 -51v-533h-142v692h124l10 -64q34 40 72 60t85 20q73 0 111.5 -47.5z" />
    <glyph glyph-name="Ntilde" unicode="&#xd1;" horiz-adv-x="549" 
d="M496 0h-176l-162 558l3 -28q7 -66 11.5 -123t4.5 -130v-277h-124v692h176l163 -559q-8 44 -14 110.5t-6 136.5v312h124v-692zM297.5 778.5q-13.5 6.5 -31.5 18.5q-11 9 -19 13t-16 4q-14 0 -23 -9.5t-21 -32.5l-65 30q16 48 43.5 76.5t62.5 28.5q18 0 30.5 -6t31.5 -18
q11 -9 19 -13t17 -4q13 0 22.5 9.5t20.5 30.5l65 -29q-16 -50 -43.5 -77.5t-61.5 -27.5q-18 0 -31.5 6.5z" />
    <glyph glyph-name="O" unicode="O" horiz-adv-x="580" 
d="M481 618q67 -90 67 -272q0 -180 -67 -271t-191 -91q-125 0 -191.5 90t-66.5 272q0 179 67 270.5t191 91.5t191 -90zM206 543.5q-27 -58.5 -27 -197.5q0 -141 27 -198.5t84 -57.5q39 0 63 24t36 80t12 152q0 139 -27 197.5t-84 58.5t-84 -58.5z" />
    <glyph glyph-name="uni0222" unicode="&#x222;" horiz-adv-x="546" 
d="M485 327.5q29 -45.5 29 -112.5q0 -64 -29 -116.5t-84 -83t-128 -30.5t-128 30t-84 82t-29 117t29 111t84 69q-39 20 -59.5 52t-20.5 74v172h141v-180q0 -34 15 -53t52 -19t52 20.5t15 51.5v180h142v-172q0 -40 -21 -72.5t-60 -52.5q55 -22 84 -67.5zM344 120q23 30 23 96
q0 121 -94 121t-94 -122q0 -65 23.5 -95t70.5 -30q48 0 71 30z" />
    <glyph glyph-name="Oacute" unicode="&#xd3;" horiz-adv-x="580" 
d="M481 618q67 -90 67 -272q0 -180 -67 -271t-191 -91q-125 0 -191.5 90t-66.5 272q0 179 67 270.5t191 91.5t191 -90zM206 543.5q-27 -58.5 -27 -197.5q0 -141 27 -198.5t84 -57.5q39 0 63 24t36 80t12 152q0 139 -27 197.5t-84 58.5t-84 -58.5zM353 936l52 -101l-197 -83
l-35 68z" />
    <glyph glyph-name="Oacute.loclPLK" horiz-adv-x="580" 
d="M481 618q67 -90 67 -272q0 -180 -67 -271t-191 -91q-125 0 -191.5 90t-66.5 272q0 179 67 270.5t191 91.5t191 -90zM206 543.5q-27 -58.5 -27 -197.5q0 -141 27 -198.5t84 -57.5q39 0 63 24t36 80t12 152q0 139 -27 197.5t-84 58.5t-84 -58.5zM307 952l100 -59l-117 -154
l-61 37z" />
    <glyph glyph-name="Obreve" unicode="&#x14e;" horiz-adv-x="580" 
d="M481 618q67 -90 67 -272q0 -180 -67 -271t-191 -91q-125 0 -191.5 90t-66.5 272q0 179 67 270.5t191 91.5t191 -90zM206 543.5q-27 -58.5 -27 -197.5q0 -141 27 -198.5t84 -57.5q39 0 63 24t36 80t12 152q0 139 -27 197.5t-84 58.5t-84 -58.5zM188.5 793.5
q-36.5 40.5 -41.5 108.5l73 15q16 -67 69 -67q56 0 70 67l74 -15q-5 -68 -42 -108.5t-102 -40.5q-64 0 -100.5 40.5z" />
    <glyph glyph-name="uni01D1" unicode="&#x1d1;" horiz-adv-x="580" 
d="M481 618q67 -90 67 -272q0 -180 -67 -271t-191 -91q-125 0 -191.5 90t-66.5 272q0 179 67 270.5t191 91.5t191 -90zM206 543.5q-27 -58.5 -27 -197.5q0 -141 27 -198.5t84 -57.5q39 0 63 24t36 80t12 152q0 139 -27 197.5t-84 58.5t-84 -58.5zM400 928l48 -50l-117 -127
h-82l-116 127l48 50l109 -82z" />
    <glyph glyph-name="uni019F" unicode="&#x19f;" horiz-adv-x="580" 
d="M481 618q67 -90 67 -272q0 -180 -67 -271t-191 -91q-125 0 -191.5 90t-66.5 272q0 179 67 270.5t191 91.5t191 -90zM206.5 554q-28.5 -48 -32.5 -161h232q-4 113 -32.5 161t-83.5 48t-83.5 -48zM375 139.5q28 49.5 31 169.5h-232q3 -120 31 -169.5t85 -49.5t85 49.5z" />
    <glyph glyph-name="Ocircumflex" unicode="&#xd4;" horiz-adv-x="580" 
d="M481 618q67 -90 67 -272q0 -180 -67 -271t-191 -91q-125 0 -191.5 90t-66.5 272q0 179 67 270.5t191 91.5t191 -90zM206 543.5q-27 -58.5 -27 -197.5q0 -141 27 -198.5t84 -57.5q39 0 63 24t36 80t12 152q0 139 -27 197.5t-84 58.5t-84 -58.5zM180 760l-48 50l117 127h82
l116 -127l-48 -50l-110 82z" />
    <glyph glyph-name="uni1ED0" unicode="&#x1ed0;" horiz-adv-x="580" 
d="M481 618q67 -90 67 -272q0 -180 -67 -271t-191 -91q-125 0 -191.5 90t-66.5 272q0 179 67 270.5t191 91.5t191 -90zM206 543.5q-27 -58.5 -27 -197.5q0 -141 27 -198.5t84 -57.5q39 0 63 24t36 80t12 152q0 139 -27 197.5t-84 58.5t-84 -58.5zM181 724l-48 50l117 127h82
l116 -127l-48 -50l-110 82zM486 1068l81 -69l-140 -141l-53 45z" />
    <glyph glyph-name="uni1ED8" unicode="&#x1ed8;" horiz-adv-x="580" 
d="M481 618q67 -90 67 -272q0 -180 -67 -271t-191 -91q-125 0 -191.5 90t-66.5 272q0 179 67 270.5t191 91.5t191 -90zM206 543.5q-27 -58.5 -27 -197.5q0 -141 27 -198.5t84 -57.5q39 0 63 24t36 80t12 152q0 139 -27 197.5t-84 58.5t-84 -58.5zM180 760l-48 50l117 127h82
l116 -127l-48 -50l-110 82zM232 -203q-22 23 -22 58q0 34 22 56.5t57 22.5q36 0 58 -22.5t22 -56.5q0 -35 -22 -58t-58 -23q-35 0 -57 23z" />
    <glyph glyph-name="uni1ED2" unicode="&#x1ed2;" horiz-adv-x="580" 
d="M481 618q67 -90 67 -272q0 -180 -67 -271t-191 -91q-125 0 -191.5 90t-66.5 272q0 179 67 270.5t191 91.5t191 -90zM206 543.5q-27 -58.5 -27 -197.5q0 -141 27 -198.5t84 -57.5q39 0 63 24t36 80t12 152q0 139 -27 197.5t-84 58.5t-84 -58.5zM180 724l-48 50l117 127h82
l116 -127l-48 -50l-110 82zM96 1068l113 -165l-55 -45l-139 141z" />
    <glyph glyph-name="uni1ED4" unicode="&#x1ed4;" horiz-adv-x="580" 
d="M481 618q67 -90 67 -272q0 -180 -67 -271t-191 -91q-125 0 -191.5 90t-66.5 272q0 179 67 270.5t191 91.5t191 -90zM206 543.5q-27 -58.5 -27 -197.5q0 -141 27 -198.5t84 -57.5q39 0 63 24t36 80t12 152q0 139 -27 197.5t-84 58.5t-84 -58.5zM180 724l-48 50l117 127h82
l116 -127l-48 -50l-110 82zM393 930q32 3 45 11.5t13 28.5q0 16 -8 24.5t-23 8.5q-14 0 -24.5 -3t-25.5 -10l-22 60q38 25 90 25q50 0 77 -26t27 -71q0 -38 -18 -61t-51 -30v-44h-80v87z" />
    <glyph glyph-name="uni1ED6" unicode="&#x1ed6;" horiz-adv-x="580" 
d="M481 618q67 -90 67 -272q0 -180 -67 -271t-191 -91q-125 0 -191.5 90t-66.5 272q0 179 67 270.5t191 91.5t191 -90zM206 543.5q-27 -58.5 -27 -197.5q0 -141 27 -198.5t84 -57.5q39 0 63 24t36 80t12 152q0 139 -27 197.5t-84 58.5t-84 -58.5zM180 724l-48 50l117 127h82
l116 -127l-48 -50l-110 82zM307.5 941.5q-13.5 6.5 -30.5 17.5q-21 16 -35 16t-23 -9t-21 -31l-65 28q16 45 43.5 72.5t62.5 27.5q18 0 31 -6t31 -17q21 -16 36 -16q13 0 22 9t21 29l65 -27q-16 -47 -43.5 -73.5t-61.5 -26.5q-19 0 -32.5 6.5z" />
    <glyph glyph-name="uni020C" unicode="&#x20c;" horiz-adv-x="580" 
d="M481 618q67 -90 67 -272q0 -180 -67 -271t-191 -91q-125 0 -191.5 90t-66.5 272q0 179 67 270.5t191 91.5t191 -90zM206 543.5q-27 -58.5 -27 -197.5q0 -141 27 -198.5t84 -57.5q39 0 63 24t36 80t12 152q0 139 -27 197.5t-84 58.5t-84 -58.5zM180 974l79 -188l-66 -32
l-101 173zM326 974l72 -186l-67 -29l-95 171z" />
    <glyph glyph-name="Odieresis" unicode="&#xd6;" horiz-adv-x="580" 
d="M481 618q67 -90 67 -272q0 -180 -67 -271t-191 -91q-125 0 -191.5 90t-66.5 272q0 179 67 270.5t191 91.5t191 -90zM206 543.5q-27 -58.5 -27 -197.5q0 -141 27 -198.5t84 -57.5q39 0 63 24t36 80t12 152q0 139 -27 197.5t-84 58.5t-84 -58.5zM247.5 893.5
q19.5 -20.5 19.5 -50.5t-19.5 -50.5t-49.5 -20.5q-29 0 -49 20.5t-20 50.5t20 50.5t49 20.5q30 0 49.5 -20.5zM439.5 893.5q19.5 -20.5 19.5 -50.5t-19.5 -50.5t-49.5 -20.5q-29 0 -49.5 20.5t-20.5 50.5t20.5 50.5t49.5 20.5q30 0 49.5 -20.5z" />
    <glyph glyph-name="uni022A" unicode="&#x22a;" horiz-adv-x="580" 
d="M481 618q67 -90 67 -272q0 -180 -67 -271t-191 -91q-125 0 -191.5 90t-66.5 272q0 179 67 270.5t191 91.5t191 -90zM206 543.5q-27 -58.5 -27 -197.5q0 -141 27 -198.5t84 -57.5q39 0 63 24t36 80t12 152q0 139 -27 197.5t-84 58.5t-84 -58.5zM244.5 867.5
q19.5 -20.5 19.5 -50.5t-19.5 -50.5t-49.5 -20.5q-29 0 -49 20.5t-20 50.5t20 50.5t49 20.5q30 0 49.5 -20.5zM436.5 867.5q19.5 -20.5 19.5 -50.5t-19.5 -50.5t-49.5 -20.5q-29 0 -49.5 20.5t-20.5 50.5t20.5 50.5t49.5 20.5q30 0 49.5 -20.5zM417 934h-252v93h252v-93z
" />
    <glyph glyph-name="uni022E" unicode="&#x22e;" horiz-adv-x="580" 
d="M481 618q67 -90 67 -272q0 -180 -67 -271t-191 -91q-125 0 -191.5 90t-66.5 272q0 179 67 270.5t191 91.5t191 -90zM206 543.5q-27 -58.5 -27 -197.5q0 -141 27 -198.5t84 -57.5q39 0 63 24t36 80t12 152q0 139 -27 197.5t-84 58.5t-84 -58.5zM347 903q22 -23 22 -58
q0 -34 -22 -56.5t-57 -22.5q-36 0 -58 22.5t-22 56.5q0 35 22 58t58 23q35 0 57 -23z" />
    <glyph glyph-name="uni0230" unicode="&#x230;" horiz-adv-x="580" 
d="M481 618q67 -90 67 -272q0 -180 -67 -271t-191 -91q-125 0 -191.5 90t-66.5 272q0 179 67 270.5t191 91.5t191 -90zM206 543.5q-27 -58.5 -27 -197.5q0 -141 27 -198.5t84 -57.5q39 0 63 24t36 80t12 152q0 139 -27 197.5t-84 58.5t-84 -58.5zM347 876q22 -23 22 -58
q0 -34 -22 -56.5t-57 -22.5q-36 0 -58 22.5t-22 56.5q0 35 22 58t58 23q35 0 57 -23zM416 935h-252v93h252v-93z" />
    <glyph glyph-name="uni1ECC" unicode="&#x1ecc;" horiz-adv-x="580" 
d="M481 618q67 -90 67 -272q0 -180 -67 -271t-191 -91q-125 0 -191.5 90t-66.5 272q0 179 67 270.5t191 91.5t191 -90zM206 543.5q-27 -58.5 -27 -197.5q0 -141 27 -198.5t84 -57.5q39 0 63 24t36 80t12 152q0 139 -27 197.5t-84 58.5t-84 -58.5zM232 -203q-22 23 -22 58
q0 34 22 56.5t57 22.5q36 0 58 -22.5t22 -56.5q0 -35 -22 -58t-58 -23q-35 0 -57 23z" />
    <glyph glyph-name="Ograve" unicode="&#xd2;" horiz-adv-x="580" 
d="M481 618q67 -90 67 -272q0 -180 -67 -271t-191 -91q-125 0 -191.5 90t-66.5 272q0 179 67 270.5t191 91.5t191 -90zM206 543.5q-27 -58.5 -27 -197.5q0 -141 27 -198.5t84 -57.5q39 0 63 24t36 80t12 152q0 139 -27 197.5t-84 58.5t-84 -58.5zM224 936l180 -117l-35 -67
l-197 83z" />
    <glyph glyph-name="uni1ECE" unicode="&#x1ece;" horiz-adv-x="580" 
d="M481 618q67 -90 67 -272q0 -180 -67 -271t-191 -91q-125 0 -191.5 90t-66.5 272q0 179 67 270.5t191 91.5t191 -90zM206 543.5q-27 -58.5 -27 -197.5q0 -141 27 -198.5t84 -57.5q39 0 63 24t36 80t12 152q0 139 -27 197.5t-84 58.5t-84 -58.5zM250 851q32 3 45 11.5
t13 28.5q0 16 -8 24.5t-23 8.5q-14 0 -24.5 -3t-25.5 -10l-22 60q38 25 90 25q50 0 77 -26t27 -71q0 -38 -18 -61t-51 -30v-44h-80v87z" />
    <glyph glyph-name="Ohorn" unicode="&#x1a0;" horiz-adv-x="613" 
d="M573.5 608.5q-22.5 -28.5 -64.5 -38.5q39 -87 39 -224q0 -180 -67 -271t-191 -91q-125 0 -191.5 90t-66.5 272q0 179 67 270.5t191 91.5q113 0 178 -74q20 3 28.5 14.5t8.5 35.5q0 37 -11 74l86 15q16 -40 16 -88t-22.5 -76.5zM353 114q24 24 36 80t12 152
q0 139 -27 197.5t-84 58.5t-84 -58.5t-27 -197.5q0 -141 27 -198.5t84 -57.5q39 0 63 24z" />
    <glyph glyph-name="uni1EDA" unicode="&#x1eda;" horiz-adv-x="613" 
d="M405 835l-197 -83l-35 68l180 116zM573.5 608.5q-22.5 -28.5 -64.5 -38.5q39 -87 39 -224q0 -180 -67 -271t-191 -91q-125 0 -191.5 90t-66.5 272q0 179 67 270.5t191 91.5q113 0 178 -74q20 3 28.5 14.5t8.5 35.5q0 37 -11 74l86 15q16 -40 16 -88t-22.5 -76.5zM353 114
q24 24 36 80t12 152q0 139 -27 197.5t-84 58.5t-84 -58.5t-27 -197.5q0 -141 27 -198.5t84 -57.5q39 0 63 24z" />
    <glyph glyph-name="uni1EE2" unicode="&#x1ee2;" horiz-adv-x="613" 
d="M573.5 608.5q-22.5 -28.5 -64.5 -38.5q39 -87 39 -224q0 -180 -67 -271t-191 -91q-125 0 -191.5 90t-66.5 272q0 179 67 270.5t191 91.5q113 0 178 -74q20 3 28.5 14.5t8.5 35.5q0 37 -11 74l86 15q16 -40 16 -88t-22.5 -76.5zM353 114q24 24 36 80t12 152
q0 139 -27 197.5t-84 58.5t-84 -58.5t-27 -197.5q0 -141 27 -198.5t84 -57.5q39 0 63 24zM347 -88.5q22 -22.5 22 -56.5q0 -35 -22 -58t-58 -23q-35 0 -57 23t-22 58q0 34 22 56.5t57 22.5q36 0 58 -22.5z" />
    <glyph glyph-name="uni1EDC" unicode="&#x1edc;" horiz-adv-x="613" 
d="M404 819l-35 -67l-197 83l52 101zM573.5 608.5q-22.5 -28.5 -64.5 -38.5q39 -87 39 -224q0 -180 -67 -271t-191 -91q-125 0 -191.5 90t-66.5 272q0 179 67 270.5t191 91.5q113 0 178 -74q20 3 28.5 14.5t8.5 35.5q0 37 -11 74l86 15q16 -40 16 -88t-22.5 -76.5zM353 114
q24 24 36 80t12 152q0 139 -27 197.5t-84 58.5t-84 -58.5t-27 -197.5q0 -141 27 -198.5t84 -57.5q39 0 63 24z" />
    <glyph glyph-name="uni1EDE" unicode="&#x1ede;" horiz-adv-x="613" 
d="M252.5 921q-10.5 -3 -25.5 -10l-22 60q38 25 90 25q50 0 77 -26t27 -71q0 -38 -18 -61t-51 -30v-44h-80v87q32 3 45 11.5t13 28.5q0 16 -8 24.5t-23 8.5q-14 0 -24.5 -3zM573.5 608.5q-22.5 -28.5 -64.5 -38.5q39 -87 39 -224q0 -180 -67 -271t-191 -91q-125 0 -191.5 90
t-66.5 272q0 179 67 270.5t191 91.5q113 0 178 -74q20 3 28.5 14.5t8.5 35.5q0 37 -11 74l86 15q16 -40 16 -88t-22.5 -76.5zM353 114q24 24 36 80t12 152q0 139 -27 197.5t-84 58.5t-84 -58.5t-27 -197.5q0 -141 27 -198.5t84 -57.5q39 0 63 24z" />
    <glyph glyph-name="uni1EE0" unicode="&#x1ee0;" horiz-adv-x="613" 
d="M220 804.5q-9 -9.5 -21 -32.5l-65 30q16 48 43.5 76.5t62.5 28.5q18 0 30.5 -6t31.5 -18q11 -9 19 -13t17 -4q13 0 22.5 9.5t20.5 30.5l65 -29q-16 -50 -43.5 -77.5t-61.5 -27.5q-18 0 -31.5 6.5t-31.5 18.5q-11 9 -19 13t-16 4q-14 0 -23 -9.5zM573.5 608.5
q-22.5 -28.5 -64.5 -38.5q39 -87 39 -224q0 -180 -67 -271t-191 -91q-125 0 -191.5 90t-66.5 272q0 179 67 270.5t191 91.5q113 0 178 -74q20 3 28.5 14.5t8.5 35.5q0 37 -11 74l86 15q16 -40 16 -88t-22.5 -76.5zM353 114q24 24 36 80t12 152q0 139 -27 197.5t-84 58.5
t-84 -58.5t-27 -197.5q0 -141 27 -198.5t84 -57.5q39 0 63 24z" />
    <glyph glyph-name="Ohungarumlaut" unicode="&#x150;" horiz-adv-x="580" 
d="M481 618q67 -90 67 -272q0 -180 -67 -271t-191 -91q-125 0 -191.5 90t-66.5 272q0 179 67 270.5t191 91.5t191 -90zM206 543.5q-27 -58.5 -27 -197.5q0 -141 27 -198.5t84 -57.5q39 0 63 24t36 80t12 152q0 139 -27 197.5t-84 58.5t-84 -58.5zM255 974l89 -44l-94 -171
l-67 29zM400 974l89 -47l-102 -173l-65 32z" />
    <glyph glyph-name="uni01A2" unicode="&#x1a2;" horiz-adv-x="795" 
d="M695.5 663q45.5 -45 45.5 -126v-744h-141v751q0 63 -47 63q-28 0 -55 -15q50 -92 50 -246q0 -180 -67 -271t-191 -91q-125 0 -191.5 90t-66.5 272q0 179 67 270.5t191 91.5q88 0 148 -45q61 45 136 45q76 0 121.5 -45zM353 114q24 24 36 80t12 152q0 139 -27 197.5
t-84 58.5t-84 -58.5t-27 -197.5q0 -141 27 -198.5t84 -57.5q39 0 63 24z" />
    <glyph glyph-name="uni020E" unicode="&#x20e;" horiz-adv-x="580" 
d="M481 618q67 -90 67 -272q0 -180 -67 -271t-191 -91q-125 0 -191.5 90t-66.5 272q0 179 67 270.5t191 91.5t191 -90zM206 543.5q-27 -58.5 -27 -197.5q0 -141 27 -198.5t84 -57.5q39 0 63 24t36 80t12 152q0 139 -27 197.5t-84 58.5t-84 -58.5zM391.5 900
q36.5 -42 41.5 -118l-74 -14q-16 80 -70 80q-53 0 -69 -80l-73 14q5 76 41 118t101 42q66 0 102.5 -42z" />
    <glyph glyph-name="Omacron" unicode="&#x14c;" horiz-adv-x="580" 
d="M481 618q67 -90 67 -272q0 -180 -67 -271t-191 -91q-125 0 -191.5 90t-66.5 272q0 179 67 270.5t191 91.5t191 -90zM206 543.5q-27 -58.5 -27 -197.5q0 -141 27 -198.5t84 -57.5q39 0 63 24t36 80t12 152q0 139 -27 197.5t-84 58.5t-84 -58.5zM416 787h-252v93h252v-93z
" />
    <glyph glyph-name="uni1E52" unicode="&#x1e52;" horiz-adv-x="580" 
d="M481 618q67 -90 67 -272q0 -180 -67 -271t-191 -91q-125 0 -191.5 90t-66.5 272q0 179 67 270.5t191 91.5t191 -90zM206 543.5q-27 -58.5 -27 -197.5q0 -141 27 -198.5t84 -57.5q39 0 63 24t36 80t12 152q0 139 -27 197.5t-84 58.5t-84 -58.5zM416 762h-252v93h252v-93z
M349 1078l52 -101l-197 -83l-35 68z" />
    <glyph glyph-name="uni1E50" unicode="&#x1e50;" horiz-adv-x="580" 
d="M225 1086l180 -117l-35 -67l-197 83zM416 762h-252v93h252v-93zM481 618q67 -90 67 -272q0 -180 -67 -271t-191 -91q-125 0 -191.5 90t-66.5 272q0 179 67 270.5t191 91.5t191 -90zM206 543.5q-27 -58.5 -27 -197.5q0 -141 27 -198.5t84 -57.5q39 0 63 24t36 80t12 152
q0 139 -27 197.5t-84 58.5t-84 -58.5z" />
    <glyph glyph-name="uniA7B6" unicode="&#xa7b6;" horiz-adv-x="738" 
d="M680.5 517q17.5 -93 17.5 -216q0 -167 -47 -241.5t-137 -74.5q-60 0 -95.5 28t-49.5 86q-13 -57 -48.5 -85.5t-90.5 -28.5q-96 0 -142.5 73t-46.5 243q0 123 17.5 216.5t46.5 174.5h131q-26 -100 -40 -187t-14 -197q0 -85 6.5 -132t21 -66.5t39.5 -19.5q51 0 51 71v237
h140v-237q0 -71 52 -71q23 0 36.5 17.5t20.5 64.5t7 135q0 111 -15 198.5t-44 186.5h136q30 -82 47.5 -175z" />
    <glyph glyph-name="uni01EA" unicode="&#x1ea;" horiz-adv-x="580" 
d="M306.5 -53q-19.5 -25 -19.5 -54q0 -47 44 -47q17 0 48 7l-8 -86q-31 -7 -57 -7q-56 0 -90.5 29t-34.5 81q0 68 60 117q-105 14 -161 103t-56 256q0 179 67 270.5t191 91.5t191 -90t67 -272q0 -143 -43 -230.5t-125 -117.5q-54 -26 -73.5 -51zM206 147.5
q27 -57.5 84 -57.5q39 0 63 24t36 80t12 152q0 139 -27 197.5t-84 58.5t-84 -58.5t-27 -197.5q0 -141 27 -198.5z" />
    <glyph glyph-name="uni01EC" unicode="&#x1ec;" horiz-adv-x="580" 
d="M416 880v-93h-252v93h252zM306.5 -53q-19.5 -25 -19.5 -54q0 -47 44 -47q17 0 48 7l-8 -86q-31 -7 -57 -7q-56 0 -90.5 29t-34.5 81q0 68 60 117q-105 14 -161 103t-56 256q0 179 67 270.5t191 91.5t191 -90t67 -272q0 -143 -43 -230.5t-125 -117.5q-54 -26 -73.5 -51z
M206 147.5q27 -57.5 84 -57.5q39 0 63 24t36 80t12 152q0 139 -27 197.5t-84 58.5t-84 -58.5t-27 -197.5q0 -141 27 -198.5z" />
    <glyph glyph-name="uni0186" unicode="&#x186;" horiz-adv-x="480" 
d="M381 618q67 -90 67 -270t-70 -271.5t-190 -91.5q-56 0 -102.5 24t-80.5 61l66 76q31 -26 54.5 -38t56.5 -12q57 0 88 57.5t31 193.5q0 140 -28.5 197t-82.5 57q-32 0 -58 -11.5t-52 -34.5l-68 79q39 36 84 55t101 19q117 0 184 -90z" />
    <glyph glyph-name="Oslash" unicode="&#xd8;" horiz-adv-x="580" 
d="M548 346q0 -179 -67 -270t-191 -91q-12 0 -36 2l-29 -119l-106 28l34 127q-121 81 -121 323q0 178 67 269.5t191 91.5q13 0 35 -2l30 120l106 -29l-34 -127q121 -79 121 -323zM222.5 579q-25.5 -25 -38 -81.5t-12.5 -151.5q0 -85 8.5 -138t26.5 -81l107 475q-16 2 -24 2
q-42 0 -67.5 -25zM372 561l-106 -471q16 -2 24 -2q43 0 68.5 25t37 84t11.5 162q0 147 -35 202z" />
    <glyph glyph-name="Oslashacute" unicode="&#x1fe;" horiz-adv-x="580" 
d="M548 346q0 -179 -67 -270t-191 -91q-12 0 -36 2l-29 -119l-106 28l34 127q-121 81 -121 323q0 178 67 269.5t191 91.5q13 0 35 -2l30 120l106 -29l-34 -127q121 -79 121 -323zM222.5 579q-25.5 -25 -38 -81.5t-12.5 -151.5q0 -85 8.5 -138t26.5 -81l107 475q-16 2 -24 2
q-42 0 -67.5 -25zM372 561l-106 -471q16 -2 24 -2q43 0 68.5 25t37 84t11.5 162q0 147 -35 202zM352 963l52 -101l-197 -83l-35 68z" />
    <glyph glyph-name="Otilde" unicode="&#xd5;" horiz-adv-x="580" 
d="M481 618q67 -90 67 -272q0 -180 -67 -271t-191 -91q-125 0 -191.5 90t-66.5 272q0 179 67 270.5t191 91.5t191 -90zM206 543.5q-27 -58.5 -27 -197.5q0 -141 27 -198.5t84 -57.5q39 0 63 24t36 80t12 152q0 139 -27 197.5t-84 58.5t-84 -58.5zM309.5 778.5
q-13.5 6.5 -31.5 18.5q-11 9 -19 13t-16 4q-14 0 -23 -9.5t-21 -32.5l-65 30q16 48 43.5 76.5t62.5 28.5q18 0 30.5 -6t31.5 -18q11 -9 19 -13t17 -4q13 0 22.5 9.5t20.5 30.5l65 -29q-16 -50 -43.5 -77.5t-61.5 -27.5q-18 0 -31.5 6.5z" />
    <glyph glyph-name="uni1E4C" unicode="&#x1e4c;" horiz-adv-x="580" 
d="M481 618q67 -90 67 -272q0 -180 -67 -271t-191 -91q-125 0 -191.5 90t-66.5 272q0 179 67 270.5t191 91.5t191 -90zM206 543.5q-27 -58.5 -27 -197.5q0 -141 27 -198.5t84 -57.5q39 0 63 24t36 80t12 152q0 139 -27 197.5t-84 58.5t-84 -58.5zM309.5 767.5
q-13.5 6.5 -31.5 18.5q-11 9 -19 13t-16 4q-14 0 -23 -9.5t-21 -32.5l-65 30q16 48 43.5 76.5t62.5 28.5q18 0 30.5 -6t31.5 -18q11 -9 19 -13t17 -4q13 0 22.5 9.5t20.5 30.5l65 -29q-16 -50 -43.5 -77.5t-61.5 -27.5q-18 0 -31.5 6.5zM353 1101l52 -101l-197 -83l-35 68z
" />
    <glyph glyph-name="uni022C" unicode="&#x22c;" horiz-adv-x="580" 
d="M481 618q67 -90 67 -272q0 -180 -67 -271t-191 -91q-125 0 -191.5 90t-66.5 272q0 179 67 270.5t191 91.5t191 -90zM206 543.5q-27 -58.5 -27 -197.5q0 -141 27 -198.5t84 -57.5q39 0 63 24t36 80t12 152q0 139 -27 197.5t-84 58.5t-84 -58.5zM309.5 767.5
q-13.5 6.5 -31.5 18.5q-11 9 -19 13t-16 4q-14 0 -23 -9.5t-21 -32.5l-65 30q16 48 43.5 76.5t62.5 28.5q18 0 30.5 -6t31.5 -18q11 -9 19 -13t17 -4q13 0 22.5 9.5t20.5 30.5l65 -29q-16 -50 -43.5 -77.5t-61.5 -27.5q-18 0 -31.5 6.5zM414 938h-252v93h252v-93z" />
    <glyph glyph-name="OE" unicode="&#x152;" horiz-adv-x="748" 
d="M466 104h256v-104h-364q-35 -16 -82 -16q-114 0 -179 93.5t-65 268.5q0 116 29.5 197t84.5 123t130 42q47 0 82 -16h365l-15 -103h-241q50 -70 61 -186h155v-103h-155q-8 -119 -62 -196zM358.5 148.5q25.5 58.5 25.5 197.5q0 138 -25.5 197t-77.5 59q-51 0 -76.5 -59
t-25.5 -197t26 -197t76 -59q52 0 77.5 58.5z" />
    <glyph glyph-name="P" unicode="P" horiz-adv-x="494" 
d="M414.5 635.5q66.5 -56.5 66.5 -165.5q0 -115 -65 -173t-183 -58h-38v-239h-142v692h167q128 0 194.5 -56.5zM309.5 371q26.5 29 26.5 98q0 63 -26 92t-85 29h-30v-248h28q60 0 86.5 29z" />
    <glyph glyph-name="uni1E54" unicode="&#x1e54;" horiz-adv-x="494" 
d="M414.5 635.5q66.5 -56.5 66.5 -165.5q0 -115 -65 -173t-183 -58h-38v-239h-142v692h167q128 0 194.5 -56.5zM309.5 371q26.5 29 26.5 98q0 63 -26 92t-85 29h-30v-248h28q60 0 86.5 29zM314 936l52 -101l-197 -83l-35 68z" />
    <glyph glyph-name="uni1E56" unicode="&#x1e56;" horiz-adv-x="494" 
d="M414.5 635.5q66.5 -56.5 66.5 -165.5q0 -115 -65 -173t-183 -58h-38v-239h-142v692h167q128 0 194.5 -56.5zM309.5 371q26.5 29 26.5 98q0 63 -26 92t-85 29h-30v-248h28q60 0 86.5 29zM308 903q22 -23 22 -58q0 -34 -22 -56.5t-57 -22.5q-36 0 -58 22.5t-22 56.5
q0 35 22 58t58 23q35 0 57 -23z" />
    <glyph glyph-name="uni01A4" unicode="&#x1a4;" horiz-adv-x="612" 
d="M532.5 635.5q66.5 -56.5 66.5 -165.5q0 -115 -65 -173t-183 -58h-38v-239h-142v589h-18q-40 0 -40 -44q0 -32 17 -71l-87 -38q-19 28 -29 56.5t-10 65.5q0 61 39.5 97.5t114.5 36.5h180q128 0 194.5 -56.5zM427.5 371q26.5 29 26.5 98q0 63 -26 92t-85 29h-30v-248h28
q60 0 86.5 29z" />
    <glyph glyph-name="Thorn" unicode="&#xde;" horiz-adv-x="494" 
d="M416.5 523.5q64.5 -56.5 64.5 -167.5q0 -119 -63.5 -178t-176.5 -59h-46v-119h-142v692h142v-112h36q121 0 185.5 -56.5zM311.5 252q26.5 30 26.5 103q0 65 -27 94t-84 29h-32v-256h33q57 0 83.5 30z" />
    <glyph glyph-name="Q" unicode="Q" horiz-adv-x="580" 
d="M507 25.5q41 -16.5 79 -51.5l-87 -107q-42 59 -93 90t-125 31q-117 0 -183 91t-66 267q0 177 67 269.5t191 92.5t191 -91.5t67 -270.5q0 -123 -37.5 -192.5t-102.5 -110.5q58 -1 99 -17.5zM206 148q27 -58 84 -58q39 0 63 24t36 80t12 152q0 141 -27 198.5t-84 57.5
t-84 -57.5t-27 -198.5q0 -140 27 -198z" />
    <glyph glyph-name="uni024A" unicode="&#x24a;" horiz-adv-x="562" 
d="M655 -178q-50 -41 -121 -41q-75 0 -121 41.5t-46 122.5v56h1v29q-48 -45 -117 -45q-63 0 -112.5 38t-78 116t-28.5 194q0 122 29 206.5t79 126.5t113 42q75 0 124 -54l6 38h126v-755q0 -51 42 -51q17 0 28.5 4t26.5 13zM368 128v432q-34 42 -83 42q-52 0 -79 -60
t-27 -209q0 -139 25.5 -192t76.5 -53q50 0 87 40z" />
    <glyph glyph-name="R" unicode="R" horiz-adv-x="514" 
d="M365 0l-118 274h-9h-43v-274h-142v692h174q253 0 253 -206q0 -62 -26.5 -110.5t-81.5 -74.5l144 -301h-151zM311 400q24 27 24 86q0 54 -25.5 79.5t-83.5 25.5h-31v-218h37q55 0 79 27z" />
    <glyph glyph-name="Racute" unicode="&#x154;" horiz-adv-x="514" 
d="M365 0l-118 274h-9h-43v-274h-142v692h174q253 0 253 -206q0 -62 -26.5 -110.5t-81.5 -74.5l144 -301h-151zM311 400q24 27 24 86q0 54 -25.5 79.5t-83.5 25.5h-31v-218h37q55 0 79 27zM315 936l52 -101l-197 -83l-35 68z" />
    <glyph glyph-name="Rcaron" unicode="&#x158;" horiz-adv-x="514" 
d="M365 0l-118 274h-9h-43v-274h-142v692h174q253 0 253 -206q0 -62 -26.5 -110.5t-81.5 -74.5l144 -301h-151zM311 400q24 27 24 86q0 54 -25.5 79.5t-83.5 25.5h-31v-218h37q55 0 79 27zM362 928l48 -50l-117 -127h-82l-116 127l48 50l109 -82z" />
    <glyph glyph-name="Rcommaaccent" unicode="&#x156;" horiz-adv-x="514" 
d="M365 0l-118 274h-9h-43v-274h-142v692h174q253 0 253 -206q0 -62 -26.5 -110.5t-81.5 -74.5l144 -301h-151zM311 400q24 27 24 86q0 54 -25.5 79.5t-83.5 25.5h-31v-218h37q55 0 79 27zM307.5 -91q18.5 -20 18.5 -50q0 -17 -4.5 -33.5t-17.5 -47.5l-38 -93h-67l26 115
q-33 21 -33 59q0 30 18.5 50t48.5 20t48.5 -20z" />
    <glyph glyph-name="uni0210" unicode="&#x210;" horiz-adv-x="514" 
d="M365 0l-118 274h-9h-43v-274h-142v692h174q253 0 253 -206q0 -62 -26.5 -110.5t-81.5 -74.5l144 -301h-151zM311 400q24 27 24 86q0 54 -25.5 79.5t-83.5 25.5h-31v-218h37q55 0 79 27zM142 974l79 -188l-66 -32l-101 173zM288 974l72 -186l-67 -29l-95 171z" />
    <glyph glyph-name="uni1E5A" unicode="&#x1e5a;" horiz-adv-x="514" 
d="M365 0l-118 274h-9h-43v-274h-142v692h174q253 0 253 -206q0 -62 -26.5 -110.5t-81.5 -74.5l144 -301h-151zM311 400q24 27 24 86q0 54 -25.5 79.5t-83.5 25.5h-31v-218h37q55 0 79 27zM201 -203q-22 23 -22 58q0 34 22 56.5t57 22.5q36 0 58 -22.5t22 -56.5
q0 -35 -22 -58t-58 -23q-35 0 -57 23z" />
    <glyph glyph-name="uni0212" unicode="&#x212;" horiz-adv-x="514" 
d="M365 0l-118 274h-9h-43v-274h-142v692h174q253 0 253 -206q0 -62 -26.5 -110.5t-81.5 -74.5l144 -301h-151zM311 400q24 27 24 86q0 54 -25.5 79.5t-83.5 25.5h-31v-218h37q55 0 79 27zM353.5 900q36.5 -42 41.5 -118l-74 -14q-16 80 -70 80q-53 0 -69 -80l-73 14
q5 76 41 118t101 42q66 0 102.5 -42z" />
    <glyph glyph-name="uni024C" unicode="&#x24c;" horiz-adv-x="525" 
d="M259 274h-7h-45v-274h-142v274h-50v99h50v319h174q253 0 253 -206q0 -62 -26.5 -110.5t-81.5 -74.5l144 -301h-151zM244 373q55 0 79 27t24 86q0 54 -25.5 79.5t-83.5 25.5h-31v-218h37z" />
    <glyph glyph-name="uni2C64" unicode="&#x2c64;" horiz-adv-x="514" 
d="M237 -114q17 0 28.5 4t26.5 13l49 -81q-50 -41 -121 -41q-75 0 -121 41.5t-46 122.5v747h174q253 0 253 -206q0 -62 -26.5 -110.5t-81.5 -74.5l144 -301h-151l-118 274h-9h-43v-337q0 -51 42 -51zM195 591v-218h37q55 0 79 27t24 86q0 54 -25.5 79.5t-83.5 25.5h-31z" />
    <glyph glyph-name="uni2C64.ss01" horiz-adv-x="365" 
d="M232 539.5q-25 -30.5 -37 -87.5v-515q0 -51 42 -51q17 0 28.5 4t26.5 13l49 -81q-50 -41 -121 -41q-75 0 -121 41.5t-46 122.5v747h124l10 -88q18 48 51.5 75t79.5 27q33 0 55 -9l-23 -133q-30 6 -49 6q-44 0 -69 -30.5z" />
    <glyph glyph-name="S" unicode="S" horiz-adv-x="471" 
d="M348 686q48 -22 87 -65l-64 -74q-58 55 -120 55q-36 0 -57 -21.5t-21 -57.5q0 -35 23 -58t87 -49q58 -24 93.5 -51t55 -67t19.5 -99q0 -61 -28 -110t-80 -77t-121 -28q-71 0 -123.5 25.5t-94.5 70.5l69 76q35 -32 68.5 -48.5t71.5 -16.5q44 0 67.5 26.5t23.5 71.5
q0 41 -22 66.5t-80 49.5q-94 39 -134 87t-40 121q0 57 27 101t75 69t108 25q62 0 110 -22z" />
    <glyph glyph-name="Sacute" unicode="&#x15a;" horiz-adv-x="471" 
d="M348 686q48 -22 87 -65l-64 -74q-58 55 -120 55q-36 0 -57 -21.5t-21 -57.5q0 -35 23 -58t87 -49q58 -24 93.5 -51t55 -67t19.5 -99q0 -61 -28 -110t-80 -77t-121 -28q-71 0 -123.5 25.5t-94.5 70.5l69 76q35 -32 68.5 -48.5t71.5 -16.5q44 0 67.5 26.5t23.5 71.5
q0 41 -22 66.5t-80 49.5q-94 39 -134 87t-40 121q0 57 27 101t75 69t108 25q62 0 110 -22zM305 936l52 -101l-197 -83l-35 68z" />
    <glyph glyph-name="Sacute.loclPLK" horiz-adv-x="471" 
d="M348 686q48 -22 87 -65l-64 -74q-58 55 -120 55q-36 0 -57 -21.5t-21 -57.5q0 -35 23 -58t87 -49q58 -24 93.5 -51t55 -67t19.5 -99q0 -61 -28 -110t-80 -77t-121 -28q-71 0 -123.5 25.5t-94.5 70.5l69 76q35 -32 68.5 -48.5t71.5 -16.5q44 0 67.5 26.5t23.5 71.5
q0 41 -22 66.5t-80 49.5q-94 39 -134 87t-40 121q0 57 27 101t75 69t108 25q62 0 110 -22zM259 952l100 -59l-117 -154l-61 37z" />
    <glyph glyph-name="uniA78B" unicode="&#xa78b;" horiz-adv-x="220" 
d="M59 339l-14 353h131l-16 -353h-101z" />
    <glyph glyph-name="Scaron" unicode="&#x160;" horiz-adv-x="471" 
d="M348 686q48 -22 87 -65l-64 -74q-58 55 -120 55q-36 0 -57 -21.5t-21 -57.5q0 -35 23 -58t87 -49q58 -24 93.5 -51t55 -67t19.5 -99q0 -61 -28 -110t-80 -77t-121 -28q-71 0 -123.5 25.5t-94.5 70.5l69 76q35 -32 68.5 -48.5t71.5 -16.5q44 0 67.5 26.5t23.5 71.5
q0 41 -22 66.5t-80 49.5q-94 39 -134 87t-40 121q0 57 27 101t75 69t108 25q62 0 110 -22zM352 928l48 -50l-117 -127h-82l-116 127l48 50l109 -82z" />
    <glyph glyph-name="Scedilla" unicode="&#x15e;" horiz-adv-x="471" 
d="M402 59q-49 -58 -134 -71v-43q86 -14 86 -92q0 -49 -33.5 -78.5t-90.5 -29.5q-54 0 -94 28l32 61q27 -12 52 -12q37 0 37 32q0 20 -18 29t-58 9l11 93q-60 6 -105 30.5t-83 64.5l69 76q35 -32 68.5 -48.5t71.5 -16.5q44 0 67.5 26.5t23.5 71.5q0 41 -22 66.5t-80 49.5
q-94 39 -134 87t-40 121q0 57 27 101t75 69t108 25q62 0 110 -22t87 -65l-64 -74q-58 55 -120 55q-36 0 -57 -21.5t-21 -57.5q0 -35 23 -58t87 -49q58 -24 93.5 -51t55 -67t19.5 -99q0 -82 -49 -140z" />
    <glyph glyph-name="Scircumflex" unicode="&#x15c;" horiz-adv-x="471" 
d="M348 686q48 -22 87 -65l-64 -74q-58 55 -120 55q-36 0 -57 -21.5t-21 -57.5q0 -35 23 -58t87 -49q58 -24 93.5 -51t55 -67t19.5 -99q0 -61 -28 -110t-80 -77t-121 -28q-71 0 -123.5 25.5t-94.5 70.5l69 76q35 -32 68.5 -48.5t71.5 -16.5q44 0 67.5 26.5t23.5 71.5
q0 41 -22 66.5t-80 49.5q-94 39 -134 87t-40 121q0 57 27 101t75 69t108 25q62 0 110 -22zM132 760l-48 50l117 127h82l116 -127l-48 -50l-110 82z" />
    <glyph glyph-name="Scommaaccent" unicode="&#x218;" horiz-adv-x="471" 
d="M348 686q48 -22 87 -65l-64 -74q-58 55 -120 55q-36 0 -57 -21.5t-21 -57.5q0 -35 23 -58t87 -49q58 -24 93.5 -51t55 -67t19.5 -99q0 -61 -28 -110t-80 -77t-121 -28q-71 0 -123.5 25.5t-94.5 70.5l69 76q35 -32 68.5 -48.5t71.5 -16.5q44 0 67.5 26.5t23.5 71.5
q0 41 -22 66.5t-80 49.5q-94 39 -134 87t-40 121q0 57 27 101t75 69t108 25q62 0 110 -22zM280.5 -91q18.5 -20 18.5 -50q0 -17 -4.5 -33.5t-17.5 -47.5l-38 -93h-67l26 115q-33 21 -33 59q0 30 18.5 50t48.5 20t48.5 -20z" />
    <glyph glyph-name="uni1E60" unicode="&#x1e60;" horiz-adv-x="471" 
d="M348 686q48 -22 87 -65l-64 -74q-58 55 -120 55q-36 0 -57 -21.5t-21 -57.5q0 -35 23 -58t87 -49q58 -24 93.5 -51t55 -67t19.5 -99q0 -61 -28 -110t-80 -77t-121 -28q-71 0 -123.5 25.5t-94.5 70.5l69 76q35 -32 68.5 -48.5t71.5 -16.5q44 0 67.5 26.5t23.5 71.5
q0 41 -22 66.5t-80 49.5q-94 39 -134 87t-40 121q0 57 27 101t75 69t108 25q62 0 110 -22zM299 903q22 -23 22 -58q0 -34 -22 -56.5t-57 -22.5q-36 0 -58 22.5t-22 56.5q0 35 22 58t58 23q35 0 57 -23z" />
    <glyph glyph-name="uni1E62" unicode="&#x1e62;" horiz-adv-x="471" 
d="M348 686q48 -22 87 -65l-64 -74q-58 55 -120 55q-36 0 -57 -21.5t-21 -57.5q0 -35 23 -58t87 -49q58 -24 93.5 -51t55 -67t19.5 -99q0 -61 -28 -110t-80 -77t-121 -28q-71 0 -123.5 25.5t-94.5 70.5l69 76q35 -32 68.5 -48.5t71.5 -16.5q44 0 67.5 26.5t23.5 71.5
q0 41 -22 66.5t-80 49.5q-94 39 -134 87t-40 121q0 57 27 101t75 69t108 25q62 0 110 -22zM174 -203q-22 23 -22 58q0 34 22 56.5t57 22.5q36 0 58 -22.5t22 -56.5q0 -35 -22 -58t-58 -23q-35 0 -57 23z" />
    <glyph glyph-name="uni1E9E" unicode="&#x1e9e;" horiz-adv-x="554" 
d="M378.5 690.5q57.5 -17.5 118.5 -49.5v-70l-123 -180q160 -32 160 -196q0 -67 -26.5 -114.5t-71.5 -72t-101 -24.5q-66 0 -107 26l40 92q22 -10 47 -10q73 0 73 104q0 60 -31 89t-100 34v81l123 183q-59 19 -109 19q-76 0 -76 -93v-509h-142v507q0 91 53 146t151 55
q64 0 121.5 -17.5z" />
    <glyph glyph-name="uni018F" unicode="&#x18f;" horiz-adv-x="535" 
d="M440.5 622.5q62.5 -85.5 62.5 -269.5q0 -190 -63 -279t-179 -89q-123 0 -181 87t-58 265q0 22 4 62h335q-2 113 -30.5 158t-85.5 45q-38 0 -67.5 -14.5t-60.5 -41.5l-63 74q44 44 93 66t111 22q120 0 182.5 -85.5zM332.5 134.5q24.5 45.5 27.5 163.5h-203q0 -117 26 -163
t76 -46q49 0 73.5 45.5z" />
    <glyph glyph-name="T" unicode="T" horiz-adv-x="444" 
d="M445 692l-15 -109h-138v-583h-141v583h-145v109h439z" />
    <glyph glyph-name="Tbar" unicode="&#x166;" horiz-adv-x="444" 
d="M430 582h-138v-193h93v-85h-93v-305h-141v305h-93v85h93v193h-145v109h439z" />
    <glyph glyph-name="Tcaron" unicode="&#x164;" horiz-adv-x="444" 
d="M445 692l-15 -109h-138v-583h-141v583h-145v109h439zM332 928l48 -50l-117 -127h-82l-116 127l48 50l109 -82z" />
    <glyph glyph-name="uni0162" unicode="&#x162;" horiz-adv-x="444" 
d="M357 -81q22 -25 22 -64q0 -51 -33.5 -80.5t-91.5 -29.5q-28 0 -52.5 8t-40.5 20l31 66q27 -17 50 -17q40 0 40 34q0 18 -18.5 27t-57.5 9l12 108h-67v583h-145v109h439l-15 -109h-138v-634q43 -5 65 -30z" />
    <glyph glyph-name="uni1E70" unicode="&#x1e70;" horiz-adv-x="444" 
d="M445 692l-15 -109h-138v-583h-141v583h-145v109h439zM111 -248l-48 50l117 133h82l116 -133l-48 -50l-110 89z" />
    <glyph glyph-name="uni021A" unicode="&#x21a;" horiz-adv-x="444" 
d="M445 692l-15 -109h-138v-583h-141v583h-145v109h439zM270.5 -91q18.5 -20 18.5 -50q0 -17 -4.5 -33.5t-17.5 -47.5l-38 -93h-67l26 115q-33 21 -33 59q0 30 18.5 50t48.5 20t48.5 -20z" />
    <glyph glyph-name="uni023E" unicode="&#x23e;" horiz-adv-x="446" 
d="M430 586h-66l-80 -203v-383h-124v67l-55 -140l-43 17l98 250v392h-154v106h349l26 65l43 -17l-19 -48h40zM284 510l30 76h-30v-76z" />
    <glyph glyph-name="uni1E6A" unicode="&#x1e6a;" horiz-adv-x="444" 
d="M445 692l-15 -109h-138v-583h-141v583h-145v109h439zM279 903q22 -23 22 -58q0 -34 -22 -56.5t-57 -22.5q-36 0 -58 22.5t-22 56.5q0 35 22 58t58 23q35 0 57 -23z" />
    <glyph glyph-name="uni1E6C" unicode="&#x1e6c;" horiz-adv-x="444" 
d="M445 692l-15 -109h-138v-583h-141v583h-145v109h439zM164 -203q-22 23 -22 58q0 34 22 56.5t57 22.5q36 0 58 -22.5t22 -56.5q0 -35 -22 -58t-58 -23q-35 0 -57 23z" />
    <glyph glyph-name="uni01AC" unicode="&#x1ac;" horiz-adv-x="492" 
d="M478 582h-137v-582h-142v582h-45q-41 0 -41 -43q0 -31 15 -62l-91 -41q-33 54 -33 115q0 66 43 103.5t118 37.5h328z" />
    <glyph glyph-name="uni1E6E" unicode="&#x1e6e;" horiz-adv-x="444" 
d="M445 692l-15 -109h-138v-583h-141v583h-145v109h439zM348 -183h-252v93h252v-93z" />
    <glyph glyph-name="uni01BC" unicode="&#x1bc;" horiz-adv-x="452" 
d="M383 593h-207v-170q22 13 42.5 19t44.5 6q72 0 117 -57.5t45 -164.5q0 -72 -27.5 -127t-78.5 -85t-119 -30q-62 0 -107 25t-82 72l75 67q27 -30 51.5 -45t56.5 -15q93 0 93 137q0 72 -20 100t-58 28q-19 0 -35 -5.5t-34 -18.5h-92v363h351z" />
    <glyph glyph-name="uni0184" unicode="&#x184;" horiz-adv-x="508" 
d="M434.5 395.5q60.5 -54.5 60.5 -164.5q0 -118 -61 -174.5t-176 -56.5h-190v503l-61 48q48 53 84 141h118v-242h50q115 0 175.5 -54.5zM325 133q23 28 23 96q0 63 -23.5 91.5t-76.5 28.5h-39v-244h43q50 0 73 28z" />
    <glyph glyph-name="uni01A7" unicode="&#x1a7;" horiz-adv-x="463" 
d="M390 656.5q56 -51.5 56 -137.5q0 -76 -40.5 -123t-136.5 -83q-59 -23 -80.5 -50.5t-21.5 -74.5q0 -46 23 -70.5t63 -24.5q37 0 69 16t67 46l70 -75q-86 -95 -217 -95q-67 0 -117.5 26.5t-77.5 73.5t-27 109q0 85 40 132.5t128 82.5q65 25 88.5 49.5t23.5 67.5
q0 38 -18.5 57t-53.5 19t-65 -13.5t-60 -40.5l-65 73q84 87 203 87q93 0 149 -51.5z" />
    <glyph glyph-name="uni01AE" unicode="&#x1ae;" horiz-adv-x="450" 
d="M363.5 -110q11.5 4 26.5 13l49 -81q-50 -41 -121 -41q-75 0 -121 41.5t-46 122.5v638h-145v109h439l-15 -109h-138v-582h1v-64q0 -51 42 -51q17 0 28.5 4z" />
    <glyph glyph-name="U" unicode="U" horiz-adv-x="537" 
d="M493 197q0 -60 -25 -108t-75.5 -76t-123.5 -28q-110 0 -168 58.5t-58 153.5v495h142v-489q0 -57 20 -84t64 -27q43 0 63 27.5t20 83.5v489h141v-495z" />
    <glyph glyph-name="Uacute" unicode="&#xda;" horiz-adv-x="537" 
d="M493 197q0 -60 -25 -108t-75.5 -76t-123.5 -28q-110 0 -168 58.5t-58 153.5v495h142v-489q0 -57 20 -84t64 -27q43 0 63 27.5t20 83.5v489h141v-495zM331 936l52 -101l-197 -83l-35 68z" />
    <glyph glyph-name="uni0244" unicode="&#x244;" horiz-adv-x="566" 
d="M553 503h-46v-306q0 -60 -25 -108t-75.5 -76t-123.5 -28q-110 0 -168 58.5t-58 153.5v306h-44v83h44v106h142v-106h167v106h141v-106h46v-83zM366 503h-167v-300q0 -57 20 -84t64 -27q43 0 63 27.5t20 83.5v300z" />
    <glyph glyph-name="Ubreve" unicode="&#x16c;" horiz-adv-x="537" 
d="M493 197q0 -60 -25 -108t-75.5 -76t-123.5 -28q-110 0 -168 58.5t-58 153.5v495h142v-489q0 -57 20 -84t64 -27q43 0 63 27.5t20 83.5v489h141v-495zM166.5 793.5q-36.5 40.5 -41.5 108.5l73 15q16 -67 69 -67q56 0 70 67l74 -15q-5 -68 -42 -108.5t-102 -40.5
q-64 0 -100.5 40.5z" />
    <glyph glyph-name="uni01D3" unicode="&#x1d3;" horiz-adv-x="537" 
d="M493 197q0 -60 -25 -108t-75.5 -76t-123.5 -28q-110 0 -168 58.5t-58 153.5v495h142v-489q0 -57 20 -84t64 -27q43 0 63 27.5t20 83.5v489h141v-495zM378 928l48 -50l-117 -127h-82l-116 127l48 50l109 -82z" />
    <glyph glyph-name="Ucircumflex" unicode="&#xdb;" horiz-adv-x="537" 
d="M493 197q0 -60 -25 -108t-75.5 -76t-123.5 -28q-110 0 -168 58.5t-58 153.5v495h142v-489q0 -57 20 -84t64 -27q43 0 63 27.5t20 83.5v489h141v-495zM158 760l-48 50l117 127h82l116 -127l-48 -50l-110 82z" />
    <glyph glyph-name="uni0214" unicode="&#x214;" horiz-adv-x="537" 
d="M493 197q0 -60 -25 -108t-75.5 -76t-123.5 -28q-110 0 -168 58.5t-58 153.5v495h142v-489q0 -57 20 -84t64 -27q43 0 63 27.5t20 83.5v489h141v-495zM158 974l79 -188l-66 -32l-101 173zM304 974l72 -186l-67 -29l-95 171z" />
    <glyph glyph-name="Udieresis" unicode="&#xdc;" horiz-adv-x="537" 
d="M493 197q0 -60 -25 -108t-75.5 -76t-123.5 -28q-110 0 -168 58.5t-58 153.5v495h142v-489q0 -57 20 -84t64 -27q43 0 63 27.5t20 83.5v489h141v-495zM225.5 893.5q19.5 -20.5 19.5 -50.5t-19.5 -50.5t-49.5 -20.5q-29 0 -49 20.5t-20 50.5t20 50.5t49 20.5
q30 0 49.5 -20.5zM417.5 893.5q19.5 -20.5 19.5 -50.5t-19.5 -50.5t-49.5 -20.5q-29 0 -49.5 20.5t-20.5 50.5t20.5 50.5t49.5 20.5q30 0 49.5 -20.5z" />
    <glyph glyph-name="uni01D7" unicode="&#x1d7;" horiz-adv-x="537" 
d="M493 197q0 -60 -25 -108t-75.5 -76t-123.5 -28q-110 0 -168 58.5t-58 153.5v495h142v-489q0 -57 20 -84t64 -27q43 0 63 27.5t20 83.5v489h141v-495zM333 1069l81 -69l-140 -141l-53 45zM215.5 869.5q19.5 -20.5 19.5 -50.5q0 -31 -19.5 -51.5t-49.5 -20.5
q-29 0 -49 20.5t-20 51.5q0 29 20 50t49 21q30 0 49.5 -20.5zM417.5 869.5q19.5 -20.5 19.5 -50.5q0 -31 -19.5 -51.5t-49.5 -20.5q-29 0 -49 20.5t-20 51.5q0 29 20 50t49 21q30 0 49.5 -20.5z" />
    <glyph glyph-name="uni01D9" unicode="&#x1d9;" horiz-adv-x="537" 
d="M493 197q0 -60 -25 -108t-75.5 -76t-123.5 -28q-110 0 -168 58.5t-58 153.5v495h142v-489q0 -57 20 -84t64 -27q43 0 63 27.5t20 83.5v489h141v-495zM379 1068l48 -50l-117 -127h-82l-116 127l48 50l109 -82zM216.5 869.5q19.5 -20.5 19.5 -50.5q0 -31 -19.5 -51.5
t-49.5 -20.5t-49.5 20.5t-19.5 51.5q0 30 19.5 50.5t49.5 20.5t49.5 -20.5zM418.5 869.5q19.5 -20.5 19.5 -50.5q0 -31 -19.5 -51.5t-49.5 -20.5t-50 20.5t-20 51.5q0 30 20 50.5t50 20.5t49.5 -20.5z" />
    <glyph glyph-name="uni01DB" unicode="&#x1db;" horiz-adv-x="537" 
d="M493 197q0 -60 -25 -108t-75.5 -76t-123.5 -28q-110 0 -168 58.5t-58 153.5v495h142v-489q0 -57 20 -84t64 -27q43 0 63 27.5t20 83.5v489h141v-495zM210 1069l113 -165l-55 -45l-139 141zM215.5 869.5q19.5 -20.5 19.5 -50.5q0 -31 -19.5 -51.5t-49.5 -20.5
q-29 0 -49 20.5t-20 51.5q0 29 20 50t49 21q30 0 49.5 -20.5zM417.5 869.5q19.5 -20.5 19.5 -50.5q0 -31 -19.5 -51.5t-49.5 -20.5q-29 0 -49 20.5t-20 51.5q0 29 20 50t49 21q30 0 49.5 -20.5z" />
    <glyph glyph-name="uni01D5" unicode="&#x1d5;" horiz-adv-x="537" 
d="M493 197q0 -60 -25 -108t-75.5 -76t-123.5 -28q-110 0 -168 58.5t-58 153.5v495h142v-489q0 -57 20 -84t64 -27q43 0 63 27.5t20 83.5v489h141v-495zM222.5 867.5q19.5 -20.5 19.5 -50.5t-19.5 -50.5t-49.5 -20.5q-29 0 -49 20.5t-20 50.5t20 50.5t49 20.5
q30 0 49.5 -20.5zM414.5 867.5q19.5 -20.5 19.5 -50.5t-19.5 -50.5t-49.5 -20.5q-29 0 -49.5 20.5t-20.5 50.5t20.5 50.5t49.5 20.5q30 0 49.5 -20.5zM395 934h-252v93h252v-93z" />
    <glyph glyph-name="uni1EE4" unicode="&#x1ee4;" horiz-adv-x="537" 
d="M493 197q0 -60 -25 -108t-75.5 -76t-123.5 -28q-110 0 -168 58.5t-58 153.5v495h142v-489q0 -57 20 -84t64 -27q43 0 63 27.5t20 83.5v489h141v-495zM210 -203q-22 23 -22 58q0 34 22 56.5t57 22.5q36 0 58 -22.5t22 -56.5q0 -35 -22 -58t-58 -23q-35 0 -57 23z" />
    <glyph glyph-name="Ugrave" unicode="&#xd9;" horiz-adv-x="537" 
d="M493 197q0 -60 -25 -108t-75.5 -76t-123.5 -28q-110 0 -168 58.5t-58 153.5v495h142v-489q0 -57 20 -84t64 -27q43 0 63 27.5t20 83.5v489h141v-495zM202 936l180 -117l-35 -67l-197 83z" />
    <glyph glyph-name="uni1EE6" unicode="&#x1ee6;" horiz-adv-x="537" 
d="M493 197q0 -60 -25 -108t-75.5 -76t-123.5 -28q-110 0 -168 58.5t-58 153.5v495h142v-489q0 -57 20 -84t64 -27q43 0 63 27.5t20 83.5v489h141v-495zM228 851q32 3 45 11.5t13 28.5q0 16 -8 24.5t-23 8.5q-14 0 -24.5 -3t-25.5 -10l-22 60q38 25 90 25q50 0 77 -26
t27 -71q0 -38 -18 -61t-51 -30v-44h-80v87z" />
    <glyph glyph-name="Uhorn" unicode="&#x1af;" horiz-adv-x="607" 
d="M583.5 598q-32.5 -30 -90.5 -33v-368q0 -60 -25 -108t-75.5 -76t-123.5 -28q-110 0 -168 58.5t-58 153.5v495h142v-489q0 -57 20 -84t64 -27q43 0 63 27.5t20 83.5v489h141v-57q17 4 24.5 15.5t7.5 33.5q0 37 -11 74l86 15q16 -40 16 -88q0 -57 -32.5 -87z" />
    <glyph glyph-name="uni1EE8" unicode="&#x1ee8;" horiz-adv-x="607" 
d="M383 835l-197 -83l-35 68l180 116zM583.5 598q-32.5 -30 -90.5 -33v-368q0 -60 -25 -108t-75.5 -76t-123.5 -28q-110 0 -168 58.5t-58 153.5v495h142v-489q0 -57 20 -84t64 -27q43 0 63 27.5t20 83.5v489h141v-57q17 4 24.5 15.5t7.5 33.5q0 37 -11 74l86 15
q16 -40 16 -88q0 -57 -32.5 -87z" />
    <glyph glyph-name="uni1EF0" unicode="&#x1ef0;" horiz-adv-x="607" 
d="M583.5 598q-32.5 -30 -90.5 -33v-368q0 -60 -25 -108t-75.5 -76t-123.5 -28q-110 0 -168 58.5t-58 153.5v495h142v-489q0 -57 20 -84t64 -27q43 0 63 27.5t20 83.5v489h141v-57q17 4 24.5 15.5t7.5 33.5q0 37 -11 74l86 15q16 -40 16 -88q0 -57 -32.5 -87zM325 -88.5
q22 -22.5 22 -56.5q0 -35 -22 -58t-58 -23q-35 0 -57 23t-22 58q0 34 22 56.5t57 22.5q36 0 58 -22.5z" />
    <glyph glyph-name="uni1EEA" unicode="&#x1eea;" horiz-adv-x="607" 
d="M382 819l-35 -67l-197 83l52 101zM583.5 598q-32.5 -30 -90.5 -33v-368q0 -60 -25 -108t-75.5 -76t-123.5 -28q-110 0 -168 58.5t-58 153.5v495h142v-489q0 -57 20 -84t64 -27q43 0 63 27.5t20 83.5v489h141v-57q17 4 24.5 15.5t7.5 33.5q0 37 -11 74l86 15
q16 -40 16 -88q0 -57 -32.5 -87z" />
    <glyph glyph-name="uni1EEC" unicode="&#x1eec;" horiz-adv-x="607" 
d="M230.5 921q-10.5 -3 -25.5 -10l-22 60q38 25 90 25q50 0 77 -26t27 -71q0 -38 -18 -61t-51 -30v-44h-80v87q32 3 45 11.5t13 28.5q0 16 -8 24.5t-23 8.5q-14 0 -24.5 -3zM583.5 598q-32.5 -30 -90.5 -33v-368q0 -60 -25 -108t-75.5 -76t-123.5 -28q-110 0 -168 58.5
t-58 153.5v495h142v-489q0 -57 20 -84t64 -27q43 0 63 27.5t20 83.5v489h141v-57q17 4 24.5 15.5t7.5 33.5q0 37 -11 74l86 15q16 -40 16 -88q0 -57 -32.5 -87z" />
    <glyph glyph-name="uni1EEE" unicode="&#x1eee;" horiz-adv-x="607" 
d="M198 804.5q-9 -9.5 -21 -32.5l-65 30q16 48 43.5 76.5t62.5 28.5q18 0 30.5 -6t31.5 -18q11 -9 19 -13t17 -4q13 0 22.5 9.5t20.5 30.5l65 -29q-16 -50 -43.5 -77.5t-61.5 -27.5q-18 0 -31.5 6.5t-31.5 18.5q-11 9 -19 13t-16 4q-14 0 -23 -9.5zM583.5 598
q-32.5 -30 -90.5 -33v-368q0 -60 -25 -108t-75.5 -76t-123.5 -28q-110 0 -168 58.5t-58 153.5v495h142v-489q0 -57 20 -84t64 -27q43 0 63 27.5t20 83.5v489h141v-57q17 4 24.5 15.5t7.5 33.5q0 37 -11 74l86 15q16 -40 16 -88q0 -57 -32.5 -87z" />
    <glyph glyph-name="Uhungarumlaut" unicode="&#x170;" horiz-adv-x="537" 
d="M493 197q0 -60 -25 -108t-75.5 -76t-123.5 -28q-110 0 -168 58.5t-58 153.5v495h142v-489q0 -57 20 -84t64 -27q43 0 63 27.5t20 83.5v489h141v-495zM233 974l89 -44l-94 -171l-67 29zM378 974l89 -47l-102 -173l-65 32z" />
    <glyph glyph-name="uni0216" unicode="&#x216;" horiz-adv-x="537" 
d="M493 197q0 -60 -25 -108t-75.5 -76t-123.5 -28q-110 0 -168 58.5t-58 153.5v495h142v-489q0 -57 20 -84t64 -27q43 0 63 27.5t20 83.5v489h141v-495zM369.5 900q36.5 -42 41.5 -118l-74 -14q-16 80 -70 80q-53 0 -69 -80l-73 14q5 76 41 118t101 42q66 0 102.5 -42z" />
    <glyph glyph-name="Umacron" unicode="&#x16a;" horiz-adv-x="537" 
d="M493 197q0 -60 -25 -108t-75.5 -76t-123.5 -28q-110 0 -168 58.5t-58 153.5v495h142v-489q0 -57 20 -84t64 -27q43 0 63 27.5t20 83.5v489h141v-495zM394 787h-252v93h252v-93z" />
    <glyph glyph-name="Uogonek" unicode="&#x172;" horiz-adv-x="537" 
d="M493 692v-495q0 -71 -34 -123.5t-100 -74.5q-52 -26 -72 -52t-20 -53q0 -23 11 -35t32 -12q20 0 50 8l-9 -88q-31 -7 -58 -7q-53 0 -87.5 30.5t-34.5 80.5q0 38 21 66.5t58 47.5q-101 6 -154 63.5t-53 148.5v495h142v-489q0 -57 20 -84t64 -27q43 0 63 27.5t20 83.5v489
h141z" />
    <glyph glyph-name="uni01B1" unicode="&#x1b1;" horiz-adv-x="566" 
d="M92.5 67.5q-67.5 82.5 -67.5 233.5q0 107 28 174t80 113h-90v104h196v-99q-35 -52 -51 -116.5t-16 -175.5q0 -114 27 -162.5t84 -48.5t84 48.5t27 162.5q0 110 -16 175t-50 117v99h196v-104h-92q53 -42 81 -110t28 -177q0 -149 -68 -232.5t-190 -83.5q-123 0 -190.5 82.5
z" />
    <glyph glyph-name="Uring" unicode="&#x16e;" horiz-adv-x="537" 
d="M493 197q0 -60 -25 -108t-75.5 -76t-123.5 -28q-110 0 -168 58.5t-58 153.5v495h142v-489q0 -57 20 -84t64 -27q43 0 63 27.5t20 83.5v489h141v-495zM353 949.5q31 -33.5 31 -89.5t-31 -89.5t-85 -33.5q-53 0 -84.5 34t-31.5 89t31.5 89t84.5 34q54 0 85 -33.5z
M240.5 901.5q-9.5 -12.5 -9.5 -41.5q0 -30 9.5 -42.5t27.5 -12.5q38 0 38 55q0 29 -9.5 41.5t-28.5 12.5q-18 0 -27.5 -12.5z" />
    <glyph glyph-name="Utilde" unicode="&#x168;" horiz-adv-x="537" 
d="M493 197q0 -60 -25 -108t-75.5 -76t-123.5 -28q-110 0 -168 58.5t-58 153.5v495h142v-489q0 -57 20 -84t64 -27q43 0 63 27.5t20 83.5v489h141v-495zM287.5 778.5q-13.5 6.5 -31.5 18.5q-11 9 -19 13t-16 4q-14 0 -23 -9.5t-21 -32.5l-65 30q16 48 43.5 76.5t62.5 28.5
q18 0 30.5 -6t31.5 -18q11 -9 19 -13t17 -4q13 0 22.5 9.5t20.5 30.5l65 -29q-16 -50 -43.5 -77.5t-61.5 -27.5q-18 0 -31.5 6.5z" />
    <glyph glyph-name="uni1E78" unicode="&#x1e78;" horiz-adv-x="537" 
d="M493 197q0 -60 -25 -108t-75.5 -76t-123.5 -28q-110 0 -168 58.5t-58 153.5v495h142v-489q0 -57 20 -84t64 -27q43 0 63 27.5t20 83.5v489h141v-495zM287.5 767.5q-13.5 6.5 -31.5 18.5q-11 9 -19 13t-16 4q-14 0 -23 -9.5t-21 -32.5l-65 30q16 48 43.5 76.5t62.5 28.5
q18 0 30.5 -6t31.5 -18q11 -9 19 -13t17 -4q13 0 22.5 9.5t20.5 30.5l65 -29q-16 -50 -43.5 -77.5t-61.5 -27.5q-18 0 -31.5 6.5zM331 1101l52 -101l-197 -83l-35 68z" />
    <glyph glyph-name="V" unicode="V" horiz-adv-x="484" 
d="M489 692l-154 -692h-179l-161 692h142l110 -574l104 574h138z" />
    <glyph glyph-name="uni01B2" unicode="&#x1b2;" horiz-adv-x="537" 
d="M459.5 672.5q33.5 -35.5 33.5 -102.5v-301q0 -89 -30 -153t-84.5 -97.5t-127.5 -33.5q-64 0 -111 26t-72 72t-25 104v505h142v-508q0 -44 17.5 -68t51.5 -24q44 0 71 43t27 126v309q0 33 -24 33q-8 0 -22 -4l-21 93q41 16 80 16q61 0 94.5 -35.5z" />
    <glyph glyph-name="uni0245" unicode="&#x245;" horiz-adv-x="501" 
d="M336 692l170 -692h-145l-112 587l-111 -587h-143l171 692h170z" />
    <glyph glyph-name="W" unicode="W" horiz-adv-x="707" 
d="M695 692l-92 -692h-184l-67 548l-70 -548h-181l-89 692h135l57 -582l76 582h148l73 -582l64 582h130z" />
    <glyph glyph-name="Wacute" unicode="&#x1e82;" horiz-adv-x="707" 
d="M695 692l-92 -692h-184l-67 548l-70 -548h-181l-89 692h135l57 -582l76 582h148l73 -582l64 582h130zM418 936l52 -101l-197 -83l-35 68z" />
    <glyph glyph-name="Wcircumflex" unicode="&#x174;" horiz-adv-x="707" 
d="M695 692l-92 -692h-184l-67 548l-70 -548h-181l-89 692h135l57 -582l76 582h148l73 -582l64 582h130zM245 760l-48 50l117 127h82l116 -127l-48 -50l-110 82z" />
    <glyph glyph-name="Wdieresis" unicode="&#x1e84;" horiz-adv-x="707" 
d="M695 692l-92 -692h-184l-67 548l-70 -548h-181l-89 692h135l57 -582l76 582h148l73 -582l64 582h130zM312.5 893.5q19.5 -20.5 19.5 -50.5t-19.5 -50.5t-49.5 -20.5q-29 0 -49 20.5t-20 50.5t20 50.5t49 20.5q30 0 49.5 -20.5zM504.5 893.5q19.5 -20.5 19.5 -50.5
t-19.5 -50.5t-49.5 -20.5q-29 0 -49.5 20.5t-20.5 50.5t20.5 50.5t49.5 20.5q30 0 49.5 -20.5z" />
    <glyph glyph-name="Wgrave" unicode="&#x1e80;" horiz-adv-x="707" 
d="M695 692l-92 -692h-184l-67 548l-70 -548h-181l-89 692h135l57 -582l76 582h148l73 -582l64 582h130zM289 936l180 -117l-35 -67l-197 83z" />
    <glyph glyph-name="uni2C72" unicode="&#x2c72;" horiz-adv-x="754" 
d="M101 0h181l70 548l67 -548h184l61 553q3 30 13 42t29 12q13 0 22.5 -3.5t21.5 -10.5l38 78q-24 17 -48 27t-56 10q-60 0 -96 -35t-43 -116l-44 -447l-73 582h-148l-76 -582l-57 582h-135z" />
    <glyph glyph-name="uni01F7" unicode="&#x1f7;" horiz-adv-x="494" 
d="M402.5 684.5q36.5 -23.5 57.5 -67t21 -102.5q0 -75 -29 -127.5t-76.5 -87.5t-119.5 -69l-61 -28v-203h-142v692h142v-40q54 56 125 56q46 0 82.5 -23.5zM309 401q27 43 27 108q0 94 -63 94q-42 0 -78 -39v-259l31 18q56 35 83 78z" />
    <glyph glyph-name="X" unicode="X" horiz-adv-x="480" 
d="M321 373l163 -373h-148l-100 279l-96 -279h-145l158 368l-146 324h148l83 -236l89 236h143z" />
    <glyph glyph-name="Y" unicode="Y" horiz-adv-x="491" 
d="M498 692l-182 -430v-262h-141v261l-182 431h148l107 -318l107 318h143z" />
    <glyph glyph-name="Yacute" unicode="&#xdd;" horiz-adv-x="491" 
d="M498 692l-182 -430v-262h-141v261l-182 431h148l107 -318l107 318h143zM308 936l52 -101l-197 -83l-35 68z" />
    <glyph glyph-name="Ycircumflex" unicode="&#x176;" horiz-adv-x="491" 
d="M498 692l-182 -430v-262h-141v261l-182 431h148l107 -318l107 318h143zM135 760l-48 50l117 127h82l116 -127l-48 -50l-110 82z" />
    <glyph glyph-name="Ydieresis" unicode="&#x178;" horiz-adv-x="491" 
d="M498 692l-182 -430v-262h-141v261l-182 431h148l107 -318l107 318h143zM202.5 893.5q19.5 -20.5 19.5 -50.5t-19.5 -50.5t-49.5 -20.5q-29 0 -49 20.5t-20 50.5t20 50.5t49 20.5q30 0 49.5 -20.5zM394.5 893.5q19.5 -20.5 19.5 -50.5t-19.5 -50.5t-49.5 -20.5
q-29 0 -49.5 20.5t-20.5 50.5t20.5 50.5t49.5 20.5q30 0 49.5 -20.5z" />
    <glyph glyph-name="uni1EF4" unicode="&#x1ef4;" horiz-adv-x="491" 
d="M498 692l-182 -430v-262h-141v261l-182 431h148l107 -318l107 318h143zM188 -203q-22 23 -22 58q0 34 22 56.5t57 22.5q36 0 58 -22.5t22 -56.5q0 -35 -22 -58t-58 -23q-35 0 -57 23z" />
    <glyph glyph-name="Ygrave" unicode="&#x1ef2;" horiz-adv-x="491" 
d="M498 692l-182 -430v-262h-141v261l-182 431h148l107 -318l107 318h143zM179 936l180 -117l-35 -67l-197 83z" />
    <glyph glyph-name="uni01B3" unicode="&#x1b3;" horiz-adv-x="519" 
d="M175 261l-182 431h148l106 -317l63 202q20 70 52 100.5t87 30.5q31 0 56 -10t48 -27l-39 -78q-11 7 -20.5 10.5t-22.5 3.5q-18 0 -29 -12t-22 -42l-104 -292v-261h-141v261z" />
    <glyph glyph-name="uni1EF6" unicode="&#x1ef6;" horiz-adv-x="491" 
d="M498 692l-182 -430v-262h-141v261l-182 431h148l107 -318l107 318h143zM205 851q32 3 45 11.5t13 28.5q0 16 -8 24.5t-23 8.5q-14 0 -24.5 -3t-25.5 -10l-22 60q38 25 90 25q50 0 77 -26t27 -71q0 -38 -18 -61t-51 -30v-44h-80v87z" />
    <glyph glyph-name="uni0232" unicode="&#x232;" horiz-adv-x="491" 
d="M498 692l-182 -430v-262h-141v261l-182 431h148l107 -318l107 318h143zM371 787h-252v93h252v-93z" />
    <glyph glyph-name="uni01A6" unicode="&#x1a6;" horiz-adv-x="519" 
d="M370 -118l-118 274h-9h-48v-156h-142v692h142v-118h37q253 0 253 -206q0 -62 -27 -110.5t-81 -75.5l144 -300h-151zM316 283q24 27 24 85q0 54 -25.5 79t-83.5 26h-36v-217h42q55 0 79 27z" />
    <glyph glyph-name="uni024E" unicode="&#x24e;" horiz-adv-x="491" 
d="M464 611h33v-83h-68l-113 -266v-262h-141v261l-113 267h-68v83h33l-34 81h143l28 -81h167l28 81h139zM248 369l55 159h-110z" />
    <glyph glyph-name="uni1EF8" unicode="&#x1ef8;" horiz-adv-x="491" 
d="M498 692l-182 -430v-262h-141v261l-182 431h148l107 -318l107 318h143zM264.5 778.5q-13.5 6.5 -31.5 18.5q-11 9 -19 13t-16 4q-14 0 -23 -9.5t-21 -32.5l-65 30q16 48 43.5 76.5t62.5 28.5q18 0 30.5 -6t31.5 -18q11 -9 19 -13t17 -4q13 0 22.5 9.5t20.5 30.5l65 -29
q-16 -50 -43.5 -77.5t-61.5 -27.5q-18 0 -31.5 6.5z" />
    <glyph glyph-name="Z" unicode="Z" horiz-adv-x="444" 
d="M424 692v-108l-258 -470h262l-14 -114h-401v107l258 474h-233v111h386z" />
    <glyph glyph-name="Zacute" unicode="&#x179;" horiz-adv-x="444" 
d="M424 692v-108l-258 -470h262l-14 -114h-401v107l258 474h-233v111h386zM290 936l52 -101l-197 -83l-35 68z" />
    <glyph glyph-name="Zacute.loclPLK" horiz-adv-x="444" 
d="M424 692v-108l-258 -470h262l-14 -114h-401v107l258 474h-233v111h386zM244 952l100 -59l-117 -154l-61 37z" />
    <glyph glyph-name="Zcaron" unicode="&#x17d;" horiz-adv-x="444" 
d="M424 692v-108l-258 -470h262l-14 -114h-401v107l258 474h-233v111h386zM337 928l48 -50l-117 -127h-82l-116 127l48 50l109 -82z" />
    <glyph glyph-name="Zdotaccent" unicode="&#x17b;" horiz-adv-x="444" 
d="M424 692v-108l-258 -470h262l-14 -114h-401v107l258 474h-233v111h386zM284 903q22 -23 22 -58q0 -34 -22 -56.5t-57 -22.5q-36 0 -58 22.5t-22 56.5q0 35 22 58t58 23q35 0 57 -23z" />
    <glyph glyph-name="uni1E92" unicode="&#x1e92;" horiz-adv-x="444" 
d="M424 692v-108l-258 -470h262l-14 -114h-401v107l258 474h-233v111h386zM159 -203q-22 23 -22 58q0 34 22 56.5t57 22.5q36 0 58 -22.5t22 -56.5q0 -35 -22 -58t-58 -23q-35 0 -57 23z" />
    <glyph glyph-name="uni0224" unicode="&#x224;" horiz-adv-x="441" 
d="M424 584l-258 -470h256v-169q0 -80 -45.5 -122t-119.5 -42q-71 0 -123 41l49 81q15 -9 28 -13t31 -4q44 0 44 51v63h-273v107l258 474h-233v111h386v-108z" />
    <glyph glyph-name="uni01B5" unicode="&#x1b5;" horiz-adv-x="444" 
d="M157 114h271l-14 -114h-401v102l110 197h-70v93h122l105 189h-242v111h386v-103l-111 -197h69v-93h-121z" />
    <glyph glyph-name="uni0299" unicode="&#x299;" horiz-adv-x="465" 
d="M435 160q0 -80 -53.5 -120t-147.5 -40h-183v526q105 20 177 20q87 0 137.5 -39t50.5 -105q0 -88 -100 -113q119 -13 119 -129zM187 454v-135h41q28 0 42.5 15t14.5 54t-14 53.5t-45 14.5q-11 0 -39 -2zM281.5 107q16.5 16 16.5 60t-16 60t-49 16h-46v-152h46
q32 0 48.5 16z" />
    <glyph glyph-name="uni0262" unicode="&#x262;" horiz-adv-x="475" 
d="M355 528q41 -18 75 -52l-63 -71q-26 21 -49.5 31t-50.5 10q-49 0 -73 -40t-24 -139q0 -74 9.5 -113.5t27 -54t44.5 -14.5t60 14v114h-56l-13 93h193v-260q-84 -60 -187 -60q-111 0 -164.5 67t-53.5 215q0 91 29.5 153.5t81.5 93.5t118 31q55 0 96 -18z" />
    <glyph glyph-name="uni029B" unicode="&#x29b;" horiz-adv-x="472" 
d="M564 719l-40 -82q-16 9 -27.5 13t-25.5 4q-21 0 -31 -13t-10 -41v-124l-58 -67q-29 18 -53 27.5t-51 9.5q-49 0 -73.5 -40t-24.5 -139q0 -74 9.5 -113.5t27 -54t44.5 -14.5t60 14v114h-56l-13 93h193v-260q-84 -60 -187 -60q-111 0 -164.5 67t-53.5 215q0 90 29 153
t78 94t110 31q36 0 65 -12v75q0 70 37 108.5t101 38.5q63 0 114 -37z" />
    <glyph glyph-name="uni029C" unicode="&#x29c;" horiz-adv-x="488" 
d="M300 0v219h-113v-219h-136v530h136v-210h113v210h136v-530h-136z" />
    <glyph glyph-name="uni026A" unicode="&#x26a;" horiz-adv-x="279" 
d="M266 433h-59v-334h59v-99h-253v99h58v334h-58v97h253v-97z" />
    <glyph glyph-name="uni029F" unicode="&#x29f;" horiz-adv-x="373" 
d="M187 530v-423h180l-13 -107h-303v530h136z" />
    <glyph glyph-name="uni0274" unicode="&#x274;" horiz-adv-x="489" 
d="M438 0h-164l-124 408q9 -63 13 -114.5t4 -122.5v-171h-116v530h162l125 -408q-8 60 -12 103t-4 106v199h116v-530z" />
    <glyph glyph-name="uni0276" unicode="&#x276;" horiz-adv-x="637" 
d="M410 96h207v-96h-293q-37 -15 -80 -15q-100 0 -157 72t-57 208q0 135 57.5 208t157.5 73q47 0 80 -16h294l-13 -96h-195q33 -49 42 -119h132v-92h-131q-7 -75 -44 -127zM302.5 126.5q18.5 40.5 18.5 138.5q0 96 -19 137t-56 41q-39 0 -57 -40t-18 -138q0 -99 18 -139
t57 -40q38 0 56.5 40.5z" />
    <glyph glyph-name="uni0280" unicode="&#x280;" horiz-adv-x="445" 
d="M302 0l-83 190h-2h-36v-190h-130v530h155q101 0 153 -43.5t52 -127.5q0 -105 -79 -146l107 -213h-137zM181 276h31q32 0 47.5 19t15.5 65q0 43 -16.5 61.5t-53.5 18.5h-24v-164z" />
    <glyph glyph-name="uni0281" unicode="&#x281;" horiz-adv-x="445" 
d="M411 171q0 -84 -52 -127.5t-153 -43.5h-155v530h130v-190h37l84 190h137l-107 -212q79 -39 79 -147zM258.5 109q16.5 18 16.5 61q0 46 -15.5 65t-47.5 19h-31v-163h24q37 0 53.5 18z" />
    <glyph glyph-name="uni028F" unicode="&#x28f;" horiz-adv-x="412" 
d="M423 530l-149 -335v-195h-136v194l-149 336h138l81 -250l80 250h135z" />
    <glyph glyph-name="a" unicode="a" horiz-adv-x="455" 
d="M408.5 96q6.5 -12 22.5 -20l-28 -90q-42 5 -68 21.5t-39 51.5q-46 -75 -130 -75q-66 0 -105 45t-39 119q0 87 53.5 132.5t156.5 45.5h37v32q0 49 -16 68.5t-55 19.5q-45 0 -115 -26l-31 87q41 19 86 29t85 10q179 0 179 -181v-231q0 -26 6.5 -38zM269 140v107h-24
q-46 0 -67.5 -21.5t-21.5 -66.5q0 -38 13 -57.5t36 -19.5q42 0 64 58z" />
    <glyph glyph-name="a.ss04" horiz-adv-x="500" 
d="M451.5 109.5q7.5 -14.5 27.5 -26.5l-39 -99q-45 10 -71.5 27.5t-41.5 46.5q-22 -34 -54 -54t-73 -20q-81 0 -125.5 72t-44.5 209q0 87 22.5 150.5t63 97t91.5 33.5q69 0 112 -60l7 44h118v-377q0 -29 7.5 -43.5zM308 141v259q-14 22 -29 33t-35 11q-35 0 -54 -39.5
t-19 -139.5q0 -103 17 -141.5t49 -38.5q38 0 71 56z" />
    <glyph glyph-name="aacute" unicode="&#xe1;" horiz-adv-x="455" 
d="M408.5 96q6.5 -12 22.5 -20l-28 -90q-42 5 -68 21.5t-39 51.5q-46 -75 -130 -75q-66 0 -105 45t-39 119q0 87 53.5 132.5t156.5 45.5h37v32q0 49 -16 68.5t-55 19.5q-45 0 -115 -26l-31 87q41 19 86 29t85 10q179 0 179 -181v-231q0 -26 6.5 -38zM269 140v107h-24
q-46 0 -67.5 -21.5t-21.5 -66.5q0 -38 13 -57.5t36 -19.5q42 0 64 58zM280 818l54 -99l-196 -91l-37 65z" />
    <glyph glyph-name="abreve" unicode="&#x103;" horiz-adv-x="455" 
d="M408.5 96q6.5 -12 22.5 -20l-28 -90q-42 5 -68 21.5t-39 51.5q-46 -75 -130 -75q-66 0 -105 45t-39 119q0 87 53.5 132.5t156.5 45.5h37v32q0 49 -16 68.5t-55 19.5q-45 0 -115 -26l-31 87q41 19 86 29t85 10q179 0 179 -181v-231q0 -26 6.5 -38zM269 140v107h-24
q-46 0 -67.5 -21.5t-21.5 -66.5q0 -38 13 -57.5t36 -19.5q42 0 64 58zM122 678q-36 42 -41 118l73 14q16 -80 69 -80q54 0 70 80l74 -14q-5 -76 -41.5 -118t-102.5 -42q-65 0 -101 42z" />
    <glyph glyph-name="uni1EAF" unicode="&#x1eaf;" horiz-adv-x="455" 
d="M408.5 96q6.5 -12 22.5 -20l-28 -90q-42 5 -68 21.5t-39 51.5q-46 -75 -130 -75q-66 0 -105 45t-39 119q0 87 53.5 132.5t156.5 45.5h37v32q0 49 -16 68.5t-55 19.5q-45 0 -115 -26l-31 87q41 19 86 29t85 10q179 0 179 -181v-231q0 -26 6.5 -38zM269 140v107h-24
q-46 0 -67.5 -21.5t-21.5 -66.5q0 -38 13 -57.5t36 -19.5q42 0 64 58zM123.5 640.5q-36.5 40.5 -41.5 108.5l73 15q16 -67 69 -67q56 0 70 67l74 -15q-5 -68 -42 -108.5t-102 -40.5q-64 0 -100.5 40.5zM292 967l81 -69l-140 -141l-53 45z" />
    <glyph glyph-name="uni1EB7" unicode="&#x1eb7;" horiz-adv-x="455" 
d="M408.5 96q6.5 -12 22.5 -20l-28 -90q-42 5 -68 21.5t-39 51.5q-46 -75 -130 -75q-66 0 -105 45t-39 119q0 87 53.5 132.5t156.5 45.5h37v32q0 49 -16 68.5t-55 19.5q-45 0 -115 -26l-31 87q41 19 86 29t85 10q179 0 179 -181v-231q0 -26 6.5 -38zM269 140v107h-24
q-46 0 -67.5 -21.5t-21.5 -66.5q0 -38 13 -57.5t36 -19.5q42 0 64 58zM122 678q-36 42 -41 118l73 14q16 -80 69 -80q54 0 70 80l74 -14q-5 -76 -41.5 -118t-102.5 -42q-65 0 -101 42zM168 -203q-22 23 -22 58q0 34 22 56.5t57 22.5q36 0 58 -22.5t22 -56.5q0 -35 -22 -58
t-58 -23q-35 0 -57 23z" />
    <glyph glyph-name="uni1EB1" unicode="&#x1eb1;" horiz-adv-x="455" 
d="M408.5 96q6.5 -12 22.5 -20l-28 -90q-42 5 -68 21.5t-39 51.5q-46 -75 -130 -75q-66 0 -105 45t-39 119q0 87 53.5 132.5t156.5 45.5h37v32q0 49 -16 68.5t-55 19.5q-45 0 -115 -26l-31 87q41 19 86 29t85 10q179 0 179 -181v-231q0 -26 6.5 -38zM269 140v107h-24
q-46 0 -67.5 -21.5t-21.5 -66.5q0 -38 13 -57.5t36 -19.5q42 0 64 58zM128.5 640.5q-36.5 40.5 -41.5 108.5l73 15q16 -67 69 -67q56 0 70 67l74 -15q-5 -68 -42 -108.5t-102 -40.5q-64 0 -100.5 40.5zM166 967l113 -165l-55 -45l-139 141z" />
    <glyph glyph-name="uni1EB3" unicode="&#x1eb3;" horiz-adv-x="455" 
d="M408.5 96q6.5 -12 22.5 -20l-28 -90q-42 5 -68 21.5t-39 51.5q-46 -75 -130 -75q-66 0 -105 45t-39 119q0 87 53.5 132.5t156.5 45.5h37v32q0 49 -16 68.5t-55 19.5q-45 0 -115 -26l-31 87q41 19 86 29t85 10q179 0 179 -181v-231q0 -26 6.5 -38zM269 140v107h-24
q-46 0 -67.5 -21.5t-21.5 -66.5q0 -38 13 -57.5t36 -19.5q42 0 64 58zM125.5 640.5q-36.5 40.5 -41.5 108.5l73 15q16 -67 69 -67q56 0 70 67l74 -15q-5 -68 -42 -108.5t-102 -40.5q-64 0 -100.5 40.5zM186 851q32 3 45 11.5t13 28.5q0 34 -31 34q-14 0 -24.5 -3t-25.5 -10
l-22 59q38 25 90 25q50 0 77 -26.5t27 -70.5q0 -38 -18 -61t-51 -30v-54h-80v97z" />
    <glyph glyph-name="uni1EB5" unicode="&#x1eb5;" horiz-adv-x="455" 
d="M408.5 96q6.5 -12 22.5 -20l-28 -90q-42 5 -68 21.5t-39 51.5q-46 -75 -130 -75q-66 0 -105 45t-39 119q0 87 53.5 132.5t156.5 45.5h37v32q0 49 -16 68.5t-55 19.5q-45 0 -115 -26l-31 87q41 19 86 29t85 10q179 0 179 -181v-231q0 -26 6.5 -38zM269 140v107h-24
q-46 0 -67.5 -21.5t-21.5 -66.5q0 -38 13 -57.5t36 -19.5q42 0 64 58zM123.5 640.5q-36.5 40.5 -41.5 108.5l73 15q16 -67 69 -67q56 0 70 67l74 -15q-5 -68 -42 -108.5t-102 -40.5q-64 0 -100.5 40.5zM242.5 804.5q-13.5 6.5 -30.5 17.5q-21 16 -35 16t-23 -9t-21 -31
l-65 28q16 45 43.5 72.5t62.5 27.5q18 0 31 -6t31 -17q21 -16 36 -16q13 0 22 9t21 29l65 -27q-16 -47 -43.5 -73.5t-61.5 -26.5q-19 0 -32.5 6.5z" />
    <glyph glyph-name="uni01CE" unicode="&#x1ce;" horiz-adv-x="455" 
d="M408.5 96q6.5 -12 22.5 -20l-28 -90q-42 5 -68 21.5t-39 51.5q-46 -75 -130 -75q-66 0 -105 45t-39 119q0 87 53.5 132.5t156.5 45.5h37v32q0 49 -16 68.5t-55 19.5q-45 0 -115 -26l-31 87q41 19 86 29t85 10q179 0 179 -181v-231q0 -26 6.5 -38zM269 140v107h-24
q-46 0 -67.5 -21.5t-21.5 -66.5q0 -38 13 -57.5t36 -19.5q42 0 64 58zM334 801l48 -51l-116 -133h-83l-116 133l48 51l109 -91z" />
    <glyph glyph-name="acircumflex" unicode="&#xe2;" horiz-adv-x="455" 
d="M408.5 96q6.5 -12 22.5 -20l-28 -90q-42 5 -68 21.5t-39 51.5q-46 -75 -130 -75q-66 0 -105 45t-39 119q0 87 53.5 132.5t156.5 45.5h37v32q0 49 -16 68.5t-55 19.5q-45 0 -115 -26l-31 87q41 19 86 29t85 10q179 0 179 -181v-231q0 -26 6.5 -38zM269 140v107h-24
q-46 0 -67.5 -21.5t-21.5 -66.5q0 -38 13 -57.5t36 -19.5q42 0 64 58zM115 629l-48 50l117 133h82l116 -133l-48 -50l-110 89z" />
    <glyph glyph-name="uni1EA5" unicode="&#x1ea5;" horiz-adv-x="455" 
d="M408.5 96q6.5 -12 22.5 -20l-28 -90q-42 5 -68 21.5t-39 51.5q-46 -75 -130 -75q-66 0 -105 45t-39 119q0 87 53.5 132.5t156.5 45.5h37v32q0 49 -16 68.5t-55 19.5q-45 0 -115 -26l-31 87q41 19 86 29t85 10q179 0 179 -181v-231q0 -26 6.5 -38zM269 140v107h-24
q-46 0 -67.5 -21.5t-21.5 -66.5q0 -38 13 -57.5t36 -19.5q42 0 64 58zM113 589l-48 50l117 127h82l116 -127l-48 -50l-110 82zM418 933l81 -69l-140 -141l-53 45z" />
    <glyph glyph-name="uni1EAD" unicode="&#x1ead;" horiz-adv-x="455" 
d="M408.5 96q6.5 -12 22.5 -20l-28 -90q-42 5 -68 21.5t-39 51.5q-46 -75 -130 -75q-66 0 -105 45t-39 119q0 87 53.5 132.5t156.5 45.5h37v32q0 49 -16 68.5t-55 19.5q-45 0 -115 -26l-31 87q41 19 86 29t85 10q179 0 179 -181v-231q0 -26 6.5 -38zM269 140v107h-24
q-46 0 -67.5 -21.5t-21.5 -66.5q0 -38 13 -57.5t36 -19.5q42 0 64 58zM115 629l-48 50l117 133h82l116 -133l-48 -50l-110 89zM168 -203q-22 23 -22 58q0 34 22 56.5t57 22.5q36 0 58 -22.5t22 -56.5q0 -35 -22 -58t-58 -23q-35 0 -57 23z" />
    <glyph glyph-name="uni1EA7" unicode="&#x1ea7;" horiz-adv-x="455" 
d="M408.5 96q6.5 -12 22.5 -20l-28 -90q-42 5 -68 21.5t-39 51.5q-46 -75 -130 -75q-66 0 -105 45t-39 119q0 87 53.5 132.5t156.5 45.5h37v32q0 49 -16 68.5t-55 19.5q-45 0 -115 -26l-31 87q41 19 86 29t85 10q179 0 179 -181v-231q0 -26 6.5 -38zM269 140v107h-24
q-46 0 -67.5 -21.5t-21.5 -66.5q0 -38 13 -57.5t36 -19.5q42 0 64 58zM111 589l-48 50l117 127h82l116 -127l-48 -50l-110 82zM27 933l113 -165l-55 -45l-139 141z" />
    <glyph glyph-name="uni1EA9" unicode="&#x1ea9;" horiz-adv-x="455" 
d="M408.5 96q6.5 -12 22.5 -20l-28 -90q-42 5 -68 21.5t-39 51.5q-46 -75 -130 -75q-66 0 -105 45t-39 119q0 87 53.5 132.5t156.5 45.5h37v32q0 49 -16 68.5t-55 19.5q-45 0 -115 -26l-31 87q41 19 86 29t85 10q179 0 179 -181v-231q0 -26 6.5 -38zM269 140v107h-24
q-46 0 -67.5 -21.5t-21.5 -66.5q0 -38 13 -57.5t36 -19.5q42 0 64 58zM113 589l-48 50l117 127h82l116 -127l-48 -50l-110 82zM311 836q32 3 45 11.5t13 28.5q0 34 -31 34q-14 0 -24.5 -3t-25.5 -10l-22 59q38 25 90 25q50 0 77 -26.5t27 -70.5q0 -38 -18 -61t-51 -30v-54
h-80v97z" />
    <glyph glyph-name="uni1EAB" unicode="&#x1eab;" horiz-adv-x="455" 
d="M408.5 96q6.5 -12 22.5 -20l-28 -90q-42 5 -68 21.5t-39 51.5q-46 -75 -130 -75q-66 0 -105 45t-39 119q0 87 53.5 132.5t156.5 45.5h37v32q0 49 -16 68.5t-55 19.5q-45 0 -115 -26l-31 87q41 19 86 29t85 10q179 0 179 -181v-231q0 -26 6.5 -38zM269 140v107h-24
q-46 0 -67.5 -21.5t-21.5 -66.5q0 -38 13 -57.5t36 -19.5q42 0 64 58zM114 584l-48 50l117 127h82l116 -127l-48 -50l-110 82zM241.5 801.5q-13.5 6.5 -30.5 17.5q-21 16 -35 16t-23 -9t-21 -31l-65 28q16 45 43.5 72.5t62.5 27.5q18 0 31 -6t31 -17q21 -16 36 -16
q13 0 22 9t21 29l65 -27q-16 -47 -43.5 -73.5t-61.5 -26.5q-19 0 -32.5 6.5z" />
    <glyph glyph-name="uni0201" unicode="&#x201;" horiz-adv-x="455" 
d="M408.5 96q6.5 -12 22.5 -20l-28 -90q-42 5 -68 21.5t-39 51.5q-46 -75 -130 -75q-66 0 -105 45t-39 119q0 87 53.5 132.5t156.5 45.5h37v32q0 49 -16 68.5t-55 19.5q-45 0 -115 -26l-31 87q41 19 86 29t85 10q179 0 179 -181v-231q0 -26 6.5 -38zM269 140v107h-24
q-46 0 -67.5 -21.5t-21.5 -66.5q0 -38 13 -57.5t36 -19.5q42 0 64 58zM122 848l79 -188l-66 -32l-101 173zM268 848l72 -186l-67 -29l-95 171z" />
    <glyph glyph-name="adieresis" unicode="&#xe4;" horiz-adv-x="455" 
d="M408.5 96q6.5 -12 22.5 -20l-28 -90q-42 5 -68 21.5t-39 51.5q-46 -75 -130 -75q-66 0 -105 45t-39 119q0 87 53.5 132.5t156.5 45.5h37v32q0 49 -16 68.5t-55 19.5q-45 0 -115 -26l-31 87q41 19 86 29t85 10q179 0 179 -181v-231q0 -26 6.5 -38zM269 140v107h-24
q-46 0 -67.5 -21.5t-21.5 -66.5q0 -38 13 -57.5t36 -19.5q42 0 64 58zM177.5 767.5q19.5 -20.5 19.5 -50.5t-19.5 -50.5t-49.5 -20.5q-29 0 -49 20.5t-20 50.5t20 50.5t49 20.5q30 0 49.5 -20.5zM369.5 767.5q19.5 -20.5 19.5 -50.5t-19.5 -50.5t-49.5 -20.5
q-29 0 -49.5 20.5t-20.5 50.5t20.5 50.5t49.5 20.5q30 0 49.5 -20.5z" />
    <glyph glyph-name="uni01DF" unicode="&#x1df;" horiz-adv-x="455" 
d="M408.5 96q6.5 -12 22.5 -20l-28 -90q-42 5 -68 21.5t-39 51.5q-46 -75 -130 -75q-66 0 -105 45t-39 119q0 87 53.5 132.5t156.5 45.5h37v32q0 49 -16 68.5t-55 19.5q-45 0 -115 -26l-31 87q41 19 86 29t85 10q179 0 179 -181v-231q0 -26 6.5 -38zM269 140v107h-24
q-46 0 -67.5 -21.5t-21.5 -66.5q0 -38 13 -57.5t36 -19.5q42 0 64 58zM178.5 730.5q19.5 -20.5 19.5 -50.5t-19.5 -50.5t-49.5 -20.5q-29 0 -49 20.5t-20 50.5t20 50.5t49 20.5q30 0 49.5 -20.5zM370.5 730.5q19.5 -20.5 19.5 -50.5t-19.5 -50.5t-49.5 -20.5
q-29 0 -49.5 20.5t-20.5 50.5t20.5 50.5t49.5 20.5q30 0 49.5 -20.5zM351 801h-252v93h252v-93z" />
    <glyph glyph-name="uni0227" unicode="&#x227;" horiz-adv-x="455" 
d="M408.5 96q6.5 -12 22.5 -20l-28 -90q-42 5 -68 21.5t-39 51.5q-46 -75 -130 -75q-66 0 -105 45t-39 119q0 87 53.5 132.5t156.5 45.5h37v32q0 49 -16 68.5t-55 19.5q-45 0 -115 -26l-31 87q41 19 86 29t85 10q179 0 179 -181v-231q0 -26 6.5 -38zM269 140v107h-24
q-46 0 -67.5 -21.5t-21.5 -66.5q0 -38 13 -57.5t36 -19.5q42 0 64 58zM281 777q22 -23 22 -58q0 -34 -22 -56.5t-57 -22.5q-36 0 -58 22.5t-22 56.5q0 35 22 58t58 23q35 0 57 -23z" />
    <glyph glyph-name="uni1EA1" unicode="&#x1ea1;" horiz-adv-x="455" 
d="M408.5 96q6.5 -12 22.5 -20l-28 -90q-42 5 -68 21.5t-39 51.5q-46 -75 -130 -75q-66 0 -105 45t-39 119q0 87 53.5 132.5t156.5 45.5h37v32q0 49 -16 68.5t-55 19.5q-45 0 -115 -26l-31 87q41 19 86 29t85 10q179 0 179 -181v-231q0 -26 6.5 -38zM269 140v107h-24
q-46 0 -67.5 -21.5t-21.5 -66.5q0 -38 13 -57.5t36 -19.5q42 0 64 58zM168 -203q-22 23 -22 58q0 34 22 56.5t57 22.5q36 0 58 -22.5t22 -56.5q0 -35 -22 -58t-58 -23q-35 0 -57 23z" />
    <glyph glyph-name="uni01E1" unicode="&#x1e1;" horiz-adv-x="455" 
d="M408.5 96q6.5 -12 22.5 -20l-28 -90q-42 5 -68 21.5t-39 51.5q-46 -75 -130 -75q-66 0 -105 45t-39 119q0 87 53.5 132.5t156.5 45.5h37v32q0 49 -16 68.5t-55 19.5q-45 0 -115 -26l-31 87q41 19 86 29t85 10q179 0 179 -181v-231q0 -26 6.5 -38zM269 140v107h-24
q-46 0 -67.5 -21.5t-21.5 -66.5q0 -38 13 -57.5t36 -19.5q42 0 64 58zM281 735q22 -23 22 -58q0 -34 -22 -56.5t-57 -22.5q-36 0 -58 22.5t-22 56.5q0 35 22 58t58 23q35 0 57 -23zM350 798h-252v93h252v-93z" />
    <glyph glyph-name="agrave" unicode="&#xe0;" horiz-adv-x="455" 
d="M408.5 96q6.5 -12 22.5 -20l-28 -90q-42 5 -68 21.5t-39 51.5q-46 -75 -130 -75q-66 0 -105 45t-39 119q0 87 53.5 132.5t156.5 45.5h37v32q0 49 -16 68.5t-55 19.5q-45 0 -115 -26l-31 87q41 19 86 29t85 10q179 0 179 -181v-231q0 -26 6.5 -38zM269 140v107h-24
q-46 0 -67.5 -21.5t-21.5 -66.5q0 -38 13 -57.5t36 -19.5q42 0 64 58zM170 818l178 -125l-37 -65l-196 91z" />
    <glyph glyph-name="uni1EA3" unicode="&#x1ea3;" horiz-adv-x="455" 
d="M408.5 96q6.5 -12 22.5 -20l-28 -90q-42 5 -68 21.5t-39 51.5q-46 -75 -130 -75q-66 0 -105 45t-39 119q0 87 53.5 132.5t156.5 45.5h37v32q0 49 -16 68.5t-55 19.5q-45 0 -115 -26l-31 87q41 19 86 29t85 10q179 0 179 -181v-231q0 -26 6.5 -38zM269 140v107h-24
q-46 0 -67.5 -21.5t-21.5 -66.5q0 -38 13 -57.5t36 -19.5q42 0 64 58zM185 704q32 3 45 11.5t13 28.5q0 34 -31 34q-14 0 -24.5 -3t-25.5 -10l-22 59q38 25 90 25q50 0 77 -26.5t27 -70.5q0 -38 -18 -61t-51 -30v-54h-80v97z" />
    <glyph glyph-name="uni0203" unicode="&#x203;" horiz-adv-x="455" 
d="M408.5 96q6.5 -12 22.5 -20l-28 -90q-42 5 -68 21.5t-39 51.5q-46 -75 -130 -75q-66 0 -105 45t-39 119q0 87 53.5 132.5t156.5 45.5h37v32q0 49 -16 68.5t-55 19.5q-45 0 -115 -26l-31 87q41 19 86 29t85 10q179 0 179 -181v-231q0 -26 6.5 -38zM269 140v107h-24
q-46 0 -67.5 -21.5t-21.5 -66.5q0 -38 13 -57.5t36 -19.5q42 0 64 58zM325.5 738q36.5 -42 41.5 -118l-74 -14q-16 80 -70 80q-53 0 -69 -80l-73 14q5 76 41 118t101 42q66 0 102.5 -42z" />
    <glyph glyph-name="uni0251" unicode="&#x251;" horiz-adv-x="500" 
d="M451.5 109.5q7.5 -14.5 27.5 -26.5l-39 -99q-45 10 -71.5 27.5t-41.5 46.5q-22 -34 -54 -54t-73 -20q-81 0 -125.5 72t-44.5 209q0 87 22.5 150.5t63 97t91.5 33.5q69 0 112 -60l7 44h118v-377q0 -29 7.5 -43.5zM308 141v259q-14 22 -29 33t-35 11q-35 0 -54 -39.5
t-19 -139.5q0 -103 17 -141.5t49 -38.5q38 0 71 56z" />
    <glyph glyph-name="uni0252" unicode="&#x252;" horiz-adv-x="500" 
d="M425.5 474q44.5 -72 44.5 -209q0 -87 -22.5 -150.5t-63 -97t-91.5 -33.5q-69 0 -112 60l-7 -44h-118v377q0 29 -7.5 43.5t-27.5 26.5l39 99q45 -10 71.5 -27.5t41.5 -46.5q22 34 54 54t73 20q81 0 125.5 -72zM310 125.5q19 39.5 19 139.5q0 103 -17 141.5t-49 38.5
q-38 0 -71 -56v-259q14 -22 29 -33t35 -11q35 0 54 39.5z" />
    <glyph glyph-name="amacron" unicode="&#x101;" horiz-adv-x="455" 
d="M408.5 96q6.5 -12 22.5 -20l-28 -90q-42 5 -68 21.5t-39 51.5q-46 -75 -130 -75q-66 0 -105 45t-39 119q0 87 53.5 132.5t156.5 45.5h37v32q0 49 -16 68.5t-55 19.5q-45 0 -115 -26l-31 87q41 19 86 29t85 10q179 0 179 -181v-231q0 -26 6.5 -38zM269 140v107h-24
q-46 0 -67.5 -21.5t-21.5 -66.5q0 -38 13 -57.5t36 -19.5q42 0 64 58zM350 661h-252v93h252v-93z" />
    <glyph glyph-name="aogonek" unicode="&#x105;" horiz-adv-x="455" 
d="M327 -65.5q-20 -25.5 -20 -55.5q0 -47 44 -47q17 0 48 7l-8 -86q-31 -7 -57 -7q-56 0 -90.5 29t-34.5 81q0 51 32 88.5t91 65.5q-24 17 -36 49q-46 -75 -130 -75q-66 0 -105 45t-39 119q0 87 53.5 132.5t156.5 45.5h37v32q0 49 -16 68.5t-55 19.5q-45 0 -115 -26l-31 87
q41 19 86 29t85 10q179 0 179 -181v-231q0 -26 6.5 -38t22.5 -20l-28 -90q-56 -26 -76 -51.5zM269 140v107h-24q-46 0 -67.5 -21.5t-21.5 -66.5q0 -38 13 -57.5t36 -19.5q42 0 64 58z" />
    <glyph glyph-name="aring" unicode="&#xe5;" horiz-adv-x="455" 
d="M408.5 96q6.5 -12 22.5 -20l-28 -90q-42 5 -68 21.5t-39 51.5q-46 -75 -130 -75q-66 0 -105 45t-39 119q0 87 53.5 132.5t156.5 45.5h37v32q0 49 -16 68.5t-55 19.5q-45 0 -115 -26l-31 87q41 19 86 29t85 10q179 0 179 -181v-231q0 -26 6.5 -38zM269 140v107h-24
q-46 0 -67.5 -21.5t-21.5 -66.5q0 -38 13 -57.5t36 -19.5q42 0 64 58zM309 823.5q31 -33.5 31 -89.5t-31 -89.5t-85 -33.5q-53 0 -84.5 34t-31.5 89t31.5 89t84.5 34q54 0 85 -33.5zM196.5 775.5q-9.5 -12.5 -9.5 -41.5q0 -30 9.5 -42.5t27.5 -12.5q38 0 38 55
q0 29 -9.5 41.5t-28.5 12.5q-18 0 -27.5 -12.5z" />
    <glyph glyph-name="aringacute" unicode="&#x1fb;" horiz-adv-x="455" 
d="M340 916l-197 -83l-35 68l180 116zM139.5 613q-31.5 34 -31.5 89t31.5 89t84.5 34q54 0 85 -33.5t31 -89.5t-31 -89.5t-85 -33.5q-53 0 -84.5 34zM196.5 743.5q-9.5 -12.5 -9.5 -41.5q0 -30 9.5 -42.5t27.5 -12.5q38 0 38 55q0 29 -9.5 41.5t-28.5 12.5
q-18 0 -27.5 -12.5zM408.5 96q6.5 -12 22.5 -20l-28 -90q-42 5 -68 21.5t-39 51.5q-46 -75 -130 -75q-66 0 -105 45t-39 119q0 87 53.5 132.5t156.5 45.5h37v32q0 49 -16 68.5t-55 19.5q-45 0 -115 -26l-31 87q41 19 86 29t85 10q179 0 179 -181v-231q0 -26 6.5 -38z
M269 140v107h-24q-46 0 -67.5 -21.5t-21.5 -66.5q0 -38 13 -57.5t36 -19.5q42 0 64 58z" />
    <glyph glyph-name="uni2C65" unicode="&#x2c65;" horiz-adv-x="455" 
d="M408.5 96q6.5 -12 22.5 -20l-28 -90q-42 5 -68 21.5t-39 51.5q-39 -64 -109 -74l-12 -58l-45 10l10 49q-55 9 -86.5 52.5t-31.5 109.5q0 163 187 172l27 128q-12 3 -28 3q-32 0 -61 -6.5t-64 -19.5l-31 82q41 19 86 29t85 10q11 0 33 -2l11 55l45 -10l-11 -54
q101 -34 101 -170v-231q0 -26 6.5 -38zM276 414l-19 -93h26v37q0 36 -7 56zM283 142v105h-38h-4l-35 -169q45 6 77 64zM161 89l32 151q-27 -9 -39 -29t-12 -53q0 -50 19 -69z" />
    <glyph glyph-name="atilde" unicode="&#xe3;" horiz-adv-x="455" 
d="M408.5 96q6.5 -12 22.5 -20l-28 -90q-42 5 -68 21.5t-39 51.5q-46 -75 -130 -75q-66 0 -105 45t-39 119q0 87 53.5 132.5t156.5 45.5h37v32q0 49 -16 68.5t-55 19.5q-45 0 -115 -26l-31 87q41 19 86 29t85 10q179 0 179 -181v-231q0 -26 6.5 -38zM269 140v107h-24
q-46 0 -67.5 -21.5t-21.5 -66.5q0 -38 13 -57.5t36 -19.5q42 0 64 58zM243.5 652.5q-13.5 6.5 -31.5 18.5q-11 9 -19 13t-16 4q-14 0 -23 -9.5t-21 -32.5l-65 30q16 48 43.5 76.5t62.5 28.5q18 0 30.5 -6t31.5 -18q11 -9 19 -13t17 -4q13 0 22.5 9.5t20.5 30.5l65 -29
q-16 -50 -43.5 -77.5t-61.5 -27.5q-18 0 -31.5 6.5z" />
    <glyph glyph-name="uni0250" unicode="&#x250;" horiz-adv-x="455" 
d="M372 110l31 -87q-41 -19 -86 -29t-85 -10q-179 0 -179 181v231q0 26 -6.5 38t-22.5 20l28 90q42 -5 68 -21.5t39 -51.5q46 75 130 75q66 0 105 -45t39 -119q0 -87 -53.5 -132.5t-156.5 -45.5h-37v-32q0 -49 16 -68.5t55 -19.5q45 0 115 26zM186 390v-107h24
q46 0 67.5 21.5t21.5 66.5q0 38 -13 57.5t-36 19.5q-42 0 -64 -58z" />
    <glyph glyph-name="ae" unicode="&#xe6;" horiz-adv-x="710" 
d="M682 224h-271q5 -76 30 -107t68 -31q25 0 49.5 10.5t53.5 32.5l56 -73q-72 -72 -171 -72q-58 0 -101.5 23.5t-72.5 66.5q-57 -90 -150 -90q-69 0 -110 45.5t-41 118.5q0 84 55 129t160 45h37v31q0 52 -16 72.5t-55 20.5q-45 0 -115 -27l-30 88q87 39 165 39
q50 0 81.5 -17.5t50.5 -51.5q55 69 140 69q87 0 138.5 -69t51.5 -200q0 -11 -3 -53zM554 316q0 69 -17 102.5t-52 33.5q-34 0 -52 -33t-22 -111h143v8zM253 100q19 18 36 54q-11 42 -12 89v1h-26q-90 0 -90 -87q0 -75 50 -75q23 0 42 18z" />
    <glyph glyph-name="aeacute" unicode="&#x1fd;" horiz-adv-x="710" 
d="M682 224h-271q5 -76 30 -107t68 -31q25 0 49.5 10.5t53.5 32.5l56 -73q-72 -72 -171 -72q-58 0 -101.5 23.5t-72.5 66.5q-57 -90 -150 -90q-69 0 -110 45.5t-41 118.5q0 84 55 129t160 45h37v31q0 52 -16 72.5t-55 20.5q-45 0 -115 -27l-30 88q87 39 165 39
q50 0 81.5 -17.5t50.5 -51.5q55 69 140 69q87 0 138.5 -69t51.5 -200q0 -11 -3 -53zM554 316q0 69 -17 102.5t-52 33.5q-34 0 -52 -33t-22 -111h143v8zM253 100q19 18 36 54q-11 42 -12 89v1h-26q-90 0 -90 -87q0 -75 50 -75q23 0 42 18zM410 818l54 -99l-196 -91l-37 65z
" />
    <glyph glyph-name="uni01E3" unicode="&#x1e3;" horiz-adv-x="710" 
d="M682 224h-271q5 -76 30 -107t68 -31q25 0 49.5 10.5t53.5 32.5l56 -73q-72 -72 -171 -72q-58 0 -101.5 23.5t-72.5 66.5q-57 -90 -150 -90q-69 0 -110 45.5t-41 118.5q0 84 55 129t160 45h37v31q0 52 -16 72.5t-55 20.5q-45 0 -115 -27l-30 88q87 39 165 39
q50 0 81.5 -17.5t50.5 -51.5q55 69 140 69q87 0 138.5 -69t51.5 -200q0 -11 -3 -53zM554 316q0 69 -17 102.5t-52 33.5q-34 0 -52 -33t-22 -111h143v8zM253 100q19 18 36 54q-11 42 -12 89v1h-26q-90 0 -90 -87q0 -75 50 -75q23 0 42 18zM480 661h-252v93h252v-93z" />
    <glyph glyph-name="b" unicode="b" horiz-adv-x="496" 
d="M424.5 475q41.5 -71 41.5 -210q0 -130 -47 -205.5t-127 -75.5q-35 0 -64 17.5t-49 48.5l-7 -50h-121v741l136 14v-279q21 33 51.5 51.5t67.5 18.5q77 0 118.5 -71zM307 125.5q19 40.5 19 139.5q0 104 -17 141.5t-48 37.5q-21 0 -40 -17.5t-34 -46.5v-243q28 -52 67 -52
q34 0 53 40.5z" />
    <glyph glyph-name="uni1E03" unicode="&#x1e03;" horiz-adv-x="496" 
d="M424.5 475q41.5 -71 41.5 -210q0 -130 -47 -205.5t-127 -75.5q-35 0 -64 17.5t-49 48.5l-7 -50h-121v741l136 14v-279q21 33 51.5 51.5t67.5 18.5q77 0 118.5 -71zM307 125.5q19 40.5 19 139.5q0 104 -17 141.5t-48 37.5q-21 0 -40 -17.5t-34 -46.5v-243q28 -52 67 -52
q34 0 53 40.5zM323 952q22 -23 22 -58q0 -34 -22 -56.5t-57 -22.5q-36 0 -58 22.5t-22 56.5q0 35 22 58t58 23q35 0 57 -23z" />
    <glyph glyph-name="uni1E05" unicode="&#x1e05;" horiz-adv-x="496" 
d="M424.5 475q41.5 -71 41.5 -210q0 -130 -47 -205.5t-127 -75.5q-35 0 -64 17.5t-49 48.5l-7 -50h-121v741l136 14v-279q21 33 51.5 51.5t67.5 18.5q77 0 118.5 -71zM307 125.5q19 40.5 19 139.5q0 104 -17 141.5t-48 37.5q-21 0 -40 -17.5t-34 -46.5v-243q28 -52 67 -52
q34 0 53 40.5zM198 -203q-22 23 -22 58q0 34 22 56.5t57 22.5q36 0 58 -22.5t22 -56.5q0 -35 -22 -58t-58 -23q-35 0 -57 23z" />
    <glyph glyph-name="uniA7B5" unicode="&#xa7b5;" horiz-adv-x="507" 
d="M436 353.5q47 -43.5 47 -147.5q0 -68 -24 -118t-65.5 -76.5t-92.5 -26.5q-68 0 -119 37v-223l-131 -19v764q0 105 53.5 158.5t142.5 53.5t139 -50t50 -138q0 -70 -29 -110t-90 -53q72 -8 119 -51.5zM346 215q0 71 -27.5 103t-73.5 32h-29l8 95h19q28 0 45 27t17 86
q0 54 -15.5 77t-44.5 23q-33 0 -48 -25t-15 -88v-431q33 -24 78 -24q86 0 86 125z" />
    <glyph glyph-name="uni0253" unicode="&#x253;" horiz-adv-x="496" 
d="M424.5 475q41.5 -71 41.5 -210q0 -130 -47 -205.5t-127 -75.5q-35 0 -64 17.5t-49 48.5l-7 -50h-121v595q0 70 44.5 115.5t125.5 45.5q65 0 121 -32l-38 -87q-33 17 -64 17q-28 0 -40.5 -15t-12.5 -47v-116q21 33 51.5 51.5t67.5 18.5q77 0 118.5 -71zM307 125.5
q19 40.5 19 139.5q0 104 -17 141.5t-48 37.5q-21 0 -40 -17.5t-34 -46.5v-243q28 -52 67 -52q34 0 53 40.5z" />
    <glyph glyph-name="uni02AD" unicode="&#x2ad;" horiz-adv-x="312" 
d="M30 400v159h252v-159h-80v86h-92v-86h-80zM30 -1v159h252v-159h-80v86h-92v-86h-80z" />
    <glyph glyph-name="uni0298" unicode="&#x298;" horiz-adv-x="668" 
d="M494 666.5q68 -41.5 105.5 -123t37.5 -196.5q0 -113 -37.5 -194.5t-106 -124.5t-158.5 -43q-91 0 -159.5 41.5t-106 123t-37.5 196.5q0 112 38 194t106.5 125t158.5 43q91 0 159 -41.5zM164 346q0 -140 44.5 -202.5t126.5 -62.5t125.5 62.5t43.5 203.5q0 137 -45 200.5
t-124 63.5q-171 0 -171 -265zM388 393q20 -21 20 -53q0 -30 -20 -50.5t-51 -20.5q-32 0 -52.5 20.5t-20.5 50.5q0 32 20 53t53 21q31 0 51 -21z" />
    <glyph glyph-name="uni02AC" unicode="&#x2ac;" horiz-adv-x="383" 
d="M358 667l-49 -267h-86l-29 196l-31 -196h-84l-54 267h64l34 -206l34 206h77l32 -207l32 207h60zM358 267l-49 -267h-86l-29 196l-31 -196h-84l-54 267h64l34 -206l34 206h77l32 -207l32 207h60z" />
    <glyph glyph-name="uni0180" unicode="&#x180;" horiz-adv-x="500" 
d="M428.5 475q41.5 -71 41.5 -210q0 -130 -47 -205.5t-127 -75.5q-35 0 -64 17.5t-49 48.5l-7 -50h-121v600h-48v84h48v57l136 14v-71h108v-84h-108v-124q21 33 51.5 51.5t67.5 18.5q77 0 118.5 -71zM311 125.5q19 40.5 19 139.5q0 104 -17 141.5t-48 37.5q-21 0 -40 -17.5
t-34 -46.5v-243q28 -52 67 -52q34 0 53 40.5z" />
    <glyph glyph-name="uni0183" unicode="&#x183;" horiz-adv-x="496" 
d="M424.5 475q41.5 -71 41.5 -210q0 -130 -47 -205.5t-127 -75.5q-35 0 -64 17.5t-49 48.5l-7 -50h-121v741h315l-15 -99h-164v-166q21 33 51.5 51.5t67.5 18.5q77 0 118.5 -71zM307 125.5q19 40.5 19 139.5q0 104 -17 141.5t-48 37.5q-21 0 -40 -17.5t-34 -46.5v-243
q28 -52 67 -52q34 0 53 40.5z" />
    <glyph glyph-name="c" unicode="c" horiz-adv-x="399" 
d="M398 483l-57 -76q-43 34 -82 34q-43 0 -64.5 -40.5t-21.5 -138.5q0 -95 22 -132.5t64 -37.5q21 0 39 7.5t40 24.5l60 -78q-64 -62 -147 -62q-105 0 -163 70t-58 207q0 88 27 152.5t76.5 98.5t116.5 34q85 0 148 -63z" />
    <glyph glyph-name="cacute" unicode="&#x107;" horiz-adv-x="399" 
d="M398 483l-57 -76q-43 34 -82 34q-43 0 -64.5 -40.5t-21.5 -138.5q0 -95 22 -132.5t64 -37.5q21 0 39 7.5t40 24.5l60 -78q-64 -62 -147 -62q-105 0 -163 70t-58 207q0 88 27 152.5t76.5 98.5t116.5 34q85 0 148 -63zM304 818l54 -99l-196 -91l-37 65z" />
    <glyph glyph-name="cacute.loclPLK" horiz-adv-x="399" 
d="M398 483l-57 -76q-43 34 -82 34q-43 0 -64.5 -40.5t-21.5 -138.5q0 -95 22 -132.5t64 -37.5q21 0 39 7.5t40 24.5l60 -78q-64 -62 -147 -62q-105 0 -163 70t-58 207q0 88 27 152.5t76.5 98.5t116.5 34q85 0 148 -63zM264 799l101 -60l-117 -159l-61 36z" />
    <glyph glyph-name="ccaron" unicode="&#x10d;" horiz-adv-x="399" 
d="M398 483l-57 -76q-43 34 -82 34q-43 0 -64.5 -40.5t-21.5 -138.5q0 -95 22 -132.5t64 -37.5q21 0 39 7.5t40 24.5l60 -78q-64 -62 -147 -62q-105 0 -163 70t-58 207q0 88 27 152.5t76.5 98.5t116.5 34q85 0 148 -63zM358 801l48 -51l-116 -133h-83l-116 133l48 51
l109 -91z" />
    <glyph glyph-name="ccedilla" unicode="&#xe7;" horiz-adv-x="399" 
d="M273 -15v-40q86 -14 86 -92q0 -49 -33.5 -78.5t-90.5 -29.5q-54 0 -94 28l32 61q27 -12 52 -12q37 0 37 32q0 20 -18 29t-58 9l11 97q-80 17 -123.5 85.5t-43.5 186.5q0 88 27 152.5t76.5 98.5t116.5 34q85 0 148 -63l-57 -76q-43 34 -82 34q-43 0 -64.5 -40.5
t-21.5 -138.5q0 -95 22 -132.5t64 -37.5q21 0 39 7.5t40 24.5l60 -78q-56 -54 -125 -61z" />
    <glyph glyph-name="ccircumflex" unicode="&#x109;" horiz-adv-x="399" 
d="M398 483l-57 -76q-43 34 -82 34q-43 0 -64.5 -40.5t-21.5 -138.5q0 -95 22 -132.5t64 -37.5q21 0 39 7.5t40 24.5l60 -78q-64 -62 -147 -62q-105 0 -163 70t-58 207q0 88 27 152.5t76.5 98.5t116.5 34q85 0 148 -63zM139 629l-48 50l117 133h82l116 -133l-48 -50l-110 89
z" />
    <glyph glyph-name="uni0255" unicode="&#x255;" horiz-adv-x="419" 
d="M386 215q30 -30 30 -83q0 -70 -44.5 -108.5t-112.5 -38.5q-31 0 -59 7l-28 -73l-66 27l31 74q-52 32 -79.5 94t-27.5 147q0 88 27 152.5t76.5 98.5t116.5 34q85 0 148 -63l-57 -76q-43 34 -82 34q-43 0 -64.5 -40.5t-21.5 -138.5q0 -75 16 -123q21 56 49.5 81t70.5 25
q47 0 77 -30zM311.5 98q12.5 12 12.5 36q0 35 -27 35q-17 0 -30 -17.5t-27 -61.5q16 -4 36 -4q23 0 35.5 12z" />
    <glyph glyph-name="cdotaccent" unicode="&#x10b;" horiz-adv-x="399" 
d="M398 483l-57 -76q-43 34 -82 34q-43 0 -64.5 -40.5t-21.5 -138.5q0 -95 22 -132.5t64 -37.5q21 0 39 7.5t40 24.5l60 -78q-64 -62 -147 -62q-105 0 -163 70t-58 207q0 88 27 152.5t76.5 98.5t116.5 34q85 0 148 -63zM305 777q22 -23 22 -58q0 -34 -22 -56.5t-57 -22.5
q-36 0 -58 22.5t-22 56.5q0 35 22 58t58 23q35 0 57 -23z" />
    <glyph glyph-name="uni0188" unicode="&#x188;" horiz-adv-x="399" 
d="M532 719l-40 -82q-16 9 -27.5 13t-25.5 4q-21 0 -31 -13t-10 -41v-117l-55 -74q-24 16 -43.5 24t-40.5 8q-43 0 -64.5 -40.5t-21.5 -138.5q0 -95 22 -132.5t64 -37.5q21 0 39 7.5t40 24.5l60 -78q-64 -62 -147 -62q-105 0 -163 70t-58 207q0 88 26 152.5t72.5 98.5
t106.5 34q23 0 44 -7v70q0 70 37 108.5t101 38.5q62 0 115 -37z" />
    <glyph glyph-name="uni0297" unicode="&#x297;" horiz-adv-x="416" 
d="M415 483l-57 -78q-43 34 -84 34q-47 0 -69.5 -62t-22.5 -216q0 -105 10.5 -164t30 -82.5t49.5 -23.5q22 0 39.5 7.5t40.5 24.5l60 -80q-64 -61 -147 -61q-225 0 -225 377q0 192 59 289.5t168 97.5q85 0 148 -63z" />
    <glyph glyph-name="uni023C" unicode="&#x23c;" horiz-adv-x="399" 
d="M298 99.5q18 7.5 40 24.5l60 -78q-64 -62 -147 -62q-22 0 -41 3l-13 -60l-45 10l14 61q-66 25 -101 91.5t-35 171.5q0 88 27 152.5t76.5 98.5t116.5 34q18 0 36 -3l12 56l45 -10l-13 -59q35 -14 68 -47l-57 -76q-15 12 -33 22l-74 -333q11 -4 25 -4q21 0 39 7.5zM195 131
l68 310h-4q-43 0 -64.5 -40.5t-21.5 -138.5q0 -90 22 -131z" />
    <glyph glyph-name="d" unicode="d" horiz-adv-x="498" 
d="M447 741v-741h-121l-6 59q-47 -75 -121 -75q-82 0 -125.5 73.5t-43.5 207.5q0 85 22.5 148.5t63.5 98t93 34.5q62 0 102 -52v262zM311 143v253q-15 24 -31 36t-35 12q-74 0 -74 -179q0 -99 18 -139.5t51 -40.5q39 0 71 58z" />
    <glyph glyph-name="eth" unicode="&#xf0;" horiz-adv-x="489" 
d="M418.5 503q35.5 -95 35.5 -228q0 -132 -56.5 -211t-158.5 -79q-60 0 -107.5 28.5t-74.5 85t-27 135.5q0 71 23 126.5t62 86t85 30.5q35 0 61 -12t48 -37q-11 55 -29.5 93t-52.5 71l-51 -62l-83 42l57 68q-46 18 -78 26l25 89q62 -14 123 -40l61 75l73 -55l-54 -68
q83 -69 118.5 -164zM298 124.5q19 39.5 19 127.5l-1 77q-31 51 -76 51q-37 0 -55 -35.5t-18 -107.5q0 -82 19 -117t55 -35q38 0 57 39.5z" />
    <glyph glyph-name="uni0238" unicode="&#x238;" horiz-adv-x="723" 
d="M692 265q0 -133 -45 -206.5t-120 -73.5q-32 0 -59 19t-45 51l-8 -55h-105l-8 59q-43 -74 -113 -74q-76 0 -117.5 72.5t-41.5 207.5q0 88 21 151t58 96t84 33q64 0 102 -60v256l136 15v-277q20 31 48.5 48.5t65.5 17.5q147 0 147 -280zM295 139v258q-27 47 -60 47
q-30 0 -47 -39.5t-17 -139.5q0 -102 15 -140.5t43 -38.5q35 0 66 53zM535.5 124q16.5 39 16.5 141q0 105 -15 142t-43 37q-20 0 -35 -13.5t-28 -38.5v-256q13 -25 26.5 -38t32.5 -13q29 0 45.5 39z" />
    <glyph glyph-name="dcaron" unicode="&#x10f;" horiz-adv-x="575" 
d="M447 741v-741h-121l-6 59q-47 -75 -121 -75q-82 0 -125.5 73.5t-43.5 207.5q0 85 22.5 148.5t63.5 98t93 34.5q62 0 102 -52v262zM311 143v253q-15 24 -31 36t-35 12q-74 0 -74 -179q0 -99 18 -139.5t51 -40.5q39 0 71 58zM553 536l45 204l-101 15l-19 -207z" />
    <glyph glyph-name="uni1E13" unicode="&#x1e13;" horiz-adv-x="498" 
d="M447 741v-741h-121l-6 59q-47 -75 -121 -75q-82 0 -125.5 73.5t-43.5 207.5q0 85 22.5 148.5t63.5 98t93 34.5q62 0 102 -52v262zM311 143v253q-15 24 -31 36t-35 12q-74 0 -74 -179q0 -99 18 -139.5t51 -40.5q39 0 71 58zM144 -248l-48 50l117 133h82l116 -133l-48 -50
l-110 89z" />
    <glyph glyph-name="dcroat" unicode="&#x111;" horiz-adv-x="502" 
d="M495 684v-84h-48v-600h-121l-6 59q-47 -75 -121 -75q-82 0 -125.5 73.5t-43.5 207.5q0 85 22.5 148.5t63.5 98t93 34.5q62 0 102 -52v106h-110v84h110v72l136 -15v-57h48zM311 143v253q-15 24 -31 36t-35 12q-74 0 -74 -179q0 -99 18 -139.5t51 -40.5q39 0 71 58z" />
    <glyph glyph-name="uni0221" unicode="&#x221;" horiz-adv-x="650" 
d="M630.5 206q27.5 -29 27.5 -80q0 -70 -44 -105.5t-115 -35.5q-21 0 -40 3l-28 -69l-63 26l26 64q-40 20 -62 61q-53 -86 -133 -86q-82 0 -125.5 73.5t-43.5 207.5q0 85 22.5 148.5t63.5 98t93 34.5q62 0 102 -52v262l136 -15v-581q0 -17 1 -24q22 53 48 76t64 23
q43 0 70.5 -29zM312 145q-1 6 -1 20v231q-15 24 -31 36t-35 12q-74 0 -74 -179q0 -99 18 -139.5t51 -40.5q40 0 72 60zM565 130q0 29 -21 29q-13 0 -23 -15t-26 -58q7 -1 22 -1q48 0 48 45z" />
    <glyph glyph-name="uni1E0B" unicode="&#x1e0b;" horiz-adv-x="498" 
d="M447 741v-741h-121l-6 59q-47 -75 -121 -75q-82 0 -125.5 73.5t-43.5 207.5q0 85 22.5 148.5t63.5 98t93 34.5q62 0 102 -52v262zM311 143v253q-15 24 -31 36t-35 12q-74 0 -74 -179q0 -99 18 -139.5t51 -40.5q39 0 71 58zM303 952q22 -23 22 -58q0 -34 -22 -56.5
t-57 -22.5q-36 0 -58 22.5t-22 56.5q0 35 22 58t58 23q35 0 57 -23z" />
    <glyph glyph-name="uni1E0D" unicode="&#x1e0d;" horiz-adv-x="498" 
d="M447 741v-741h-121l-6 59q-47 -75 -121 -75q-82 0 -125.5 73.5t-43.5 207.5q0 85 22.5 148.5t63.5 98t93 34.5q62 0 102 -52v262zM311 143v253q-15 24 -31 36t-35 12q-74 0 -74 -179q0 -99 18 -139.5t51 -40.5q39 0 71 58zM197 -203q-22 23 -22 58q0 34 22 56.5t57 22.5
q36 0 58 -22.5t22 -56.5q0 -35 -22 -58t-58 -23q-35 0 -57 23z" />
    <glyph glyph-name="uni018D" unicode="&#x18d;" horiz-adv-x="486" 
d="M328 70q48 -30 65.5 -62t17.5 -77q0 -66 -45.5 -109t-134.5 -43q-47 0 -87.5 16t-69.5 42l57 70q24 -16 45 -23.5t47 -7.5q59 0 59 56q0 19 -6 32t-23 26t-52 31q-62 32 -99 66t-54.5 81.5t-17.5 116.5q1 125 57.5 193t155.5 68q101 0 157 -63t56 -191q0 -154 -128 -222z
M178 201.5q7 -29.5 26 -51.5t56 -44q32 32 44 74.5t13 109.5q0 87 -17.5 120.5t-55.5 33.5q-39 0 -56 -35.5t-17 -129.5q0 -48 7 -77.5z" />
    <glyph glyph-name="uni02A4" unicode="&#x2a4;" horiz-adv-x="844" 
d="M784.5 153.5q46.5 -50.5 46.5 -144.5q0 -67 -26.5 -118.5t-77 -80.5t-119.5 -29q-125 0 -196 98l73 68q31 -33 56.5 -47t58.5 -14q44 0 67 32t23 95q0 61 -25 87t-80 26h-71v83l147 218h-214v-427h-121l-6 59q-47 -75 -121 -75q-82 0 -125.5 73.5t-43.5 207.5
q0 85 22.5 148.5t63.5 98t93 34.5q62 0 102 -52v262l136 -15v-211h356v-95l-155 -225q90 -6 136.5 -56.5zM311 143v253q-15 24 -31 36t-35 12q-74 0 -74 -179q0 -99 18 -139.5t51 -40.5q39 0 71 58z" />
    <glyph glyph-name="uni0257" unicode="&#x257;" horiz-adv-x="498" 
d="M581 719l-40 -82q-16 9 -27.5 13t-25.5 4q-21 0 -31 -13t-10 -41v-600h-121l-6 59q-47 -75 -121 -75q-83 0 -126 73t-43 208q0 85 22.5 148.5t63.5 98t93 34.5q62 0 102 -52v101q0 76 41 118.5t115 42.5q63 0 114 -37zM311 143v253q-15 24 -31 36t-35 12q-74 0 -74 -179
q0 -99 18 -139.5t51 -40.5q39 0 71 58z" />
    <glyph glyph-name="uni1E0F" unicode="&#x1e0f;" horiz-adv-x="498" 
d="M447 741v-741h-121l-6 59q-47 -75 -121 -75q-82 0 -125.5 73.5t-43.5 207.5q0 85 22.5 148.5t63.5 98t93 34.5q62 0 102 -52v262zM311 143v253q-15 24 -31 36t-35 12q-74 0 -74 -179q0 -99 18 -139.5t51 -40.5q39 0 71 58zM381 -183h-252v93h252v-93z" />
    <glyph glyph-name="uni0256" unicode="&#x256;" horiz-adv-x="498" 
d="M595 -178q-50 -41 -123 -41q-72 0 -117 41t-45 118v61h1v45q-45 -62 -112 -62q-83 0 -126 73t-43 208q0 85 22.5 148.5t63.5 98t93 34.5q62 0 102 -52v262l136 -15v-741h-1v-66q0 -51 45 -51q15 0 27.5 4t27.5 13zM311 143v253q-15 24 -31 36t-35 12q-74 0 -74 -179
q0 -99 18 -139.5t51 -40.5q39 0 71 58z" />
    <glyph glyph-name="uni018C" unicode="&#x18c;" horiz-adv-x="498" 
d="M447 0h-121l-6 59q-47 -75 -121 -75q-82 0 -125.5 72.5t-43.5 203.5q0 83 22.5 145.5t63.5 96.5t93 34q63 0 102 -51v157h-171v99h307v-741zM311 143v244q-15 24 -31 36t-35 12q-34 0 -54 -41.5t-20 -132.5q0 -96 18 -136t51 -40q39 0 71 58z" />
    <glyph glyph-name="uni01F3" unicode="&#x1f3;" horiz-adv-x="878" 
d="M447 741v-741h-121l-6 59q-47 -75 -121 -75q-82 0 -125.5 73.5t-43.5 207.5q0 85 22.5 148.5t63.5 98t93 34.5q62 0 102 -52v262zM311 143v253q-15 24 -31 36t-35 12q-74 0 -74 -179q0 -99 18 -139.5t51 -40.5q39 0 71 58zM861 530v-97l-205 -327h209l-12 -106h-344v98
l205 327h-187v105h334z" />
    <glyph glyph-name="uni02A3" unicode="&#x2a3;" horiz-adv-x="811" 
d="M798 106l-12 -106h-460l-6 59q-47 -75 -121 -75q-82 0 -125.5 73.5t-43.5 207.5q0 85 22.5 148.5t63.5 98t93 34.5q62 0 102 -52v262l136 -15v-211h347v-97l-205 -327h209zM311 143v253q-15 24 -31 36t-35 12q-74 0 -74 -179q0 -99 18 -139.5t51 -40.5q39 0 71 58z
M447 425v-319l200 319h-200z" />
    <glyph glyph-name="uni01C6" unicode="&#x1c6;" horiz-adv-x="878" 
d="M447 741v-741h-121l-6 59q-47 -75 -121 -75q-82 0 -125.5 73.5t-43.5 207.5q0 85 22.5 148.5t63.5 98t93 34.5q62 0 102 -52v262zM311 143v253q-15 24 -31 36t-35 12q-74 0 -74 -179q0 -99 18 -139.5t51 -40.5q39 0 71 58zM861 530v-97l-205 -327h209l-12 -106h-344v98
l205 327h-187v105h334zM802 801l48 -51l-116 -133h-83l-116 133l48 51l109 -91z" />
    <glyph glyph-name="uni02A5" unicode="&#x2a5;" horiz-adv-x="889" 
d="M860 34.5q-43 -34.5 -134 -34.5q-4 -27 -4 -88v-38h-77q0 63 5 126h-324l-6 59q-47 -75 -121 -75q-82 0 -125.5 73.5t-43.5 207.5q0 85 22.5 148.5t63.5 98t93 34.5q62 0 102 -52v262l136 -15v-211h346v-93l-205 -331h77q17 75 50 109t82 34q47 0 76.5 -29t29.5 -81
q0 -70 -43 -104.5zM311 143v253q-15 24 -31 36t-35 12q-74 0 -74 -179q0 -99 18 -139.5t51 -40.5q39 0 71 58zM447 425v-317l199 317h-199zM740 106h5q36 0 51 8t15 31q0 29 -24 29q-34 0 -47 -68z" />
    <glyph glyph-name="e" unicode="e" horiz-adv-x="466" 
d="M438 224h-271q4 -78 27.5 -108t65.5 -30q29 0 54 10.5t54 32.5l56 -75q-72 -70 -173 -70q-107 0 -164 73t-57 204t54 208t155 77q95 0 148.5 -68.5t53.5 -200.5q0 -11 -3 -53zM309 316q0 72 -16 104.5t-53 32.5q-34 0 -51.5 -32t-21.5 -113h142v8z" />
    <glyph glyph-name="eacute" unicode="&#xe9;" horiz-adv-x="466" 
d="M438 224h-271q4 -78 27.5 -108t65.5 -30q29 0 54 10.5t54 32.5l56 -75q-72 -70 -173 -70q-107 0 -164 73t-57 204t54 208t155 77q95 0 148.5 -68.5t53.5 -200.5q0 -11 -3 -53zM309 316q0 72 -16 104.5t-53 32.5q-34 0 -51.5 -32t-21.5 -113h142v8zM295 818l54 -99
l-196 -91l-37 65z" />
    <glyph glyph-name="ebreve" unicode="&#x115;" horiz-adv-x="466" 
d="M438 224h-271q4 -78 27.5 -108t65.5 -30q29 0 54 10.5t54 32.5l56 -75q-72 -70 -173 -70q-107 0 -164 73t-57 204t54 208t155 77q95 0 148.5 -68.5t53.5 -200.5q0 -11 -3 -53zM309 316q0 72 -16 104.5t-53 32.5q-34 0 -51.5 -32t-21.5 -113h142v8zM137 678
q-36 42 -41 118l73 14q16 -80 69 -80q54 0 70 80l74 -14q-5 -76 -41.5 -118t-102.5 -42q-65 0 -101 42z" />
    <glyph glyph-name="ecaron" unicode="&#x11b;" horiz-adv-x="466" 
d="M438 224h-271q4 -78 27.5 -108t65.5 -30q29 0 54 10.5t54 32.5l56 -75q-72 -70 -173 -70q-107 0 -164 73t-57 204t54 208t155 77q95 0 148.5 -68.5t53.5 -200.5q0 -11 -3 -53zM309 316q0 72 -16 104.5t-53 32.5q-34 0 -51.5 -32t-21.5 -113h142v8zM349 801l48 -51
l-116 -133h-83l-116 133l48 51l109 -91z" />
    <glyph glyph-name="uni0229" unicode="&#x229;" horiz-adv-x="466" 
d="M438 224h-271q4 -78 27.5 -108t65.5 -30q29 0 54 10.5t54 32.5l56 -75q-59 -57 -138 -68v-41q86 -14 86 -92q0 -49 -33.5 -78.5t-90.5 -29.5q-54 0 -94 28l32 61q27 -12 52 -12q37 0 37 32q0 20 -18 29t-58 9l11 95q-88 13 -134 84.5t-46 189.5q0 131 54 208t155 77
q95 0 148.5 -68.5t53.5 -200.5q0 -11 -3 -53zM309 316q0 72 -16 104.5t-53 32.5q-34 0 -51.5 -32t-21.5 -113h142v8z" />
    <glyph glyph-name="ecircumflex" unicode="&#xea;" horiz-adv-x="466" 
d="M438 224h-271q4 -78 27.5 -108t65.5 -30q29 0 54 10.5t54 32.5l56 -75q-72 -70 -173 -70q-107 0 -164 73t-57 204t54 208t155 77q95 0 148.5 -68.5t53.5 -200.5q0 -11 -3 -53zM309 316q0 72 -16 104.5t-53 32.5q-34 0 -51.5 -32t-21.5 -113h142v8zM130 629l-48 50
l117 133h82l116 -133l-48 -50l-110 89z" />
    <glyph glyph-name="uni1EBF" unicode="&#x1ebf;" horiz-adv-x="466" 
d="M438 224h-271q4 -78 27.5 -108t65.5 -30q29 0 54 10.5t54 32.5l56 -75q-72 -70 -173 -70q-107 0 -164 73t-57 204t54 208t155 77q95 0 148.5 -68.5t53.5 -200.5q0 -11 -3 -53zM309 316q0 72 -16 104.5t-53 32.5q-34 0 -51.5 -32t-21.5 -113h142v8zM128 589l-48 50
l117 127h82l116 -127l-48 -50l-110 82zM433 933l81 -69l-140 -141l-53 45z" />
    <glyph glyph-name="uni1EC7" unicode="&#x1ec7;" horiz-adv-x="466" 
d="M438 224h-271q4 -78 27.5 -108t65.5 -30q29 0 54 10.5t54 32.5l56 -75q-72 -70 -173 -70q-107 0 -164 73t-57 204t54 208t155 77q95 0 148.5 -68.5t53.5 -200.5q0 -11 -3 -53zM309 316q0 72 -16 104.5t-53 32.5q-34 0 -51.5 -32t-21.5 -113h142v8zM130 629l-48 50
l117 133h82l116 -133l-48 -50l-110 89zM190 -203q-22 23 -22 58q0 34 22 56.5t57 22.5q36 0 58 -22.5t22 -56.5q0 -35 -22 -58t-58 -23q-35 0 -57 23z" />
    <glyph glyph-name="uni1EC1" unicode="&#x1ec1;" horiz-adv-x="466" 
d="M438 224h-271q4 -78 27.5 -108t65.5 -30q29 0 54 10.5t54 32.5l56 -75q-72 -70 -173 -70q-107 0 -164 73t-57 204t54 208t155 77q95 0 148.5 -68.5t53.5 -200.5q0 -11 -3 -53zM309 316q0 72 -16 104.5t-53 32.5q-34 0 -51.5 -32t-21.5 -113h142v8zM126 589l-48 50
l117 127h82l116 -127l-48 -50l-110 82zM42 933l113 -165l-55 -45l-139 141z" />
    <glyph glyph-name="uni1EC3" unicode="&#x1ec3;" horiz-adv-x="466" 
d="M438 224h-271q4 -78 27.5 -108t65.5 -30q29 0 54 10.5t54 32.5l56 -75q-72 -70 -173 -70q-107 0 -164 73t-57 204t54 208t155 77q95 0 148.5 -68.5t53.5 -200.5q0 -11 -3 -53zM309 316q0 72 -16 104.5t-53 32.5q-34 0 -51.5 -32t-21.5 -113h142v8zM128 589l-48 50
l117 127h82l116 -127l-48 -50l-110 82zM326 836q32 3 45 11.5t13 28.5q0 34 -31 34q-14 0 -24.5 -3t-25.5 -10l-22 59q38 25 90 25q50 0 77 -26.5t27 -70.5q0 -38 -18 -61t-51 -30v-54h-80v97z" />
    <glyph glyph-name="uni1EC5" unicode="&#x1ec5;" horiz-adv-x="466" 
d="M438 224h-271q4 -78 27.5 -108t65.5 -30q29 0 54 10.5t54 32.5l56 -75q-72 -70 -173 -70q-107 0 -164 73t-57 204t54 208t155 77q95 0 148.5 -68.5t53.5 -200.5q0 -11 -3 -53zM309 316q0 72 -16 104.5t-53 32.5q-34 0 -51.5 -32t-21.5 -113h142v8zM129 584l-48 50
l117 127h82l116 -127l-48 -50l-110 82zM256.5 801.5q-13.5 6.5 -30.5 17.5q-21 16 -35 16t-23 -9t-21 -31l-65 28q16 45 43.5 72.5t62.5 27.5q18 0 31 -6t31 -17q21 -16 36 -16q13 0 22 9t21 29l65 -27q-16 -47 -43.5 -73.5t-61.5 -26.5q-19 0 -32.5 6.5z" />
    <glyph glyph-name="uni0205" unicode="&#x205;" horiz-adv-x="466" 
d="M438 224h-271q4 -78 27.5 -108t65.5 -30q29 0 54 10.5t54 32.5l56 -75q-72 -70 -173 -70q-107 0 -164 73t-57 204t54 208t155 77q95 0 148.5 -68.5t53.5 -200.5q0 -11 -3 -53zM309 316q0 72 -16 104.5t-53 32.5q-34 0 -51.5 -32t-21.5 -113h142v8zM137 848l79 -188
l-66 -32l-101 173zM283 848l72 -186l-67 -29l-95 171z" />
    <glyph glyph-name="edieresis" unicode="&#xeb;" horiz-adv-x="466" 
d="M438 224h-271q4 -78 27.5 -108t65.5 -30q29 0 54 10.5t54 32.5l56 -75q-72 -70 -173 -70q-107 0 -164 73t-57 204t54 208t155 77q95 0 148.5 -68.5t53.5 -200.5q0 -11 -3 -53zM309 316q0 72 -16 104.5t-53 32.5q-34 0 -51.5 -32t-21.5 -113h142v8zM192.5 767.5
q19.5 -20.5 19.5 -50.5t-19.5 -50.5t-49.5 -20.5q-29 0 -49 20.5t-20 50.5t20 50.5t49 20.5q30 0 49.5 -20.5zM384.5 767.5q19.5 -20.5 19.5 -50.5t-19.5 -50.5t-49.5 -20.5q-29 0 -49.5 20.5t-20.5 50.5t20.5 50.5t49.5 20.5q30 0 49.5 -20.5z" />
    <glyph glyph-name="edotaccent" unicode="&#x117;" horiz-adv-x="466" 
d="M438 224h-271q4 -78 27.5 -108t65.5 -30q29 0 54 10.5t54 32.5l56 -75q-72 -70 -173 -70q-107 0 -164 73t-57 204t54 208t155 77q95 0 148.5 -68.5t53.5 -200.5q0 -11 -3 -53zM309 316q0 72 -16 104.5t-53 32.5q-34 0 -51.5 -32t-21.5 -113h142v8zM296 777q22 -23 22 -58
q0 -34 -22 -56.5t-57 -22.5q-36 0 -58 22.5t-22 56.5q0 35 22 58t58 23q35 0 57 -23z" />
    <glyph glyph-name="uni1EB9" unicode="&#x1eb9;" horiz-adv-x="466" 
d="M438 224h-271q4 -78 27.5 -108t65.5 -30q29 0 54 10.5t54 32.5l56 -75q-72 -70 -173 -70q-107 0 -164 73t-57 204t54 208t155 77q95 0 148.5 -68.5t53.5 -200.5q0 -11 -3 -53zM309 316q0 72 -16 104.5t-53 32.5q-34 0 -51.5 -32t-21.5 -113h142v8zM190 -203
q-22 23 -22 58q0 34 22 56.5t57 22.5q36 0 58 -22.5t22 -56.5q0 -35 -22 -58t-58 -23q-35 0 -57 23z" />
    <glyph glyph-name="egrave" unicode="&#xe8;" horiz-adv-x="466" 
d="M438 224h-271q4 -78 27.5 -108t65.5 -30q29 0 54 10.5t54 32.5l56 -75q-72 -70 -173 -70q-107 0 -164 73t-57 204t54 208t155 77q95 0 148.5 -68.5t53.5 -200.5q0 -11 -3 -53zM309 316q0 72 -16 104.5t-53 32.5q-34 0 -51.5 -32t-21.5 -113h142v8zM185 818l178 -125
l-37 -65l-196 91z" />
    <glyph glyph-name="uni1EBB" unicode="&#x1ebb;" horiz-adv-x="466" 
d="M438 224h-271q4 -78 27.5 -108t65.5 -30q29 0 54 10.5t54 32.5l56 -75q-72 -70 -173 -70q-107 0 -164 73t-57 204t54 208t155 77q95 0 148.5 -68.5t53.5 -200.5q0 -11 -3 -53zM309 316q0 72 -16 104.5t-53 32.5q-34 0 -51.5 -32t-21.5 -113h142v8zM200 704q32 3 45 11.5
t13 28.5q0 34 -31 34q-14 0 -24.5 -3t-25.5 -10l-22 59q38 25 90 25q50 0 77 -26.5t27 -70.5q0 -38 -18 -61t-51 -30v-54h-80v97z" />
    <glyph glyph-name="uni0207" unicode="&#x207;" horiz-adv-x="466" 
d="M438 224h-271q4 -78 27.5 -108t65.5 -30q29 0 54 10.5t54 32.5l56 -75q-72 -70 -173 -70q-107 0 -164 73t-57 204t54 208t155 77q95 0 148.5 -68.5t53.5 -200.5q0 -11 -3 -53zM309 316q0 72 -16 104.5t-53 32.5q-34 0 -51.5 -32t-21.5 -113h142v8zM340.5 738
q36.5 -42 41.5 -118l-74 -14q-16 80 -70 80q-53 0 -69 -80l-73 14q5 76 41 118t101 42q66 0 102.5 -42z" />
    <glyph glyph-name="emacron" unicode="&#x113;" horiz-adv-x="466" 
d="M438 224h-271q4 -78 27.5 -108t65.5 -30q29 0 54 10.5t54 32.5l56 -75q-72 -70 -173 -70q-107 0 -164 73t-57 204t54 208t155 77q95 0 148.5 -68.5t53.5 -200.5q0 -11 -3 -53zM309 316q0 72 -16 104.5t-53 32.5q-34 0 -51.5 -32t-21.5 -113h142v8zM365 661h-252v93h252
v-93z" />
    <glyph glyph-name="eogonek" unicode="&#x119;" horiz-adv-x="466" 
d="M438 224h-271q4 -78 27.5 -108t65.5 -30q29 0 54 10.5t54 32.5l56 -75q-39 -37 -81 -53q-46 -25 -63.5 -49.5t-17.5 -49.5q0 -23 11 -35t32 -12q20 0 50 8l-9 -88q-31 -7 -58 -7q-53 0 -87.5 30.5t-34.5 80.5q0 65 64 106q-97 7 -148.5 79t-51.5 197q0 131 54 208t155 77
q95 0 148.5 -68.5t53.5 -200.5q0 -11 -3 -53zM309 316q0 72 -16 104.5t-53 32.5q-34 0 -51.5 -32t-21.5 -113h142v8z" />
    <glyph glyph-name="uni025B" unicode="&#x25b;" horiz-adv-x="402" 
d="M389 489l-53 -71q-47 31 -92 31q-28 0 -44 -16.5t-16 -48.5q0 -31 16.5 -48.5t47.5 -17.5h51l-14 -90h-43q-38 0 -54.5 -18t-16.5 -55q0 -34 17.5 -52.5t52.5 -18.5q26 0 49.5 9t52.5 30l58 -75q-71 -63 -181 -63q-84 0 -137 42t-53 118q0 58 32 91.5t95 45.5
q-110 25 -110 119q0 66 49.5 105.5t127.5 39.5q93 0 165 -57z" />
    <glyph glyph-name="uni029A" unicode="&#x29a;" horiz-adv-x="484" 
d="M86.5 30q-55.5 45 -55.5 124q0 58 29.5 88t92.5 41q-52 14 -76.5 42.5t-24.5 72.5q0 66 50 107t129 41q107 0 165 -73t58 -208q0 -137 -56.5 -208.5t-162.5 -71.5q-93 0 -148.5 45zM285 101q18 17 25.5 55.5t7.5 108.5q0 101 -19 142.5t-61 41.5q-25 0 -38.5 -16
t-13.5 -47q0 -33 14.5 -50t41.5 -17h13l8 -91h-26q-34 0 -51.5 -15.5t-17.5 -52.5q0 -39 16.5 -57.5t50.5 -18.5q32 0 50 17z" />
    <glyph glyph-name="uni025C" unicode="&#x25c;" horiz-adv-x="414" 
d="M313.5 506q48.5 -40 48.5 -107q0 -45 -25.5 -73t-79.5 -43q65 -11 95.5 -41t30.5 -88q0 -82 -55 -125.5t-148 -43.5q-106 0 -178 64l62 74q31 -22 54 -30.5t52 -8.5q73 0 73 75q0 38 -20 53.5t-63 15.5h-56l8 90h38q75 0 75 70q0 31 -16 46t-43 15q-24 0 -44 -8t-46 -26
l-61 70q73 61 176 61q74 0 122.5 -40z" />
    <glyph glyph-name="uni025E" unicode="&#x25e;" horiz-adv-x="484" 
d="M86.5 56.5q-56.5 71.5 -56.5 208.5q0 135 58 208t165 73q79 0 129 -41t50 -107q0 -44 -24.5 -72.5t-76.5 -42.5q63 -11 92.5 -41t29.5 -88q0 -79 -55.5 -124t-148.5 -45q-106 0 -162.5 71.5zM299.5 102.5q16.5 18.5 16.5 57.5q0 37 -17.5 52.5t-51.5 15.5h-26l8 91h13
q27 0 41.5 17t14.5 50q0 31 -13.5 47t-38.5 16q-42 0 -61 -41.5t-19 -142.5q0 -70 7.5 -108.5t25.5 -55.5t50 -17q34 0 50.5 18.5z" />
    <glyph glyph-name="uni025D" unicode="&#x25d;" horiz-adv-x="655" 
d="M669 347q-44 -38 -104 -38q-56 0 -89 30t-38 83l-2 18l-74 -51q-3 -40 -28.5 -66t-76.5 -40q65 -11 95.5 -41t30.5 -88q0 -82 -55 -125.5t-148 -43.5q-106 0 -178 64l62 74q31 -22 54 -30.5t52 -8.5q73 0 73 75q0 38 -20 53.5t-63 15.5h-56l8 90h38q75 0 75 70
q0 31 -16 46t-43 15q-24 0 -44 -8t-46 -26l-61 70q73 61 176 61q51 0 91 -19.5t61 -54.5l87 58h111v-76q0 -47 41 -47q13 0 22.5 3.5t24.5 10.5z" />
    <glyph glyph-name="uni0258" unicode="&#x258;" horiz-adv-x="466" 
d="M436 261q0 -133 -57 -205t-166 -72q-100 0 -172 70l57 75q29 -22 54 -32.5t54 -10.5q43 0 66.5 30t27.5 108h-272q-3 42 -3 53q0 130 56 199.5t151 69.5q204 0 204 -285zM157 308h143q-2 59 -10.5 90.5t-22.5 43t-37 11.5q-73 0 -73 -137v-8z" />
    <glyph glyph-name="uni0283" unicode="&#x283;" horiz-adv-x="237" 
d="M321 719l-40 -82q-16 9 -27.5 13t-25.5 4q-21 0 -31 -13t-10 -41v-599h1v-61q0 -77 -45 -118t-117 -41q-73 0 -123 41l49 78q15 -9 27.5 -13t27.5 -4q45 0 45 51v66h-1v595q0 76 41 118.5t115 42.5q63 0 114 -37z" />
    <glyph glyph-name="uni0286" unicode="&#x286;" horiz-adv-x="284" 
d="M233 -9q47 -15 81 -37l-27 -57q-26 14 -58 26q-25 -142 -168 -142q-61 0 -93.5 30.5t-32.5 83.5q0 59 34.5 90t94.5 31q16 0 34 -2v581q0 76 41 118.5t115 42.5q63 0 114 -37l-40 -82q-16 9 -27.5 13t-25.5 4q-21 0 -31 -13t-10 -41v-71zM87 -125q11 19 11 60v13
q-14 3 -34 3q-50 0 -50 -51q0 -44 38 -44q24 0 35 19z" />
    <glyph glyph-name="uni01AA" unicode="&#x1aa;" horiz-adv-x="345" 
d="M442 -178q-50 -41 -123 -41q-72 0 -117 41t-45 118v61h1v446q-23 -10 -49 -10q-61 0 -98 42.5t-37 115.5q0 75 41.5 118t113.5 43q77 0 121 -43.5t44 -115.5v-597h-1v-66q0 -51 45 -51q15 0 27.5 4t27.5 13zM158 537v67q0 30 -8 42.5t-25 12.5q-18 0 -26.5 -14t-8.5 -47
q0 -36 10 -50.5t31 -14.5q15 0 27 4z" />
    <glyph glyph-name="uni0285" unicode="&#x285;" horiz-adv-x="400" 
d="M410 26q-50 -41 -123 -41q-72 0 -117 41t-45 118v245q0 28 -10 41t-31 13q-14 0 -25.5 -4t-27.5 -13l-40 82q51 37 114 37q74 0 115 -42.5t41 -118.5v-246q0 -51 45 -51q15 0 27.5 4t27.5 13z" />
    <glyph glyph-name="uni0247" unicode="&#x247;" horiz-adv-x="466" 
d="M247 225l-30 -134q18 -7 43 -7q29 0 54 10.5t54 33.5l56 -72q-72 -72 -173 -72q-30 0 -56 6l-14 -63l-45 10l15 68q-60 28 -90.5 93.5t-30.5 162.5q0 131 54 208t155 77q12 0 32 -2l12 55l45 -10l-13 -57q60 -24 93 -88.5t33 -166.5q0 -7 -3 -52h-191zM179.5 422
q-20.5 -33 -24.5 -116h63l33 148q-4 1 -11 1q-40 0 -60.5 -33zM294 435l-29 -129h58v8q0 91 -29 121zM200 225h-45q5 -69 23 -99z" />
    <glyph glyph-name="uni1EBD" unicode="&#x1ebd;" horiz-adv-x="466" 
d="M438 224h-271q4 -78 27.5 -108t65.5 -30q29 0 54 10.5t54 32.5l56 -75q-72 -70 -173 -70q-107 0 -164 73t-57 204t54 208t155 77q95 0 148.5 -68.5t53.5 -200.5q0 -11 -3 -53zM309 316q0 72 -16 104.5t-53 32.5q-34 0 -51.5 -32t-21.5 -113h142v8zM258.5 652.5
q-13.5 6.5 -31.5 18.5q-11 9 -19 13t-16 4q-14 0 -23 -9.5t-21 -32.5l-65 30q16 48 43.5 76.5t62.5 28.5q18 0 30.5 -6t31.5 -18q11 -9 19 -13t17 -4q13 0 22.5 9.5t20.5 30.5l65 -29q-16 -50 -43.5 -77.5t-61.5 -27.5q-18 0 -31.5 6.5z" />
    <glyph glyph-name="uni01DD" unicode="&#x1dd;" horiz-adv-x="468" 
d="M386 474q52 -72 52 -208t-53.5 -208.5t-155.5 -72.5q-96 0 -150 66.5t-54 201.5q0 6 3 54h281q-3 77 -25 108t-63 31q-30 0 -56.5 -9.5t-55.5 -31.5l-55 74q75 67 172 67q108 0 160 -72zM287 112q19 29 22 108h-157v-7q0 -70 19.5 -100t58.5 -30q38 0 57 29z" />
    <glyph glyph-name="uni0259" unicode="&#x259;" horiz-adv-x="468" 
d="M386 474q52 -72 52 -208t-53.5 -208.5t-155.5 -72.5q-96 0 -150 66.5t-54 201.5q0 6 3 54h281q-3 77 -25 108t-63 31q-30 0 -56.5 -9.5t-55.5 -31.5l-55 74q75 67 172 67q108 0 160 -72zM287 112q19 29 22 108h-157v-7q0 -70 19.5 -100t58.5 -30q38 0 57 29z" />
    <glyph glyph-name="uni025A" unicode="&#x25a;" horiz-adv-x="699" 
d="M713 347q-44 -38 -104 -38q-56 0 -89 30t-38 83l-2 18l-59 -40q17 -54 17 -134q0 -136 -53.5 -208.5t-155.5 -72.5q-96 0 -150 66.5t-54 201.5q0 6 3 54h281q-3 77 -25 108t-63 31q-30 0 -56.5 -9.5t-55.5 -31.5l-55 74q75 67 172 67q109 0 161 -74l87 58h111v-76
q0 -47 41 -47q13 0 22.5 3.5t24.5 10.5zM287 112q19 29 22 108h-157v-7q0 -70 19.5 -100t58.5 -30q38 0 57 29z" />
    <glyph glyph-name="uni0292" unicode="&#x292;" horiz-adv-x="419" 
d="M359.5 153.5q46.5 -50.5 46.5 -144.5q0 -67 -26.5 -118.5t-77 -80.5t-119.5 -29q-125 0 -196 98l73 68q31 -33 56.5 -47t58.5 -14q44 0 67 32t23 95q0 61 -25 87t-80 26h-71v83l147 218h-215v103h357v-95l-155 -225q90 -6 136.5 -56.5z" />
    <glyph glyph-name="uni01EF" unicode="&#x1ef;" horiz-adv-x="419" 
d="M359.5 153.5q46.5 -50.5 46.5 -144.5q0 -67 -26.5 -118.5t-77 -80.5t-119.5 -29q-125 0 -196 98l73 68q31 -33 56.5 -47t58.5 -14q44 0 67 32t23 95q0 61 -25 87t-80 26h-71v83l147 218h-215v103h357v-95l-155 -225q90 -6 136.5 -56.5zM309 801l48 -51l-116 -133h-83
l-116 133l48 51l109 -91z" />
    <glyph glyph-name="uni0293" unicode="&#x293;" horiz-adv-x="419" 
d="M370 -123q-36 -56 -106 -80l22 -56l-65 -27l-26 69q-24 -2 -38 -2q-82 0 -129.5 38t-47.5 109q0 55 29.5 86t74.5 31q47 0 77 -31t59 -112q45 28 45 114q0 62 -24.5 88.5t-75.5 26.5h-76v82l147 214h-215v103h357v-95l-155 -221q183 -11 183 -204q0 -77 -36 -133z
M90 -102q18 -11 64 -11h1q-18 49 -29.5 66t-27.5 17q-26 0 -26 -36q0 -25 18 -36z" />
    <glyph glyph-name="uni01B9" unicode="&#x1b9;" horiz-adv-x="419" 
d="M432 -121q-71 -98 -198 -98q-103 0 -162 62t-59 163q0 94 47.5 146t135.5 57l-156 226v95h358v-103h-215l147 -218v-83h-72q-53 0 -79 -28t-26 -89q0 -123 91 -123q33 0 58.5 14t55.5 47z" />
    <glyph glyph-name="uni01BA" unicode="&#x1ba;" horiz-adv-x="421" 
d="M58 -157.5q-35 37.5 -35 85.5q0 51 33.5 81t103.5 45q59 12 82 29.5t23 55.5q0 29 -16.5 42t-51.5 13h-106v79l140 158h-213v99h357v-91l-147 -161h19q72 0 114 -37t42 -104q0 -74 -43 -113t-119 -57q-40 -9 -59.5 -16t-27 -15.5t-7.5 -21.5q0 -29 40 -55l-31 -79
q-63 25 -98 62.5z" />
    <glyph glyph-name="f" unicode="f" horiz-adv-x="301" 
d="M217.5 639.5q-12.5 -14.5 -12.5 -44.5v-65h99l-15 -97h-84v-433h-136v433h-64v97h64v61q0 75 43.5 120t125.5 45q63 0 122 -31l-36 -88q-35 17 -67 17q-27 0 -39.5 -14.5z" />
    <glyph glyph-name="uni1E1F" unicode="&#x1e1f;" horiz-adv-x="301" 
d="M217.5 639.5q-12.5 -14.5 -12.5 -44.5v-65h99l-15 -97h-84v-433h-136v433h-64v97h64v61q0 75 43.5 120t125.5 45q63 0 122 -31l-36 -88q-35 17 -67 17q-27 0 -39.5 -14.5zM280 952q22 -23 22 -58q0 -34 -22 -56.5t-57 -22.5q-36 0 -58 22.5t-22 56.5q0 35 22 58t58 23
q35 0 57 -23z" />
    <glyph glyph-name="uni02A9" unicode="&#x2a9;" horiz-adv-x="736" 
d="M655 505q33 -41 33 -110v-455q0 -77 -45 -118t-117 -41q-73 0 -123 41l49 78q15 -9 27.5 -13t27.5 -4q45 0 45 51v446q0 33 -9 47t-27 14q-36 0 -74 -72v-369h-136v433h-101v-433h-136v433h-64v97h64v61q0 75 43.5 120t125.5 45q63 0 122 -31l-36 -88q-35 17 -67 17
q-27 0 -39.5 -14.5t-12.5 -44.5v-65h220l10 -67q26 41 57 62t73 21q57 0 90 -41z" />
    <glyph glyph-name="g" unicode="g" horiz-adv-x="450" 
d="M453 502q-39 -20 -124 -20q43 -21 63.5 -53.5t20.5 -82.5q0 -80 -50 -129t-137 -49q-23 0 -49 7q-17 -12 -17 -37q0 -19 10.5 -28.5t40.5 -9.5h54q83 0 131 -41.5t48 -107.5q0 -77 -60 -123.5t-170 -46.5q-119 0 -165.5 42.5t-46.5 124.5h122q0 -40 18.5 -57.5
t72.5 -17.5q50 0 71.5 18t21.5 51q0 32 -17.5 47t-54.5 15h-40q-77 0 -112.5 28t-35.5 75q0 53 55 96q-42 26 -61 62t-19 89q0 88 53 139t144 51q65 0 107 15t92 44zM172.5 431q-16.5 -23 -16.5 -75q0 -49 16.5 -74.5t47.5 -25.5q32 0 47.5 23t15.5 79q0 50 -15 73t-47 23
t-48.5 -23z" />
    <glyph glyph-name="g.ss04" horiz-adv-x="498" 
d="M447 530v-544q0 -97 -56.5 -151t-157.5 -54q-92 0 -160 48l44 82q24 -13 48 -20.5t57 -7.5q47 0 68 23.5t21 70.5v87q-42 -59 -107 -59q-83 0 -128.5 71.5t-45.5 198.5q0 81 23 142.5t64.5 95t95.5 33.5q32 0 60.5 -16t48.5 -44l6 44h119zM278 121.5q17 15.5 33 46.5v230
q-30 46 -65 46q-36 0 -55.5 -39.5t-19.5 -129.5q0 -94 18 -131.5t50 -37.5q22 0 39 15.5z" />
    <glyph glyph-name="uni01F5" unicode="&#x1f5;" horiz-adv-x="450" 
d="M453 502q-39 -20 -124 -20q43 -21 63.5 -53.5t20.5 -82.5q0 -80 -50 -129t-137 -49q-23 0 -49 7q-17 -12 -17 -37q0 -19 10.5 -28.5t40.5 -9.5h54q83 0 131 -41.5t48 -107.5q0 -77 -60 -123.5t-170 -46.5q-119 0 -165.5 42.5t-46.5 124.5h122q0 -40 18.5 -57.5
t72.5 -17.5q50 0 71.5 18t21.5 51q0 32 -17.5 47t-54.5 15h-40q-77 0 -112.5 28t-35.5 75q0 53 55 96q-42 26 -61 62t-19 89q0 88 53 139t144 51q65 0 107 15t92 44zM172.5 431q-16.5 -23 -16.5 -75q0 -49 16.5 -74.5t47.5 -25.5q32 0 47.5 23t15.5 79q0 50 -15 73t-47 23
t-48.5 -23zM282 818l54 -99l-196 -91l-37 65z" />
    <glyph glyph-name="uni0263" unicode="&#x263;" horiz-adv-x="435" 
d="M285 76q31 -59 44.5 -99t13.5 -82q0 -54 -30 -84t-93 -30q-62 0 -92.5 30t-30.5 83q0 39 13 80t45 101l-157 455h140l82 -369l84 369h133zM238 -56.5q-6 21.5 -18 53.5q-12 -31 -18 -53.5t-6 -43.5q0 -31 24 -31t24 31q0 22 -6 43.5z" />
    <glyph glyph-name="gbreve" unicode="&#x11f;" horiz-adv-x="450" 
d="M453 502q-39 -20 -124 -20q43 -21 63.5 -53.5t20.5 -82.5q0 -80 -50 -129t-137 -49q-23 0 -49 7q-17 -12 -17 -37q0 -19 10.5 -28.5t40.5 -9.5h54q83 0 131 -41.5t48 -107.5q0 -77 -60 -123.5t-170 -46.5q-119 0 -165.5 42.5t-46.5 124.5h122q0 -40 18.5 -57.5
t72.5 -17.5q50 0 71.5 18t21.5 51q0 32 -17.5 47t-54.5 15h-40q-77 0 -112.5 28t-35.5 75q0 53 55 96q-42 26 -61 62t-19 89q0 88 53 139t144 51q65 0 107 15t92 44zM172.5 431q-16.5 -23 -16.5 -75q0 -49 16.5 -74.5t47.5 -25.5q32 0 47.5 23t15.5 79q0 50 -15 73t-47 23
t-48.5 -23zM124 678q-36 42 -41 118l73 14q16 -80 69 -80q54 0 70 80l74 -14q-5 -76 -41.5 -118t-102.5 -42q-65 0 -101 42z" />
    <glyph glyph-name="gcaron" unicode="&#x1e7;" horiz-adv-x="450" 
d="M453 502q-39 -20 -124 -20q43 -21 63.5 -53.5t20.5 -82.5q0 -80 -50 -129t-137 -49q-23 0 -49 7q-17 -12 -17 -37q0 -19 10.5 -28.5t40.5 -9.5h54q83 0 131 -41.5t48 -107.5q0 -77 -60 -123.5t-170 -46.5q-119 0 -165.5 42.5t-46.5 124.5h122q0 -40 18.5 -57.5
t72.5 -17.5q50 0 71.5 18t21.5 51q0 32 -17.5 47t-54.5 15h-40q-77 0 -112.5 28t-35.5 75q0 53 55 96q-42 26 -61 62t-19 89q0 88 53 139t144 51q65 0 107 15t92 44zM172.5 431q-16.5 -23 -16.5 -75q0 -49 16.5 -74.5t47.5 -25.5q32 0 47.5 23t15.5 79q0 50 -15 73t-47 23
t-48.5 -23zM336 801l48 -51l-116 -133h-83l-116 133l48 51l109 -91z" />
    <glyph glyph-name="gcircumflex" unicode="&#x11d;" horiz-adv-x="450" 
d="M453 502q-39 -20 -124 -20q43 -21 63.5 -53.5t20.5 -82.5q0 -80 -50 -129t-137 -49q-23 0 -49 7q-17 -12 -17 -37q0 -19 10.5 -28.5t40.5 -9.5h54q83 0 131 -41.5t48 -107.5q0 -77 -60 -123.5t-170 -46.5q-119 0 -165.5 42.5t-46.5 124.5h122q0 -40 18.5 -57.5
t72.5 -17.5q50 0 71.5 18t21.5 51q0 32 -17.5 47t-54.5 15h-40q-77 0 -112.5 28t-35.5 75q0 53 55 96q-42 26 -61 62t-19 89q0 88 53 139t144 51q65 0 107 15t92 44zM172.5 431q-16.5 -23 -16.5 -75q0 -49 16.5 -74.5t47.5 -25.5q32 0 47.5 23t15.5 79q0 50 -15 73t-47 23
t-48.5 -23zM117 629l-48 50l117 133h82l116 -133l-48 -50l-110 89z" />
    <glyph glyph-name="gcommaaccent" unicode="&#x123;" horiz-adv-x="450" 
d="M453 502q-39 -20 -124 -20q43 -21 63.5 -53.5t20.5 -82.5q0 -80 -50 -129t-137 -49q-23 0 -49 7q-17 -12 -17 -37q0 -19 10.5 -28.5t40.5 -9.5h54q83 0 131 -41.5t48 -107.5q0 -77 -60 -123.5t-170 -46.5q-119 0 -165.5 42.5t-46.5 124.5h122q0 -40 18.5 -57.5
t72.5 -17.5q50 0 71.5 18t21.5 51q0 32 -17.5 47t-54.5 15h-40q-77 0 -112.5 28t-35.5 75q0 53 55 96q-42 26 -61 62t-19 89q0 88 53 139t144 51q65 0 107 15t92 44zM172.5 431q-16.5 -23 -16.5 -75q0 -49 16.5 -74.5t47.5 -25.5q32 0 47.5 23t15.5 79q0 50 -15 73t-47 23
t-48.5 -23zM176.5 599q-18.5 20 -18.5 50q0 17 4.5 33.5t17.5 47.5l38 93h67l-26 -115q33 -21 33 -59q0 -30 -18.5 -50t-48.5 -20t-48.5 20z" />
    <glyph glyph-name="gdotaccent" unicode="&#x121;" horiz-adv-x="450" 
d="M453 502q-39 -20 -124 -20q43 -21 63.5 -53.5t20.5 -82.5q0 -80 -50 -129t-137 -49q-23 0 -49 7q-17 -12 -17 -37q0 -19 10.5 -28.5t40.5 -9.5h54q83 0 131 -41.5t48 -107.5q0 -77 -60 -123.5t-170 -46.5q-119 0 -165.5 42.5t-46.5 124.5h122q0 -40 18.5 -57.5
t72.5 -17.5q50 0 71.5 18t21.5 51q0 32 -17.5 47t-54.5 15h-40q-77 0 -112.5 28t-35.5 75q0 53 55 96q-42 26 -61 62t-19 89q0 88 53 139t144 51q65 0 107 15t92 44zM172.5 431q-16.5 -23 -16.5 -75q0 -49 16.5 -74.5t47.5 -25.5q32 0 47.5 23t15.5 79q0 50 -15 73t-47 23
t-48.5 -23zM283 777q22 -23 22 -58q0 -34 -22 -56.5t-57 -22.5q-36 0 -58 22.5t-22 56.5q0 35 22 58t58 23q35 0 57 -23z" />
    <glyph glyph-name="uni0260" unicode="&#x260;" horiz-adv-x="498" 
d="M581 719l-40 -82q-16 9 -27.5 13t-25.5 4q-21 0 -31 -13t-10 -41v-614q0 -97 -56.5 -151t-157.5 -54q-92 0 -160 48l44 82q24 -13 48 -20.5t57 -7.5q47 0 68 23.5t21 70.5v87q-42 -59 -107 -59q-83 0 -128.5 71.5t-45.5 198.5q0 81 23 142.5t64.5 95t95.5 33.5
q55 0 98 -46v95q0 76 41 118.5t115 42.5q63 0 114 -37zM278 121.5q17 15.5 33 46.5v230q-30 46 -65 46q-36 0 -55.5 -39.5t-19.5 -129.5q0 -94 18 -131.5t50 -37.5q22 0 39 15.5z" />
    <glyph glyph-name="uni01BE" unicode="&#x1be;" horiz-adv-x="426" 
d="M363 356.5q33 -47.5 33 -137.5q0 -113 -57 -173.5t-153 -60.5q-55 0 -100 22t-85 67l67 67q27 -28 51 -41t53 -13q84 0 84 133q0 70 -23.5 104.5t-77.5 50.5l-43 14v146h-57v84h57v122l136 14v-136h78v-84h-78v-100l23 -8q59 -23 92 -70.5z" />
    <glyph glyph-name="uni0294" unicode="&#x294;" horiz-adv-x="395" 
d="M106 352l33 13q54 23 78 55.5t24 100.5t-22.5 100.5t-62.5 32.5q-29 0 -53 -13t-51 -41l-67 66q41 45 86.5 67.5t101.5 22.5q95 0 151 -60.5t56 -171.5q0 -91 -32 -137.5t-92 -74.5l-14 -7v-305h-136v352z" />
    <glyph glyph-name="uni0296" unicode="&#x296;" horiz-adv-x="426" 
d="M248 755v-320l23 -8q59 -23 92 -70.5t33 -137.5q0 -113 -57 -173.5t-153 -60.5q-55 0 -100 22t-85 67l67 67q27 -28 51 -41t53 -13q84 0 84 133q0 70 -23.5 104.5t-77.5 50.5l-43 14v352z" />
    <glyph glyph-name="uni0295" unicode="&#x295;" horiz-adv-x="395" 
d="M154 0v305l-15 7q-60 28 -92 74.5t-32 137.5q0 111 57 171.5t153 60.5q55 0 100 -22.5t85 -67.5l-67 -66q-27 28 -51 41t-53 13q-40 0 -62 -32.5t-22 -100.5t23.5 -100.5t77.5 -55.5l34 -13v-352h-136z" />
    <glyph glyph-name="uni0242" unicode="&#x242;" horiz-adv-x="380" 
d="M90 201l41 14q43 17 66 47t23 81q0 50 -19 74.5t-52 24.5q-26 0 -46 -10.5t-44 -33.5l-64 66q35 40 77 61t95 21q87 0 140 -55t53 -146q0 -74 -29 -115.5t-82 -65.5l-23 -10v-154h-136v201z" />
    <glyph glyph-name="uni02A1" unicode="&#x2a1;" horiz-adv-x="395" 
d="M242 305v-86h79v-84h-79v-135h-136v135h-54v84h54v133l33 13q54 23 78 55.5t24 100.5t-22.5 100.5t-62.5 32.5q-29 0 -53 -13t-51 -41l-67 66q41 45 86.5 67.5t101.5 22.5q95 0 151 -60.5t56 -171.5q0 -91 -32 -137.5t-92 -74.5z" />
    <glyph glyph-name="uni02A2" unicode="&#x2a2;" horiz-adv-x="395" 
d="M290 219h55v-84h-55v-135h-136v135h-78v84h78v86l-15 7q-60 28 -92 74.5t-32 137.5q0 111 57 171.5t153 60.5q55 0 100 -22.5t85 -67.5l-67 -66q-27 28 -51 41t-53 13q-40 0 -62 -32.5t-22 -100.5t23.5 -100.5t77.5 -55.5l34 -13v-133z" />
    <glyph glyph-name="uni0261" unicode="&#x261;" horiz-adv-x="498" 
d="M447 530v-544q0 -97 -56.5 -151t-157.5 -54q-92 0 -160 48l44 82q24 -13 48 -20.5t57 -7.5q47 0 68 23.5t21 70.5v87q-42 -59 -107 -59q-83 0 -128.5 71.5t-45.5 198.5q0 81 23 142.5t64.5 95t95.5 33.5q32 0 60.5 -16t48.5 -44l6 44h119zM278 121.5q17 15.5 33 46.5v230
q-30 46 -65 46q-36 0 -55.5 -39.5t-19.5 -129.5q0 -94 18 -131.5t50 -37.5q22 0 39 15.5z" />
    <glyph glyph-name="uni01E5" unicode="&#x1e5;" horiz-adv-x="450" 
d="M490 -89h-51q-14 -60 -72 -95t-153 -35q-119 0 -165.5 42.5t-46.5 124.5h122q0 -42 19 -59t76 -17q45 0 69.5 9.5t33.5 29.5h-96v65h95q-17 35 -85 35h-40q-148 0 -148 96q0 53 55 96q-42 26 -61 62t-19 89q0 88 53 139t144 51q65 0 107 15t92 44l34 -101
q-39 -20 -124 -20q43 -21 63.5 -53.5t20.5 -82.5q0 -80 -50 -129t-137 -49q-23 0 -49 7q-17 -12 -17 -37q0 -19 10.5 -28.5t40.5 -9.5h54q75 0 121.5 -34t55.5 -90h48v-65zM172.5 431q-16.5 -23 -16.5 -75q0 -49 16.5 -74.5t47.5 -25.5q32 0 47.5 23t15.5 79q0 50 -15 73
t-47 23t-48.5 -23z" />
    <glyph glyph-name="uni021D" unicode="&#x21d;" horiz-adv-x="400" 
d="M299.5 506q49.5 -40 49.5 -110q0 -49 -26.5 -79t-80.5 -44q128 -7 128 -116q0 -88 -83 -156.5t-238 -105.5l-13 91q103 40 148.5 79t45.5 93q0 32 -15 46t-45 14h-71l8 91h39q31 0 48.5 18t17.5 56q0 66 -58 66q-25 0 -45 -8t-46 -26l-61 70q37 31 78.5 46t93.5 15
q76 0 125.5 -40z" />
    <glyph glyph-name="h" unicode="h" horiz-adv-x="481" 
d="M400 505q33 -41 33 -110v-395h-136v380q0 33 -9 47t-27 14q-36 0 -74 -72v-369h-136v741l136 14v-286q26 39 55 58t68 19q57 0 90 -41z" />
    <glyph glyph-name="hbar" unicode="&#x127;" horiz-adv-x="485" 
d="M404 505q33 -41 33 -110v-395h-136v380q0 33 -9 47t-27 14q-36 0 -74 -72v-369h-136v601h-48v84h48v56l136 14v-70h108v-84h-108v-132q26 39 55 58t68 19q57 0 90 -41z" />
    <glyph glyph-name="uni021F" unicode="&#x21f;" horiz-adv-x="481" 
d="M400 505q33 -41 33 -110v-395h-136v380q0 33 -9 47t-27 14q-36 0 -74 -72v-369h-136v741l136 14v-286q26 39 55 58t68 19q57 0 90 -41zM350 977l48 -50l-117 -127h-82l-116 127l48 50l109 -82z" />
    <glyph glyph-name="hcircumflex" unicode="&#x125;" horiz-adv-x="481" 
d="M400 505q33 -41 33 -110v-395h-136v380q0 33 -9 47t-27 14q-36 0 -74 -72v-369h-136v741l136 14v-286q26 39 55 58t68 19q57 0 90 -41zM130 809l-48 50l117 127h82l116 -127l-48 -50l-110 82z" />
    <glyph glyph-name="uni1E25" unicode="&#x1e25;" horiz-adv-x="481" 
d="M400 505q33 -41 33 -110v-395h-136v380q0 33 -9 47t-27 14q-36 0 -74 -72v-369h-136v741l136 14v-286q26 39 55 58t68 19q57 0 90 -41zM185 -203q-22 23 -22 58q0 34 22 56.5t57 22.5q36 0 58 -22.5t22 -56.5q0 -35 -22 -58t-58 -23q-35 0 -57 23z" />
    <glyph glyph-name="uni0267" unicode="&#x267;" horiz-adv-x="481" 
d="M400 503q33 -43 33 -118v-445q0 -77 -45 -118t-117 -41q-73 0 -123 41l49 78q15 -9 27.5 -13t27.5 -4q45 0 45 51v436q0 39 -9 55t-27 16q-36 0 -74 -72v-369h-136v595q0 70 44.5 115.5t125.5 45.5q65 0 121 -32l-38 -87q-33 17 -64 17q-28 0 -40.5 -15t-12.5 -47v-123
q26 39 55 58t68 19q57 0 90 -43z" />
    <glyph glyph-name="uni0266" unicode="&#x266;" horiz-adv-x="481" 
d="M400 503q33 -43 33 -118v-385h-136v370q0 39 -9 55t-27 16q-36 0 -74 -72v-369h-136v595q0 70 44.5 115.5t125.5 45.5q65 0 121 -32l-38 -87q-33 17 -64 17q-28 0 -40.5 -15t-12.5 -47v-123q26 39 55 58t68 19q57 0 90 -43z" />
    <glyph glyph-name="uni0265" unicode="&#x265;" horiz-adv-x="481" 
d="M429 530v-749l-136 15v265q-26 -39 -55 -57.5t-68 -18.5q-57 0 -89.5 41t-32.5 110v394h136v-379q0 -33 9 -47.5t27 -14.5q35 0 73 72v369h136z" />
    <glyph glyph-name="uni02AE" unicode="&#x2ae;" horiz-adv-x="578" 
d="M526 530v-749l-136 15v265q-26 -39 -54.5 -57.5t-67.5 -18.5q-57 0 -90 41t-33 110v192h1v66q0 51 -45 51q-15 0 -27.5 -4t-27.5 -13l-49 78q50 41 123 41q72 0 117 -41t45 -118v-61h-1v-176q0 -33 9 -47.5t27 -14.5q35 0 73 72v369h136z" />
    <glyph glyph-name="uni02AF" unicode="&#x2af;" horiz-adv-x="578" 
d="M675 -178q-50 -41 -123 -41q-72 0 -117 41t-45 118v121q-26 -39 -54.5 -57.5t-67.5 -18.5q-57 0 -90 41t-33 110v192h1v66q0 51 -45 51q-15 0 -27.5 -4t-27.5 -13l-49 78q50 41 123 41q72 0 117 -41t45 -118v-61h-1v-176q0 -33 9 -47.5t27 -14.5q35 0 73 72v369h136v-596
q0 -51 45 -51q15 0 27.5 4t27.5 13z" />
    <glyph glyph-name="uni0195" unicode="&#x195;" horiz-adv-x="721" 
d="M678.5 388.5q6.5 -64.5 6.5 -131.5q0 -145 -61 -208.5t-154 -63.5q-78 0 -125.5 44t-47.5 126v225q0 33 -9 47t-27 14q-36 0 -74 -72v-369h-136v741l136 14v-286q26 39 55 58t68 19q57 0 90 -41t33 -110v-242q0 -35 11 -51t35 -16q32 0 51 38t19 137q0 106 -21 269h133
q11 -77 17.5 -141.5z" />
    <glyph glyph-name="i" unicode="i" horiz-adv-x="239" 
d="M187 530v-530h-136v530h136zM176 777q22 -23 22 -58q0 -34 -22 -56.5t-57 -22.5q-36 0 -58 22.5t-22 56.5q0 35 22 58t58 23q35 0 57 -23z" />
    <glyph glyph-name="dotlessi" unicode="&#x131;" horiz-adv-x="239" 
d="M187 530v-530h-136v530h136z" />
    <glyph glyph-name="iacute" unicode="&#xed;" horiz-adv-x="239" 
d="M187 530v-530h-136v530h136zM175 818l54 -99l-196 -91l-37 65z" />
    <glyph glyph-name="ibreve" unicode="&#x12d;" horiz-adv-x="239" 
d="M187 530v-530h-136v530h136zM17 678q-36 42 -41 118l73 14q16 -80 69 -80q54 0 70 80l74 -14q-5 -76 -41.5 -118t-102.5 -42q-65 0 -101 42z" />
    <glyph glyph-name="uni01D0" unicode="&#x1d0;" horiz-adv-x="239" 
d="M187 530v-530h-136v530h136zM229 801l48 -51l-116 -133h-83l-116 133l48 51l109 -91z" />
    <glyph glyph-name="icircumflex" unicode="&#xee;" horiz-adv-x="239" 
d="M187 530v-530h-136v530h136zM10 629l-48 50l117 133h82l116 -133l-48 -50l-110 89z" />
    <glyph glyph-name="uni0209" unicode="&#x209;" horiz-adv-x="239" 
d="M187 530v-530h-136v530h136zM17 848l79 -188l-66 -32l-101 173zM163 848l72 -186l-67 -29l-95 171z" />
    <glyph glyph-name="idieresis" unicode="&#xef;" horiz-adv-x="239" 
d="M187 530v-530h-136v530h136zM72.5 767.5q19.5 -20.5 19.5 -50.5t-19.5 -50.5t-49.5 -20.5q-29 0 -49 20.5t-20 50.5t20 50.5t49 20.5q30 0 49.5 -20.5zM264.5 767.5q19.5 -20.5 19.5 -50.5t-19.5 -50.5t-49.5 -20.5q-29 0 -49.5 20.5t-20.5 50.5t20.5 50.5t49.5 20.5
q30 0 49.5 -20.5z" />
    <glyph glyph-name="uni1E2F" unicode="&#x1e2f;" horiz-adv-x="239" 
d="M187 530v-530h-136v530h136zM184 930l81 -69l-140 -141l-53 45zM66.5 730.5q19.5 -20.5 19.5 -50.5t-19.5 -50.5t-49.5 -20.5q-29 0 -49 20.5t-20 50.5q0 29 20 50t49 21q30 0 49.5 -20.5zM268.5 730.5q19.5 -20.5 19.5 -50.5t-19.5 -50.5t-49.5 -20.5q-29 0 -49 20.5
t-20 50.5q0 29 20 50t49 21q30 0 49.5 -20.5z" />
    <glyph glyph-name="i.loclTRK" horiz-adv-x="239" 
d="M187 530v-530h-136v530h136zM176 777q22 -23 22 -58q0 -34 -22 -56.5t-57 -22.5q-36 0 -58 22.5t-22 56.5q0 35 22 58t58 23q35 0 57 -23z" />
    <glyph glyph-name="uni1ECB" unicode="&#x1ecb;" horiz-adv-x="239" 
d="M187 530v-530h-136v530h136zM176 777q22 -23 22 -58q0 -34 -22 -56.5t-57 -22.5q-36 0 -58 22.5t-22 56.5q0 35 22 58t58 23q35 0 57 -23zM61 -203q-22 23 -22 58q0 34 22 56.5t57 22.5q36 0 58 -22.5t22 -56.5q0 -35 -22 -58t-58 -23q-35 0 -57 23z" />
    <glyph glyph-name="igrave" unicode="&#xec;" horiz-adv-x="239" 
d="M187 530v-530h-136v530h136zM65 818l178 -125l-37 -65l-196 91z" />
    <glyph glyph-name="uni1EC9" unicode="&#x1ec9;" horiz-adv-x="239" 
d="M187 530v-530h-136v530h136zM80 704q32 3 45 11.5t13 28.5q0 34 -31 34q-14 0 -24.5 -3t-25.5 -10l-22 59q38 25 90 25q50 0 77 -26.5t27 -70.5q0 -38 -18 -61t-51 -30v-54h-80v97z" />
    <glyph glyph-name="uni020B" unicode="&#x20b;" horiz-adv-x="239" 
d="M187 530v-530h-136v530h136zM220.5 738q36.5 -42 41.5 -118l-74 -14q-16 80 -70 80q-53 0 -69 -80l-73 14q5 76 41 118t101 42q66 0 102.5 -42z" />
    <glyph glyph-name="ij" unicode="&#x133;" horiz-adv-x="478" 
d="M187 530v-530h-136v530h136zM176 777q22 -23 22 -58q0 -34 -22 -56.5t-57 -22.5q-36 0 -58 22.5t-22 56.5q0 35 22 58t58 23q35 0 57 -23zM426 31q0 -69 -22.5 -116t-61 -76.5t-96.5 -56.5l-45 98q31 18 49.5 35.5t29 44.5t10.5 69v501h136v-499zM415 777q22 -23 22 -58
q0 -34 -22 -56.5t-57 -22.5q-36 0 -58 22.5t-22 56.5q0 35 22 58t58 23q35 0 57 -23z" />
    <glyph glyph-name="imacron" unicode="&#x12b;" horiz-adv-x="239" 
d="M187 530v-530h-136v530h136zM245 661h-252v93h252v-93z" />
    <glyph glyph-name="iogonek" unicode="&#x12f;" horiz-adv-x="239" 
d="M61 662.5q-22 22.5 -22 56.5q0 35 22 58t58 23q35 0 57 -23t22 -58q0 -34 -22 -56.5t-57 -22.5q-36 0 -58 22.5zM51 530h136v-530h-22q-56 -26 -76 -51.5t-20 -55.5q0 -47 44 -47q16 0 48 7l-8 -86q-31 -7 -57 -7q-56 0 -90.5 29t-34.5 81q0 79 80 131v529z" />
    <glyph glyph-name="uni0269" unicode="&#x269;" horiz-adv-x="252" 
d="M79.5 19q-33.5 35 -33.5 95v416h136v-411q0 -26 23 -26q10 0 20 4l26 -94q-36 -19 -80 -19q-58 0 -91.5 35z" />
    <glyph glyph-name="uni0268" unicode="&#x268;" horiz-adv-x="275" 
d="M80 662.5q-22 22.5 -22 56.5q0 35 22 58t58 23q35 0 57 -23t22 -58q0 -34 -22 -56.5t-57 -22.5q-36 0 -58 22.5zM270 329v-95h-64v-234h-136v234h-64v95h64v201h136v-201h64z" />
    <glyph glyph-name="itilde" unicode="&#x129;" horiz-adv-x="239" 
d="M187 530v-530h-136v530h136zM138.5 652.5q-13.5 6.5 -31.5 18.5q-11 9 -19 13t-16 4q-14 0 -23 -9.5t-21 -32.5l-65 30q16 48 43.5 76.5t62.5 28.5q18 0 30.5 -6t31.5 -18q11 -9 19 -13t17 -4q13 0 22.5 9.5t20.5 30.5l65 -29q-16 -50 -43.5 -77.5t-61.5 -27.5
q-18 0 -31.5 6.5z" />
    <glyph glyph-name="j" unicode="j" horiz-adv-x="239" 
d="M187 31q0 -69 -22.5 -116t-61 -76.5t-96.5 -56.5l-45 98q31 18 49.5 35.5t29 44.5t10.5 69v501h136v-499zM176 777q22 -23 22 -58q0 -34 -22 -56.5t-57 -22.5q-36 0 -58 22.5t-22 56.5q0 35 22 58t58 23q35 0 57 -23z" />
    <glyph glyph-name="uni0237" unicode="&#x237;" horiz-adv-x="239" 
d="M187 31q0 -69 -22.5 -116t-61 -76.5t-96.5 -56.5l-45 98q31 18 49.5 35.5t29 44.5t10.5 69v501h136v-499z" />
    <glyph glyph-name="uni01F0" unicode="&#x1f0;" horiz-adv-x="239" 
d="M187 31q0 -69 -22.5 -116t-61 -76.5t-96.5 -56.5l-45 98q31 18 49.5 35.5t29 44.5t10.5 69v501h136v-499zM229 801l48 -51l-116 -133h-83l-116 133l48 51l109 -91z" />
    <glyph glyph-name="jcircumflex" unicode="&#x135;" horiz-adv-x="239" 
d="M187 31q0 -69 -22.5 -116t-61 -76.5t-96.5 -56.5l-45 98q31 18 49.5 35.5t29 44.5t10.5 69v501h136v-499zM10 629l-48 50l117 133h82l116 -133l-48 -50l-110 89z" />
    <glyph glyph-name="uni029D" unicode="&#x29d;" horiz-adv-x="285" 
d="M287 -103q-26 14 -58 26q-25 -142 -168 -142q-61 0 -93.5 30.5t-32.5 83.5q0 59 34.5 90t94.5 31q16 0 34 -2v516h136l-1 -538q49 -17 81 -38zM87 -125q11 19 11 60v13q-14 3 -34 3q-50 0 -50 -51q0 -44 38 -44q24 0 35 19zM223 777q22 -23 22 -58q0 -34 -22 -56.5
t-57 -22.5q-36 0 -58 22.5t-22 56.5q0 35 22 58t58 23q35 0 57 -23z" />
    <glyph glyph-name="uni025F" unicode="&#x25f;" horiz-adv-x="279" 
d="M274 208h-65v-177q0 -69 -22.5 -116t-61 -76.5t-96.5 -56.5l-45 98q31 18 49.5 35.5t29 44.5t10.5 69v179h-64v96h64v226h136v-226h65v-96z" />
    <glyph glyph-name="uni0284" unicode="&#x284;" horiz-adv-x="274" 
d="M271 97v-97h-65q-8 -84 -53 -132.5t-126 -85.5l-46 98q42 24 63 49t26 71h-63v97h64v498q0 76 41 118.5t115 42.5q63 0 114 -37l-40 -82q-16 9 -27.5 13t-25.5 4q-21 0 -31 -13t-10 -41v-503h64z" />
    <glyph glyph-name="uni0249" unicode="&#x249;" horiz-adv-x="279" 
d="M274 208h-65v-177q0 -69 -22.5 -116t-61 -76.5t-96.5 -56.5l-45 98q31 18 49.5 35.5t29 44.5t10.5 69v179h-64v96h64v226h136v-226h65v-96zM198 777q22 -23 22 -58q0 -34 -22 -56.5t-57 -22.5q-36 0 -58 22.5t-22 56.5q0 35 22 58t58 23q35 0 57 -23z" />
    <glyph glyph-name="k" unicode="k" horiz-adv-x="463" 
d="M187 756v-756h-136v741zM459 530l-134 -234l144 -296h-144l-134 290l137 240h131z" />
    <glyph glyph-name="uni01E9" unicode="&#x1e9;" horiz-adv-x="463" 
d="M187 756v-756h-136v741zM459 530l-134 -234l144 -296h-144l-134 290l137 240h131zM359 977l48 -50l-117 -127h-82l-116 127l48 50l109 -82z" />
    <glyph glyph-name="kcommaaccent" unicode="&#x137;" horiz-adv-x="463" 
d="M187 756v-756h-136v741zM459 530l-134 -234l144 -296h-144l-134 290l137 240h131zM282.5 -91q18.5 -20 18.5 -50q0 -17 -4.5 -33.5t-17.5 -47.5l-38 -93h-67l26 115q-33 21 -33 59q0 30 18.5 50t48.5 20t48.5 -20z" />
    <glyph glyph-name="kgreenlandic" unicode="&#x138;" horiz-adv-x="463" 
d="M187 530v-530h-136v530h136zM459 530l-134 -239l144 -291h-144l-134 285l137 245h131z" />
    <glyph glyph-name="uni0199" unicode="&#x199;" horiz-adv-x="463" 
d="M199.5 639q-12.5 -15 -12.5 -47v-592h-136v595q0 70 44.5 115.5t125.5 45.5q65 0 121 -32l-38 -87q-33 17 -64 17q-28 0 -40.5 -15zM325 296l144 -296h-144l-134 290l137 240h131z" />
    <glyph glyph-name="uni029E" unicode="&#x29e;" horiz-adv-x="463" 
d="M4 0l134 234l-144 296h144l133 -290l-136 -240h-131zM275 -204v734h136v-749z" />
    <glyph glyph-name="l" unicode="l" horiz-adv-x="252" 
d="M79.5 19q-33.5 35 -33.5 95v627l136 15v-636q0 -27 23 -27q10 0 20 4l26 -94q-36 -19 -80 -19q-58 0 -91.5 35z" />
    <glyph glyph-name="lacute" unicode="&#x13a;" horiz-adv-x="252" 
d="M79.5 19q-33.5 35 -33.5 95v627l136 15v-636q0 -27 23 -27q10 0 20 4l26 -94q-36 -19 -80 -19q-58 0 -91.5 35zM177 985l52 -101l-197 -83l-35 68z" />
    <glyph glyph-name="uni019B" unicode="&#x19b;" horiz-adv-x="438" 
d="M385 190q27 -92 70 -161l-128 -44q-38 77 -60.5 163.5t-44.5 247.5l-82 -411l-132 28l134 487h60q-9 51 -24 83l-50 -58l-65 46l65 71q-24 14 -75 28l16 86q85 -16 133 -48l61 63l56 -58l-59 -62q42 -60 61 -167q37 -202 64 -294z" />
    <glyph glyph-name="uni019A" unicode="&#x19a;" horiz-adv-x="281" 
d="M275 3q-36 -19 -80 -19q-58 0 -91.5 35t-33.5 95v210h-64v95h64v322l136 15v-337h64v-95h-64v-204q0 -27 23 -27q10 0 20 4z" />
    <glyph glyph-name="uni026C" unicode="&#x26c;" horiz-adv-x="354" 
d="M336 3q-36 -19 -80 -19q-58 0 -91.5 35t-33.5 95v132q-68 2 -102 33.5t-34 86.5q0 51 29.5 79.5t76.5 28.5q14 0 30 -4v271l136 15v-432q24 2 54 9l14 -70q-32 -11 -68 -14v-129q0 -27 23 -27q10 0 20 4zM131 323v78q-10 2 -18 2q-30 0 -30 -36q0 -44 48 -44z" />
    <glyph glyph-name="lcaron" unicode="&#x13e;" horiz-adv-x="306" 
d="M79.5 19q-33.5 35 -33.5 95v627l136 15v-636q0 -27 23 -27q10 0 20 4l26 -94q-36 -19 -80 -19q-58 0 -91.5 35zM288 536l45 204l-101 15l-19 -207z" />
    <glyph glyph-name="uni1E3D" unicode="&#x1e3d;" horiz-adv-x="252" 
d="M79.5 19q-33.5 35 -33.5 95v627l136 15v-636q0 -27 23 -27q10 0 20 4l26 -94q-36 -19 -80 -19q-58 0 -91.5 35zM43 -248l-48 50l117 133h82l116 -133l-48 -50l-110 89z" />
    <glyph glyph-name="lcommaaccent" unicode="&#x13c;" horiz-adv-x="252" 
d="M79.5 19q-33.5 35 -33.5 95v627l136 15v-636q0 -27 23 -27q10 0 20 4l26 -94q-36 -19 -80 -19q-58 0 -91.5 35zM203.5 -91q18.5 -20 18.5 -50q0 -17 -4.5 -33.5t-17.5 -47.5l-38 -93h-67l26 115q-33 21 -33 59q0 30 18.5 50t48.5 20t48.5 -20z" />
    <glyph glyph-name="uni0234" unicode="&#x234;" horiz-adv-x="386" 
d="M366 206q28 -29 28 -80q0 -70 -44 -105.5t-115 -35.5q-21 0 -41 3l-27 -69l-64 26l26 64q-83 43 -83 156v576l136 15v-596q0 -18 2 -25q21 54 46.5 77t64.5 23q43 0 71 -29zM301 130q0 29 -21 29q-13 0 -23 -15t-26 -58q7 -1 21 -1q49 0 49 45z" />
    <glyph glyph-name="ldot" unicode="&#x140;" horiz-adv-x="370" 
d="M79.5 19q-33.5 35 -33.5 95v627l136 15v-636q0 -27 23 -27q10 0 20 4l26 -94q-36 -19 -80 -19q-58 0 -91.5 35zM357 435q22 -23 22 -58q0 -34 -22 -56.5t-57 -22.5q-36 0 -58 22.5t-22 56.5q0 35 22 58t58 23q35 0 57 -23z" />
    <glyph glyph-name="uni1E37" unicode="&#x1e37;" horiz-adv-x="252" 
d="M79.5 19q-33.5 35 -33.5 95v627l136 15v-636q0 -27 23 -27q10 0 20 4l26 -94q-36 -19 -80 -19q-58 0 -91.5 35zM96 -203q-22 23 -22 58q0 34 22 56.5t57 22.5q36 0 58 -22.5t22 -56.5q0 -35 -22 -58t-58 -23q-35 0 -57 23z" />
    <glyph glyph-name="uni026E" unicode="&#x26e;" horiz-adv-x="585" 
d="M526.5 153q45.5 -50 45.5 -144q0 -67 -26.5 -118.5t-77 -80.5t-119.5 -29q-113 0 -180 79l69 74q26 -25 50 -36.5t53 -11.5q44 0 67.5 32t23.5 95q0 60 -25.5 86.5t-79.5 26.5h-67v83l142 218h-220v-307q0 -27 23 -27q10 0 20 4l26 -94q-36 -19 -80 -19q-58 0 -91.5 35
t-33.5 95v627l136 15v-226h363v-95l-152 -226q88 -6 133.5 -56z" />
    <glyph glyph-name="uni026D" unicode="&#x26d;" horiz-adv-x="239" 
d="M336 -178q-50 -41 -123 -41q-72 0 -117 41t-45 118v801l136 15v-822q0 -51 45 -51q15 0 27.5 4t27.5 13z" />
    <glyph glyph-name="uni01C9" unicode="&#x1c9;" horiz-adv-x="491" 
d="M79.5 19q-33.5 35 -33.5 95v627l136 15v-636q0 -27 23 -27q10 0 20 4l26 -94q-36 -19 -80 -19q-58 0 -91.5 35zM439 31q0 -69 -22.5 -116t-61 -76.5t-96.5 -56.5l-45 98q31 18 49.5 35.5t29 44.5t10.5 69v501h136v-499zM428 777q22 -23 22 -58q0 -34 -22 -56.5t-57 -22.5
q-36 0 -58 22.5t-22 56.5q0 35 22 58t58 23q35 0 57 -23z" />
    <glyph glyph-name="uni026B" unicode="&#x26b;" horiz-adv-x="375" 
d="M260 287v-167q0 -27 23 -27q10 0 20 4l26 -94q-36 -19 -80 -19q-58 0 -91.5 35t-33.5 95v230h-4q-18 0 -30.5 -13t-28.5 -38l-68 37q24 50 55 81t76 32v298l136 15v-370h5q18 0 31 12t27 35l70 -36q-52 -110 -129 -110h-4z" />
    <glyph glyph-name="uni02AA" unicode="&#x2aa;" horiz-adv-x="574" 
d="M103.5 38.5q-57.5 53.5 -57.5 148.5v554l136 15v-569q0 -52 29 -77t95 -25q63 0 93 16.5t30 50.5q0 19 -6 31t-23.5 24t-52.5 26q-62 25 -89 60.5t-27 93.5q0 70 44.5 114t119.5 44q84 0 149 -60l-47 -75q-49 36 -92 36q-24 0 -36.5 -14t-12.5 -38q0 -26 15.5 -41
t65.5 -35q62 -25 91 -62t29 -93q0 -87 -66 -132.5t-192 -45.5q-138 0 -195.5 53.5z" />
    <glyph glyph-name="lslash" unicode="&#x142;" horiz-adv-x="301" 
d="M253 97l26 -94q-36 -19 -80 -19q-58 0 -91.5 35t-33.5 95v164l-33 -23l-44 73l77 56v357l136 15v-279l52 35l45 -73l-97 -67v-252q0 -27 23 -27q10 0 20 4z" />
    <glyph glyph-name="uni02AB" unicode="&#x2ab;" horiz-adv-x="592" 
d="M568 0h-323q-34 -16 -74 -16q-58 0 -91.5 35t-33.5 95v627l136 15v-636q0 -27 23 -27q10 0 18 4l205 328h-187v105h334v-97l-204 -327h208z" />
    <glyph glyph-name="m" unicode="m" horiz-adv-x="699" 
d="M619 504.5q32 -41.5 32 -109.5v-395h-133v381q0 33 -8.5 47t-24.5 14q-35 0 -67 -66v-376h-132v381q0 61 -34 61q-36 0 -68 -66v-376h-133v530h119l8 -67q25 40 55.5 61.5t69.5 21.5q37 0 63.5 -22.5t40.5 -64.5q53 87 128 87q52 0 84 -41.5z" />
    <glyph glyph-name="uni1E3F" unicode="&#x1e3f;" horiz-adv-x="699" 
d="M619 504.5q32 -41.5 32 -109.5v-395h-133v381q0 33 -8.5 47t-24.5 14q-35 0 -67 -66v-376h-132v381q0 61 -34 61q-36 0 -68 -66v-376h-133v530h119l8 -67q25 40 55.5 61.5t69.5 21.5q37 0 63.5 -22.5t40.5 -64.5q53 87 128 87q52 0 84 -41.5zM406 818l54 -99l-196 -91
l-37 65z" />
    <glyph glyph-name="uni1E41" unicode="&#x1e41;" horiz-adv-x="699" 
d="M619 504.5q32 -41.5 32 -109.5v-395h-133v381q0 33 -8.5 47t-24.5 14q-35 0 -67 -66v-376h-132v381q0 61 -34 61q-36 0 -68 -66v-376h-133v530h119l8 -67q25 40 55.5 61.5t69.5 21.5q37 0 63.5 -22.5t40.5 -64.5q53 87 128 87q52 0 84 -41.5zM407 777q22 -23 22 -58
q0 -34 -22 -56.5t-57 -22.5q-36 0 -58 22.5t-22 56.5q0 35 22 58t58 23q35 0 57 -23z" />
    <glyph glyph-name="uni0271" unicode="&#x271;" horiz-adv-x="699" 
d="M619 504.5q32 -41.5 32 -109.5v-449q0 -80 -44.5 -122.5t-115.5 -42.5t-121 41l49 78q14 -9 26.5 -13t28.5 -4q44 0 44 51v447q0 33 -8.5 47t-24.5 14q-35 0 -67 -66v-376h-132v381q0 61 -34 61q-36 0 -68 -66v-376h-133v530h119l8 -67q25 40 55.5 61.5t69.5 21.5
q37 0 63.5 -22.5t40.5 -64.5q53 87 128 87q52 0 84 -41.5z" />
    <glyph glyph-name="uni0270" unicode="&#x270;" horiz-adv-x="699" 
d="M648 530v-749l-136 15v257q-24 -34 -52.5 -51.5t-63.5 -17.5q-37 0 -63.5 22.5t-40.5 64.5q-53 -87 -128 -87q-52 0 -84 41.5t-32 109.5v395h133v-381q0 -33 8.5 -47t24.5 -14q35 0 67 66v376h132v-381q0 -61 34 -61q36 0 68 66v376h133z" />
    <glyph glyph-name="uni026F" unicode="&#x26f;" horiz-adv-x="699" 
d="M648 530v-530h-119l-8 67q-25 -40 -55.5 -61.5t-69.5 -21.5q-37 0 -63.5 22.5t-40.5 64.5q-53 -87 -128 -87q-52 0 -84 41.5t-32 109.5v395h133v-381q0 -33 8.5 -47t24.5 -14q35 0 67 66v376h132v-381q0 -61 34 -61q36 0 68 66v376h133z" />
    <glyph glyph-name="n" unicode="n" horiz-adv-x="481" 
d="M400 505q33 -41 33 -110v-395h-136v380q0 33 -9 47t-27 14q-36 0 -74 -72v-369h-136v530h119l10 -67q26 41 57 62t73 21q57 0 90 -41z" />
    <glyph glyph-name="nacute" unicode="&#x144;" horiz-adv-x="481" 
d="M400 505q33 -41 33 -110v-395h-136v380q0 33 -9 47t-27 14q-36 0 -74 -72v-369h-136v530h119l10 -67q26 41 57 62t73 21q57 0 90 -41zM300 818l54 -99l-196 -91l-37 65z" />
    <glyph glyph-name="nacute.loclPLK" horiz-adv-x="481" 
d="M400 505q33 -41 33 -110v-395h-136v380q0 33 -9 47t-27 14q-36 0 -74 -72v-369h-136v530h119l10 -67q26 41 57 62t73 21q57 0 90 -41zM260 799l101 -60l-117 -159l-61 36z" />
    <glyph glyph-name="napostrophe" unicode="&#x149;" horiz-adv-x="592" 
d="M135.5 739.5q16.5 -17.5 16.5 -45.5q0 -13 -6 -31.5t-15 -43.5l-31 -83h-59l19 105q-29 19 -29 53q0 27 17 45t44 18t43.5 -17.5zM511 505q33 -41 33 -110v-395h-136v380q0 33 -9 47t-27 14q-36 0 -74 -72v-369h-136v530h119l10 -67q26 41 57 62t73 21q57 0 90 -41z" />
    <glyph glyph-name="ncaron" unicode="&#x148;" horiz-adv-x="481" 
d="M400 505q33 -41 33 -110v-395h-136v380q0 33 -9 47t-27 14q-36 0 -74 -72v-369h-136v530h119l10 -67q26 41 57 62t73 21q57 0 90 -41zM354 801l48 -51l-116 -133h-83l-116 133l48 51l109 -91z" />
    <glyph glyph-name="uni1E4B" unicode="&#x1e4b;" horiz-adv-x="481" 
d="M400 505q33 -41 33 -110v-395h-136v380q0 33 -9 47t-27 14q-36 0 -74 -72v-369h-136v530h119l10 -67q26 41 57 62t73 21q57 0 90 -41zM129 -248l-48 50l117 133h82l116 -133l-48 -50l-110 89z" />
    <glyph glyph-name="ncommaaccent" unicode="&#x146;" horiz-adv-x="481" 
d="M400 505q33 -41 33 -110v-395h-136v380q0 33 -9 47t-27 14q-36 0 -74 -72v-369h-136v530h119l10 -67q26 41 57 62t73 21q57 0 90 -41zM289.5 -91q18.5 -20 18.5 -50q0 -17 -4.5 -33.5t-17.5 -47.5l-38 -93h-67l26 115q-33 21 -33 59q0 30 18.5 50t48.5 20t48.5 -20z" />
    <glyph glyph-name="uni0235" unicode="&#x235;" horiz-adv-x="636" 
d="M616.5 206q27.5 -29 27.5 -80q0 -70 -44 -105.5t-114 -35.5q-21 0 -41 3l-28 -69l-63 26l26 64q-38 20 -60.5 58.5t-22.5 97.5v215q0 33 -9 47t-27 14q-36 0 -74 -72v-369h-136v530h119l10 -67q26 41 57 62t73 21q57 0 90 -41t33 -110v-235q0 -17 1 -24q22 53 48 76
t64 23q43 0 70.5 -29zM551 130q0 29 -21 29q-13 0 -23 -15t-26 -58q7 -1 22 -1q48 0 48 45z" />
    <glyph glyph-name="uni1E45" unicode="&#x1e45;" horiz-adv-x="481" 
d="M400 505q33 -41 33 -110v-395h-136v380q0 33 -9 47t-27 14q-36 0 -74 -72v-369h-136v530h119l10 -67q26 41 57 62t73 21q57 0 90 -41zM301 777q22 -23 22 -58q0 -34 -22 -56.5t-57 -22.5q-36 0 -58 22.5t-22 56.5q0 35 22 58t58 23q35 0 57 -23z" />
    <glyph glyph-name="uni1E47" unicode="&#x1e47;" horiz-adv-x="481" 
d="M400 505q33 -41 33 -110v-395h-136v380q0 33 -9 47t-27 14q-36 0 -74 -72v-369h-136v530h119l10 -67q26 41 57 62t73 21q57 0 90 -41zM182 -203q-22 23 -22 58q0 34 22 56.5t57 22.5q36 0 58 -22.5t22 -56.5q0 -35 -22 -58t-58 -23q-35 0 -57 23z" />
    <glyph glyph-name="uni01F9" unicode="&#x1f9;" horiz-adv-x="481" 
d="M400 505q33 -41 33 -110v-395h-136v380q0 33 -9 47t-27 14q-36 0 -74 -72v-369h-136v530h119l10 -67q26 41 57 62t73 21q57 0 90 -41zM190 818l178 -125l-37 -65l-196 91z" />
    <glyph glyph-name="eng" unicode="&#x14b;" horiz-adv-x="481" 
d="M400 505q33 -41 33 -110v-455q0 -77 -45 -118t-117 -41q-73 0 -123 41l49 78q15 -9 27.5 -13t27.5 -4q45 0 45 51v446q0 33 -9 47t-27 14q-36 0 -74 -72v-369h-136v530h119l10 -67q26 41 57 62t73 21q57 0 90 -41z" />
    <glyph glyph-name="uni0272" unicode="&#x272;" horiz-adv-x="481" 
d="M400 505q33 -41 33 -110v-395h-136v380q0 33 -9 47t-27 14q-36 0 -74 -72v-368h1v-61q0 -77 -45 -118t-117 -41q-73 0 -123 41l49 78q15 -9 27.5 -13t27.5 -4q45 0 45 51v66h-1v530h119l10 -67q26 41 57 62t73 21q57 0 90 -41z" />
    <glyph glyph-name="uni0273" unicode="&#x273;" horiz-adv-x="478" 
d="M581 -178q-50 -41 -123 -41q-72 0 -117 41t-45 118v61h1v379q0 33 -9 47t-27 14q-36 0 -74 -72v-369h-136v530h119l10 -67q26 41 57 62t73 21q57 0 90 -41t33 -110v-395h-1v-66q0 -51 45 -51q15 0 27.5 4t27.5 13z" />
    <glyph glyph-name="uni01CC" unicode="&#x1cc;" horiz-adv-x="720" 
d="M400 505q33 -41 33 -110v-395h-136v380q0 33 -9 47t-27 14q-36 0 -74 -72v-369h-136v530h119l10 -67q26 41 57 62t73 21q57 0 90 -41zM668 31q0 -69 -22.5 -116t-61 -76.5t-96.5 -56.5l-45 98q31 18 49.5 35.5t29 44.5t10.5 69v501h136v-499zM657 777q22 -23 22 -58
q0 -34 -22 -56.5t-57 -22.5q-36 0 -58 22.5t-22 56.5q0 35 22 58t58 23q35 0 57 -23z" />
    <glyph glyph-name="uni019E" unicode="&#x19e;" horiz-adv-x="481" 
d="M400 505q33 -41 33 -110v-614l-136 15v584q0 33 -9 47t-27 14q-36 0 -74 -72v-369h-136v530h119l10 -67q26 41 57 62t73 21q57 0 90 -41z" />
    <glyph glyph-name="ntilde" unicode="&#xf1;" horiz-adv-x="481" 
d="M400 505q33 -41 33 -110v-395h-136v380q0 33 -9 47t-27 14q-36 0 -74 -72v-369h-136v530h119l10 -67q26 41 57 62t73 21q57 0 90 -41zM263.5 652.5q-13.5 6.5 -31.5 18.5q-11 9 -19 13t-16 4q-14 0 -23 -9.5t-21 -32.5l-65 30q16 48 43.5 76.5t62.5 28.5q18 0 30.5 -6
t31.5 -18q11 -9 19 -13t17 -4q13 0 22.5 9.5t20.5 30.5l65 -29q-16 -50 -43.5 -77.5t-61.5 -27.5q-18 0 -31.5 6.5z" />
    <glyph glyph-name="o" unicode="o" horiz-adv-x="492" 
d="M405 475q57 -71 57 -210q0 -133 -57.5 -207t-158.5 -74t-158.5 72t-57.5 209q0 136 57 208.5t159 72.5t159 -71zM189 402.5q-18 -40.5 -18 -137.5q0 -98 18 -138.5t57 -40.5t57 41t18 138q0 98 -18 138t-57 40t-57 -40.5z" />
    <glyph glyph-name="oacute" unicode="&#xf3;" horiz-adv-x="492" 
d="M405 475q57 -71 57 -210q0 -133 -57.5 -207t-158.5 -74t-158.5 72t-57.5 209q0 136 57 208.5t159 72.5t159 -71zM189 402.5q-18 -40.5 -18 -137.5q0 -98 18 -138.5t57 -40.5t57 41t18 138q0 98 -18 138t-57 40t-57 -40.5zM302 818l54 -99l-196 -91l-37 65z" />
    <glyph glyph-name="oacute.loclPLK" horiz-adv-x="492" 
d="M405 475q57 -71 57 -210q0 -133 -57.5 -207t-158.5 -74t-158.5 72t-57.5 209q0 136 57 208.5t159 72.5t159 -71zM189 402.5q-18 -40.5 -18 -137.5q0 -98 18 -138.5t57 -40.5t57 41t18 138q0 98 -18 138t-57 40t-57 -40.5zM262 799l101 -60l-117 -159l-61 36z" />
    <glyph glyph-name="uni0275" unicode="&#x275;" horiz-adv-x="492" 
d="M405 475q57 -71 57 -210q0 -133 -57.5 -207t-158.5 -74t-158.5 72t-57.5 209q0 136 57 208.5t159 72.5t159 -71zM189 414.5q-20 -31.5 -24 -104.5h162q-4 74 -24 105t-57 31t-57 -31.5zM303.5 116.5q19.5 33.5 23.5 111.5h-162q3 -79 22.5 -112t58.5 -33q38 0 57.5 33.5z
" />
    <glyph glyph-name="obreve" unicode="&#x14f;" horiz-adv-x="492" 
d="M405 475q57 -71 57 -210q0 -133 -57.5 -207t-158.5 -74t-158.5 72t-57.5 209q0 136 57 208.5t159 72.5t159 -71zM189 402.5q-18 -40.5 -18 -137.5q0 -98 18 -138.5t57 -40.5t57 41t18 138q0 98 -18 138t-57 40t-57 -40.5zM144 678q-36 42 -41 118l73 14q16 -80 69 -80
q54 0 70 80l74 -14q-5 -76 -41.5 -118t-102.5 -42q-65 0 -101 42z" />
    <glyph glyph-name="uni01D2" unicode="&#x1d2;" horiz-adv-x="492" 
d="M405 475q57 -71 57 -210q0 -133 -57.5 -207t-158.5 -74t-158.5 72t-57.5 209q0 136 57 208.5t159 72.5t159 -71zM189 402.5q-18 -40.5 -18 -137.5q0 -98 18 -138.5t57 -40.5t57 41t18 138q0 98 -18 138t-57 40t-57 -40.5zM356 801l48 -51l-116 -133h-83l-116 133l48 51
l109 -91z" />
    <glyph glyph-name="ocircumflex" unicode="&#xf4;" horiz-adv-x="492" 
d="M405 475q57 -71 57 -210q0 -133 -57.5 -207t-158.5 -74t-158.5 72t-57.5 209q0 136 57 208.5t159 72.5t159 -71zM189 402.5q-18 -40.5 -18 -137.5q0 -98 18 -138.5t57 -40.5t57 41t18 138q0 98 -18 138t-57 40t-57 -40.5zM137 629l-48 50l117 133h82l116 -133l-48 -50
l-110 89z" />
    <glyph glyph-name="uni1ED1" unicode="&#x1ed1;" horiz-adv-x="492" 
d="M405 475q57 -71 57 -210q0 -133 -57.5 -207t-158.5 -74t-158.5 72t-57.5 209q0 136 57 208.5t159 72.5t159 -71zM189 402.5q-18 -40.5 -18 -137.5q0 -98 18 -138.5t57 -40.5t57 41t18 138q0 98 -18 138t-57 40t-57 -40.5zM135 589l-48 50l117 127h82l116 -127l-48 -50
l-110 82zM440 933l81 -69l-140 -141l-53 45z" />
    <glyph glyph-name="uni1ED9" unicode="&#x1ed9;" horiz-adv-x="492" 
d="M405 475q57 -71 57 -210q0 -133 -57.5 -207t-158.5 -74t-158.5 72t-57.5 209q0 136 57 208.5t159 72.5t159 -71zM189 402.5q-18 -40.5 -18 -137.5q0 -98 18 -138.5t57 -40.5t57 41t18 138q0 98 -18 138t-57 40t-57 -40.5zM137 629l-48 50l117 133h82l116 -133l-48 -50
l-110 89zM188 -203q-22 23 -22 58q0 34 22 56.5t57 22.5q36 0 58 -22.5t22 -56.5q0 -35 -22 -58t-58 -23q-35 0 -57 23z" />
    <glyph glyph-name="uni1ED3" unicode="&#x1ed3;" horiz-adv-x="492" 
d="M405 475q57 -71 57 -210q0 -133 -57.5 -207t-158.5 -74t-158.5 72t-57.5 209q0 136 57 208.5t159 72.5t159 -71zM189 402.5q-18 -40.5 -18 -137.5q0 -98 18 -138.5t57 -40.5t57 41t18 138q0 98 -18 138t-57 40t-57 -40.5zM133 589l-48 50l117 127h82l116 -127l-48 -50
l-110 82zM49 933l113 -165l-55 -45l-139 141z" />
    <glyph glyph-name="uni1ED5" unicode="&#x1ed5;" horiz-adv-x="492" 
d="M405 475q57 -71 57 -210q0 -133 -57.5 -207t-158.5 -74t-158.5 72t-57.5 209q0 136 57 208.5t159 72.5t159 -71zM189 402.5q-18 -40.5 -18 -137.5q0 -98 18 -138.5t57 -40.5t57 41t18 138q0 98 -18 138t-57 40t-57 -40.5zM135 589l-48 50l117 127h82l116 -127l-48 -50
l-110 82zM333 836q32 3 45 11.5t13 28.5q0 34 -31 34q-14 0 -24.5 -3t-25.5 -10l-22 59q38 25 90 25q50 0 77 -26.5t27 -70.5q0 -38 -18 -61t-51 -30v-54h-80v97z" />
    <glyph glyph-name="uni1ED7" unicode="&#x1ed7;" horiz-adv-x="492" 
d="M405 475q57 -71 57 -210q0 -133 -57.5 -207t-158.5 -74t-158.5 72t-57.5 209q0 136 57 208.5t159 72.5t159 -71zM189 402.5q-18 -40.5 -18 -137.5q0 -98 18 -138.5t57 -40.5t57 41t18 138q0 98 -18 138t-57 40t-57 -40.5zM136 584l-48 50l117 127h82l116 -127l-48 -50
l-110 82zM263.5 801.5q-13.5 6.5 -30.5 17.5q-21 16 -35 16t-23 -9t-21 -31l-65 28q16 45 43.5 72.5t62.5 27.5q18 0 31 -6t31 -17q21 -16 36 -16q13 0 22 9t21 29l65 -27q-16 -47 -43.5 -73.5t-61.5 -26.5q-19 0 -32.5 6.5z" />
    <glyph glyph-name="uni020D" unicode="&#x20d;" horiz-adv-x="492" 
d="M405 475q57 -71 57 -210q0 -133 -57.5 -207t-158.5 -74t-158.5 72t-57.5 209q0 136 57 208.5t159 72.5t159 -71zM189 402.5q-18 -40.5 -18 -137.5q0 -98 18 -138.5t57 -40.5t57 41t18 138q0 98 -18 138t-57 40t-57 -40.5zM144 848l79 -188l-66 -32l-101 173zM290 848
l72 -186l-67 -29l-95 171z" />
    <glyph glyph-name="odieresis" unicode="&#xf6;" horiz-adv-x="492" 
d="M405 475q57 -71 57 -210q0 -133 -57.5 -207t-158.5 -74t-158.5 72t-57.5 209q0 136 57 208.5t159 72.5t159 -71zM189 402.5q-18 -40.5 -18 -137.5q0 -98 18 -138.5t57 -40.5t57 41t18 138q0 98 -18 138t-57 40t-57 -40.5zM199.5 767.5q19.5 -20.5 19.5 -50.5t-19.5 -50.5
t-49.5 -20.5q-29 0 -49 20.5t-20 50.5t20 50.5t49 20.5q30 0 49.5 -20.5zM391.5 767.5q19.5 -20.5 19.5 -50.5t-19.5 -50.5t-49.5 -20.5q-29 0 -49.5 20.5t-20.5 50.5t20.5 50.5t49.5 20.5q30 0 49.5 -20.5z" />
    <glyph glyph-name="uni022B" unicode="&#x22b;" horiz-adv-x="492" 
d="M405 475q57 -71 57 -210q0 -133 -57.5 -207t-158.5 -74t-158.5 72t-57.5 209q0 136 57 208.5t159 72.5t159 -71zM189 402.5q-18 -40.5 -18 -137.5q0 -98 18 -138.5t57 -40.5t57 41t18 138q0 98 -18 138t-57 40t-57 -40.5zM200.5 730.5q19.5 -20.5 19.5 -50.5t-19.5 -50.5
t-49.5 -20.5q-29 0 -49 20.5t-20 50.5t20 50.5t49 20.5q30 0 49.5 -20.5zM392.5 730.5q19.5 -20.5 19.5 -50.5t-19.5 -50.5t-49.5 -20.5q-29 0 -49.5 20.5t-20.5 50.5t20.5 50.5t49.5 20.5q30 0 49.5 -20.5zM373 801h-252v93h252v-93z" />
    <glyph glyph-name="uni022F" unicode="&#x22f;" horiz-adv-x="492" 
d="M405 475q57 -71 57 -210q0 -133 -57.5 -207t-158.5 -74t-158.5 72t-57.5 209q0 136 57 208.5t159 72.5t159 -71zM189 402.5q-18 -40.5 -18 -137.5q0 -98 18 -138.5t57 -40.5t57 41t18 138q0 98 -18 138t-57 40t-57 -40.5zM303 777q22 -23 22 -58q0 -34 -22 -56.5
t-57 -22.5q-36 0 -58 22.5t-22 56.5q0 35 22 58t58 23q35 0 57 -23z" />
    <glyph glyph-name="uni0231" unicode="&#x231;" horiz-adv-x="492" 
d="M405 475q57 -71 57 -210q0 -133 -57.5 -207t-158.5 -74t-158.5 72t-57.5 209q0 136 57 208.5t159 72.5t159 -71zM189 402.5q-18 -40.5 -18 -137.5q0 -98 18 -138.5t57 -40.5t57 41t18 138q0 98 -18 138t-57 40t-57 -40.5zM303 735q22 -23 22 -58q0 -34 -22 -56.5
t-57 -22.5q-36 0 -58 22.5t-22 56.5q0 35 22 58t58 23q35 0 57 -23zM372 798h-252v93h252v-93z" />
    <glyph glyph-name="uni1ECD" unicode="&#x1ecd;" horiz-adv-x="492" 
d="M405 475q57 -71 57 -210q0 -133 -57.5 -207t-158.5 -74t-158.5 72t-57.5 209q0 136 57 208.5t159 72.5t159 -71zM189 402.5q-18 -40.5 -18 -137.5q0 -98 18 -138.5t57 -40.5t57 41t18 138q0 98 -18 138t-57 40t-57 -40.5zM188 -203q-22 23 -22 58q0 34 22 56.5t57 22.5
q36 0 58 -22.5t22 -56.5q0 -35 -22 -58t-58 -23q-35 0 -57 23z" />
    <glyph glyph-name="ograve" unicode="&#xf2;" horiz-adv-x="492" 
d="M405 475q57 -71 57 -210q0 -133 -57.5 -207t-158.5 -74t-158.5 72t-57.5 209q0 136 57 208.5t159 72.5t159 -71zM189 402.5q-18 -40.5 -18 -137.5q0 -98 18 -138.5t57 -40.5t57 41t18 138q0 98 -18 138t-57 40t-57 -40.5zM192 818l178 -125l-37 -65l-196 91z" />
    <glyph glyph-name="uni1ECF" unicode="&#x1ecf;" horiz-adv-x="492" 
d="M405 475q57 -71 57 -210q0 -133 -57.5 -207t-158.5 -74t-158.5 72t-57.5 209q0 136 57 208.5t159 72.5t159 -71zM189 402.5q-18 -40.5 -18 -137.5q0 -98 18 -138.5t57 -40.5t57 41t18 138q0 98 -18 138t-57 40t-57 -40.5zM207 704q32 3 45 11.5t13 28.5q0 34 -31 34
q-14 0 -24.5 -3t-25.5 -10l-22 59q38 25 90 25q50 0 77 -26.5t27 -70.5q0 -38 -18 -61t-51 -30v-54h-80v97z" />
    <glyph glyph-name="ohorn" unicode="&#x1a1;" horiz-adv-x="525" 
d="M442 406q20 -58 20 -141q0 -133 -57.5 -207t-158.5 -74t-158.5 72t-57.5 209q0 136 57 208.5t159 72.5q104 0 161 -73q18 3 26 14.5t8 33.5q0 37 -11 74l86 15q16 -40 16 -88q0 -95 -90 -116zM303 127q18 41 18 138q0 98 -18 138t-57 40t-57 -40.5t-18 -137.5
q0 -98 18 -138.5t57 -40.5t57 41z" />
    <glyph glyph-name="uni1EDB" unicode="&#x1edb;" horiz-adv-x="525" 
d="M356 719l-196 -91l-37 65l179 125zM442 406q20 -58 20 -141q0 -133 -57.5 -207t-158.5 -74t-158.5 72t-57.5 209q0 136 57 208.5t159 72.5q104 0 161 -73q18 3 26 14.5t8 33.5q0 37 -11 74l86 15q16 -40 16 -88q0 -95 -90 -116zM303 127q18 41 18 138q0 98 -18 138
t-57 40t-57 -40.5t-18 -137.5q0 -98 18 -138.5t57 -40.5t57 41z" />
    <glyph glyph-name="uni1EE3" unicode="&#x1ee3;" horiz-adv-x="525" 
d="M442 406q20 -58 20 -141q0 -133 -57.5 -207t-158.5 -74t-158.5 72t-57.5 209q0 136 57 208.5t159 72.5q104 0 161 -73q18 3 26 14.5t8 33.5q0 37 -11 74l86 15q16 -40 16 -88q0 -95 -90 -116zM303 127q18 41 18 138q0 98 -18 138t-57 40t-57 -40.5t-18 -137.5
q0 -98 18 -138.5t57 -40.5t57 41zM303 -88.5q22 -22.5 22 -56.5q0 -35 -22 -58t-58 -23q-35 0 -57 23t-22 58q0 34 22 56.5t57 22.5q36 0 58 -22.5z" />
    <glyph glyph-name="uni1EDD" unicode="&#x1edd;" horiz-adv-x="525" 
d="M370 693l-37 -65l-196 91l55 99zM442 406q20 -58 20 -141q0 -133 -57.5 -207t-158.5 -74t-158.5 72t-57.5 209q0 136 57 208.5t159 72.5q104 0 161 -73q18 3 26 14.5t8 33.5q0 37 -11 74l86 15q16 -40 16 -88q0 -95 -90 -116zM303 127q18 41 18 138q0 98 -18 138t-57 40
t-57 -40.5t-18 -137.5q0 -98 18 -138.5t57 -40.5t57 41z" />
    <glyph glyph-name="uni1EDF" unicode="&#x1edf;" horiz-adv-x="525" 
d="M209.5 775q-10.5 -3 -25.5 -10l-22 59q38 25 90 25q50 0 77 -26.5t27 -70.5q0 -38 -18 -61t-51 -30v-54h-80v97q32 3 45 11.5t13 28.5q0 34 -31 34q-14 0 -24.5 -3zM442 406q20 -58 20 -141q0 -133 -57.5 -207t-158.5 -74t-158.5 72t-57.5 209q0 136 57 208.5t159 72.5
q104 0 161 -73q18 3 26 14.5t8 33.5q0 37 -11 74l86 15q16 -40 16 -88q0 -95 -90 -116zM303 127q18 41 18 138q0 98 -18 138t-57 40t-57 -40.5t-18 -137.5q0 -98 18 -138.5t57 -40.5t57 41z" />
    <glyph glyph-name="uni1EE1" unicode="&#x1ee1;" horiz-adv-x="525" 
d="M176 678.5q-9 -9.5 -21 -32.5l-65 30q16 48 43.5 76.5t62.5 28.5q18 0 30.5 -6t31.5 -18q11 -9 19 -13t17 -4q13 0 22.5 9.5t20.5 30.5l65 -29q-16 -50 -43.5 -77.5t-61.5 -27.5q-18 0 -31.5 6.5t-31.5 18.5q-11 9 -19 13t-16 4q-14 0 -23 -9.5zM442 406q20 -58 20 -141
q0 -133 -57.5 -207t-158.5 -74t-158.5 72t-57.5 209q0 136 57 208.5t159 72.5q104 0 161 -73q18 3 26 14.5t8 33.5q0 37 -11 74l86 15q16 -40 16 -88q0 -95 -90 -116zM303 127q18 41 18 138q0 98 -18 138t-57 40t-57 -40.5t-18 -137.5q0 -98 18 -138.5t57 -40.5t57 41z" />
    <glyph glyph-name="ohungarumlaut" unicode="&#x151;" horiz-adv-x="492" 
d="M405 475q57 -71 57 -210q0 -133 -57.5 -207t-158.5 -74t-158.5 72t-57.5 209q0 136 57 208.5t159 72.5t159 -71zM189 402.5q-18 -40.5 -18 -137.5q0 -98 18 -138.5t57 -40.5t57 41t18 138q0 98 -18 138t-57 40t-57 -40.5zM205 848l89 -44l-94 -171l-67 29zM350 848
l89 -47l-102 -173l-65 32z" />
    <glyph glyph-name="uni01A3" unicode="&#x1a3;" horiz-adv-x="687" 
d="M593.5 502q42.5 -44 42.5 -128v-593l-136 15v590q0 31 -10.5 44.5t-32.5 13.5q-16 0 -34 -6q34 -66 34 -173q0 -133 -57 -207t-157 -74q-99 0 -156 72.5t-57 208.5t56.5 208.5t157.5 72.5q67 0 116 -32q53 32 116 32q75 0 117.5 -44zM298.5 126.5q17.5 40.5 17.5 138.5
t-17 138t-55 40t-55.5 -40.5t-17.5 -137.5q0 -98 17.5 -138.5t54.5 -40.5q38 0 55.5 40.5z" />
    <glyph glyph-name="uni020F" unicode="&#x20f;" horiz-adv-x="492" 
d="M405 475q57 -71 57 -210q0 -133 -57.5 -207t-158.5 -74t-158.5 72t-57.5 209q0 136 57 208.5t159 72.5t159 -71zM189 402.5q-18 -40.5 -18 -137.5q0 -98 18 -138.5t57 -40.5t57 41t18 138q0 98 -18 138t-57 40t-57 -40.5zM347.5 738q36.5 -42 41.5 -118l-74 -14
q-16 80 -70 80q-53 0 -69 -80l-73 14q5 76 41 118t101 42q66 0 102.5 -42z" />
    <glyph glyph-name="omacron" unicode="&#x14d;" horiz-adv-x="492" 
d="M405 475q57 -71 57 -210q0 -133 -57.5 -207t-158.5 -74t-158.5 72t-57.5 209q0 136 57 208.5t159 72.5t159 -71zM189 402.5q-18 -40.5 -18 -137.5q0 -98 18 -138.5t57 -40.5t57 41t18 138q0 98 -18 138t-57 40t-57 -40.5zM372 661h-252v93h252v-93z" />
    <glyph glyph-name="uni1E53" unicode="&#x1e53;" horiz-adv-x="492" 
d="M405 475q57 -71 57 -210q0 -133 -57.5 -207t-158.5 -74t-158.5 72t-57.5 209q0 136 57 208.5t159 72.5t159 -71zM189 402.5q-18 -40.5 -18 -137.5q0 -98 18 -138.5t57 -40.5t57 41t18 138q0 98 -18 138t-57 40t-57 -40.5zM374 615h-252v93h252v-93zM312 930l52 -101
l-197 -83l-35 68z" />
    <glyph glyph-name="uni1E51" unicode="&#x1e51;" horiz-adv-x="492" 
d="M405 475q57 -71 57 -210q0 -133 -57.5 -207t-158.5 -74t-158.5 72t-57.5 209q0 136 57 208.5t159 72.5t159 -71zM189 402.5q-18 -40.5 -18 -137.5q0 -98 18 -138.5t57 -40.5t57 41t18 138q0 98 -18 138t-57 40t-57 -40.5zM374 615h-252v93h252v-93zM184 930l180 -117
l-35 -67l-197 83z" />
    <glyph glyph-name="uniA7B7" unicode="&#xa7b7;" horiz-adv-x="641" 
d="M610 241q0 -131 -43 -194t-120 -63q-108 0 -126 110q-12 -57 -43 -83.5t-82 -26.5q-79 0 -122 62t-43 195q0 153 52 289h122q-20 -82 -30.5 -149.5t-10.5 -134.5q0 -90 12.5 -125t39.5 -35q22 0 33 17.5t11 64.5v187l122 16v-203q0 -44 11 -63t32 -19q18 0 29.5 12.5
t17.5 47.5t6 101q0 67 -11 135t-31 148h123q51 -135 51 -289z" />
    <glyph glyph-name="uni0277" unicode="&#x277;" horiz-adv-x="640" 
d="M533.5 468.5q76.5 -77.5 76.5 -227.5q0 -131 -43 -194t-120 -63q-108 0 -127 110q-12 -56 -42.5 -83t-81.5 -27q-79 0 -122.5 62t-43.5 195q0 149 77 227t214 78q136 0 212.5 -77.5zM453.5 98.5q11.5 12.5 17.5 47.5t6 101q0 102 -36 151.5t-120 49.5q-85 0 -121.5 -50
t-36.5 -152q0 -90 12.5 -125t40.5 -35q21 0 32 17.5t11 64.5v121l122 16v-137q0 -44 11 -63t32 -19q18 0 29.5 12.5z" />
    <glyph glyph-name="uni01EB" unicode="&#x1eb;" horiz-adv-x="492" 
d="M252.5 -53q-19.5 -25 -19.5 -54q0 -47 44 -47q17 0 48 7l-8 -86q-31 -7 -57 -7q-56 0 -90.5 29t-34.5 81q0 69 63 119q-80 16 -124 86t-44 190q0 136 57 208.5t159 72.5t159 -71t57 -210q0 -104 -36 -172.5t-101 -94.5q-53 -26 -72.5 -51zM189 402.5
q-18 -40.5 -18 -137.5q0 -98 18 -138.5t57 -40.5t57 41t18 138q0 98 -18 138t-57 40t-57 -40.5z" />
    <glyph glyph-name="uni01ED" unicode="&#x1ed;" horiz-adv-x="492" 
d="M372 754v-93h-252v93h252zM252.5 -53q-19.5 -25 -19.5 -54q0 -47 44 -47q17 0 48 7l-8 -86q-31 -7 -57 -7q-56 0 -90.5 29t-34.5 81q0 69 63 119q-80 16 -124 86t-44 190q0 136 57 208.5t159 72.5t159 -71t57 -210q0 -104 -36 -172.5t-101 -94.5q-53 -26 -72.5 -51z
M189 402.5q-18 -40.5 -18 -137.5q0 -98 18 -138.5t57 -40.5t57 41t18 138q0 98 -18 138t-57 40t-57 -40.5z" />
    </font>
</defs>
</svg>
