<?xml version="1.0" standalone="no"?>
<!DOCTYPE svg PUBLIC "-//W3C//DTD SVG 1.1//EN" "http://www.w3.org/Graphics/SVG/1.1/DTD/svg11.dtd" >
<svg>
<metadata>
Created by FontForge 20120731 at Fri May  5 11:13:48 2017
 By www-data
Digitized data copyright 2012-2016, The Mozilla Foundation and Telefonica S.A.
</metadata>
<defs>
<font id="FiraSansExtraCondensed-Regular" horiz-adv-x="460" >
  <font-face 
    font-family="Fira Sans Extra Condensed"
    font-weight="400"
    font-stretch="ultra-condensed"
    units-per-em="1000"
    panose-1="2 11 5 3 5 0 0 2 0 4"
    ascent="800"
    descent="-200"
    x-height="527"
    cap-height="689"
    bbox="-630 -352 1360 1101"
    underline-thickness="50"
    underline-position="-50"
    unicode-range="U+000D-FEFF"
  />
<missing-glyph horiz-adv-x="666" 
d="M543 1050v-1400h-420v1400h420zM489 998h-311v-1296h311v1296zM409.5 419q25.5 -32 25.5 -83q0 -53 -22.5 -82t-72.5 -36v-45q0 -11 -7.5 -17.5t-17.5 -6.5t-17.5 6.5t-7.5 17.5v84q53 3 72 19.5t19 57.5q0 33 -13 51t-48 18q-29 0 -52 -11q-8 -3 -13 -3q-11 0 -17.5 6.5
t-6.5 16.5q0 19 29.5 29t63.5 10q60 0 85.5 -32zM340 110q10 -10 10 -25q0 -16 -10 -26.5t-25 -10.5t-25 10.5t-10 26.5q0 15 10 25t25 10t25 -10z" />
    <glyph glyph-name="fi" unicode="fi" horiz-adv-x="480" 
d="M362 713l-29 -58q-46 22 -96 22q-38 0 -54 -16.5t-16 -52.5v-81h240v-527h-88v458h-152v-458h-88v458h-69v69h69v80q0 62 38.5 102t114.5 40q68 0 130 -36z" />
    <glyph glyph-name="fl" unicode="fl" horiz-adv-x="499" 
d="M484 6q-29 -18 -64 -18q-44 0 -70.5 28t-26.5 76v572q-43 14 -87 14q-38 0 -53.5 -15.5t-15.5 -51.5v-84h99l-10 -69h-89v-458h-88v458h-69v69h69v83q0 63 38 101t110 38q48 0 99 -19l85 10v-646q0 -33 28 -33q13 0 25 5z" />
    <glyph glyph-name=".notdef" horiz-adv-x="666" 
d="M543 1050v-1400h-420v1400h420zM489 998h-311v-1296h311v1296zM409.5 419q25.5 -32 25.5 -83q0 -53 -22.5 -82t-72.5 -36v-45q0 -11 -7.5 -17.5t-17.5 -6.5t-17.5 6.5t-7.5 17.5v84q53 3 72 19.5t19 57.5q0 33 -13 51t-48 18q-29 0 -52 -11q-8 -3 -13 -3q-11 0 -17.5 6.5
t-6.5 16.5q0 19 29.5 29t63.5 10q60 0 85.5 -32zM340 110q10 -10 10 -25q0 -16 -10 -26.5t-25 -10.5t-25 10.5t-10 26.5q0 15 10 25t25 10t25 -10z" />
    <glyph glyph-name="nonmarkingreturn" unicode="&#xd;" horiz-adv-x="212" 
 />
    <glyph glyph-name="space" unicode=" " horiz-adv-x="212" 
 />
    <glyph glyph-name="A" unicode="A" horiz-adv-x="487" 
d="M386 0l-41 175h-206l-41 -175h-90l179 689h113l179 -689h-93zM156 248h172l-86 365z" />
    <glyph glyph-name="Aacute" unicode="&#xc1;" horiz-adv-x="487" 
d="M386 0l-41 175h-206l-41 -175h-90l179 689h113l179 -689h-93zM156 248h172l-86 365zM309 908l37 -74l-181 -79l-23 48z" />
    <glyph glyph-name="Abreve" unicode="&#x102;" horiz-adv-x="487" 
d="M386 0l-41 175h-206l-41 -175h-90l179 689h113l179 -689h-93zM156 248h172l-86 365zM156 790.5q-34 31.5 -39 88.5l54 13q15 -66 72 -66q29 0 48 17t26 49l54 -13q-5 -57 -39.5 -88.5t-88.5 -31.5q-53 0 -87 31.5z" />
    <glyph glyph-name="uni1EAE" unicode="&#x1eae;" horiz-adv-x="487" 
d="M386 0l-41 175h-206l-41 -175h-90l179 689h113l179 -689h-93zM156 248h172l-86 365zM154 771.5q-34 31.5 -39 88.5l54 13q15 -66 72 -66q29 0 48 17t26 49l54 -13q-5 -57 -39.5 -88.5t-88.5 -31.5q-53 0 -87 31.5zM311 1051l58 -48l-122 -130l-37 32z" />
    <glyph glyph-name="uni1EB6" unicode="&#x1eb6;" horiz-adv-x="487" 
d="M386 0l-41 175h-206l-41 -175h-90l179 689h113l179 -689h-93zM156 248h172l-86 365zM156 790.5q-34 31.5 -39 88.5l54 13q15 -66 72 -66q29 0 48 17t26 49l54 -13q-5 -57 -39.5 -88.5t-88.5 -31.5q-53 0 -87 31.5zM201 -179q-16 17 -16 44q0 25 16.5 42t42.5 17t42.5 -17
t16.5 -42q0 -26 -16.5 -43.5t-42.5 -17.5q-27 0 -43 17z" />
    <glyph glyph-name="uni1EB0" unicode="&#x1eb0;" horiz-adv-x="487" 
d="M386 0l-41 175h-206l-41 -175h-90l179 689h113l179 -689h-93zM156 248h172l-86 365zM156 771.5q-34 31.5 -39 88.5l54 13q15 -66 72 -66q29 0 48 17t26 49l54 -13q-5 -57 -39.5 -88.5t-88.5 -31.5q-53 0 -87 31.5zM175 1051l103 -146l-39 -32l-122 130z" />
    <glyph glyph-name="uni1EB2" unicode="&#x1eb2;" horiz-adv-x="487" 
d="M386 0l-41 175h-206l-41 -175h-90l179 689h113l179 -689h-93zM156 248h172l-86 365zM156 771.5q-34 31.5 -39 88.5l54 13q15 -66 72 -66q29 0 48 17t26 49l54 -13q-5 -57 -39.5 -88.5t-88.5 -31.5q-53 0 -87 31.5zM211 939q32 5 45 13t13 30q0 37 -35 37q-22 0 -48 -13
l-18 49q34 24 79 24q44 0 67.5 -24t23.5 -66q0 -36 -17.5 -57.5t-48.5 -27.5v-48h-61v83z" />
    <glyph glyph-name="uni1EB4" unicode="&#x1eb4;" horiz-adv-x="487" 
d="M386 0l-41 175h-206l-41 -175h-90l179 689h113l179 -689h-93zM156 248h172l-86 365zM157 771.5q-34 31.5 -39 88.5l54 13q15 -66 72 -66q29 0 48 17t26 49l54 -13q-5 -57 -39.5 -88.5t-88.5 -31.5q-53 0 -87 31.5zM266.5 916.5q-12.5 6.5 -31.5 19.5q-9 7 -19 12.5
t-19 5.5q-13 0 -23 -10.5t-22 -34.5l-48 23q15 40 38 62.5t52 22.5q17 0 30 -6.5t29 -18.5q25 -19 39 -19q12 0 22 10t22 33l49 -22q-29 -84 -90 -84q-16 0 -28.5 6.5z" />
    <glyph glyph-name="uni01CD" unicode="&#x1cd;" horiz-adv-x="487" 
d="M386 0l-41 175h-206l-41 -175h-90l179 689h113l179 -689h-93zM156 248h172l-86 365zM349 904l35 -38l-112 -112h-56l-112 112l36 38l104 -80z" />
    <glyph glyph-name="Acircumflex" unicode="&#xc2;" horiz-adv-x="487" 
d="M386 0l-41 175h-206l-41 -175h-90l179 689h113l179 -689h-93zM156 248h172l-86 365zM138 761l-35 38l112 112h56l112 -112l-36 -38l-104 80z" />
    <glyph glyph-name="uni1EA4" unicode="&#x1ea4;" horiz-adv-x="487" 
d="M386 0l-41 175h-206l-41 -175h-90l179 689h113l179 -689h-93zM156 248h172l-86 365zM138 719l-35 38l112 112h56l112 -112l-36 -38l-104 80zM420 1015l58 -48l-122 -130l-37 32z" />
    <glyph glyph-name="uni1EAC" unicode="&#x1eac;" horiz-adv-x="487" 
d="M386 0l-41 175h-206l-41 -175h-90l179 689h113l179 -689h-93zM156 248h172l-86 365zM138 761l-35 38l112 112h56l112 -112l-36 -38l-104 80zM201 -179q-16 17 -16 44q0 25 16.5 42t42.5 17t42.5 -17t16.5 -42q0 -26 -16.5 -43.5t-42.5 -17.5q-27 0 -43 17z" />
    <glyph glyph-name="uni1EA6" unicode="&#x1ea6;" horiz-adv-x="487" 
d="M386 0l-41 175h-206l-41 -175h-90l179 689h113l179 -689h-93zM156 248h172l-86 365zM138 719l-35 38l112 112h56l112 -112l-36 -38l-104 80zM67 1015l103 -146l-39 -32l-122 130z" />
    <glyph glyph-name="uni1EA8" unicode="&#x1ea8;" horiz-adv-x="487" 
d="M386 0l-41 175h-206l-41 -175h-90l179 689h113l179 -689h-93zM156 248h172l-86 365zM138 719l-35 38l112 112h56l112 -112l-36 -38l-104 80zM338 899q32 5 45 13t13 30q0 37 -35 37q-22 0 -48 -13l-18 49q34 24 79 24q44 0 67.5 -24t23.5 -66q0 -36 -17.5 -57.5
t-48.5 -27.5v-48h-61v83z" />
    <glyph glyph-name="uni1EAA" unicode="&#x1eaa;" horiz-adv-x="487" 
d="M386 0l-41 175h-206l-41 -175h-90l179 689h113l179 -689h-93zM156 248h172l-86 365zM138 719l-35 38l112 112h56l112 -112l-36 -38l-104 80zM264.5 911.5q-12.5 6.5 -31.5 19.5q-9 7 -19 12.5t-19 5.5q-13 0 -23 -10.5t-22 -34.5l-48 23q15 40 38 62.5t52 22.5
q17 0 30 -6.5t29 -18.5q25 -19 39 -19q12 0 22 10t22 33l49 -22q-29 -84 -90 -84q-16 0 -28.5 6.5z" />
    <glyph glyph-name="uni0200" unicode="&#x200;" horiz-adv-x="487" 
d="M386 0l-41 175h-206l-41 -175h-90l179 689h113l179 -689h-93zM156 248h172l-86 365zM140 953l70 -170l-49 -22l-90 155zM267 953l63 -165l-49 -22l-82 150z" />
    <glyph glyph-name="Adieresis" unicode="&#xc4;" horiz-adv-x="487" 
d="M386 0l-41 175h-206l-41 -175h-90l179 689h113l179 -689h-93zM156 248h172l-86 365zM201 875q15 -16 15 -39t-15 -39t-38 -16t-38 16t-15 39t15 39t38 16t38 -16zM376 875q15 -16 15 -39t-15 -39t-38 -16q-22 0 -37.5 16t-15.5 39t15.5 39t37.5 16q23 0 38 -16z" />
    <glyph glyph-name="uni01DE" unicode="&#x1de;" horiz-adv-x="487" 
d="M386 0l-41 175h-206l-41 -175h-90l179 689h113l179 -689h-93zM156 248h172l-86 365zM195 840q15 -16 15 -39t-15 -39t-38 -16t-38 16t-15 39t15 39t38 16t38 -16zM370 840q15 -16 15 -39t-15 -39t-38 -16q-22 0 -37.5 16t-15.5 39t15.5 39t37.5 16q23 0 38 -16zM359 905
h-228v64h228v-64z" />
    <glyph glyph-name="uni0226" unicode="&#x226;" horiz-adv-x="487" 
d="M386 0l-41 175h-206l-41 -175h-90l179 689h113l179 -689h-93zM156 248h172l-86 365zM286 886q16 -17 16 -44q0 -25 -16.5 -42t-42.5 -17t-42.5 17t-16.5 42q0 26 16.5 43.5t42.5 17.5q27 0 43 -17z" />
    <glyph glyph-name="uni1EA0" unicode="&#x1ea0;" horiz-adv-x="487" 
d="M386 0l-41 175h-206l-41 -175h-90l179 689h113l179 -689h-93zM156 248h172l-86 365zM201 -179q-16 17 -16 44q0 25 16.5 42t42.5 17t42.5 -17t16.5 -42q0 -26 -16.5 -43.5t-42.5 -17.5q-27 0 -43 17z" />
    <glyph glyph-name="uni01E0" unicode="&#x1e0;" horiz-adv-x="487" 
d="M386 0l-41 175h-206l-41 -175h-90l179 689h113l179 -689h-93zM156 248h172l-86 365zM287 845q16 -17 16 -44q0 -25 -16.5 -42t-42.5 -17t-42.5 17t-16.5 42q0 26 16.5 43.5t42.5 17.5q27 0 43 -17zM358 906h-228v64h228v-64z" />
    <glyph glyph-name="Agrave" unicode="&#xc0;" horiz-adv-x="487" 
d="M386 0l-41 175h-206l-41 -175h-90l179 689h113l179 -689h-93zM156 248h172l-86 365zM172 908l168 -105l-23 -48l-181 79z" />
    <glyph glyph-name="uni1EA2" unicode="&#x1ea2;" horiz-adv-x="487" 
d="M386 0l-41 175h-206l-41 -175h-90l179 689h113l179 -689h-93zM156 248h172l-86 365zM213 847q32 5 45 13t13 30q0 37 -35 37q-22 0 -48 -13l-18 49q34 24 79 24q44 0 67.5 -24t23.5 -66q0 -36 -17.5 -57.5t-48.5 -27.5v-48h-61v83z" />
    <glyph glyph-name="uni0202" unicode="&#x202;" horiz-adv-x="487" 
d="M386 0l-41 175h-206l-41 -175h-90l179 689h113l179 -689h-93zM156 248h172l-86 365zM332 886.5q34 -33.5 39 -97.5l-54 -12q-16 77 -74 77q-56 0 -72 -77l-54 12q5 64 38.5 97.5t87.5 33.5q55 0 89 -33.5z" />
    <glyph glyph-name="uni2C6D" unicode="&#x2c6d;" horiz-adv-x="568" 
d="M497 80.5q8 -13.5 29 -23.5l-29 -69q-39 11 -61 28.5t-31 44.5q-54 -73 -144 -73q-96 0 -156 83.5t-60 256.5q0 122 30 206t79.5 125t110.5 41q82 0 135 -68l9 57h80v-569q0 -26 8 -39.5zM342.5 81q29.5 18 55.5 53v417q-23 36 -51 55.5t-67 19.5q-139 0 -139 -298
q0 -147 34.5 -206t96.5 -59q41 0 70.5 18z" />
    <glyph glyph-name="Amacron" unicode="&#x100;" horiz-adv-x="487" 
d="M386 0l-41 175h-206l-41 -175h-90l179 689h113l179 -689h-93zM156 248h172l-86 365zM358 795h-228v64h228v-64z" />
    <glyph glyph-name="Aogonek" unicode="&#x104;" horiz-adv-x="487" 
d="M359 -57q-21 -27 -21 -60q0 -24 11 -36t36 -12q19 0 48 6l-7 -64q-30 -7 -53 -7q-49 0 -77.5 26.5t-28.5 73.5t29 82.5t87 62.5l-38 160h-206l-41 -175h-90l179 689h113l179 -689h-42q-57 -30 -78 -57zM156 248h172l-86 365z" />
    <glyph glyph-name="Aring" unicode="&#xc5;" horiz-adv-x="487" 
d="M386 0l-41 175h-206l-41 -175h-90l179 689h113l179 -689h-93zM156 248h172l-86 365zM315.5 932q26.5 -28 26.5 -76q0 -49 -26.5 -77t-71.5 -28t-71.5 28t-26.5 77q0 48 26.5 76t71.5 28t71.5 -28zM212 900.5q-11 -13.5 -11 -44.5q0 -32 11 -45.5t32 -13.5q43 0 43 59
q0 31 -11 44.5t-32 13.5t-32 -13.5z" />
    <glyph glyph-name="Aringacute" unicode="&#x1fa;" horiz-adv-x="487" 
d="M386 0l-41 175h-206l-41 -175h-90l179 689h113l179 -689h-93zM156 248h172l-86 365zM315.5 911q26.5 -28 26.5 -76q0 -49 -26.5 -77t-71.5 -28t-71.5 28t-26.5 77q0 48 26.5 76t71.5 28t71.5 -28zM212 879.5q-11 -13.5 -11 -44.5q0 -32 11 -45.5t32 -13.5q43 0 43 59
q0 31 -11 44.5t-32 13.5t-32 -13.5zM309 1101l37 -74l-181 -79l-23 48z" />
    <glyph glyph-name="uni023A" unicode="&#x23a;" horiz-adv-x="487" 
d="M387 0l-41 175h-100l-54 -245l-41 9l52 236h-65l-41 -175h-89l179 689h113l9 -33l20 93l41 -9l-38 -174l147 -566h-92zM154 246h64l55 246l-31 131zM261 246h69l-35 151z" />
    <glyph glyph-name="Atilde" unicode="&#xc3;" horiz-adv-x="487" 
d="M386 0l-41 175h-206l-41 -175h-90l179 689h113l179 -689h-93zM156 248h172l-86 365zM266.5 793.5q-12.5 6.5 -31.5 19.5q-9 7 -19 12.5t-19 5.5q-13 0 -23 -10.5t-22 -34.5l-48 23q15 40 38 62.5t52 22.5q17 0 30 -6.5t29 -18.5q25 -19 39 -19q12 0 22 10t22 33l49 -22
q-29 -84 -90 -84q-16 0 -28.5 6.5z" />
    <glyph glyph-name="AE" unicode="&#xc6;" horiz-adv-x="674" 
d="M448 73h187v-73h-262l-31 174h-210l-52 -174h-91l224 689h388l-10 -73h-245l43 -230h205v-73h-191zM154 247h176l-65 369z" />
    <glyph glyph-name="AEacute" unicode="&#x1fc;" horiz-adv-x="674" 
d="M448 73h187v-73h-262l-31 174h-210l-52 -174h-91l224 689h388l-10 -73h-245l43 -230h205v-73h-191zM154 247h176l-65 369zM454 908l37 -74l-181 -79l-23 48z" />
    <glyph glyph-name="uni01E2" unicode="&#x1e2;" horiz-adv-x="674" 
d="M448 73h187v-73h-262l-31 174h-210l-52 -174h-91l224 689h388l-10 -73h-245l43 -230h205v-73h-191zM154 247h176l-65 369zM503 795h-228v64h228v-64z" />
    <glyph glyph-name="B" unicode="B" horiz-adv-x="501" 
d="M429 311.5q39 -38.5 39 -116.5q0 -97 -63.5 -146t-174.5 -49h-154v689h131q114 0 175 -45t61 -129q0 -59 -32.5 -97t-90.5 -54q70 -14 109 -52.5zM167 617v-221h59q62 0 93 28.5t31 83.5q0 59 -32.5 84t-101.5 25h-49zM336.5 100.5q36.5 27.5 36.5 94.5q0 69 -34.5 99.5
t-105.5 30.5h-66v-252h63q70 0 106.5 27.5z" />
    <glyph glyph-name="uni1E02" unicode="&#x1e02;" horiz-adv-x="501" 
d="M429 311.5q39 -38.5 39 -116.5q0 -97 -63.5 -146t-174.5 -49h-154v689h131q114 0 175 -45t61 -129q0 -59 -32.5 -97t-90.5 -54q70 -14 109 -52.5zM167 617v-221h59q62 0 93 28.5t31 83.5q0 59 -32.5 84t-101.5 25h-49zM336.5 100.5q36.5 27.5 36.5 94.5q0 69 -34.5 99.5
t-105.5 30.5h-66v-252h63q70 0 106.5 27.5zM288 886q16 -17 16 -44q0 -25 -16.5 -42t-42.5 -17t-42.5 17t-16.5 42q0 26 16.5 43.5t42.5 17.5q27 0 43 -17z" />
    <glyph glyph-name="uni1E04" unicode="&#x1e04;" horiz-adv-x="501" 
d="M429 311.5q39 -38.5 39 -116.5q0 -97 -63.5 -146t-174.5 -49h-154v689h131q114 0 175 -45t61 -129q0 -59 -32.5 -97t-90.5 -54q70 -14 109 -52.5zM167 617v-221h59q62 0 93 28.5t31 83.5q0 59 -32.5 84t-101.5 25h-49zM336.5 100.5q36.5 27.5 36.5 94.5q0 69 -34.5 99.5
t-105.5 30.5h-66v-252h63q70 0 106.5 27.5zM213 -179q-16 17 -16 44q0 25 16.5 42t42.5 17t42.5 -17t16.5 -42q0 -26 -16.5 -43.5t-42.5 -17.5q-27 0 -43 17z" />
    <glyph glyph-name="uniA7B4" unicode="&#xa7b4;" horiz-adv-x="501" 
d="M429 312.5q39 -37.5 39 -113.5q0 -97 -58.5 -148t-150.5 -51q-48 0 -92 14v-216h-91v891h131q114 0 175 -45t61 -129q0 -59 -32.5 -97t-90.5 -54q70 -14 109 -51.5zM340 102.5q33 29.5 33 96.5q0 66 -34.5 96t-105.5 30h-15l8 71h10q55 0 84.5 29t29.5 83q0 59 -32.5 84
t-101.5 25h-49v-535q49 -9 87 -9q53 0 86 29.5z" />
    <glyph glyph-name="uni0181" unicode="&#x181;" horiz-adv-x="579" 
d="M507 311.5q39 -38.5 39 -116.5q0 -97 -63.5 -146t-174.5 -49h-154v617h-20q-26 0 -37.5 -12.5t-11.5 -39.5q0 -34 19 -75l-60 -29q-18 25 -27.5 51t-9.5 60q0 52 31 84.5t96 32.5h151q114 0 175 -45t61 -129q0 -59 -32.5 -97t-90.5 -54q70 -14 109 -52.5zM245 617v-221
h59q62 0 93 28.5t31 83.5q0 59 -32.5 84t-101.5 25h-49zM414.5 100.5q36.5 27.5 36.5 94.5q0 69 -34.5 99.5t-105.5 30.5h-66v-252h63q70 0 106.5 27.5z" />
    <glyph glyph-name="uni0181.ss02" horiz-adv-x="481" 
d="M398.5 376.5q57.5 -52.5 57.5 -157.5q0 -114 -60 -166.5t-172 -52.5h-148v689h319l-11 -75h-217v-185h68q106 0 163.5 -52.5zM329 104q31 31 31 114q0 74 -31.5 106.5t-96.5 32.5h-65v-284h63q68 0 99 31z" />
    <glyph glyph-name="uni0243" unicode="&#x243;" horiz-adv-x="514" 
d="M442 311.5q39 -38.5 39 -116.5q0 -97 -63.5 -146t-174.5 -49h-154v169h-69v67h69v453h131q114 0 175 -45t61 -129q0 -59 -32.5 -97t-90.5 -54q70 -14 109 -52.5zM180 617v-221h59q62 0 93 28.5t31 83.5q0 59 -32.5 84t-101.5 25h-49zM349.5 100.5q36.5 27.5 36.5 94.5
q0 69 -34.5 99.5t-105.5 30.5h-66v-89h120v-67h-120v-96h63q70 0 106.5 27.5z" />
    <glyph glyph-name="uni0182" unicode="&#x182;" horiz-adv-x="481" 
d="M398.5 376.5q57.5 -52.5 57.5 -157.5q0 -114 -60 -166.5t-172 -52.5h-148v689h319l-11 -75h-217v-185h68q106 0 163.5 -52.5zM329 104q31 31 31 114q0 74 -31.5 106.5t-96.5 32.5h-65v-284h63q68 0 99 31z" />
    <glyph glyph-name="C" unicode="C" horiz-adv-x="466" 
d="M372 683.5q37 -16.5 74 -50.5l-47 -55q-28 25 -54 36.5t-57 11.5q-147 0 -147 -281q0 -280 150 -280q34 0 59.5 13.5t52.5 38.5l49 -53q-30 -33 -71 -54.5t-92 -21.5q-111 0 -177.5 90t-66.5 267q0 119 31.5 198.5t86 118t123.5 38.5q49 0 86 -16.5z" />
    <glyph glyph-name="Cacute" unicode="&#x106;" horiz-adv-x="466" 
d="M372 683.5q37 -16.5 74 -50.5l-47 -55q-28 25 -54 36.5t-57 11.5q-147 0 -147 -281q0 -280 150 -280q34 0 59.5 13.5t52.5 38.5l49 -53q-30 -33 -71 -54.5t-92 -21.5q-111 0 -177.5 90t-66.5 267q0 119 31.5 198.5t86 118t123.5 38.5q49 0 86 -16.5zM355 908l37 -74
l-181 -79l-23 48z" />
    <glyph glyph-name="Cacute.loclPLK" horiz-adv-x="466" 
d="M372 683.5q37 -16.5 74 -50.5l-47 -55q-28 25 -54 36.5t-57 11.5q-147 0 -147 -281q0 -280 150 -280q34 0 59.5 13.5t52.5 38.5l49 -53q-30 -33 -71 -54.5t-92 -21.5q-111 0 -177.5 90t-66.5 267q0 119 31.5 198.5t86 118t123.5 38.5q49 0 86 -16.5zM327 924l67 -45
l-109 -145l-42 27z" />
    <glyph glyph-name="Ccaron" unicode="&#x10c;" horiz-adv-x="466" 
d="M372 683.5q37 -16.5 74 -50.5l-47 -55q-28 25 -54 36.5t-57 11.5q-147 0 -147 -281q0 -280 150 -280q34 0 59.5 13.5t52.5 38.5l49 -53q-30 -33 -71 -54.5t-92 -21.5q-111 0 -177.5 90t-66.5 267q0 119 31.5 198.5t86 118t123.5 38.5q49 0 86 -16.5zM395 904l35 -38
l-112 -112h-56l-112 112l36 38l104 -80z" />
    <glyph glyph-name="Ccedilla" unicode="&#xc7;" horiz-adv-x="466" 
d="M391 14.5q-35 -20.5 -78 -25.5v-49q78 -12 78 -84q0 -45 -29 -70t-76 -25q-46 0 -79 23l25 46q26 -12 49 -12q18 0 29.5 9.5t11.5 28.5q0 23 -17.5 34t-56.5 11l9 89q-98 13 -155 102t-57 253q0 119 31.5 198.5t86 118t123.5 38.5q49 0 86 -16.5t74 -50.5l-47 -55
q-28 25 -54 36.5t-57 11.5q-147 0 -147 -281q0 -280 150 -280q34 0 59.5 13.5t52.5 38.5l49 -53q-26 -29 -61 -49.5z" />
    <glyph glyph-name="Ccircumflex" unicode="&#x108;" horiz-adv-x="466" 
d="M372 683.5q37 -16.5 74 -50.5l-47 -55q-28 25 -54 36.5t-57 11.5q-147 0 -147 -281q0 -280 150 -280q34 0 59.5 13.5t52.5 38.5l49 -53q-30 -33 -71 -54.5t-92 -21.5q-111 0 -177.5 90t-66.5 267q0 119 31.5 198.5t86 118t123.5 38.5q49 0 86 -16.5zM184 761l-35 38
l112 112h56l112 -112l-36 -38l-104 80z" />
    <glyph glyph-name="Cdotaccent" unicode="&#x10a;" horiz-adv-x="466" 
d="M372 683.5q37 -16.5 74 -50.5l-47 -55q-28 25 -54 36.5t-57 11.5q-147 0 -147 -281q0 -280 150 -280q34 0 59.5 13.5t52.5 38.5l49 -53q-30 -33 -71 -54.5t-92 -21.5q-111 0 -177.5 90t-66.5 267q0 119 31.5 198.5t86 118t123.5 38.5q49 0 86 -16.5zM332 886
q16 -17 16 -44q0 -25 -16.5 -42t-42.5 -17t-42.5 17t-16.5 42q0 26 16.5 43.5t42.5 17.5q27 0 43 -17z" />
    <glyph glyph-name="uniA7B3" unicode="&#xa7b3;" horiz-adv-x="443" 
d="M276 313l165 -441h-102l-120 377l-120 -377h-97l161 436l-147 381h102l103 -321l104 321h97z" />
    <glyph glyph-name="uni0187" unicode="&#x187;" horiz-adv-x="466" 
d="M586 795l-34 -54q-16 10 -28 15t-30 5q-48 0 -48 -62v-66l-42 -52q-33 23 -59.5 34t-56.5 11q-147 0 -147 -281q0 -280 150 -280q34 0 59.5 13.5t52.5 38.5l49 -53q-30 -33 -71 -54.5t-92 -21.5q-111 0 -177.5 90t-66.5 267q0 118 31.5 198t85 118.5t120.5 38.5
q44 0 81 -21v15q0 65 32.5 101.5t88.5 36.5q57 0 102 -37z" />
    <glyph glyph-name="uni023B" unicode="&#x23b;" horiz-adv-x="466" 
d="M452 64q-30 -33 -71 -54.5t-92 -21.5q-38 0 -69 10l-15 -68l-41 9l17 76q-64 36 -100 118.5t-36 211.5q0 119 31.5 198.5t86 118t123.5 38.5q27 0 44 -4l12 53l41 -9l-12 -56q35 -14 75 -51l-47 -55q-24 21 -45 32l-117 -534q23 -11 54 -11q34 0 59.5 13.5t52.5 38.5z
M200 104l114 520q-16 2 -26 2q-147 0 -147 -281q0 -175 59 -241z" />
    <glyph glyph-name="D" unicode="D" horiz-adv-x="534" 
d="M350.5 662.5q61.5 -26.5 100 -102t38.5 -212.5q0 -195 -76 -271.5t-193 -76.5h-144v689h129q84 0 145.5 -26.5zM167 616v-544h59q50 0 86.5 22t59 82.5t22.5 171.5q0 113 -23.5 171.5t-60 77.5t-88.5 19h-55z" />
    <glyph glyph-name="uni01F1" unicode="&#x1f1;" horiz-adv-x="936" 
d="M350.5 662.5q61.5 -26.5 100 -102t38.5 -212.5q0 -195 -76 -271.5t-193 -76.5h-144v689h129q84 0 145.5 -26.5zM167 616v-544h59q50 0 86.5 22t59 82.5t22.5 171.5q0 113 -23.5 171.5t-60 77.5t-88.5 19h-55zM908 689v-74l-282 -537h282l-10 -78h-367v73l282 539h-254v77
h349z" />
    <glyph glyph-name="uni01C4" unicode="&#x1c4;" horiz-adv-x="936" 
d="M350.5 662.5q61.5 -26.5 100 -102t38.5 -212.5q0 -195 -76 -271.5t-193 -76.5h-144v689h129q84 0 145.5 -26.5zM167 616v-544h59q50 0 86.5 22t59 82.5t22.5 171.5q0 113 -23.5 171.5t-60 77.5t-88.5 19h-55zM908 689v-74l-282 -537h282l-10 -78h-367v73l282 539h-254v77
h349zM837 904l35 -38l-112 -112h-56l-112 112l36 38l104 -80z" />
    <glyph glyph-name="uni0189" unicode="&#x189;" horiz-adv-x="549" 
d="M365.5 662.5q61.5 -26.5 100 -102t38.5 -212.5q0 -195 -76 -271.5t-193 -76.5h-144v319h-71v68h71v302h129q84 0 145.5 -26.5zM327.5 94q36.5 22 59 82.5t22.5 171.5q0 113 -23.5 171.5t-60 77.5t-88.5 19h-55v-229h113v-68h-113v-247h59q50 0 86.5 22z" />
    <glyph glyph-name="Eth" unicode="&#xd0;" horiz-adv-x="549" 
d="M365.5 662.5q61.5 -26.5 100 -102t38.5 -212.5q0 -195 -76 -271.5t-193 -76.5h-144v319h-71v68h71v302h129q84 0 145.5 -26.5zM327.5 94q36.5 22 59 82.5t22.5 171.5q0 113 -23.5 171.5t-60 77.5t-88.5 19h-55v-229h113v-68h-113v-247h59q50 0 86.5 22z" />
    <glyph glyph-name="Dcaron" unicode="&#x10e;" horiz-adv-x="534" 
d="M350.5 662.5q61.5 -26.5 100 -102t38.5 -212.5q0 -195 -76 -271.5t-193 -76.5h-144v689h129q84 0 145.5 -26.5zM167 616v-544h59q50 0 86.5 22t59 82.5t22.5 171.5q0 113 -23.5 171.5t-60 77.5t-88.5 19h-55zM353 904l35 -38l-112 -112h-56l-112 112l36 38l104 -80z" />
    <glyph glyph-name="uni1E12" unicode="&#x1e12;" horiz-adv-x="534" 
d="M350.5 662.5q61.5 -26.5 100 -102t38.5 -212.5q0 -195 -76 -271.5t-193 -76.5h-144v689h129q84 0 145.5 -26.5zM167 616v-544h59q50 0 86.5 22t59 82.5t22.5 171.5q0 113 -23.5 171.5t-60 77.5t-88.5 19h-55zM145 -222l-35 38l112 116h56l112 -116l-36 -38l-104 84z" />
    <glyph glyph-name="Dcroat" unicode="&#x110;" horiz-adv-x="549" 
d="M365.5 662.5q61.5 -26.5 100 -102t38.5 -212.5q0 -195 -76 -271.5t-193 -76.5h-144v319h-71v68h71v302h129q84 0 145.5 -26.5zM327.5 94q36.5 22 59 82.5t22.5 171.5q0 113 -23.5 171.5t-60 77.5t-88.5 19h-55v-229h113v-68h-113v-247h59q50 0 86.5 22z" />
    <glyph glyph-name="uni1E0A" unicode="&#x1e0a;" horiz-adv-x="534" 
d="M350.5 662.5q61.5 -26.5 100 -102t38.5 -212.5q0 -195 -76 -271.5t-193 -76.5h-144v689h129q84 0 145.5 -26.5zM167 616v-544h59q50 0 86.5 22t59 82.5t22.5 171.5q0 113 -23.5 171.5t-60 77.5t-88.5 19h-55zM290 886q16 -17 16 -44q0 -25 -16.5 -42t-42.5 -17t-42.5 17
t-16.5 42q0 26 16.5 43.5t42.5 17.5q27 0 43 -17z" />
    <glyph glyph-name="uni1E0C" unicode="&#x1e0c;" horiz-adv-x="534" 
d="M350.5 662.5q61.5 -26.5 100 -102t38.5 -212.5q0 -195 -76 -271.5t-193 -76.5h-144v689h129q84 0 145.5 -26.5zM167 616v-544h59q50 0 86.5 22t59 82.5t22.5 171.5q0 113 -23.5 171.5t-60 77.5t-88.5 19h-55zM206 -179q-16 17 -16 44q0 25 16.5 42t42.5 17t42.5 -17
t16.5 -42q0 -26 -16.5 -43.5t-42.5 -17.5q-27 0 -43 17z" />
    <glyph glyph-name="uni018A" unicode="&#x18a;" horiz-adv-x="612" 
d="M428.5 662.5q61.5 -26.5 100 -102t38.5 -212.5q0 -195 -76 -271.5t-193 -76.5h-144v617h-20q-26 0 -37.5 -12.5t-11.5 -39.5q0 -34 19 -75l-60 -29q-18 25 -27.5 51t-9.5 60q0 52 31 84.5t96 32.5h149q84 0 145.5 -26.5zM390.5 94q36.5 22 59 82.5t22.5 171.5
q0 113 -23.5 171.5t-60 77.5t-88.5 19h-55v-544h59q50 0 86.5 22z" />
    <glyph glyph-name="uni1E0E" unicode="&#x1e0e;" horiz-adv-x="534" 
d="M350.5 662.5q61.5 -26.5 100 -102t38.5 -212.5q0 -195 -76 -271.5t-193 -76.5h-144v689h129q84 0 145.5 -26.5zM167 616v-544h59q50 0 86.5 22t59 82.5t22.5 171.5q0 113 -23.5 171.5t-60 77.5t-88.5 19h-55zM363 -170h-228v64h228v-64z" />
    <glyph glyph-name="uni018B" unicode="&#x18b;" horiz-adv-x="481" 
d="M405 0h-149q-231 0 -231 213q0 106 59.5 161t170.5 55h59v185h-223v75h314v-689zM314 73v284h-56q-71 0 -104 -33t-33 -111q0 -80 34 -110t107 -30h52z" />
    <glyph glyph-name="uni01F2" unicode="&#x1f2;" horiz-adv-x="886" 
d="M350.5 662.5q61.5 -26.5 100 -102t38.5 -212.5q0 -195 -76 -271.5t-193 -76.5h-144v689h129q84 0 145.5 -26.5zM167 616v-544h59q50 0 86.5 22t59 82.5t22.5 171.5q0 113 -23.5 171.5t-60 77.5t-88.5 19h-55zM862 527v-68l-227 -385h229l-9 -74h-313v66l227 386h-208v75
h301z" />
    <glyph glyph-name="uni01C5" unicode="&#x1c5;" horiz-adv-x="886" 
d="M350.5 662.5q61.5 -26.5 100 -102t38.5 -212.5q0 -195 -76 -271.5t-193 -76.5h-144v689h129q84 0 145.5 -26.5zM167 616v-544h59q50 0 86.5 22t59 82.5t22.5 171.5q0 113 -23.5 171.5t-60 77.5t-88.5 19h-55zM862 527v-68l-227 -385h229l-9 -74h-313v66l227 386h-208v75
h301zM812 782l35 -39l-112 -115h-56l-112 115l35 39l105 -88z" />
    <glyph glyph-name="E" unicode="E" horiz-adv-x="435" 
d="M392 689l-10 -73h-215v-229h187v-73h-187v-241h229v-73h-320v689h316z" />
    <glyph glyph-name="Eacute" unicode="&#xc9;" horiz-adv-x="435" 
d="M392 689l-10 -73h-215v-229h187v-73h-187v-241h229v-73h-320v689h316zM301 908l37 -74l-181 -79l-23 48z" />
    <glyph glyph-name="Ebreve" unicode="&#x114;" horiz-adv-x="435" 
d="M392 689l-10 -73h-215v-229h187v-73h-187v-241h229v-73h-320v689h316zM148 790.5q-34 31.5 -39 88.5l54 13q15 -66 72 -66q29 0 48 17t26 49l54 -13q-5 -57 -39.5 -88.5t-88.5 -31.5q-53 0 -87 31.5z" />
    <glyph glyph-name="Ecaron" unicode="&#x11a;" horiz-adv-x="435" 
d="M392 689l-10 -73h-215v-229h187v-73h-187v-241h229v-73h-320v689h316zM341 904l35 -38l-112 -112h-56l-112 112l36 38l104 -80z" />
    <glyph glyph-name="uni0228" unicode="&#x228;" horiz-adv-x="435" 
d="M262 0v-60q78 -12 78 -84q0 -45 -29 -70t-76 -25q-46 0 -79 23l25 46q26 -12 49 -12q18 0 29.5 9.5t11.5 28.5q0 23 -17.5 34t-56.5 11l10 99h-131v689h316l-10 -73h-215v-229h187v-73h-187v-241h229v-73h-134z" />
    <glyph glyph-name="Ecircumflex" unicode="&#xca;" horiz-adv-x="435" 
d="M392 689l-10 -73h-215v-229h187v-73h-187v-241h229v-73h-320v689h316zM130 761l-35 38l112 112h56l112 -112l-36 -38l-104 80z" />
    <glyph glyph-name="uni1EBE" unicode="&#x1ebe;" horiz-adv-x="435" 
d="M392 689l-10 -73h-215v-229h187v-73h-187v-241h229v-73h-320v689h316zM130 719l-35 38l112 112h56l112 -112l-36 -38l-104 80zM412 1015l58 -48l-122 -130l-37 32z" />
    <glyph glyph-name="uni1EC6" unicode="&#x1ec6;" horiz-adv-x="435" 
d="M392 689l-10 -73h-215v-229h187v-73h-187v-241h229v-73h-320v689h316zM130 761l-35 38l112 112h56l112 -112l-36 -38l-104 80zM193 -179q-16 17 -16 44q0 25 16.5 42t42.5 17t42.5 -17t16.5 -42q0 -26 -16.5 -43.5t-42.5 -17.5q-27 0 -43 17z" />
    <glyph glyph-name="uni1EC0" unicode="&#x1ec0;" horiz-adv-x="435" 
d="M392 689l-10 -73h-215v-229h187v-73h-187v-241h229v-73h-320v689h316zM130 719l-35 38l112 112h56l112 -112l-36 -38l-104 80zM59 1015l103 -146l-39 -32l-122 130z" />
    <glyph glyph-name="uni1EC2" unicode="&#x1ec2;" horiz-adv-x="435" 
d="M392 689l-10 -73h-215v-229h187v-73h-187v-241h229v-73h-320v689h316zM130 719l-35 38l112 112h56l112 -112l-36 -38l-104 80zM330 899q32 5 45 13t13 30q0 37 -35 37q-22 0 -48 -13l-18 49q34 24 79 24q44 0 67.5 -24t23.5 -66q0 -36 -17.5 -57.5t-48.5 -27.5v-48h-61
v83z" />
    <glyph glyph-name="uni1EC4" unicode="&#x1ec4;" horiz-adv-x="435" 
d="M392 689l-10 -73h-215v-229h187v-73h-187v-241h229v-73h-320v689h316zM130 719l-35 38l112 112h56l112 -112l-36 -38l-104 80zM256.5 911.5q-12.5 6.5 -31.5 19.5q-9 7 -19 12.5t-19 5.5q-13 0 -23 -10.5t-22 -34.5l-48 23q15 40 38 62.5t52 22.5q17 0 30 -6.5t29 -18.5
q25 -19 39 -19q12 0 22 10t22 33l49 -22q-29 -84 -90 -84q-16 0 -28.5 6.5z" />
    <glyph glyph-name="uni0204" unicode="&#x204;" horiz-adv-x="435" 
d="M392 689l-10 -73h-215v-229h187v-73h-187v-241h229v-73h-320v689h316zM132 953l70 -170l-49 -22l-90 155zM259 953l63 -165l-49 -22l-82 150z" />
    <glyph glyph-name="Edieresis" unicode="&#xcb;" horiz-adv-x="435" 
d="M392 689l-10 -73h-215v-229h187v-73h-187v-241h229v-73h-320v689h316zM193 875q15 -16 15 -39t-15 -39t-38 -16t-38 16t-15 39t15 39t38 16t38 -16zM368 875q15 -16 15 -39t-15 -39t-38 -16q-22 0 -37.5 16t-15.5 39t15.5 39t37.5 16q23 0 38 -16z" />
    <glyph glyph-name="Edotaccent" unicode="&#x116;" horiz-adv-x="435" 
d="M392 689l-10 -73h-215v-229h187v-73h-187v-241h229v-73h-320v689h316zM278 886q16 -17 16 -44q0 -25 -16.5 -42t-42.5 -17t-42.5 17t-16.5 42q0 26 16.5 43.5t42.5 17.5q27 0 43 -17z" />
    <glyph glyph-name="uni1EB8" unicode="&#x1eb8;" horiz-adv-x="435" 
d="M392 689l-10 -73h-215v-229h187v-73h-187v-241h229v-73h-320v689h316zM193 -179q-16 17 -16 44q0 25 16.5 42t42.5 17t42.5 -17t16.5 -42q0 -26 -16.5 -43.5t-42.5 -17.5q-27 0 -43 17z" />
    <glyph glyph-name="Egrave" unicode="&#xc8;" horiz-adv-x="435" 
d="M392 689l-10 -73h-215v-229h187v-73h-187v-241h229v-73h-320v689h316zM164 908l168 -105l-23 -48l-181 79z" />
    <glyph glyph-name="uni1EBA" unicode="&#x1eba;" horiz-adv-x="435" 
d="M392 689l-10 -73h-215v-229h187v-73h-187v-241h229v-73h-320v689h316zM205 847q32 5 45 13t13 30q0 37 -35 37q-22 0 -48 -13l-18 49q34 24 79 24q44 0 67.5 -24t23.5 -66q0 -36 -17.5 -57.5t-48.5 -27.5v-48h-61v83z" />
    <glyph glyph-name="uni0206" unicode="&#x206;" horiz-adv-x="435" 
d="M392 689l-10 -73h-215v-229h187v-73h-187v-241h229v-73h-320v689h316zM324 886.5q34 -33.5 39 -97.5l-54 -12q-16 77 -74 77q-56 0 -72 -77l-54 12q5 64 38.5 97.5t87.5 33.5q55 0 89 -33.5z" />
    <glyph glyph-name="Emacron" unicode="&#x112;" horiz-adv-x="435" 
d="M392 689l-10 -73h-215v-229h187v-73h-187v-241h229v-73h-320v689h316zM350 795h-228v64h228v-64z" />
    <glyph glyph-name="Eogonek" unicode="&#x118;" horiz-adv-x="435" 
d="M396 73v-73h-32q-57 -30 -78 -57t-21 -60q0 -24 11 -36t36 -12q20 0 48 6l-7 -64q-30 -7 -53 -7q-49 0 -77.5 26.5t-28.5 73.5q0 80 87 130h-205v689h316l-10 -73h-215v-229h187v-73h-187v-241h229z" />
    <glyph glyph-name="uni0190" unicode="&#x190;" horiz-adv-x="432" 
d="M410 616l-48 -51q-59 61 -122 61q-48 0 -71.5 -30t-23.5 -78q0 -54 28 -85t76 -31h55l-11 -75h-43q-60 0 -90 -32.5t-30 -95.5q0 -66 29 -100t85 -34q40 0 70.5 16t58.5 48l53 -48q-71 -93 -183 -93q-60 0 -108 25.5t-75 73t-27 111.5q0 76 37.5 118.5t95.5 52.5
q-55 14 -85 52.5t-30 101.5q0 49 21.5 89.5t62.5 64t96 23.5q103 0 179 -84z" />
    <glyph glyph-name="uni018E" unicode="&#x18e;" horiz-adv-x="435" 
d="M44 689h315v-689h-320v73h229v241h-187v73h187v229h-224v73z" />
    <glyph glyph-name="uni01A9" unicode="&#x1a9;" horiz-adv-x="414" 
d="M384 689v-75h-256l162 -244v-59l-164 -236h258v-75h-354v74l183 266l-183 275v74h354z" />
    <glyph glyph-name="uni0246" unicode="&#x246;" horiz-adv-x="435" 
d="M396 73v-73h-200l-15 -70l-39 9l13 61h-79v689h229l13 60l39 -9l-11 -51h46l-10 -73h-52l-50 -229h74v-73h-90l-52 -241h184zM167 616v-229h72l50 229h-122zM167 73h4l52 241h-56v-241z" />
    <glyph glyph-name="uni1EBC" unicode="&#x1ebc;" horiz-adv-x="435" 
d="M392 689l-10 -73h-215v-229h187v-73h-187v-241h229v-73h-320v689h316zM258.5 793.5q-12.5 6.5 -31.5 19.5q-9 7 -19 12.5t-19 5.5q-13 0 -23 -10.5t-22 -34.5l-48 23q15 40 38 62.5t52 22.5q17 0 30 -6.5t29 -18.5q25 -19 39 -19q12 0 22 10t22 33l49 -22
q-29 -84 -90 -84q-16 0 -28.5 6.5z" />
    <glyph glyph-name="uni01B7" unicode="&#x1b7;" horiz-adv-x="421" 
d="M344.5 345q48.5 -49 48.5 -148q0 -95 -55 -152t-151 -57q-62 0 -105.5 22t-76.5 68l55 45q29 -32 56.5 -46t66.5 -14q56 0 86 35t30 101q0 72 -30 101t-93 29h-74v65l175 220h-245v75h339v-74l-173 -219q98 -2 146.5 -51z" />
    <glyph glyph-name="uni01EE" unicode="&#x1ee;" horiz-adv-x="421" 
d="M344.5 345q48.5 -49 48.5 -148q0 -95 -55 -152t-151 -57q-62 0 -105.5 22t-76.5 68l55 45q29 -32 56.5 -46t66.5 -14q56 0 86 35t30 101q0 72 -30 101t-93 29h-74v65l175 220h-245v75h339v-74l-173 -219q98 -2 146.5 -51zM306 904l35 -38l-112 -112h-56l-112 112l36 38
l104 -80z" />
    <glyph glyph-name="uni01B8" unicode="&#x1b8;" horiz-adv-x="421" 
d="M416 78q-36 -46 -80 -68t-104 -22q-95 0 -149.5 55t-54.5 150q0 199 195 203l-173 219v74h339v-75h-245l175 -220v-65h-74q-63 0 -93 -31t-30 -103q0 -66 28 -99t82 -33q39 0 68.5 14t60.5 46z" />
    <glyph glyph-name="F" unicode="F" horiz-adv-x="402" 
d="M76 0v689h309l-10 -73h-208v-239h180v-72h-180v-305h-91z" />
    <glyph glyph-name="uni1E1E" unicode="&#x1e1e;" horiz-adv-x="402" 
d="M76 0v689h309l-10 -73h-208v-239h180v-72h-180v-305h-91zM281 886q16 -17 16 -44q0 -25 -16.5 -42t-42.5 -17t-42.5 17t-16.5 42q0 26 16.5 43.5t42.5 17.5q27 0 43 -17z" />
    <glyph glyph-name="uni0191" unicode="&#x191;" horiz-adv-x="402" 
d="M167 616v-239h180v-72h-180v-384q0 -64 -36.5 -98.5t-94.5 -34.5t-101 37l38 54q15 -10 28 -14t30 -4q45 0 45 58v770h309l-10 -73h-208z" />
    <glyph glyph-name="G" unicode="G" horiz-adv-x="528" 
d="M390.5 681.5q40.5 -18.5 80.5 -56.5l-50 -51q-32 28 -59.5 40t-64.5 12q-69 0 -112.5 -64t-43.5 -217q0 -107 16.5 -168.5t49 -87.5t82.5 -26q54 0 99 30v214h-94l-10 74h192v-332q-88 -61 -188 -61q-243 0 -243 357q0 117 34 197t91 119t127 39q53 0 93.5 -18.5z" />
    <glyph glyph-name="uni01F4" unicode="&#x1f4;" horiz-adv-x="528" 
d="M390.5 681.5q40.5 -18.5 80.5 -56.5l-50 -51q-32 28 -59.5 40t-64.5 12q-69 0 -112.5 -64t-43.5 -217q0 -107 16.5 -168.5t49 -87.5t82.5 -26q54 0 99 30v214h-94l-10 74h192v-332q-88 -61 -188 -61q-243 0 -243 357q0 117 34 197t91 119t127 39q53 0 93.5 -18.5z
M359 908l37 -74l-181 -79l-23 48z" />
    <glyph glyph-name="uni0194" unicode="&#x194;" horiz-adv-x="471" 
d="M288 68q29 -67 40.5 -103.5t11.5 -76.5q0 -48 -26 -74t-78 -26q-51 0 -77 26t-26 73q0 34 12 73.5t40 107.5l-177 621h92l137 -558l138 558h88zM256.5 -58q-6.5 27 -20.5 66q-13 -41 -19.5 -67t-6.5 -48q0 -35 26 -35q27 0 27 35q0 22 -6.5 49z" />
    <glyph glyph-name="Gbreve" unicode="&#x11e;" horiz-adv-x="528" 
d="M390.5 681.5q40.5 -18.5 80.5 -56.5l-50 -51q-32 28 -59.5 40t-64.5 12q-69 0 -112.5 -64t-43.5 -217q0 -107 16.5 -168.5t49 -87.5t82.5 -26q54 0 99 30v214h-94l-10 74h192v-332q-88 -61 -188 -61q-243 0 -243 357q0 117 34 197t91 119t127 39q53 0 93.5 -18.5z
M206 790.5q-34 31.5 -39 88.5l54 13q15 -66 72 -66q29 0 48 17t26 49l54 -13q-5 -57 -39.5 -88.5t-88.5 -31.5q-53 0 -87 31.5z" />
    <glyph glyph-name="Gcaron" unicode="&#x1e6;" horiz-adv-x="528" 
d="M390.5 681.5q40.5 -18.5 80.5 -56.5l-50 -51q-32 28 -59.5 40t-64.5 12q-69 0 -112.5 -64t-43.5 -217q0 -107 16.5 -168.5t49 -87.5t82.5 -26q54 0 99 30v214h-94l-10 74h192v-332q-88 -61 -188 -61q-243 0 -243 357q0 117 34 197t91 119t127 39q53 0 93.5 -18.5z
M399 904l35 -38l-112 -112h-56l-112 112l36 38l104 -80z" />
    <glyph glyph-name="Gcircumflex" unicode="&#x11c;" horiz-adv-x="528" 
d="M390.5 681.5q40.5 -18.5 80.5 -56.5l-50 -51q-32 28 -59.5 40t-64.5 12q-69 0 -112.5 -64t-43.5 -217q0 -107 16.5 -168.5t49 -87.5t82.5 -26q54 0 99 30v214h-94l-10 74h192v-332q-88 -61 -188 -61q-243 0 -243 357q0 117 34 197t91 119t127 39q53 0 93.5 -18.5z
M188 761l-35 38l112 112h56l112 -112l-36 -38l-104 80z" />
    <glyph glyph-name="Gcommaaccent" unicode="&#x122;" horiz-adv-x="528" 
d="M390.5 681.5q40.5 -18.5 80.5 -56.5l-50 -51q-32 28 -59.5 40t-64.5 12q-69 0 -112.5 -64t-43.5 -217q0 -107 16.5 -168.5t49 -87.5t82.5 -26q54 0 99 30v214h-94l-10 74h192v-332q-88 -61 -188 -61q-243 0 -243 357q0 117 34 197t91 119t127 39q53 0 93.5 -18.5z
M323.5 -93.5q14.5 -15.5 14.5 -38.5q0 -13 -4.5 -28.5t-16.5 -47.5l-35 -86h-48l28 116q-27 16 -27 46q0 23 14.5 38.5t37.5 15.5q22 0 36.5 -15.5z" />
    <glyph glyph-name="Gdotaccent" unicode="&#x120;" horiz-adv-x="528" 
d="M390.5 681.5q40.5 -18.5 80.5 -56.5l-50 -51q-32 28 -59.5 40t-64.5 12q-69 0 -112.5 -64t-43.5 -217q0 -107 16.5 -168.5t49 -87.5t82.5 -26q54 0 99 30v214h-94l-10 74h192v-332q-88 -61 -188 -61q-243 0 -243 357q0 117 34 197t91 119t127 39q53 0 93.5 -18.5z
M336 886q16 -17 16 -44q0 -25 -16.5 -42t-42.5 -17t-42.5 17t-16.5 42q0 26 16.5 43.5t42.5 17.5q27 0 43 -17z" />
    <glyph glyph-name="uni0193" unicode="&#x193;" horiz-adv-x="491" 
d="M611 795l-34 -54q-16 10 -28 15t-30 5q-48 0 -48 -62v-74l-44 -47q-35 25 -64 36.5t-66 11.5q-69 0 -112.5 -64t-43.5 -217q0 -107 16.5 -168.5t49 -87.5t82.5 -26q54 0 99 30v214h-94l-10 74h192v-332q-88 -61 -188 -61q-243 0 -243 357q0 117 34 197t90.5 119t125.5 39
q53 0 93 -23v17q0 65 32.5 101.5t88.5 36.5q57 0 102 -37z" />
    <glyph glyph-name="uni0241" unicode="&#x241;" horiz-adv-x="387" 
d="M121 318l55 18q51 17 76 51t25 100q0 64 -26 101.5t-73 37.5q-34 0 -64 -15t-62 -45l-47 50q40 42 82.5 63t94.5 21q87 0 138.5 -57.5t51.5 -150.5q0 -95 -36.5 -140t-103.5 -68l-20 -7v-277h-91v318z" />
    <glyph glyph-name="uni01E4" unicode="&#x1e4;" horiz-adv-x="535" 
d="M535 174h-59v-125q-87 -61 -192 -61q-114 0 -176.5 90.5t-62.5 266.5q0 112 34 192t91 121.5t125 41.5q56 0 97.5 -18.5t78.5 -56.5l-51 -55q-30 30 -57.5 43t-63.5 13q-68 0 -113 -68.5t-45 -212.5q0 -146 37 -214t110 -68q56 0 102 32v79h-94v72h94v61h-97l-9 74h192
v-135h59v-72z" />
    <glyph glyph-name="uni021C" unicode="&#x21c;" horiz-adv-x="416" 
d="M317 649q48 -51 48 -130q0 -132 -123 -160q66 -7 103.5 -47t37.5 -115q0 -107 -79.5 -184t-248.5 -114l-8 76q93 25 145.5 57t73.5 72t21 93q0 120 -120 120h-55l11 75h45q48 0 75.5 31.5t27.5 88.5q0 52 -22.5 83t-69.5 31q-32 0 -63 -15.5t-64 -45.5l-46 51
q79 84 179 84q84 0 132 -51z" />
    <glyph glyph-name="H" unicode="H" horiz-adv-x="556" 
d="M389 0v324h-222v-324h-91v689h91v-290h222v290h91v-689h-91z" />
    <glyph glyph-name="Hbar" unicode="&#x126;" horiz-adv-x="561" 
d="M536 575v-66h-52v-509h-91v324h-222v-324h-91v509h-55v66h55v114h91v-114h222v114h91v-114h52zM393 399v110h-222v-110h222z" />
    <glyph glyph-name="uni021E" unicode="&#x21e;" horiz-adv-x="556" 
d="M389 0v324h-222v-324h-91v689h91v-290h222v290h91v-689h-91zM383 904l35 -38l-112 -112h-56l-112 112l36 38l104 -80z" />
    <glyph glyph-name="Hcircumflex" unicode="&#x124;" horiz-adv-x="556" 
d="M389 0v324h-222v-324h-91v689h91v-290h222v290h91v-689h-91zM172 761l-35 38l112 112h56l112 -112l-36 -38l-104 80z" />
    <glyph glyph-name="uni1E24" unicode="&#x1e24;" horiz-adv-x="556" 
d="M389 0v324h-222v-324h-91v689h91v-290h222v290h91v-689h-91zM235 -179q-16 17 -16 44q0 25 16.5 42t42.5 17t42.5 -17t16.5 -42q0 -26 -16.5 -43.5t-42.5 -17.5q-27 0 -43 17z" />
    <glyph glyph-name="uniA7AA" unicode="&#xa7aa;" horiz-adv-x="634" 
d="M558 689v-689h-91v324h-222v-324h-91v617h-20q-26 0 -37.5 -12.5t-11.5 -39.5q0 -34 19 -75l-60 -29q-18 25 -27.5 51t-9.5 60q0 52 31 84.5t96 32.5h111v-290h222v290h91z" />
    <glyph glyph-name="uniA78D" unicode="&#xa78d;" horiz-adv-x="504" 
d="M428 689v-689h-91v280q-34 -33 -65 -47.5t-74 -14.5q-47 0 -85 21.5t-60.5 63t-22.5 100.5v286h90v-284q0 -110 95 -110q75 0 122 58v336h91z" />
    <glyph glyph-name="uniA78D.ss02" horiz-adv-x="493" 
d="M326 0v268h-290v421h91v-346h199v346h91v-689h-91z" />
    <glyph glyph-name="uni01F6" unicode="&#x1f6;" horiz-adv-x="794" 
d="M739 262q0 -143 -55.5 -208.5t-138.5 -65.5q-67 0 -111.5 41.5t-44.5 113.5v181h-222v-324h-91v689h91v-290h222v290h91v-539q0 -91 68 -91q103 0 103 204q0 122 -22 264h87q23 -154 23 -265z" />
    <glyph glyph-name="I" unicode="I" horiz-adv-x="243" 
d="M167 689v-689h-91v689h91z" />
    <glyph glyph-name="IJ" unicode="&#x132;" horiz-adv-x="495" 
d="M167 689v-689h-91v689h91zM423 95q0 -99 -39 -149.5t-117 -80.5l-24 64q38 20 56.5 40.5t25.5 49.5t7 80v590h91v-594z" />
    <glyph glyph-name="Iacute" unicode="&#xcd;" horiz-adv-x="243" 
d="M167 689v-689h-91v689h91zM186 908l37 -74l-181 -79l-23 48z" />
    <glyph glyph-name="Ibreve" unicode="&#x12c;" horiz-adv-x="243" 
d="M167 689v-689h-91v689h91zM33 790.5q-34 31.5 -39 88.5l54 13q15 -66 72 -66q29 0 48 17t26 49l54 -13q-5 -57 -39.5 -88.5t-88.5 -31.5q-53 0 -87 31.5z" />
    <glyph glyph-name="uni01CF" unicode="&#x1cf;" horiz-adv-x="243" 
d="M167 689v-689h-91v689h91zM226 904l35 -38l-112 -112h-56l-112 112l36 38l104 -80z" />
    <glyph glyph-name="Icircumflex" unicode="&#xce;" horiz-adv-x="243" 
d="M167 689v-689h-91v689h91zM15 761l-35 38l112 112h56l112 -112l-36 -38l-104 80z" />
    <glyph glyph-name="uni0208" unicode="&#x208;" horiz-adv-x="243" 
d="M167 689v-689h-91v689h91zM17 953l70 -170l-49 -22l-90 155zM144 953l63 -165l-49 -22l-82 150z" />
    <glyph glyph-name="Idieresis" unicode="&#xcf;" horiz-adv-x="243" 
d="M167 689v-689h-91v689h91zM78 875q15 -16 15 -39t-15 -39t-38 -16t-38 16t-15 39t15 39t38 16t38 -16zM253 875q15 -16 15 -39t-15 -39t-38 -16q-22 0 -37.5 16t-15.5 39t15.5 39t37.5 16q23 0 38 -16z" />
    <glyph glyph-name="uni1E2E" unicode="&#x1e2e;" horiz-adv-x="243" 
d="M167 689v-689h-91v689h91zM193 1010l58 -48l-122 -130l-37 32zM71 840q15 -16 15 -39t-15 -39t-38 -16t-38 16t-15 39t15 39t38 16t38 -16zM246 840q15 -16 15 -39t-15 -39t-38 -16q-22 0 -37.5 16t-15.5 39t15.5 39t37.5 16q23 0 38 -16z" />
    <glyph glyph-name="Idotaccent" unicode="&#x130;" horiz-adv-x="243" 
d="M167 689v-689h-91v689h91zM163 886q16 -17 16 -44q0 -25 -16.5 -42t-42.5 -17t-42.5 17t-16.5 42q0 26 16.5 43.5t42.5 17.5q27 0 43 -17z" />
    <glyph glyph-name="uni1ECA" unicode="&#x1eca;" horiz-adv-x="243" 
d="M167 689v-689h-91v689h91zM79 -179q-16 17 -16 44q0 25 16.5 42t42.5 17t42.5 -17t16.5 -42q0 -26 -16.5 -43.5t-42.5 -17.5q-27 0 -43 17z" />
    <glyph glyph-name="Igrave" unicode="&#xcc;" horiz-adv-x="243" 
d="M167 689v-689h-91v689h91zM49 908l168 -105l-23 -48l-181 79z" />
    <glyph glyph-name="uni1EC8" unicode="&#x1ec8;" horiz-adv-x="243" 
d="M167 689v-689h-91v689h91zM90 847q32 5 45 13t13 30q0 37 -35 37q-22 0 -48 -13l-18 49q34 24 79 24q44 0 67.5 -24t23.5 -66q0 -36 -17.5 -57.5t-48.5 -27.5v-48h-61v83z" />
    <glyph glyph-name="uni020A" unicode="&#x20a;" horiz-adv-x="243" 
d="M167 689v-689h-91v689h91zM209 886.5q34 -33.5 39 -97.5l-54 -12q-16 77 -74 77q-56 0 -72 -77l-54 12q5 64 38.5 97.5t87.5 33.5q55 0 89 -33.5z" />
    <glyph glyph-name="Imacron" unicode="&#x12a;" horiz-adv-x="243" 
d="M167 689v-689h-91v689h91zM235 795h-228v64h228v-64z" />
    <glyph glyph-name="Iogonek" unicode="&#x12e;" horiz-adv-x="243" 
d="M167 689v-689h-18q-57 -30 -78 -57t-21 -60q0 -24 11 -36t36 -12q19 0 48 6l-7 -64q-30 -7 -53 -7q-49 0 -77.5 26.5t-28.5 73.5q0 43 24 76t73 59v684h91z" />
    <glyph glyph-name="uni0196" unicode="&#x196;" horiz-adv-x="303" 
d="M298 25q-43 -37 -101 -37t-94.5 34.5t-36.5 98.5v568h91v-570q0 -58 45 -58q17 0 30 4t28 14z" />
    <glyph glyph-name="uni0197" unicode="&#x197;" horiz-adv-x="259" 
d="M249 394v-70h-74v-324h-91v324h-74v70h74v295h91v-295h74z" />
    <glyph glyph-name="Itilde" unicode="&#x128;" horiz-adv-x="243" 
d="M167 689v-689h-91v689h91zM143.5 793.5q-12.5 6.5 -31.5 19.5q-9 7 -19 12.5t-19 5.5q-13 0 -23 -10.5t-22 -34.5l-48 23q15 40 38 62.5t52 22.5q17 0 30 -6.5t29 -18.5q25 -19 39 -19q12 0 22 10t22 33l49 -22q-29 -84 -90 -84q-16 0 -28.5 6.5z" />
    <glyph glyph-name="J" unicode="J" horiz-adv-x="252" 
d="M180 95q0 -99 -39 -149.5t-117 -80.5l-24 64q38 20 56.5 40.5t25.5 49.5t7 80v590h91v-594z" />
    <glyph glyph-name="Jcircumflex" unicode="&#x134;" horiz-adv-x="252" 
d="M180 95q0 -99 -39 -149.5t-117 -80.5l-24 64q38 20 56.5 40.5t25.5 49.5t7 80v590h91v-594zM28 761l-35 38l112 112h56l112 -112l-36 -38l-104 80z" />
    <glyph glyph-name="uniA7B2" unicode="&#xa7b2;" horiz-adv-x="274" 
d="M267 -95q-31 16 -70 29q-7 -70 -45.5 -108t-106.5 -38q-55 0 -85 29t-30 79q0 54 35.5 83t98.5 29q26 0 44 -3v684h91v-698q42 -13 90 -40zM94 -127q14 26 14 78q-15 4 -44 4q-36 0 -52 -14t-16 -43q0 -51 48 -51q36 0 50 26z" />
    <glyph glyph-name="uni0248" unicode="&#x248;" horiz-adv-x="264" 
d="M254 306h-74v-211q0 -99 -39 -149.5t-117 -80.5l-24 64q38 20 56.5 40.5t25.5 49.5t7 80v207h-74v74h74v309h91v-309h74v-74z" />
    <glyph glyph-name="K" unicode="K" horiz-adv-x="494" 
d="M167 689v-689h-91v689h91zM479 689l-210 -315l225 -374h-103l-220 368l211 321h97z" />
    <glyph glyph-name="uni01E8" unicode="&#x1e8;" horiz-adv-x="494" 
d="M167 689v-689h-91v689h91zM479 689l-210 -315l225 -374h-103l-220 368l211 321h97zM373 904l35 -38l-112 -112h-56l-112 112l36 38l104 -80z" />
    <glyph glyph-name="Kcommaaccent" unicode="&#x136;" horiz-adv-x="494" 
d="M167 689v-689h-91v689h91zM479 689l-210 -315l225 -374h-103l-220 368l211 321h97zM298.5 -93.5q14.5 -15.5 14.5 -38.5q0 -13 -4.5 -28.5t-16.5 -47.5l-35 -86h-48l28 116q-27 16 -27 46q0 23 14.5 38.5t37.5 15.5q22 0 36.5 -15.5z" />
    <glyph glyph-name="uni0198" unicode="&#x198;" horiz-adv-x="515" 
d="M171 368l123 230q29 53 58 77.5t72 24.5q28 0 49.5 -10t41.5 -29l-32 -49q-13 9 -24 14t-25 5q-18 0 -31 -12.5t-31 -45.5l-106 -199l228 -374h-103zM167 689v-689h-91v689h91z" />
    <glyph glyph-name="L" unicode="L" horiz-adv-x="406" 
d="M167 689v-609h229l-10 -80h-310v689h91z" />
    <glyph glyph-name="uni01C7" unicode="&#x1c7;" horiz-adv-x="639" 
d="M167 689v-609h229l-10 -80h-310v689h91zM567 95q0 -99 -39 -149.5t-117 -80.5l-24 64q38 20 56.5 40.5t25.5 49.5t7 80v590h91v-594z" />
    <glyph glyph-name="Lacute" unicode="&#x139;" horiz-adv-x="406" 
d="M167 689v-609h229l-10 -80h-310v689h91zM187 908l37 -74l-181 -79l-23 48z" />
    <glyph glyph-name="uni023D" unicode="&#x23d;" horiz-adv-x="414" 
d="M175 80h229l-10 -80h-310v326h-74v74h74v289h91v-289h74v-74h-74v-246z" />
    <glyph glyph-name="uniA7AD" unicode="&#xa7ad;" horiz-adv-x="458" 
d="M448 80l-10 -80h-310v260q-60 2 -91.5 31.5t-31.5 82.5q0 48 28 74.5t69 26.5q12 0 26 -2v216h91v-364q47 1 97 15l11 -58q-42 -14 -108 -19v-183h229zM128 325v92q-6 1 -21 1q-34 0 -34 -44q0 -49 55 -49z" />
    <glyph glyph-name="Lcaron" unicode="&#x13d;" horiz-adv-x="406" 
d="M167 689v-609h229l-10 -80h-310v689h91zM260 507l41 181l-74 10l-17 -183z" />
    <glyph glyph-name="uni1E3C" unicode="&#x1e3c;" horiz-adv-x="406" 
d="M167 689v-609h229l-10 -80h-310v689h91zM128 -222l-35 38l112 116h56l112 -116l-36 -38l-104 84z" />
    <glyph glyph-name="Lcommaaccent" unicode="&#x13b;" horiz-adv-x="406" 
d="M167 689v-609h229l-10 -80h-310v689h91zM269.5 -93.5q14.5 -15.5 14.5 -38.5q0 -13 -4.5 -28.5t-16.5 -47.5l-35 -86h-48l28 116q-27 16 -27 46q0 23 14.5 38.5t37.5 15.5q22 0 36.5 -15.5z" />
    <glyph glyph-name="Ldot" unicode="&#x13f;" horiz-adv-x="406" 
d="M167 689v-609h229l-10 -80h-310v689h91zM364 429q16 -17 16 -44q0 -25 -16.5 -42t-42.5 -17t-42.5 17t-16.5 42q0 26 16.5 43.5t42.5 17.5q27 0 43 -17z" />
    <glyph glyph-name="uni1E36" unicode="&#x1e36;" horiz-adv-x="406" 
d="M167 689v-609h229l-10 -80h-310v689h91zM189 -179q-16 17 -16 44q0 25 16.5 42t42.5 17t42.5 -17t16.5 -42q0 -26 -16.5 -43.5t-42.5 -17.5q-27 0 -43 17z" />
    <glyph glyph-name="uni01C8" unicode="&#x1c8;" horiz-adv-x="625" 
d="M167 689v-609h229l-10 -80h-310v689h91zM552 10q0 -61 -16.5 -101t-47 -66.5t-82.5 -53.5l-28 62q32 19 49.5 36.5t27 46t9.5 75.5v518h88v-517zM550 760q16 -17 16 -44q0 -25 -16.5 -42t-42.5 -17t-42.5 17t-16.5 42q0 26 16.5 43.5t42.5 17.5q27 0 43 -17z" />
    <glyph glyph-name="Lslash" unicode="&#x141;" horiz-adv-x="425" 
d="M186 80h229l-10 -80h-310v258l-46 -34l-33 58l77 57l2 1v349h91v-282l124 90l33 -58l-157 -115v-244z" />
    <glyph glyph-name="M" unicode="M" horiz-adv-x="660" 
d="M605 0h-86l-18 313q-13 194 -11 283l-117 -518h-85l-123 519l1 -46q0 -78 -8 -244l-17 -307h-86l47 689h118l112 -505l106 505h121z" />
    <glyph glyph-name="uni1E3E" unicode="&#x1e3e;" horiz-adv-x="660" 
d="M605 0h-86l-18 313q-13 194 -11 283l-117 -518h-85l-123 519l1 -46q0 -78 -8 -244l-17 -307h-86l47 689h118l112 -505l106 505h121zM395 908l37 -74l-181 -79l-23 48z" />
    <glyph glyph-name="uni1E40" unicode="&#x1e40;" horiz-adv-x="660" 
d="M605 0h-86l-18 313q-13 194 -11 283l-117 -518h-85l-123 519l1 -46q0 -78 -8 -244l-17 -307h-86l47 689h118l112 -505l106 505h121zM372 886q16 -17 16 -44q0 -25 -16.5 -42t-42.5 -17t-42.5 17t-16.5 42q0 26 16.5 43.5t42.5 17.5q27 0 43 -17z" />
    <glyph glyph-name="uni019C" unicode="&#x19c;" horiz-adv-x="761" 
d="M685 689v-689h-79l-7 72q-48 -84 -129 -84q-44 0 -76 25.5t-48 68.5q-30 -49 -64 -71.5t-75 -22.5q-65 0 -103 49.5t-38 130.5v521h91v-519q0 -53 17.5 -80t50.5 -27q31 0 55.5 20.5t50.5 66.5q-1 6 -1 18v521h91v-519q0 -47 18 -77t51 -30q31 0 55.5 21t48.5 67v538h91z
" />
    <glyph glyph-name="N" unicode="N" horiz-adv-x="557" 
d="M481 0h-121l-212 587q6 -70 9.5 -125t3.5 -138v-324h-85v689h121l212 -588q-4 15 -8.5 82t-4.5 125v381h85v-689z" />
    <glyph glyph-name="uni01CA" unicode="&#x1ca;" horiz-adv-x="809" 
d="M481 0h-121l-212 587q6 -70 9.5 -125t3.5 -138v-324h-85v689h121l212 -588q-4 15 -8.5 82t-4.5 125v381h85v-689zM737 95q0 -99 -39 -149.5t-117 -80.5l-24 64q38 20 56.5 40.5t25.5 49.5t7 80v590h91v-594z" />
    <glyph glyph-name="Nacute" unicode="&#x143;" horiz-adv-x="557" 
d="M481 0h-121l-212 587q6 -70 9.5 -125t3.5 -138v-324h-85v689h121l212 -588q-4 15 -8.5 82t-4.5 125v381h85v-689zM351 908l37 -74l-181 -79l-23 48z" />
    <glyph glyph-name="Nacute.loclPLK" horiz-adv-x="557" 
d="M481 0h-121l-212 587q6 -70 9.5 -125t3.5 -138v-324h-85v689h121l212 -588q-4 15 -8.5 82t-4.5 125v381h85v-689zM323 924l67 -45l-109 -145l-42 27z" />
    <glyph glyph-name="Ncaron" unicode="&#x147;" horiz-adv-x="557" 
d="M481 0h-121l-212 587q6 -70 9.5 -125t3.5 -138v-324h-85v689h121l212 -588q-4 15 -8.5 82t-4.5 125v381h85v-689zM391 904l35 -38l-112 -112h-56l-112 112l36 38l104 -80z" />
    <glyph glyph-name="uni1E4A" unicode="&#x1e4a;" horiz-adv-x="557" 
d="M481 0h-121l-212 587q6 -70 9.5 -125t3.5 -138v-324h-85v689h121l212 -588q-4 15 -8.5 82t-4.5 125v381h85v-689zM176 -222l-35 38l112 116h56l112 -116l-36 -38l-104 84z" />
    <glyph glyph-name="Ncommaaccent" unicode="&#x145;" horiz-adv-x="557" 
d="M481 0h-121l-212 587q6 -70 9.5 -125t3.5 -138v-324h-85v689h121l212 -588q-4 15 -8.5 82t-4.5 125v381h85v-689zM317.5 -93.5q14.5 -15.5 14.5 -38.5q0 -13 -4.5 -28.5t-16.5 -47.5l-35 -86h-48l28 116q-27 16 -27 46q0 23 14.5 38.5t37.5 15.5q22 0 36.5 -15.5z" />
    <glyph glyph-name="uni1E44" unicode="&#x1e44;" horiz-adv-x="557" 
d="M481 0h-121l-212 587q6 -70 9.5 -125t3.5 -138v-324h-85v689h121l212 -588q-4 15 -8.5 82t-4.5 125v381h85v-689zM328 886q16 -17 16 -44q0 -25 -16.5 -42t-42.5 -17t-42.5 17t-16.5 42q0 26 16.5 43.5t42.5 17.5q27 0 43 -17z" />
    <glyph glyph-name="uni1E46" unicode="&#x1e46;" horiz-adv-x="557" 
d="M481 0h-121l-212 587q6 -70 9.5 -125t3.5 -138v-324h-85v689h121l212 -588q-4 15 -8.5 82t-4.5 125v381h85v-689zM237 -179q-16 17 -16 44q0 25 16.5 42t42.5 17t42.5 -17t16.5 -42q0 -26 -16.5 -43.5t-42.5 -17.5q-27 0 -43 17z" />
    <glyph glyph-name="uni01F8" unicode="&#x1f8;" horiz-adv-x="557" 
d="M481 0h-121l-212 587q6 -70 9.5 -125t3.5 -138v-324h-85v689h121l212 -588q-4 15 -8.5 82t-4.5 125v381h85v-689zM214 908l168 -105l-23 -48l-181 79z" />
    <glyph glyph-name="Eng" unicode="&#x14a;" horiz-adv-x="557" 
d="M481 0h-1v-79q0 -64 -36.5 -98.5t-94.5 -34.5t-101 37l38 54q15 -10 28 -14t30 -4q45 0 45 58v81h-29l-212 587q6 -70 9.5 -125t3.5 -138v-324h-85v689h121l212 -588q-4 15 -8.5 82t-4.5 125v381h85v-689z" />
    <glyph glyph-name="Eng.ss01" horiz-adv-x="548" 
d="M478 0h-1v-79q0 -64 -36.5 -98.5t-94.5 -34.5t-101 37l38 54q15 -10 28 -14t30 -4q45 0 45 58v82h1v503q0 63 -19.5 92.5t-62.5 29.5q-41 0 -71.5 -21.5t-66.5 -64.5v-540h-91v689h79l7 -76q70 87 162 87q76 0 115 -48.5t39 -129.5v-522z" />
    <glyph glyph-name="uni019D" unicode="&#x19d;" horiz-adv-x="557" 
d="M481 689v-689h-121l-212 587q6 -70 9.5 -125t3.5 -138v-402q0 -65 -36 -99.5t-92 -34.5q-58 0 -101 37l38 53q16 -10 29 -14.5t30 -4.5q24 0 35.5 14t11.5 44v772h121l212 -588q-4 15 -8.5 82t-4.5 125v381h85z" />
    <glyph glyph-name="uni019D.ss01" horiz-adv-x="548" 
d="M439 651.5q39 -48.5 39 -129.5v-522h-91v504q0 63 -19.5 92.5t-62.5 29.5q-41 0 -71.5 -21.5t-66.5 -64.5v-619q0 -64 -36.5 -98.5t-94.5 -34.5t-101 37l38 54q15 -10 28 -14t30 -4q45 0 45 58v770h79l7 -76q70 87 162 87q76 0 115 -48.5z" />
    <glyph glyph-name="uni01CB" unicode="&#x1cb;" horiz-adv-x="791" 
d="M481 0h-121l-212 587q6 -70 9.5 -125t3.5 -138v-324h-85v689h121l212 -588q-4 15 -8.5 82t-4.5 125v381h85v-689zM718 10q0 -61 -16.5 -101t-47 -66.5t-82.5 -53.5l-28 62q32 19 49.5 36.5t27 46t9.5 75.5v518h88v-517zM716 760q16 -17 16 -44q0 -25 -16.5 -42t-42.5 -17
t-42.5 17t-16.5 42q0 26 16.5 43.5t42.5 17.5q27 0 43 -17z" />
    <glyph glyph-name="uni0220" unicode="&#x220;" horiz-adv-x="548" 
d="M439 651.5q39 -48.5 39 -129.5v-724h-91v706q0 63 -19.5 92.5t-62.5 29.5q-41 0 -71.5 -21.5t-66.5 -64.5v-540h-91v689h79l7 -76q70 87 162 87q76 0 115 -48.5z" />
    <glyph glyph-name="Ntilde" unicode="&#xd1;" horiz-adv-x="557" 
d="M481 0h-121l-212 587q6 -70 9.5 -125t3.5 -138v-324h-85v689h121l212 -588q-4 15 -8.5 82t-4.5 125v381h85v-689zM308.5 793.5q-12.5 6.5 -31.5 19.5q-9 7 -19 12.5t-19 5.5q-13 0 -23 -10.5t-22 -34.5l-48 23q15 40 38 62.5t52 22.5q17 0 30 -6.5t29 -18.5
q25 -19 39 -19q12 0 22 10t22 33l49 -22q-29 -84 -90 -84q-16 0 -28.5 6.5z" />
    <glyph glyph-name="O" unicode="O" horiz-adv-x="575" 
d="M466 611.5q64 -88.5 64 -267.5q0 -177 -64 -266.5t-178 -89.5t-178.5 88t-64.5 267q0 177 65 267t178 90q114 0 178 -88.5zM178.5 560q-37.5 -66 -37.5 -217q0 -150 38 -215t109 -65q72 0 109 64.5t37 216.5q0 151 -37 216.5t-109 65.5t-109.5 -66z" />
    <glyph glyph-name="uni0222" unicode="&#x222;" horiz-adv-x="541" 
d="M466 318.5q30 -45.5 30 -110.5q0 -58 -27 -108.5t-78 -81t-120 -30.5t-120.5 30t-78.5 80t-27 109q0 62 30.5 109t86.5 69q-81 41 -81 132v172h91v-168q0 -102 99 -102q52 0 75.5 30t23.5 72v168h92v-172q0 -43 -21 -76.5t-61 -53.5q56 -23 86 -68.5zM368.5 98.5
q31.5 35.5 31.5 109.5q0 66 -32 101.5t-97 35.5t-97.5 -36t-32.5 -102q0 -144 130 -144q66 0 97.5 35.5z" />
    <glyph glyph-name="Oacute" unicode="&#xd3;" horiz-adv-x="575" 
d="M466 611.5q64 -88.5 64 -267.5q0 -177 -64 -266.5t-178 -89.5t-178.5 88t-64.5 267q0 177 65 267t178 90q114 0 178 -88.5zM178.5 560q-37.5 -66 -37.5 -217q0 -150 38 -215t109 -65q72 0 109 64.5t37 216.5q0 151 -37 216.5t-109 65.5t-109.5 -66zM353 908l37 -74
l-181 -79l-23 48z" />
    <glyph glyph-name="Oacute.loclPLK" horiz-adv-x="575" 
d="M466 611.5q64 -88.5 64 -267.5q0 -177 -64 -266.5t-178 -89.5t-178.5 88t-64.5 267q0 177 65 267t178 90q114 0 178 -88.5zM178.5 560q-37.5 -66 -37.5 -217q0 -150 38 -215t109 -65q72 0 109 64.5t37 216.5q0 151 -37 216.5t-109 65.5t-109.5 -66zM325 924l67 -45
l-109 -145l-42 27z" />
    <glyph glyph-name="Obreve" unicode="&#x14e;" horiz-adv-x="575" 
d="M466 611.5q64 -88.5 64 -267.5q0 -177 -64 -266.5t-178 -89.5t-178.5 88t-64.5 267q0 177 65 267t178 90q114 0 178 -88.5zM178.5 560q-37.5 -66 -37.5 -217q0 -150 38 -215t109 -65q72 0 109 64.5t37 216.5q0 151 -37 216.5t-109 65.5t-109.5 -66zM200 790.5
q-34 31.5 -39 88.5l54 13q15 -66 72 -66q29 0 48 17t26 49l54 -13q-5 -57 -39.5 -88.5t-88.5 -31.5q-53 0 -87 31.5z" />
    <glyph glyph-name="uni01D1" unicode="&#x1d1;" horiz-adv-x="575" 
d="M466 611.5q64 -88.5 64 -267.5q0 -177 -64 -266.5t-178 -89.5t-178.5 88t-64.5 267q0 177 65 267t178 90q114 0 178 -88.5zM178.5 560q-37.5 -66 -37.5 -217q0 -150 38 -215t109 -65q72 0 109 64.5t37 216.5q0 151 -37 216.5t-109 65.5t-109.5 -66zM393 904l35 -38
l-112 -112h-56l-112 112l36 38l104 -80z" />
    <glyph glyph-name="uni019F" unicode="&#x19f;" horiz-adv-x="575" 
d="M466 611.5q64 -88.5 64 -267.5q0 -177 -64 -266.5t-178 -89.5t-178.5 88t-64.5 267q0 177 65 267t178 90q114 0 178 -88.5zM180.5 569.5q-38.5 -56.5 -43.5 -184.5h301q-5 129 -42.5 185t-107.5 56q-69 0 -107.5 -56.5zM397.5 121.5q37.5 58.5 41.5 195.5h-303
q4 -136 42.5 -195t109.5 -59q72 0 109.5 58.5z" />
    <glyph glyph-name="Ocircumflex" unicode="&#xd4;" horiz-adv-x="575" 
d="M466 611.5q64 -88.5 64 -267.5q0 -177 -64 -266.5t-178 -89.5t-178.5 88t-64.5 267q0 177 65 267t178 90q114 0 178 -88.5zM178.5 560q-37.5 -66 -37.5 -217q0 -150 38 -215t109 -65q72 0 109 64.5t37 216.5q0 151 -37 216.5t-109 65.5t-109.5 -66zM182 761l-35 38
l112 112h56l112 -112l-36 -38l-104 80z" />
    <glyph glyph-name="uni1ED0" unicode="&#x1ed0;" horiz-adv-x="575" 
d="M466 611.5q64 -88.5 64 -267.5q0 -177 -64 -266.5t-178 -89.5t-178.5 88t-64.5 267q0 177 65 267t178 90q114 0 178 -88.5zM178.5 560q-37.5 -66 -37.5 -217q0 -150 38 -215t109 -65q72 0 109 64.5t37 216.5q0 151 -37 216.5t-109 65.5t-109.5 -66zM182 719l-35 38
l112 112h56l112 -112l-36 -38l-104 80zM464 1015l58 -48l-122 -130l-37 32z" />
    <glyph glyph-name="uni1ED8" unicode="&#x1ed8;" horiz-adv-x="575" 
d="M466 611.5q64 -88.5 64 -267.5q0 -177 -64 -266.5t-178 -89.5t-178.5 88t-64.5 267q0 177 65 267t178 90q114 0 178 -88.5zM178.5 560q-37.5 -66 -37.5 -217q0 -150 38 -215t109 -65q72 0 109 64.5t37 216.5q0 151 -37 216.5t-109 65.5t-109.5 -66zM182 761l-35 38
l112 112h56l112 -112l-36 -38l-104 80zM245 -179q-16 17 -16 44q0 25 16.5 42t42.5 17t42.5 -17t16.5 -42q0 -26 -16.5 -43.5t-42.5 -17.5q-27 0 -43 17z" />
    <glyph glyph-name="uni1ED2" unicode="&#x1ed2;" horiz-adv-x="575" 
d="M466 611.5q64 -88.5 64 -267.5q0 -177 -64 -266.5t-178 -89.5t-178.5 88t-64.5 267q0 177 65 267t178 90q114 0 178 -88.5zM178.5 560q-37.5 -66 -37.5 -217q0 -150 38 -215t109 -65q72 0 109 64.5t37 216.5q0 151 -37 216.5t-109 65.5t-109.5 -66zM182 719l-35 38
l112 112h56l112 -112l-36 -38l-104 80zM111 1015l103 -146l-39 -32l-122 130z" />
    <glyph glyph-name="uni1ED4" unicode="&#x1ed4;" horiz-adv-x="575" 
d="M466 611.5q64 -88.5 64 -267.5q0 -177 -64 -266.5t-178 -89.5t-178.5 88t-64.5 267q0 177 65 267t178 90q114 0 178 -88.5zM178.5 560q-37.5 -66 -37.5 -217q0 -150 38 -215t109 -65q72 0 109 64.5t37 216.5q0 151 -37 216.5t-109 65.5t-109.5 -66zM182 719l-35 38
l112 112h56l112 -112l-36 -38l-104 80zM382 899q32 5 45 13t13 30q0 37 -35 37q-22 0 -48 -13l-18 49q34 24 79 24q44 0 67.5 -24t23.5 -66q0 -36 -17.5 -57.5t-48.5 -27.5v-48h-61v83z" />
    <glyph glyph-name="uni1ED6" unicode="&#x1ed6;" horiz-adv-x="575" 
d="M466 611.5q64 -88.5 64 -267.5q0 -177 -64 -266.5t-178 -89.5t-178.5 88t-64.5 267q0 177 65 267t178 90q114 0 178 -88.5zM178.5 560q-37.5 -66 -37.5 -217q0 -150 38 -215t109 -65q72 0 109 64.5t37 216.5q0 151 -37 216.5t-109 65.5t-109.5 -66zM182 719l-35 38
l112 112h56l112 -112l-36 -38l-104 80zM308.5 911.5q-12.5 6.5 -31.5 19.5q-9 7 -19 12.5t-19 5.5q-13 0 -23 -10.5t-22 -34.5l-48 23q15 40 38 62.5t52 22.5q17 0 30 -6.5t29 -18.5q25 -19 39 -19q12 0 22 10t22 33l49 -22q-29 -84 -90 -84q-16 0 -28.5 6.5z" />
    <glyph glyph-name="uni020C" unicode="&#x20c;" horiz-adv-x="575" 
d="M466 611.5q64 -88.5 64 -267.5q0 -177 -64 -266.5t-178 -89.5t-178.5 88t-64.5 267q0 177 65 267t178 90q114 0 178 -88.5zM178.5 560q-37.5 -66 -37.5 -217q0 -150 38 -215t109 -65q72 0 109 64.5t37 216.5q0 151 -37 216.5t-109 65.5t-109.5 -66zM184 953l70 -170
l-49 -22l-90 155zM311 953l63 -165l-49 -22l-82 150z" />
    <glyph glyph-name="Odieresis" unicode="&#xd6;" horiz-adv-x="575" 
d="M466 611.5q64 -88.5 64 -267.5q0 -177 -64 -266.5t-178 -89.5t-178.5 88t-64.5 267q0 177 65 267t178 90q114 0 178 -88.5zM178.5 560q-37.5 -66 -37.5 -217q0 -150 38 -215t109 -65q72 0 109 64.5t37 216.5q0 151 -37 216.5t-109 65.5t-109.5 -66zM245 875
q15 -16 15 -39t-15 -39t-38 -16t-38 16t-15 39t15 39t38 16t38 -16zM420 875q15 -16 15 -39t-15 -39t-38 -16q-22 0 -37.5 16t-15.5 39t15.5 39t37.5 16q23 0 38 -16z" />
    <glyph glyph-name="uni022A" unicode="&#x22a;" horiz-adv-x="575" 
d="M466 611.5q64 -88.5 64 -267.5q0 -177 -64 -266.5t-178 -89.5t-178.5 88t-64.5 267q0 177 65 267t178 90q114 0 178 -88.5zM178.5 560q-37.5 -66 -37.5 -217q0 -150 38 -215t109 -65q72 0 109 64.5t37 216.5q0 151 -37 216.5t-109 65.5t-109.5 -66zM239 840
q15 -16 15 -39t-15 -39t-38 -16t-38 16t-15 39t15 39t38 16t38 -16zM414 840q15 -16 15 -39t-15 -39t-38 -16q-22 0 -37.5 16t-15.5 39t15.5 39t37.5 16q23 0 38 -16zM403 905h-228v64h228v-64z" />
    <glyph glyph-name="uni022E" unicode="&#x22e;" horiz-adv-x="575" 
d="M466 611.5q64 -88.5 64 -267.5q0 -177 -64 -266.5t-178 -89.5t-178.5 88t-64.5 267q0 177 65 267t178 90q114 0 178 -88.5zM178.5 560q-37.5 -66 -37.5 -217q0 -150 38 -215t109 -65q72 0 109 64.5t37 216.5q0 151 -37 216.5t-109 65.5t-109.5 -66zM330 886
q16 -17 16 -44q0 -25 -16.5 -42t-42.5 -17t-42.5 17t-16.5 42q0 26 16.5 43.5t42.5 17.5q27 0 43 -17z" />
    <glyph glyph-name="uni0230" unicode="&#x230;" horiz-adv-x="575" 
d="M466 611.5q64 -88.5 64 -267.5q0 -177 -64 -266.5t-178 -89.5t-178.5 88t-64.5 267q0 177 65 267t178 90q114 0 178 -88.5zM178.5 560q-37.5 -66 -37.5 -217q0 -150 38 -215t109 -65q72 0 109 64.5t37 216.5q0 151 -37 216.5t-109 65.5t-109.5 -66zM331 845
q16 -17 16 -44q0 -25 -16.5 -42t-42.5 -17t-42.5 17t-16.5 42q0 26 16.5 43.5t42.5 17.5q27 0 43 -17zM402 906h-228v64h228v-64z" />
    <glyph glyph-name="uni1ECC" unicode="&#x1ecc;" horiz-adv-x="575" 
d="M466 611.5q64 -88.5 64 -267.5q0 -177 -64 -266.5t-178 -89.5t-178.5 88t-64.5 267q0 177 65 267t178 90q114 0 178 -88.5zM178.5 560q-37.5 -66 -37.5 -217q0 -150 38 -215t109 -65q72 0 109 64.5t37 216.5q0 151 -37 216.5t-109 65.5t-109.5 -66zM245 -179
q-16 17 -16 44q0 25 16.5 42t42.5 17t42.5 -17t16.5 -42q0 -26 -16.5 -43.5t-42.5 -17.5q-27 0 -43 17z" />
    <glyph glyph-name="Ograve" unicode="&#xd2;" horiz-adv-x="575" 
d="M466 611.5q64 -88.5 64 -267.5q0 -177 -64 -266.5t-178 -89.5t-178.5 88t-64.5 267q0 177 65 267t178 90q114 0 178 -88.5zM178.5 560q-37.5 -66 -37.5 -217q0 -150 38 -215t109 -65q72 0 109 64.5t37 216.5q0 151 -37 216.5t-109 65.5t-109.5 -66zM216 908l168 -105
l-23 -48l-181 79z" />
    <glyph glyph-name="uni1ECE" unicode="&#x1ece;" horiz-adv-x="575" 
d="M466 611.5q64 -88.5 64 -267.5q0 -177 -64 -266.5t-178 -89.5t-178.5 88t-64.5 267q0 177 65 267t178 90q114 0 178 -88.5zM178.5 560q-37.5 -66 -37.5 -217q0 -150 38 -215t109 -65q72 0 109 64.5t37 216.5q0 151 -37 216.5t-109 65.5t-109.5 -66zM257 847q32 5 45 13
t13 30q0 37 -35 37q-22 0 -48 -13l-18 49q34 24 79 24q44 0 67.5 -24t23.5 -66q0 -36 -17.5 -57.5t-48.5 -27.5v-48h-61v83z" />
    <glyph glyph-name="Ohorn" unicode="&#x1a0;" horiz-adv-x="598" 
d="M481 587q49 -87 49 -243q0 -177 -64 -266.5t-178 -89.5t-178.5 88t-64.5 267q0 177 65 267t178 90q100 0 160 -66q22 4 32 16.5t10 35.5q0 38 -12 72l63 15q17 -40 17 -86q0 -81 -77 -100zM397 127.5q37 64.5 37 216.5q0 151 -37 216.5t-109 65.5t-109.5 -66t-37.5 -217
q0 -150 38 -215t109 -65q72 0 109 64.5z" />
    <glyph glyph-name="uni1EDA" unicode="&#x1eda;" horiz-adv-x="598" 
d="M390 834l-181 -79l-23 48l167 105zM481 587q49 -87 49 -243q0 -177 -64 -266.5t-178 -89.5t-178.5 88t-64.5 267q0 177 65 267t178 90q100 0 160 -66q22 4 32 16.5t10 35.5q0 38 -12 72l63 15q17 -40 17 -86q0 -81 -77 -100zM397 127.5q37 64.5 37 216.5q0 151 -37 216.5
t-109 65.5t-109.5 -66t-37.5 -217q0 -150 38 -215t109 -65q72 0 109 64.5z" />
    <glyph glyph-name="uni1EE2" unicode="&#x1ee2;" horiz-adv-x="598" 
d="M481 587q49 -87 49 -243q0 -177 -64 -266.5t-178 -89.5t-178.5 88t-64.5 267q0 177 65 267t178 90q100 0 160 -66q22 4 32 16.5t10 35.5q0 38 -12 72l63 15q17 -40 17 -86q0 -81 -77 -100zM397 127.5q37 64.5 37 216.5q0 151 -37 216.5t-109 65.5t-109.5 -66t-37.5 -217
q0 -150 38 -215t109 -65q72 0 109 64.5zM330.5 -93q16.5 -17 16.5 -42q0 -26 -16.5 -43.5t-42.5 -17.5q-27 0 -43 17t-16 44q0 25 16.5 42t42.5 17t42.5 -17z" />
    <glyph glyph-name="uni1EDC" unicode="&#x1edc;" horiz-adv-x="598" 
d="M384 803l-23 -48l-181 79l36 74zM481 587q49 -87 49 -243q0 -177 -64 -266.5t-178 -89.5t-178.5 88t-64.5 267q0 177 65 267t178 90q100 0 160 -66q22 4 32 16.5t10 35.5q0 38 -12 72l63 15q17 -40 17 -86q0 -81 -77 -100zM397 127.5q37 64.5 37 216.5q0 151 -37 216.5
t-109 65.5t-109.5 -66t-37.5 -217q0 -150 38 -215t109 -65q72 0 109 64.5z" />
    <glyph glyph-name="uni1EDE" unicode="&#x1ede;" horiz-adv-x="598" 
d="M232 914l-18 49q34 24 79 24q44 0 67.5 -24t23.5 -66q0 -36 -17.5 -57.5t-48.5 -27.5v-48h-61v83q32 5 45 13t13 30q0 37 -35 37q-22 0 -48 -13zM481 587q49 -87 49 -243q0 -177 -64 -266.5t-178 -89.5t-178.5 88t-64.5 267q0 177 65 267t178 90q100 0 160 -66
q22 4 32 16.5t10 35.5q0 38 -12 72l63 15q17 -40 17 -86q0 -81 -77 -100zM397 127.5q37 64.5 37 216.5q0 151 -37 216.5t-109 65.5t-109.5 -66t-37.5 -217q0 -150 38 -215t109 -65q72 0 109 64.5z" />
    <glyph glyph-name="uni1EE0" unicode="&#x1ee0;" horiz-adv-x="598" 
d="M218 820.5q-10 -10.5 -22 -34.5l-48 23q15 40 38 62.5t52 22.5q17 0 30 -6.5t29 -18.5q25 -19 39 -19q12 0 22 10t22 33l49 -22q-29 -84 -90 -84q-16 0 -28.5 6.5t-31.5 19.5q-9 7 -19 12.5t-19 5.5q-13 0 -23 -10.5zM481 587q49 -87 49 -243q0 -177 -64 -266.5
t-178 -89.5t-178.5 88t-64.5 267q0 177 65 267t178 90q100 0 160 -66q22 4 32 16.5t10 35.5q0 38 -12 72l63 15q17 -40 17 -86q0 -81 -77 -100zM397 127.5q37 64.5 37 216.5q0 151 -37 216.5t-109 65.5t-109.5 -66t-37.5 -217q0 -150 38 -215t109 -65q72 0 109 64.5z" />
    <glyph glyph-name="Ohungarumlaut" unicode="&#x150;" horiz-adv-x="575" 
d="M466 611.5q64 -88.5 64 -267.5q0 -177 -64 -266.5t-178 -89.5t-178.5 88t-64.5 267q0 177 65 267t178 90q114 0 178 -88.5zM178.5 560q-37.5 -66 -37.5 -217q0 -150 38 -215t109 -65q72 0 109 64.5t37 216.5q0 151 -37 216.5t-109 65.5t-109.5 -66zM258 953l68 -37
l-82 -150l-49 22zM385 953l69 -37l-90 -155l-49 22z" />
    <glyph glyph-name="uni01A2" unicode="&#x1a2;" horiz-adv-x="767" 
d="M654.5 663q36.5 -39 36.5 -109v-755h-91v758q0 74 -57 74q-39 0 -74 -24q61 -91 61 -263q0 -177 -64 -266.5t-178 -89.5t-178.5 88t-64.5 267q0 177 65 267t178 90q83 0 137 -45q30 24 60 35.5t67 11.5q66 0 102.5 -39zM397 127.5q37 64.5 37 216.5q0 151 -37 216.5
t-109 65.5t-109.5 -66t-37.5 -217q0 -150 38 -215t109 -65q72 0 109 64.5z" />
    <glyph glyph-name="uni020E" unicode="&#x20e;" horiz-adv-x="575" 
d="M466 611.5q64 -88.5 64 -267.5q0 -177 -64 -266.5t-178 -89.5t-178.5 88t-64.5 267q0 177 65 267t178 90q114 0 178 -88.5zM178.5 560q-37.5 -66 -37.5 -217q0 -150 38 -215t109 -65q72 0 109 64.5t37 216.5q0 151 -37 216.5t-109 65.5t-109.5 -66zM376 886.5
q34 -33.5 39 -97.5l-54 -12q-16 77 -74 77q-56 0 -72 -77l-54 12q5 64 38.5 97.5t87.5 33.5q55 0 89 -33.5z" />
    <glyph glyph-name="Omacron" unicode="&#x14c;" horiz-adv-x="575" 
d="M466 611.5q64 -88.5 64 -267.5q0 -177 -64 -266.5t-178 -89.5t-178.5 88t-64.5 267q0 177 65 267t178 90q114 0 178 -88.5zM178.5 560q-37.5 -66 -37.5 -217q0 -150 38 -215t109 -65q72 0 109 64.5t37 216.5q0 151 -37 216.5t-109 65.5t-109.5 -66zM402 795h-228v64h228
v-64z" />
    <glyph glyph-name="uni1E52" unicode="&#x1e52;" horiz-adv-x="575" 
d="M466 611.5q64 -88.5 64 -267.5q0 -177 -64 -266.5t-178 -89.5t-178.5 88t-64.5 267q0 177 65 267t178 90q114 0 178 -88.5zM178.5 560q-37.5 -66 -37.5 -217q0 -150 38 -215t109 -65q72 0 109 64.5t37 216.5q0 151 -37 216.5t-109 65.5t-109.5 -66zM402 760h-228v64h228
v-64zM350 1027l37 -74l-181 -79l-23 48z" />
    <glyph glyph-name="uni1E50" unicode="&#x1e50;" horiz-adv-x="575" 
d="M225 1027l168 -105l-23 -48l-181 79zM402 760h-228v64h228v-64zM466 611.5q64 -88.5 64 -267.5q0 -177 -64 -266.5t-178 -89.5t-178.5 88t-64.5 267q0 177 65 267t178 90q114 0 178 -88.5zM178.5 560q-37.5 -66 -37.5 -217q0 -150 38 -215t109 -65q72 0 109 64.5
t37 216.5q0 151 -37 216.5t-109 65.5t-109.5 -66z" />
    <glyph glyph-name="uniA7B6" unicode="&#xa7b6;" horiz-adv-x="705" 
d="M637 520.5q18 -93.5 18 -222.5q0 -163 -45.5 -236.5t-130.5 -73.5q-53 0 -85.5 27.5t-43.5 79.5q-11 -52 -43 -79.5t-83 -27.5q-85 0 -129.5 72t-44.5 238q0 129 18 222t45 169h87q-30 -93 -44.5 -182t-14.5 -206q0 -91 9.5 -142.5t29 -73.5t52.5 -22q73 0 73 100v235h90
v-235q0 -101 76 -101q31 0 51 18.5t31 70.5t11 148q0 117 -15 206.5t-46 183.5h88q28 -75 46 -168.5z" />
    <glyph glyph-name="uni01EA" unicode="&#x1ea;" horiz-adv-x="575" 
d="M487 113.5q-43 -86.5 -122 -113.5q-57 -30 -78 -57t-21 -60q0 -24 11 -36t36 -12q20 0 48 6l-7 -64q-30 -7 -53 -7q-49 0 -77.5 26.5t-28.5 73.5q0 72 70 119q-104 9 -162 97t-58 257q0 177 65 267t178 90q114 0 178 -88.5t64 -267.5q0 -144 -43 -230.5zM397 127.5
q37 64.5 37 216.5q0 151 -37 216.5t-109 65.5t-109.5 -66t-37.5 -217q0 -150 38 -215t109 -65q72 0 109 64.5z" />
    <glyph glyph-name="uni01EC" unicode="&#x1ec;" horiz-adv-x="575" 
d="M402 859v-64h-228v64h228zM487 113.5q-43 -86.5 -122 -113.5q-57 -30 -78 -57t-21 -60q0 -24 11 -36t36 -12q20 0 48 6l-7 -64q-30 -7 -53 -7q-49 0 -77.5 26.5t-28.5 73.5q0 72 70 119q-104 9 -162 97t-58 257q0 177 65 267t178 90q114 0 178 -88.5t64 -267.5
q0 -144 -43 -230.5zM397 127.5q37 64.5 37 216.5q0 151 -37 216.5t-109 65.5t-109.5 -66t-37.5 -217q0 -150 38 -215t109 -65q72 0 109 64.5z" />
    <glyph glyph-name="uni0186" unicode="&#x186;" horiz-adv-x="466" 
d="M361.5 612.5q59.5 -87.5 59.5 -266.5q0 -176 -65.5 -267t-175.5 -91q-94 0 -166 76l48 52q32 -26 56.5 -38.5t60.5 -12.5q67 0 106.5 66t39.5 214q0 154 -36 217.5t-99 63.5q-34 0 -64 -12t-60 -36l-45 55q76 67 171 67q110 0 169.5 -87.5z" />
    <glyph glyph-name="Oslash" unicode="&#xd8;" horiz-adv-x="575" 
d="M498 550q32 -81 32 -206q0 -177 -64 -266.5t-178 -89.5q-24 0 -52 5l-28 -119l-73 19l33 127q-59 37 -91 117.5t-32 205.5q0 177 65 267t178 90q23 0 50 -5l30 123l72 -19l-33 -130q59 -38 91 -119zM177 560q-38 -66 -38 -217q0 -190 62 -249l125 528q-16 4 -38 4
q-73 0 -111 -66zM419 509.5q-15 58.5 -45 86.5l-125 -529q17 -4 39 -4q74 0 110 66t36 224q0 98 -15 156.5z" />
    <glyph glyph-name="Oslashacute" unicode="&#x1fe;" horiz-adv-x="575" 
d="M498 550q32 -81 32 -206q0 -177 -64 -266.5t-178 -89.5q-24 0 -52 5l-28 -119l-73 19l33 127q-59 37 -91 117.5t-32 205.5q0 177 65 267t178 90q23 0 50 -5l30 123l72 -19l-33 -130q59 -38 91 -119zM177 560q-38 -66 -38 -217q0 -190 62 -249l125 528q-16 4 -38 4
q-73 0 -111 -66zM419 509.5q-15 58.5 -45 86.5l-125 -529q17 -4 39 -4q74 0 110 66t36 224q0 98 -15 156.5zM349 922l37 -74l-181 -79l-23 48z" />
    <glyph glyph-name="Otilde" unicode="&#xd5;" horiz-adv-x="575" 
d="M466 611.5q64 -88.5 64 -267.5q0 -177 -64 -266.5t-178 -89.5t-178.5 88t-64.5 267q0 177 65 267t178 90q114 0 178 -88.5zM178.5 560q-37.5 -66 -37.5 -217q0 -150 38 -215t109 -65q72 0 109 64.5t37 216.5q0 151 -37 216.5t-109 65.5t-109.5 -66zM310.5 793.5
q-12.5 6.5 -31.5 19.5q-9 7 -19 12.5t-19 5.5q-13 0 -23 -10.5t-22 -34.5l-48 23q15 40 38 62.5t52 22.5q17 0 30 -6.5t29 -18.5q25 -19 39 -19q12 0 22 10t22 33l49 -22q-29 -84 -90 -84q-16 0 -28.5 6.5z" />
    <glyph glyph-name="uni1E4C" unicode="&#x1e4c;" horiz-adv-x="575" 
d="M466 611.5q64 -88.5 64 -267.5q0 -177 -64 -266.5t-178 -89.5t-178.5 88t-64.5 267q0 177 65 267t178 90q114 0 178 -88.5zM178.5 560q-37.5 -66 -37.5 -217q0 -150 38 -215t109 -65q72 0 109 64.5t37 216.5q0 151 -37 216.5t-109 65.5t-109.5 -66zM310.5 768.5
q-12.5 6.5 -31.5 19.5q-9 7 -19 12.5t-19 5.5q-13 0 -23 -10.5t-22 -34.5l-48 23q15 40 38 62.5t52 22.5q17 0 30 -6.5t29 -18.5q25 -19 39 -19q12 0 22 10t22 33l49 -22q-29 -84 -90 -84q-16 0 -28.5 6.5zM353 1048l37 -74l-181 -79l-23 48z" />
    <glyph glyph-name="uni022C" unicode="&#x22c;" horiz-adv-x="575" 
d="M466 611.5q64 -88.5 64 -267.5q0 -177 -64 -266.5t-178 -89.5t-178.5 88t-64.5 267q0 177 65 267t178 90q114 0 178 -88.5zM178.5 560q-37.5 -66 -37.5 -217q0 -150 38 -215t109 -65q72 0 109 64.5t37 216.5q0 151 -37 216.5t-109 65.5t-109.5 -66zM310.5 768.5
q-12.5 6.5 -31.5 19.5q-9 7 -19 12.5t-19 5.5q-13 0 -23 -10.5t-22 -34.5l-48 23q15 40 38 62.5t52 22.5q17 0 30 -6.5t29 -18.5q25 -19 39 -19q12 0 22 10t22 33l49 -22q-29 -84 -90 -84q-16 0 -28.5 6.5zM396 913h-228v64h228v-64z" />
    <glyph glyph-name="OE" unicode="&#x152;" horiz-adv-x="739" 
d="M700 73v-73h-358q-30 -12 -66 -12q-68 0 -120 40t-81.5 120t-29.5 195q0 114 29.5 194.5t81.5 121.5t120 41q33 0 64 -11h355l-10 -73h-250q69 -75 78 -228h144v-75h-144q-6 -153 -81 -240h268zM178 130q37 -67 101 -67q139 0 139 281q0 282 -139 282q-138 0 -138 -283
q0 -146 37 -213z" />
    <glyph glyph-name="P" unicode="P" horiz-adv-x="476" 
d="M393.5 635q62.5 -54 62.5 -159q0 -112 -63.5 -166.5t-180.5 -54.5h-45v-255h-91v689h134q121 0 183.5 -54zM325 359.5q36 32.5 36 115.5q0 75 -36.5 108.5t-112.5 33.5h-45v-290h45q77 0 113 32.5z" />
    <glyph glyph-name="uni1E54" unicode="&#x1e54;" horiz-adv-x="476" 
d="M393.5 635q62.5 -54 62.5 -159q0 -112 -63.5 -166.5t-180.5 -54.5h-45v-255h-91v689h134q121 0 183.5 -54zM325 359.5q36 32.5 36 115.5q0 75 -36.5 108.5t-112.5 33.5h-45v-290h45q77 0 113 32.5zM307 908l37 -74l-181 -79l-23 48z" />
    <glyph glyph-name="uni1E56" unicode="&#x1e56;" horiz-adv-x="476" 
d="M393.5 635q62.5 -54 62.5 -159q0 -112 -63.5 -166.5t-180.5 -54.5h-45v-255h-91v689h134q121 0 183.5 -54zM325 359.5q36 32.5 36 115.5q0 75 -36.5 108.5t-112.5 33.5h-45v-290h45q77 0 113 32.5zM284 886q16 -17 16 -44q0 -25 -16.5 -42t-42.5 -17t-42.5 17t-16.5 42
q0 26 16.5 43.5t42.5 17.5q27 0 43 -17z" />
    <glyph glyph-name="uni01A4" unicode="&#x1a4;" horiz-adv-x="554" 
d="M471.5 635q62.5 -54 62.5 -159q0 -112 -63.5 -166.5t-180.5 -54.5h-45v-255h-91v617h-20q-26 0 -37.5 -12.5t-11.5 -39.5q0 -34 19 -75l-60 -29q-18 25 -27.5 51t-9.5 60q0 52 31 84.5t96 32.5h154q121 0 183.5 -54zM403 359.5q36 32.5 36 115.5q0 75 -36.5 108.5
t-112.5 33.5h-45v-290h45q77 0 113 32.5z" />
    <glyph glyph-name="Thorn" unicode="&#xde;" horiz-adv-x="476" 
d="M394.5 516q61.5 -54 61.5 -162q0 -115 -62.5 -170.5t-176.5 -55.5h-50v-128h-91v689h91v-119h46q120 0 181.5 -54zM325 234q36 34 36 119q0 76 -36.5 111t-112.5 35h-45v-299h45q77 0 113 34z" />
    <glyph glyph-name="Q" unicode="Q" horiz-adv-x="575" 
d="M560 -31l-61 -71q-45 53 -91.5 73t-123.5 20q-109 0 -174 89t-65 263q0 177 65 267t178 90t177.5 -89t64.5 -267q0 -126 -34.5 -196t-100.5 -109q91 -3 165 -70zM179 128q38 -65 109 -65q72 0 109 64.5t37 216.5q0 151 -37 216.5t-109 65.5t-109.5 -66t-37.5 -217
q0 -150 38 -215z" />
    <glyph glyph-name="uni024A" unicode="&#x24a;" horiz-adv-x="554" 
d="M619 -175q-43 -37 -101 -37t-94.5 34.5t-36.5 98.5v120q-50 -53 -126 -53q-96 0 -156 83.5t-60 256.5q0 122 30 206t79.5 125t110.5 41q76 0 126 -57l6 46h81v-770q0 -58 45 -58q17 0 30 4t28 14zM336.5 77.5q27.5 14.5 50.5 42.5v448q-43 58 -107 58q-139 0 -139 -298
q0 -147 34.5 -206t96.5 -59q37 0 64.5 14.5z" />
    <glyph glyph-name="R" unicode="R" horiz-adv-x="502" 
d="M384 0l-134 295q-7 -1 -21 -1h-62v-294h-91v689h138q121 0 180 -50t59 -144q0 -66 -31 -113.5t-89 -69.5l151 -312h-100zM325 395.5q32 31.5 32 99.5q0 63 -33 92.5t-111 29.5h-46v-253h54q72 0 104 31.5z" />
    <glyph glyph-name="Racute" unicode="&#x154;" horiz-adv-x="502" 
d="M384 0l-134 295q-7 -1 -21 -1h-62v-294h-91v689h138q121 0 180 -50t59 -144q0 -66 -31 -113.5t-89 -69.5l151 -312h-100zM325 395.5q32 31.5 32 99.5q0 63 -33 92.5t-111 29.5h-46v-253h54q72 0 104 31.5zM313 908l37 -74l-181 -79l-23 48z" />
    <glyph glyph-name="Rcaron" unicode="&#x158;" horiz-adv-x="502" 
d="M384 0l-134 295q-7 -1 -21 -1h-62v-294h-91v689h138q121 0 180 -50t59 -144q0 -66 -31 -113.5t-89 -69.5l151 -312h-100zM325 395.5q32 31.5 32 99.5q0 63 -33 92.5t-111 29.5h-46v-253h54q72 0 104 31.5zM353 904l35 -38l-112 -112h-56l-112 112l36 38l104 -80z" />
    <glyph glyph-name="Rcommaaccent" unicode="&#x156;" horiz-adv-x="502" 
d="M384 0l-134 295q-7 -1 -21 -1h-62v-294h-91v689h138q121 0 180 -50t59 -144q0 -66 -31 -113.5t-89 -69.5l151 -312h-100zM325 395.5q32 31.5 32 99.5q0 63 -33 92.5t-111 29.5h-46v-253h54q72 0 104 31.5zM292.5 -93.5q14.5 -15.5 14.5 -38.5q0 -13 -4.5 -28.5
t-16.5 -47.5l-35 -86h-48l28 116q-27 16 -27 46q0 23 14.5 38.5t37.5 15.5q22 0 36.5 -15.5z" />
    <glyph glyph-name="uni0210" unicode="&#x210;" horiz-adv-x="502" 
d="M384 0l-134 295q-7 -1 -21 -1h-62v-294h-91v689h138q121 0 180 -50t59 -144q0 -66 -31 -113.5t-89 -69.5l151 -312h-100zM325 395.5q32 31.5 32 99.5q0 63 -33 92.5t-111 29.5h-46v-253h54q72 0 104 31.5zM144 953l70 -170l-49 -22l-90 155zM271 953l63 -165l-49 -22
l-82 150z" />
    <glyph glyph-name="uni1E5A" unicode="&#x1e5a;" horiz-adv-x="502" 
d="M384 0l-134 295q-7 -1 -21 -1h-62v-294h-91v689h138q121 0 180 -50t59 -144q0 -66 -31 -113.5t-89 -69.5l151 -312h-100zM325 395.5q32 31.5 32 99.5q0 63 -33 92.5t-111 29.5h-46v-253h54q72 0 104 31.5zM212 -179q-16 17 -16 44q0 25 16.5 42t42.5 17t42.5 -17
t16.5 -42q0 -26 -16.5 -43.5t-42.5 -17.5q-27 0 -43 17z" />
    <glyph glyph-name="uni0212" unicode="&#x212;" horiz-adv-x="502" 
d="M384 0l-134 295q-7 -1 -21 -1h-62v-294h-91v689h138q121 0 180 -50t59 -144q0 -66 -31 -113.5t-89 -69.5l151 -312h-100zM325 395.5q32 31.5 32 99.5q0 63 -33 92.5t-111 29.5h-46v-253h54q72 0 104 31.5zM336 886.5q34 -33.5 39 -97.5l-54 -12q-16 77 -74 77
q-56 0 -72 -77l-54 12q5 64 38.5 97.5t87.5 33.5q55 0 89 -33.5z" />
    <glyph glyph-name="uni024C" unicode="&#x24c;" horiz-adv-x="515" 
d="M397 0l-134 295q-7 -1 -21 -1h-62v-294h-91v294h-69v70h69v325h138q121 0 180 -50t59 -144q0 -66 -31 -113.5t-89 -69.5l151 -312h-100zM338 395.5q32 31.5 32 99.5q0 63 -33 92.5t-111 29.5h-46v-253h54q72 0 104 31.5z" />
    <glyph glyph-name="uni2C64" unicode="&#x2c64;" horiz-adv-x="502" 
d="M212 -139q17 0 30 4t28 14l38 -54q-43 -37 -101 -37t-94.5 34.5t-36.5 98.5v768h138q121 0 180 -50t59 -144q0 -66 -31 -113.5t-89 -69.5l151 -312h-100l-134 295q-7 -1 -21 -1h-62v-375q0 -58 45 -58zM167 617v-253h54q72 0 104 31.5t32 99.5q0 63 -33 92.5t-111 29.5
h-46z" />
    <glyph glyph-name="uni2C64.ss01" horiz-adv-x="346" 
d="M211 577.5q-29 -33.5 -44 -100.5v-476h1v-82q0 -58 45 -58q17 0 30 4t28 14l38 -54q-43 -37 -101 -37t-94.5 34.5t-36.5 98.5v79h-1v689h79l7 -88q40 99 134 99q32 0 55 -10l-19 -85q-26 6 -46 6q-46 0 -75 -33.5z" />
    <glyph glyph-name="S" unicode="S" horiz-adv-x="450" 
d="M323.5 680.5q42.5 -19.5 78.5 -59.5l-48 -52q-31 30 -61 43.5t-66 13.5q-43 0 -69.5 -27.5t-26.5 -72.5q0 -44 25.5 -72t96.5 -55q82 -31 124 -77t42 -131q0 -55 -25.5 -101.5t-72.5 -74t-109 -27.5t-110 23t-87 66l49 52q35 -32 69.5 -49t76.5 -17q52 0 83 34t31 92
q0 50 -25 80t-93 55q-87 33 -127.5 80t-40.5 118q0 49 24 90t67 64.5t97 23.5q55 0 97.5 -19.5z" />
    <glyph glyph-name="Sacute" unicode="&#x15a;" horiz-adv-x="450" 
d="M323.5 680.5q42.5 -19.5 78.5 -59.5l-48 -52q-31 30 -61 43.5t-66 13.5q-43 0 -69.5 -27.5t-26.5 -72.5q0 -44 25.5 -72t96.5 -55q82 -31 124 -77t42 -131q0 -55 -25.5 -101.5t-72.5 -74t-109 -27.5t-110 23t-87 66l49 52q35 -32 69.5 -49t76.5 -17q52 0 83 34t31 92
q0 50 -25 80t-93 55q-87 33 -127.5 80t-40.5 118q0 49 24 90t67 64.5t97 23.5q55 0 97.5 -19.5zM292 908l37 -74l-181 -79l-23 48z" />
    <glyph glyph-name="Sacute.loclPLK" horiz-adv-x="450" 
d="M323.5 680.5q42.5 -19.5 78.5 -59.5l-48 -52q-31 30 -61 43.5t-66 13.5q-43 0 -69.5 -27.5t-26.5 -72.5q0 -44 25.5 -72t96.5 -55q82 -31 124 -77t42 -131q0 -55 -25.5 -101.5t-72.5 -74t-109 -27.5t-110 23t-87 66l49 52q35 -32 69.5 -49t76.5 -17q52 0 83 34t31 92
q0 50 -25 80t-93 55q-87 33 -127.5 80t-40.5 118q0 49 24 90t67 64.5t97 23.5q55 0 97.5 -19.5zM264 924l67 -45l-109 -145l-42 27z" />
    <glyph glyph-name="uniA78B" unicode="&#xa78b;" horiz-adv-x="200" 
d="M64 348l-11 341h94l-12 -341h-71z" />
    <glyph glyph-name="Scaron" unicode="&#x160;" horiz-adv-x="450" 
d="M323.5 680.5q42.5 -19.5 78.5 -59.5l-48 -52q-31 30 -61 43.5t-66 13.5q-43 0 -69.5 -27.5t-26.5 -72.5q0 -44 25.5 -72t96.5 -55q82 -31 124 -77t42 -131q0 -55 -25.5 -101.5t-72.5 -74t-109 -27.5t-110 23t-87 66l49 52q35 -32 69.5 -49t76.5 -17q52 0 83 34t31 92
q0 50 -25 80t-93 55q-87 33 -127.5 80t-40.5 118q0 49 24 90t67 64.5t97 23.5q55 0 97.5 -19.5zM332 904l35 -38l-112 -112h-56l-112 112l36 38l104 -80z" />
    <glyph glyph-name="Scedilla" unicode="&#x15e;" horiz-adv-x="450" 
d="M372 58q-47 -57 -126 -68v-50q78 -12 78 -84q0 -45 -29 -70t-76 -25q-46 0 -79 23l25 46q26 -12 49 -12q18 0 29.5 9.5t11.5 28.5q0 23 -17.5 34t-56.5 11l9 88q-54 4 -96.5 26t-78.5 62l49 52q35 -32 69.5 -49t76.5 -17q52 0 83 34t31 92q0 50 -25 80t-93 55
q-87 33 -127.5 80t-40.5 118q0 49 24 90t67 64.5t97 23.5q55 0 97.5 -19.5t78.5 -59.5l-48 -52q-31 30 -61 43.5t-66 13.5q-43 0 -69.5 -27.5t-26.5 -72.5q0 -44 25.5 -72t96.5 -55q82 -31 124 -77t42 -131q0 -76 -47 -133z" />
    <glyph glyph-name="Scircumflex" unicode="&#x15c;" horiz-adv-x="450" 
d="M323.5 680.5q42.5 -19.5 78.5 -59.5l-48 -52q-31 30 -61 43.5t-66 13.5q-43 0 -69.5 -27.5t-26.5 -72.5q0 -44 25.5 -72t96.5 -55q82 -31 124 -77t42 -131q0 -55 -25.5 -101.5t-72.5 -74t-109 -27.5t-110 23t-87 66l49 52q35 -32 69.5 -49t76.5 -17q52 0 83 34t31 92
q0 50 -25 80t-93 55q-87 33 -127.5 80t-40.5 118q0 49 24 90t67 64.5t97 23.5q55 0 97.5 -19.5zM121 761l-35 38l112 112h56l112 -112l-36 -38l-104 80z" />
    <glyph glyph-name="Scommaaccent" unicode="&#x218;" horiz-adv-x="450" 
d="M323.5 680.5q42.5 -19.5 78.5 -59.5l-48 -52q-31 30 -61 43.5t-66 13.5q-43 0 -69.5 -27.5t-26.5 -72.5q0 -44 25.5 -72t96.5 -55q82 -31 124 -77t42 -131q0 -55 -25.5 -101.5t-72.5 -74t-109 -27.5t-110 23t-87 66l49 52q35 -32 69.5 -49t76.5 -17q52 0 83 34t31 92
q0 50 -25 80t-93 55q-87 33 -127.5 80t-40.5 118q0 49 24 90t67 64.5t97 23.5q55 0 97.5 -19.5zM256.5 -93.5q14.5 -15.5 14.5 -38.5q0 -13 -4.5 -28.5t-16.5 -47.5l-35 -86h-48l28 116q-27 16 -27 46q0 23 14.5 38.5t37.5 15.5q22 0 36.5 -15.5z" />
    <glyph glyph-name="uni1E60" unicode="&#x1e60;" horiz-adv-x="450" 
d="M323.5 680.5q42.5 -19.5 78.5 -59.5l-48 -52q-31 30 -61 43.5t-66 13.5q-43 0 -69.5 -27.5t-26.5 -72.5q0 -44 25.5 -72t96.5 -55q82 -31 124 -77t42 -131q0 -55 -25.5 -101.5t-72.5 -74t-109 -27.5t-110 23t-87 66l49 52q35 -32 69.5 -49t76.5 -17q52 0 83 34t31 92
q0 50 -25 80t-93 55q-87 33 -127.5 80t-40.5 118q0 49 24 90t67 64.5t97 23.5q55 0 97.5 -19.5zM269 886q16 -17 16 -44q0 -25 -16.5 -42t-42.5 -17t-42.5 17t-16.5 42q0 26 16.5 43.5t42.5 17.5q27 0 43 -17z" />
    <glyph glyph-name="uni1E62" unicode="&#x1e62;" horiz-adv-x="450" 
d="M323.5 680.5q42.5 -19.5 78.5 -59.5l-48 -52q-31 30 -61 43.5t-66 13.5q-43 0 -69.5 -27.5t-26.5 -72.5q0 -44 25.5 -72t96.5 -55q82 -31 124 -77t42 -131q0 -55 -25.5 -101.5t-72.5 -74t-109 -27.5t-110 23t-87 66l49 52q35 -32 69.5 -49t76.5 -17q52 0 83 34t31 92
q0 50 -25 80t-93 55q-87 33 -127.5 80t-40.5 118q0 49 24 90t67 64.5t97 23.5q55 0 97.5 -19.5zM176 -179q-16 17 -16 44q0 25 16.5 42t42.5 17t42.5 -17t16.5 -42q0 -26 -16.5 -43.5t-42.5 -17.5q-27 0 -43 17z" />
    <glyph glyph-name="uni1E9E" unicode="&#x1e9e;" horiz-adv-x="542" 
d="M472 638v-60l-140 -190q177 -31 177 -195q0 -95 -51.5 -150t-135.5 -55q-63 0 -99 23l28 65q30 -13 63 -13q48 0 74 33t26 96q0 70 -40.5 102t-122.5 33v72l145 201q-70 26 -134 26q-46 0 -70.5 -31t-24.5 -86v-509h-91v509q0 88 47.5 139.5t135.5 51.5q103 0 213 -62z
" />
    <glyph glyph-name="uni018F" unicode="&#x18f;" horiz-adv-x="536" 
d="M431.5 618q59.5 -82 59.5 -263q0 -191 -61 -279t-168 -88q-114 0 -170.5 84t-56.5 263q0 23 3 50h360q-4 134 -39.5 187.5t-103.5 53.5q-41 0 -74 -16.5t-69 -46.5l-45 53q42 43 88.5 63.5t104.5 20.5q112 0 171.5 -82zM358 117q34 56 39 195h-273q0 -137 35 -194
t100 -57t99 56z" />
    <glyph glyph-name="T" unicode="T" horiz-adv-x="428" 
d="M422 689l-10 -76h-153v-613h-91v613h-157v76h411z" />
    <glyph glyph-name="Tbar" unicode="&#x166;" horiz-adv-x="428" 
d="M412 611h-153v-224h99v-68h-99v-321h-91v321h-99v68h99v224h-157v76h411z" />
    <glyph glyph-name="Tcaron" unicode="&#x164;" horiz-adv-x="428" 
d="M422 689l-10 -76h-153v-613h-91v613h-157v76h411zM319 904l35 -38l-112 -112h-56l-112 112l36 38l104 -80z" />
    <glyph glyph-name="uni0162" unicode="&#x162;" horiz-adv-x="428" 
d="M319 -84.5q20 -23.5 20 -56.5q0 -47 -30 -72.5t-78 -25.5t-76 23l23 50q27 -16 48 -16q20 0 32 10t12 31q0 42 -74 42l10 99h-38v613h-157v76h411l-10 -76h-153v-670q40 -4 60 -27.5z" />
    <glyph glyph-name="uni1E70" unicode="&#x1e70;" horiz-adv-x="428" 
d="M422 689l-10 -76h-153v-613h-91v613h-157v76h411zM110 -222l-35 38l112 116h56l112 -116l-36 -38l-104 84z" />
    <glyph glyph-name="uni021A" unicode="&#x21a;" horiz-adv-x="428" 
d="M422 689l-10 -76h-153v-613h-91v613h-157v76h411zM251.5 -93.5q14.5 -15.5 14.5 -38.5q0 -13 -4.5 -28.5t-16.5 -47.5l-35 -86h-48l28 116q-27 16 -27 46q0 23 14.5 38.5t37.5 15.5q22 0 36.5 -15.5z" />
    <glyph glyph-name="uni023E" unicode="&#x23e;" horiz-adv-x="428" 
d="M412 611h-76l-80 -242v-369h-85v112l-60 -182l-39 13l99 300v368h-160v78h307l22 66l39 -13l-17 -53h60zM256 500l36 111h-36v-111z" />
    <glyph glyph-name="uni1E6A" unicode="&#x1e6a;" horiz-adv-x="428" 
d="M422 689l-10 -76h-153v-613h-91v613h-157v76h411zM256 886q16 -17 16 -44q0 -25 -16.5 -42t-42.5 -17t-42.5 17t-16.5 42q0 26 16.5 43.5t42.5 17.5q27 0 43 -17z" />
    <glyph glyph-name="uni1E6C" unicode="&#x1e6c;" horiz-adv-x="428" 
d="M422 689l-10 -76h-153v-613h-91v613h-157v76h411zM171 -179q-16 17 -16 44q0 25 16.5 42t42.5 17t42.5 -17t16.5 -42q0 -26 -16.5 -43.5t-42.5 -17.5q-27 0 -43 17z" />
    <glyph glyph-name="uni01AC" unicode="&#x1ac;" horiz-adv-x="461" 
d="M446 611h-153v-611h-91v611h-74q-20 0 -31 -13t-11 -35q0 -34 18 -70l-63 -33q-34 52 -34 106q0 58 34 90.5t97 32.5h317z" />
    <glyph glyph-name="uni1E6E" unicode="&#x1e6e;" horiz-adv-x="428" 
d="M422 689l-10 -76h-153v-613h-91v613h-157v76h411zM328 -170h-228v64h228v-64z" />
    <glyph glyph-name="uni01BC" unicode="&#x1bc;" horiz-adv-x="429" 
d="M360 619h-218v-210q21 14 42 20t47 6q73 0 117.5 -57t44.5 -159q0 -68 -25 -120.5t-71 -81.5t-105 -29q-54 0 -94 21t-77 64l52 47q27 -31 54.5 -45.5t62.5 -14.5q53 0 82.5 40.5t29.5 120.5q0 81 -26 114t-73 33q-23 0 -41.5 -6t-38.5 -18h-65v345h314z" />
    <glyph glyph-name="uni0184" unicode="&#x184;" horiz-adv-x="476" 
d="M396.5 381q59.5 -53 59.5 -159q0 -116 -58.5 -169t-168.5 -53h-153v527l-56 41q39 45 68 121h79v-255h60q110 0 169.5 -53zM328 105q32 32 32 116q0 77 -32 109.5t-101 32.5h-60v-290h63q66 0 98 32z" />
    <glyph glyph-name="uni01A7" unicode="&#x1a7;" horiz-adv-x="443" 
d="M363.5 653.5q49.5 -46.5 49.5 -124.5q0 -77 -40 -121t-129 -78q-68 -26 -93 -58t-25 -88q0 -58 29 -89.5t78 -31.5q43 0 78 16.5t69 47.5l48 -50q-79 -89 -196 -89q-60 0 -106 25t-70.5 70t-24.5 101q0 60 20.5 100t56 64.5t89.5 45.5q49 19 75 37t36 40.5t10 57.5
q0 49 -24 73t-66 24q-38 0 -69 -13.5t-63 -42.5l-47 51q40 40 84 59.5t99 19.5q82 0 131.5 -46.5z" />
    <glyph glyph-name="uni01AE" unicode="&#x1ae;" horiz-adv-x="428" 
d="M304 -139q17 0 30 4t28 14l38 -54q-43 -37 -101 -37t-94.5 34.5t-36.5 98.5v692h-157v76h411l-10 -76h-153v-694q0 -58 45 -58z" />
    <glyph glyph-name="U" unicode="U" horiz-adv-x="538" 
d="M472 185q0 -55 -23.5 -100t-69.5 -71t-110 -26q-97 0 -150 55.5t-53 141.5v504h91v-497q0 -127 112 -127t112 127v497h91v-504z" />
    <glyph glyph-name="Uacute" unicode="&#xda;" horiz-adv-x="538" 
d="M472 185q0 -55 -23.5 -100t-69.5 -71t-110 -26q-97 0 -150 55.5t-53 141.5v504h91v-497q0 -127 112 -127t112 127v497h91v-504zM334 908l37 -74l-181 -79l-23 48z" />
    <glyph glyph-name="uni0244" unicode="&#x244;" horiz-adv-x="563" 
d="M538 509h-54v-324q0 -55 -23.5 -100t-69.5 -71t-110 -26q-97 0 -150 55.5t-53 141.5v324h-53v66h53v114h91v-114h224v114h91v-114h54v-66zM393 509h-224v-317q0 -127 112 -127t112 127v317z" />
    <glyph glyph-name="Ubreve" unicode="&#x16c;" horiz-adv-x="538" 
d="M472 185q0 -55 -23.5 -100t-69.5 -71t-110 -26q-97 0 -150 55.5t-53 141.5v504h91v-497q0 -127 112 -127t112 127v497h91v-504zM181 790.5q-34 31.5 -39 88.5l54 13q15 -66 72 -66q29 0 48 17t26 49l54 -13q-5 -57 -39.5 -88.5t-88.5 -31.5q-53 0 -87 31.5z" />
    <glyph glyph-name="uni01D3" unicode="&#x1d3;" horiz-adv-x="538" 
d="M472 185q0 -55 -23.5 -100t-69.5 -71t-110 -26q-97 0 -150 55.5t-53 141.5v504h91v-497q0 -127 112 -127t112 127v497h91v-504zM374 904l35 -38l-112 -112h-56l-112 112l36 38l104 -80z" />
    <glyph glyph-name="Ucircumflex" unicode="&#xdb;" horiz-adv-x="538" 
d="M472 185q0 -55 -23.5 -100t-69.5 -71t-110 -26q-97 0 -150 55.5t-53 141.5v504h91v-497q0 -127 112 -127t112 127v497h91v-504zM163 761l-35 38l112 112h56l112 -112l-36 -38l-104 80z" />
    <glyph glyph-name="uni0214" unicode="&#x214;" horiz-adv-x="538" 
d="M472 185q0 -55 -23.5 -100t-69.5 -71t-110 -26q-97 0 -150 55.5t-53 141.5v504h91v-497q0 -127 112 -127t112 127v497h91v-504zM165 953l70 -170l-49 -22l-90 155zM292 953l63 -165l-49 -22l-82 150z" />
    <glyph glyph-name="Udieresis" unicode="&#xdc;" horiz-adv-x="538" 
d="M472 185q0 -55 -23.5 -100t-69.5 -71t-110 -26q-97 0 -150 55.5t-53 141.5v504h91v-497q0 -127 112 -127t112 127v497h91v-504zM226 875q15 -16 15 -39t-15 -39t-38 -16t-38 16t-15 39t15 39t38 16t38 -16zM401 875q15 -16 15 -39t-15 -39t-38 -16q-22 0 -37.5 16
t-15.5 39t15.5 39t37.5 16q23 0 38 -16z" />
    <glyph glyph-name="uni01D7" unicode="&#x1d7;" horiz-adv-x="538" 
d="M472 185q0 -55 -23.5 -100t-69.5 -71t-110 -26q-97 0 -150 55.5t-53 141.5v504h91v-497q0 -127 112 -127t112 127v497h91v-504zM341 1010l58 -48l-122 -130l-37 32zM219 840q15 -16 15 -39t-15 -39t-38 -16t-38 16t-15 39t15 39t38 16t38 -16zM394 840q15 -16 15 -39
t-15 -39t-38 -16q-22 0 -37.5 16t-15.5 39t15.5 39t37.5 16q23 0 38 -16z" />
    <glyph glyph-name="uni01D9" unicode="&#x1d9;" horiz-adv-x="538" 
d="M472 185q0 -55 -23.5 -100t-69.5 -71t-110 -26q-97 0 -150 55.5t-53 141.5v504h91v-497q0 -127 112 -127t112 127v497h91v-504zM372 1011l35 -38l-112 -112h-56l-112 112l36 38l104 -80zM219 840q15 -16 15 -39t-15 -39t-38 -16t-38 16t-15 39t15 39t38 16t38 -16z
M394 840q15 -16 15 -39t-15 -39t-38 -16q-22 0 -37.5 16t-15.5 39t15.5 39t37.5 16q23 0 38 -16z" />
    <glyph glyph-name="uni01DB" unicode="&#x1db;" horiz-adv-x="538" 
d="M472 185q0 -55 -23.5 -100t-69.5 -71t-110 -26q-97 0 -150 55.5t-53 141.5v504h91v-497q0 -127 112 -127t112 127v497h91v-504zM206 1010l103 -146l-39 -32l-122 130zM219 840q15 -16 15 -39t-15 -39t-38 -16t-38 16t-15 39t15 39t38 16t38 -16zM394 840q15 -16 15 -39
t-15 -39t-38 -16q-22 0 -37.5 16t-15.5 39t15.5 39t37.5 16q23 0 38 -16z" />
    <glyph glyph-name="uni01D5" unicode="&#x1d5;" horiz-adv-x="538" 
d="M472 185q0 -55 -23.5 -100t-69.5 -71t-110 -26q-97 0 -150 55.5t-53 141.5v504h91v-497q0 -127 112 -127t112 127v497h91v-504zM220 840q15 -16 15 -39t-15 -39t-38 -16t-38 16t-15 39t15 39t38 16t38 -16zM395 840q15 -16 15 -39t-15 -39t-38 -16q-22 0 -37.5 16
t-15.5 39t15.5 39t37.5 16q23 0 38 -16zM384 905h-228v64h228v-64z" />
    <glyph glyph-name="uni1EE4" unicode="&#x1ee4;" horiz-adv-x="538" 
d="M472 185q0 -55 -23.5 -100t-69.5 -71t-110 -26q-97 0 -150 55.5t-53 141.5v504h91v-497q0 -127 112 -127t112 127v497h91v-504zM226 -179q-16 17 -16 44q0 25 16.5 42t42.5 17t42.5 -17t16.5 -42q0 -26 -16.5 -43.5t-42.5 -17.5q-27 0 -43 17z" />
    <glyph glyph-name="Ugrave" unicode="&#xd9;" horiz-adv-x="538" 
d="M472 185q0 -55 -23.5 -100t-69.5 -71t-110 -26q-97 0 -150 55.5t-53 141.5v504h91v-497q0 -127 112 -127t112 127v497h91v-504zM197 908l168 -105l-23 -48l-181 79z" />
    <glyph glyph-name="uni1EE6" unicode="&#x1ee6;" horiz-adv-x="538" 
d="M472 185q0 -55 -23.5 -100t-69.5 -71t-110 -26q-97 0 -150 55.5t-53 141.5v504h91v-497q0 -127 112 -127t112 127v497h91v-504zM238 847q32 5 45 13t13 30q0 37 -35 37q-22 0 -48 -13l-18 49q34 24 79 24q44 0 67.5 -24t23.5 -66q0 -36 -17.5 -57.5t-48.5 -27.5v-48h-61
v83z" />
    <glyph glyph-name="Uhorn" unicode="&#x1af;" horiz-adv-x="567" 
d="M550 612.5q-27 -25.5 -78 -30.5v-397q0 -55 -23.5 -100t-69.5 -71t-110 -26q-97 0 -150 55.5t-53 141.5v504h91v-497q0 -127 112 -127t112 127v497h91v-53q19 4 28 16t9 34q0 38 -12 72l63 15q17 -40 17 -86q0 -49 -27 -74.5z" />
    <glyph glyph-name="uni1EE8" unicode="&#x1ee8;" horiz-adv-x="567" 
d="M371 834l-181 -79l-23 48l167 105zM550 612.5q-27 -25.5 -78 -30.5v-397q0 -55 -23.5 -100t-69.5 -71t-110 -26q-97 0 -150 55.5t-53 141.5v504h91v-497q0 -127 112 -127t112 127v497h91v-53q19 4 28 16t9 34q0 38 -12 72l63 15q17 -40 17 -86q0 -49 -27 -74.5z" />
    <glyph glyph-name="uni1EF0" unicode="&#x1ef0;" horiz-adv-x="567" 
d="M550 612.5q-27 -25.5 -78 -30.5v-397q0 -55 -23.5 -100t-69.5 -71t-110 -26q-97 0 -150 55.5t-53 141.5v504h91v-497q0 -127 112 -127t112 127v497h91v-53q19 4 28 16t9 34q0 38 -12 72l63 15q17 -40 17 -86q0 -49 -27 -74.5zM311.5 -93q16.5 -17 16.5 -42
q0 -26 -16.5 -43.5t-42.5 -17.5q-27 0 -43 17t-16 44q0 25 16.5 42t42.5 17t42.5 -17z" />
    <glyph glyph-name="uni1EEA" unicode="&#x1eea;" horiz-adv-x="567" 
d="M365 803l-23 -48l-181 79l36 74zM550 612.5q-27 -25.5 -78 -30.5v-397q0 -55 -23.5 -100t-69.5 -71t-110 -26q-97 0 -150 55.5t-53 141.5v504h91v-497q0 -127 112 -127t112 127v497h91v-53q19 4 28 16t9 34q0 38 -12 72l63 15q17 -40 17 -86q0 -49 -27 -74.5z" />
    <glyph glyph-name="uni1EEC" unicode="&#x1eec;" horiz-adv-x="567" 
d="M213 914l-18 49q34 24 79 24q44 0 67.5 -24t23.5 -66q0 -36 -17.5 -57.5t-48.5 -27.5v-48h-61v83q32 5 45 13t13 30q0 37 -35 37q-22 0 -48 -13zM550 612.5q-27 -25.5 -78 -30.5v-397q0 -55 -23.5 -100t-69.5 -71t-110 -26q-97 0 -150 55.5t-53 141.5v504h91v-497
q0 -127 112 -127t112 127v497h91v-53q19 4 28 16t9 34q0 38 -12 72l63 15q17 -40 17 -86q0 -49 -27 -74.5z" />
    <glyph glyph-name="uni1EEE" unicode="&#x1eee;" horiz-adv-x="567" 
d="M199 820.5q-10 -10.5 -22 -34.5l-48 23q15 40 38 62.5t52 22.5q17 0 30 -6.5t29 -18.5q25 -19 39 -19q12 0 22 10t22 33l49 -22q-29 -84 -90 -84q-16 0 -28.5 6.5t-31.5 19.5q-9 7 -19 12.5t-19 5.5q-13 0 -23 -10.5zM550 612.5q-27 -25.5 -78 -30.5v-397
q0 -55 -23.5 -100t-69.5 -71t-110 -26q-97 0 -150 55.5t-53 141.5v504h91v-497q0 -127 112 -127t112 127v497h91v-53q19 4 28 16t9 34q0 38 -12 72l63 15q17 -40 17 -86q0 -49 -27 -74.5z" />
    <glyph glyph-name="Uhungarumlaut" unicode="&#x170;" horiz-adv-x="538" 
d="M472 185q0 -55 -23.5 -100t-69.5 -71t-110 -26q-97 0 -150 55.5t-53 141.5v504h91v-497q0 -127 112 -127t112 127v497h91v-504zM239 953l68 -37l-82 -150l-49 22zM366 953l69 -37l-90 -155l-49 22z" />
    <glyph glyph-name="uni0216" unicode="&#x216;" horiz-adv-x="538" 
d="M472 185q0 -55 -23.5 -100t-69.5 -71t-110 -26q-97 0 -150 55.5t-53 141.5v504h91v-497q0 -127 112 -127t112 127v497h91v-504zM357 886.5q34 -33.5 39 -97.5l-54 -12q-16 77 -74 77q-56 0 -72 -77l-54 12q5 64 38.5 97.5t87.5 33.5q55 0 89 -33.5z" />
    <glyph glyph-name="Umacron" unicode="&#x16a;" horiz-adv-x="538" 
d="M472 185q0 -55 -23.5 -100t-69.5 -71t-110 -26q-97 0 -150 55.5t-53 141.5v504h91v-497q0 -127 112 -127t112 127v497h91v-504zM383 795h-228v64h228v-64z" />
    <glyph glyph-name="Uogonek" unicode="&#x172;" horiz-adv-x="538" 
d="M472 689v-504q0 -67 -34 -117.5t-97 -69.5q-55 -29 -75 -55.5t-20 -56.5q0 -49 46 -49q22 0 50 7l-8 -67q-30 -7 -53 -7q-48 0 -77 28t-29 72q0 37 21.5 67.5t61.5 50.5q-92 4 -142 59t-50 138v504h91v-497q0 -127 112 -127t112 127v497h91z" />
    <glyph glyph-name="uni01B1" unicode="&#x1b1;" horiz-adv-x="567" 
d="M105.5 69.5q-64.5 81.5 -64.5 235.5q0 118 28 187.5t79 121.5h-89v75h172v-75q-48 -52 -71 -121.5t-23 -187.5q0 -128 37.5 -185t109.5 -57q71 0 108.5 57.5t37.5 185.5q0 115 -23.5 185t-69.5 123v75h172v-75h-90q50 -44 78.5 -115t28.5 -193q0 -100 -30 -172
t-84.5 -109t-127.5 -37q-114 0 -178.5 81.5z" />
    <glyph glyph-name="Uring" unicode="&#x16e;" horiz-adv-x="538" 
d="M472 185q0 -55 -23.5 -100t-69.5 -71t-110 -26q-97 0 -150 55.5t-53 141.5v504h91v-497q0 -127 112 -127t112 127v497h91v-504zM340.5 932q26.5 -28 26.5 -76q0 -49 -26.5 -77t-71.5 -28t-71.5 28t-26.5 77q0 48 26.5 76t71.5 28t71.5 -28zM237 900.5
q-11 -13.5 -11 -44.5q0 -32 11 -45.5t32 -13.5q43 0 43 59q0 31 -11 44.5t-32 13.5t-32 -13.5z" />
    <glyph glyph-name="Utilde" unicode="&#x168;" horiz-adv-x="538" 
d="M472 185q0 -55 -23.5 -100t-69.5 -71t-110 -26q-97 0 -150 55.5t-53 141.5v504h91v-497q0 -127 112 -127t112 127v497h91v-504zM291.5 793.5q-12.5 6.5 -31.5 19.5q-9 7 -19 12.5t-19 5.5q-13 0 -23 -10.5t-22 -34.5l-48 23q15 40 38 62.5t52 22.5q17 0 30 -6.5t29 -18.5
q25 -19 39 -19q12 0 22 10t22 33l49 -22q-29 -84 -90 -84q-16 0 -28.5 6.5z" />
    <glyph glyph-name="uni1E78" unicode="&#x1e78;" horiz-adv-x="538" 
d="M472 185q0 -55 -23.5 -100t-69.5 -71t-110 -26q-97 0 -150 55.5t-53 141.5v504h91v-497q0 -127 112 -127t112 127v497h91v-504zM291.5 768.5q-12.5 6.5 -31.5 19.5q-9 7 -19 12.5t-19 5.5q-13 0 -23 -10.5t-22 -34.5l-48 23q15 40 38 62.5t52 22.5q17 0 30 -6.5t29 -18.5
q25 -19 39 -19q12 0 22 10t22 33l49 -22q-29 -84 -90 -84q-16 0 -28.5 6.5zM334 1048l37 -74l-181 -79l-23 48z" />
    <glyph glyph-name="V" unicode="V" horiz-adv-x="472" 
d="M464 689l-174 -689h-105l-177 689h92l139 -591l136 591h89z" />
    <glyph glyph-name="uni01B2" unicode="&#x1b2;" horiz-adv-x="538" 
d="M445.5 670.5q26.5 -29.5 26.5 -84.5v-316q0 -86 -27 -149.5t-76.5 -98t-115.5 -34.5q-57 0 -99.5 24.5t-65 68t-22.5 98.5v510h91v-505q0 -58 25 -88.5t71 -30.5q61 0 94.5 53t33.5 152v315q0 21 -7 31.5t-23 10.5t-29 -5l-19 63q34 15 66 15q50 0 76.5 -29.5z" />
    <glyph glyph-name="uni0245" unicode="&#x245;" horiz-adv-x="487" 
d="M300 689l179 -689h-94l-143 613l-143 -613h-91l179 689h113z" />
    <glyph glyph-name="W" unicode="W" horiz-adv-x="690" 
d="M668 689l-110 -689h-119l-95 580l-96 -580h-117l-109 689h88l83 -609l102 609h100l102 -609l86 609h85z" />
    <glyph glyph-name="Wacute" unicode="&#x1e82;" horiz-adv-x="690" 
d="M668 689l-110 -689h-119l-95 580l-96 -580h-117l-109 689h88l83 -609l102 609h100l102 -609l86 609h85zM410 908l37 -74l-181 -79l-23 48z" />
    <glyph glyph-name="Wcircumflex" unicode="&#x174;" horiz-adv-x="690" 
d="M668 689l-110 -689h-119l-95 580l-96 -580h-117l-109 689h88l83 -609l102 609h100l102 -609l86 609h85zM239 761l-35 38l112 112h56l112 -112l-36 -38l-104 80z" />
    <glyph glyph-name="Wdieresis" unicode="&#x1e84;" horiz-adv-x="690" 
d="M668 689l-110 -689h-119l-95 580l-96 -580h-117l-109 689h88l83 -609l102 609h100l102 -609l86 609h85zM302 875q15 -16 15 -39t-15 -39t-38 -16t-38 16t-15 39t15 39t38 16t38 -16zM477 875q15 -16 15 -39t-15 -39t-38 -16q-22 0 -37.5 16t-15.5 39t15.5 39t37.5 16
q23 0 38 -16z" />
    <glyph glyph-name="Wgrave" unicode="&#x1e80;" horiz-adv-x="690" 
d="M668 689l-110 -689h-119l-95 580l-96 -580h-117l-109 689h88l83 -609l102 609h100l102 -609l86 609h85zM273 908l168 -105l-23 -48l-181 79z" />
    <glyph glyph-name="uni2C72" unicode="&#x2c72;" horiz-adv-x="722" 
d="M131 0h117l96 580l95 -580h119l80 573q4 33 16 45.5t32 12.5q14 0 25 -5t24 -14l32 49q-20 19 -41.5 29t-49.5 10q-102 0 -117 -123l-62 -497l-102 609h-100l-102 -609l-83 609h-88z" />
    <glyph glyph-name="uni01F7" unicode="&#x1f7;" horiz-adv-x="476" 
d="M410.5 649.5q45.5 -50.5 45.5 -139.5q0 -70 -29 -121t-75.5 -86t-114.5 -67l-70 -33v-203h-91v689h91v-46q57 57 127 57q71 0 116.5 -50.5zM326 392q35 47 35 119q0 57 -22.5 86t-63.5 29q-58 0 -108 -53v-294l60 32q64 34 99 81z" />
    <glyph glyph-name="X" unicode="X" horiz-adv-x="449" 
d="M277 372l170 -372h-96l-129 311l-128 -311h-92l167 367l-153 322h96l112 -265l114 265h91z" />
    <glyph glyph-name="Y" unicode="Y" horiz-adv-x="459" 
d="M457 689l-182 -424v-265h-91v264l-182 425h97l133 -344l132 344h93z" />
    <glyph glyph-name="Yacute" unicode="&#xdd;" horiz-adv-x="459" 
d="M457 689l-182 -424v-265h-91v264l-182 425h97l133 -344l132 344h93zM294 908l37 -74l-181 -79l-23 48z" />
    <glyph glyph-name="Ycircumflex" unicode="&#x176;" horiz-adv-x="459" 
d="M457 689l-182 -424v-265h-91v264l-182 425h97l133 -344l132 344h93zM123 761l-35 38l112 112h56l112 -112l-36 -38l-104 80z" />
    <glyph glyph-name="Ydieresis" unicode="&#x178;" horiz-adv-x="459" 
d="M457 689l-182 -424v-265h-91v264l-182 425h97l133 -344l132 344h93zM186 875q15 -16 15 -39t-15 -39t-38 -16t-38 16t-15 39t15 39t38 16t38 -16zM361 875q15 -16 15 -39t-15 -39t-38 -16q-22 0 -37.5 16t-15.5 39t15.5 39t37.5 16q23 0 38 -16z" />
    <glyph glyph-name="uni1EF4" unicode="&#x1ef4;" horiz-adv-x="459" 
d="M457 689l-182 -424v-265h-91v264l-182 425h97l133 -344l132 344h93zM187 -179q-16 17 -16 44q0 25 16.5 42t42.5 17t42.5 -17t16.5 -42q0 -26 -16.5 -43.5t-42.5 -17.5q-27 0 -43 17z" />
    <glyph glyph-name="Ygrave" unicode="&#x1ef2;" horiz-adv-x="459" 
d="M457 689l-182 -424v-265h-91v264l-182 425h97l133 -344l132 344h93zM157 908l168 -105l-23 -48l-181 79z" />
    <glyph glyph-name="uni01B3" unicode="&#x1b3;" horiz-adv-x="484" 
d="M184 264l-182 425h97l132 -344l87 252q19 54 47 78.5t73 24.5q28 0 49.5 -10t41.5 -29l-32 -49q-13 9 -24 14t-25 5q-19 0 -30.5 -12.5t-24.5 -45.5l-118 -308v-265h-91v264z" />
    <glyph glyph-name="uni1EF6" unicode="&#x1ef6;" horiz-adv-x="459" 
d="M457 689l-182 -424v-265h-91v264l-182 425h97l133 -344l132 344h93zM198 847q32 5 45 13t13 30q0 37 -35 37q-22 0 -48 -13l-18 49q34 24 79 24q44 0 67.5 -24t23.5 -66q0 -36 -17.5 -57.5t-48.5 -27.5v-48h-61v83z" />
    <glyph glyph-name="uni0232" unicode="&#x232;" horiz-adv-x="459" 
d="M457 689l-182 -424v-265h-91v264l-182 425h97l133 -344l132 344h93zM343 795h-228v64h228v-64z" />
    <glyph glyph-name="uni01A6" unicode="&#x1a6;" horiz-adv-x="504" 
d="M386 -123l-134 295q-7 -1 -21 -1h-64v-171h-91v689h91v-123h49q121 0 180 -50t59 -144q0 -66 -31 -113.5t-89 -69.5l151 -312h-100zM327 272.5q32 31.5 32 99.5q0 63 -33 92t-111 30l-48 1v-254h56q72 0 104 31.5z" />
    <glyph glyph-name="uni024E" unicode="&#x24e;" horiz-adv-x="459" 
d="M457 689l-37 -86h36v-66h-64l-117 -272v-265h-91v264l-117 273h-62v66h34l-37 86h97l33 -86h199l33 86h93zM232 345l74 192h-148z" />
    <glyph glyph-name="uni1EF8" unicode="&#x1ef8;" horiz-adv-x="459" 
d="M457 689l-182 -424v-265h-91v264l-182 425h97l133 -344l132 344h93zM251.5 793.5q-12.5 6.5 -31.5 19.5q-9 7 -19 12.5t-19 5.5q-13 0 -23 -10.5t-22 -34.5l-48 23q15 40 38 62.5t52 22.5q17 0 30 -6.5t29 -18.5q25 -19 39 -19q12 0 22 10t22 33l49 -22q-29 -84 -90 -84
q-16 0 -28.5 6.5z" />
    <glyph glyph-name="Z" unicode="Z" horiz-adv-x="427" 
d="M399 689v-74l-282 -537h282l-10 -78h-367v73l282 539h-254v77h349z" />
    <glyph glyph-name="Zacute" unicode="&#x179;" horiz-adv-x="427" 
d="M399 689v-74l-282 -537h282l-10 -78h-367v73l282 539h-254v77h349zM288 908l37 -74l-181 -79l-23 48z" />
    <glyph glyph-name="Zacute.loclPLK" horiz-adv-x="427" 
d="M399 689v-74l-282 -537h282l-10 -78h-367v73l282 539h-254v77h349zM260 924l67 -45l-109 -145l-42 27z" />
    <glyph glyph-name="Zcaron" unicode="&#x17d;" horiz-adv-x="427" 
d="M399 689v-74l-282 -537h282l-10 -78h-367v73l282 539h-254v77h349zM328 904l35 -38l-112 -112h-56l-112 112l36 38l104 -80z" />
    <glyph glyph-name="Zdotaccent" unicode="&#x17b;" horiz-adv-x="427" 
d="M399 689v-74l-282 -537h282l-10 -78h-367v73l282 539h-254v77h349zM265 886q16 -17 16 -44q0 -25 -16.5 -42t-42.5 -17t-42.5 17t-16.5 42q0 26 16.5 43.5t42.5 17.5q27 0 43 -17z" />
    <glyph glyph-name="uni1E92" unicode="&#x1e92;" horiz-adv-x="427" 
d="M399 689v-74l-282 -537h282l-10 -78h-367v73l282 539h-254v77h349zM170 -179q-16 17 -16 44q0 25 16.5 42t42.5 17t42.5 -17t16.5 -42q0 -26 -16.5 -43.5t-42.5 -17.5q-27 0 -43 17z" />
    <glyph glyph-name="uni0224" unicode="&#x224;" horiz-adv-x="427" 
d="M399 615l-282 -537h277v-157q0 -64 -37 -98.5t-94 -34.5q-58 0 -101 37l38 55q16 -10 29 -14.5t31 -4.5q45 0 45 58v81h-283v73l282 539h-254v77h349v-74z" />
    <glyph glyph-name="uni01B5" unicode="&#x1b5;" horiz-adv-x="427" 
d="M399 689v-74l-123 -234h80v-70h-117l-122 -233h282l-10 -78h-367v73l125 238h-78v70h114l121 231h-254v77h349z" />
    <glyph glyph-name="uni0299" unicode="&#x299;" horiz-adv-x="465" 
d="M420 156q0 -77 -50 -116.5t-135 -39.5h-162v522q98 16 150 16q81 0 128 -38t47 -104q0 -42 -21 -69t-72 -42q115 -14 115 -129zM161 466v-155h70q80 0 80 81q0 41 -21.5 59.5t-66.5 18.5q-22 0 -62 -4zM304.5 88q24.5 20 24.5 69q0 52 -23.5 71t-68.5 19h-76v-179h74
q45 0 69.5 20z" />
    <glyph glyph-name="uni0262" unicode="&#x262;" horiz-adv-x="468" 
d="M337.5 523q35.5 -16 68.5 -48l-44 -51q-28 22 -52.5 32t-53.5 10q-119 0 -119 -200q0 -117 27 -162t81 -45q39 0 79 20v148h-73l-10 69h168v-255q-77 -52 -163 -52q-99 0 -150 66t-51 211q0 89 28 150.5t75.5 92t107.5 30.5q46 0 81.5 -16z" />
    <glyph glyph-name="uni029B" unicode="&#x29b;" horiz-adv-x="463" 
d="M546 712l-34 -54q-16 10 -28 15t-30 5q-48 0 -48 -62v-141l-42 -47q-31 20 -55.5 29t-52.5 9q-119 0 -119 -200q0 -117 27 -162t81 -45q39 0 79 20v148h-73l-10 69h168v-255q-77 -52 -163 -52q-99 0 -150 66t-51 211q0 89 27.5 150.5t74.5 92t104 30.5q41 0 72 -17v89
q0 65 32.5 101.5t88.5 36.5q57 0 102 -37z" />
    <glyph glyph-name="uni029C" unicode="&#x29c;" horiz-adv-x="488" 
d="M327 0v234h-166v-234h-88v527h88v-222h166v222h88v-527h-88z" />
    <glyph glyph-name="uni026A" unicode="&#x26a;" horiz-adv-x="276" 
d="M256 458h-75v-390h75v-68h-236v68h73v390h-73v69h236v-69z" />
    <glyph glyph-name="uni029F" unicode="&#x29f;" horiz-adv-x="360" 
d="M161 527v-452h189l-10 -75h-267v527h88z" />
    <glyph glyph-name="uni0274" unicode="&#x274;" horiz-adv-x="490" 
d="M417 0h-112l-164 437q6 -58 9 -105t3 -117v-215h-80v527h112l163 -438q-6 46 -8.5 79.5t-2.5 89.5v269h80v-527z" />
    <glyph glyph-name="uni0276" unicode="&#x276;" horiz-adv-x="623" 
d="M598 0h-291q-36 -12 -65 -12q-93 0 -145 73t-52 202q0 133 52 204t146 71q21 0 36.5 -2.5t32.5 -8.5h283l-9 -69h-206q49 -51 58 -156h124v-68h-124q-3 -59 -18.5 -99t-42.5 -67h221v-68zM164 107q26 -48 79 -48q49 0 77 48.5t28 155.5q0 106 -28 155t-77 49
q-53 0 -79 -47.5t-26 -156.5q0 -108 26 -156z" />
    <glyph glyph-name="uni0280" unicode="&#x280;" horiz-adv-x="437" 
d="M320 0l-102 205q-8 -1 -24 -1h-35v-204h-86v527h118q95 0 143.5 -41.5t48.5 -119.5q0 -51 -22 -88.5t-67 -55.5l118 -222h-92zM207 271q43 0 65 21.5t22 73.5q0 49 -25 71t-80 22h-30v-188h48z" />
    <glyph glyph-name="uni0281" unicode="&#x281;" horiz-adv-x="437" 
d="M361 251.5q22 -37.5 22 -90.5q0 -77 -48.5 -119t-143.5 -42h-118v527h86v-204h45h14l102 204h92l-117 -220q44 -18 66 -55.5zM269 90q25 22 25 71q0 52 -22 73.5t-65 21.5h-48v-188h30q55 0 80 22z" />
    <glyph glyph-name="uni028F" unicode="&#x28f;" horiz-adv-x="383" 
d="M385 527l-149 -328v-199h-88v198l-150 329h89l106 -269l105 269h87z" />
    <glyph glyph-name="a" unicode="a" horiz-adv-x="451" 
d="M385 70.5q8 -13.5 26 -21.5l-19 -61q-37 6 -58.5 23.5t-30.5 52.5q-43 -76 -126 -76q-65 0 -103.5 43.5t-38.5 115.5q0 84 52 128.5t151 44.5h52v48q0 52 -20.5 76t-63.5 24q-51 0 -119 -27l-22 62q81 35 152 35q81 0 120.5 -43.5t39.5 -122.5v-260q0 -28 8 -41.5z
M290 138v123h-42q-63 0 -92.5 -27t-29.5 -83q0 -48 18 -72.5t51 -24.5q62 0 95 84z" />
    <glyph glyph-name="a.ss04" horiz-adv-x="494" 
d="M425.5 82q8.5 -15 28.5 -27l-26 -67q-39 11 -59.5 28.5t-30.5 46.5q-47 -75 -127 -75q-76 0 -121 71t-45 202q0 86 22 148.5t61.5 95.5t90.5 33q75 0 117 -68l5 57h76v-400q0 -30 8.5 -45zM284 76q24 18 45 52v272q-19 33 -41 50.5t-50 17.5q-48 0 -74 -48t-26 -157
q0 -110 24 -157.5t68 -47.5q30 0 54 18z" />
    <glyph glyph-name="aacute" unicode="&#xe1;" horiz-adv-x="451" 
d="M385 70.5q8 -13.5 26 -21.5l-19 -61q-37 6 -58.5 23.5t-30.5 52.5q-43 -76 -126 -76q-65 0 -103.5 43.5t-38.5 115.5q0 84 52 128.5t151 44.5h52v48q0 52 -20.5 76t-63.5 24q-51 0 -119 -27l-22 62q81 35 152 35q81 0 120.5 -43.5t39.5 -122.5v-260q0 -28 8 -41.5z
M290 138v123h-42q-63 0 -92.5 -27t-29.5 -83q0 -48 18 -72.5t51 -24.5q62 0 95 84zM277 795l39 -70l-178 -86l-26 44z" />
    <glyph glyph-name="abreve" unicode="&#x103;" horiz-adv-x="451" 
d="M385 70.5q8 -13.5 26 -21.5l-19 -61q-37 6 -58.5 23.5t-30.5 52.5q-43 -76 -126 -76q-65 0 -103.5 43.5t-38.5 115.5q0 84 52 128.5t151 44.5h52v48q0 52 -20.5 76t-63.5 24q-51 0 -119 -27l-22 62q81 35 152 35q81 0 120.5 -43.5t39.5 -122.5v-260q0 -28 8 -41.5z
M290 138v123h-42q-63 0 -92.5 -27t-29.5 -83q0 -48 18 -72.5t51 -24.5q62 0 95 84zM127.5 677.5q-33.5 33.5 -38.5 97.5l54 12q16 -77 72 -77q58 0 74 77l54 -12q-5 -64 -39 -97.5t-89 -33.5q-54 0 -87.5 33.5z" />
    <glyph glyph-name="uni1EAF" unicode="&#x1eaf;" horiz-adv-x="451" 
d="M385 70.5q8 -13.5 26 -21.5l-19 -61q-37 6 -58.5 23.5t-30.5 52.5q-43 -76 -126 -76q-65 0 -103.5 43.5t-38.5 115.5q0 84 52 128.5t151 44.5h52v48q0 52 -20.5 76t-63.5 24q-51 0 -119 -27l-22 62q81 35 152 35q81 0 120.5 -43.5t39.5 -122.5v-260q0 -28 8 -41.5z
M290 138v123h-42q-63 0 -92.5 -27t-29.5 -83q0 -48 18 -72.5t51 -24.5q62 0 95 84zM128 629.5q-34 31.5 -39 88.5l54 13q15 -66 72 -66q29 0 48 17t26 49l54 -13q-5 -57 -39.5 -88.5t-88.5 -31.5q-53 0 -87 31.5zM285 909l58 -48l-122 -130l-37 32z" />
    <glyph glyph-name="uni1EB7" unicode="&#x1eb7;" horiz-adv-x="451" 
d="M385 70.5q8 -13.5 26 -21.5l-19 -61q-37 6 -58.5 23.5t-30.5 52.5q-43 -76 -126 -76q-65 0 -103.5 43.5t-38.5 115.5q0 84 52 128.5t151 44.5h52v48q0 52 -20.5 76t-63.5 24q-51 0 -119 -27l-22 62q81 35 152 35q81 0 120.5 -43.5t39.5 -122.5v-260q0 -28 8 -41.5z
M290 138v123h-42q-63 0 -92.5 -27t-29.5 -83q0 -48 18 -72.5t51 -24.5q62 0 95 84zM127.5 677.5q-33.5 33.5 -38.5 97.5l54 12q16 -77 72 -77q58 0 74 77l54 -12q-5 -64 -39 -97.5t-89 -33.5q-54 0 -87.5 33.5zM175 -179q-16 17 -16 44q0 25 16.5 42t42.5 17t42.5 -17
t16.5 -42q0 -26 -16.5 -43.5t-42.5 -17.5q-27 0 -43 17z" />
    <glyph glyph-name="uni1EB1" unicode="&#x1eb1;" horiz-adv-x="451" 
d="M385 70.5q8 -13.5 26 -21.5l-19 -61q-37 6 -58.5 23.5t-30.5 52.5q-43 -76 -126 -76q-65 0 -103.5 43.5t-38.5 115.5q0 84 52 128.5t151 44.5h52v48q0 52 -20.5 76t-63.5 24q-51 0 -119 -27l-22 62q81 35 152 35q81 0 120.5 -43.5t39.5 -122.5v-260q0 -28 8 -41.5z
M290 138v123h-42q-63 0 -92.5 -27t-29.5 -83q0 -48 18 -72.5t51 -24.5q62 0 95 84zM133 629.5q-34 31.5 -39 88.5l54 13q15 -66 72 -66q29 0 48 17t26 49l54 -13q-5 -57 -39.5 -88.5t-88.5 -31.5q-53 0 -87 31.5zM152 909l103 -146l-39 -32l-122 130z" />
    <glyph glyph-name="uni1EB3" unicode="&#x1eb3;" horiz-adv-x="451" 
d="M385 70.5q8 -13.5 26 -21.5l-19 -61q-37 6 -58.5 23.5t-30.5 52.5q-43 -76 -126 -76q-65 0 -103.5 43.5t-38.5 115.5q0 84 52 128.5t151 44.5h52v48q0 52 -20.5 76t-63.5 24q-51 0 -119 -27l-22 62q81 35 152 35q81 0 120.5 -43.5t39.5 -122.5v-260q0 -28 8 -41.5z
M290 138v123h-42q-63 0 -92.5 -27t-29.5 -83q0 -48 18 -72.5t51 -24.5q62 0 95 84zM128 629.5q-34 31.5 -39 88.5l54 13q15 -66 72 -66q29 0 48 17t26 49l54 -13q-5 -57 -39.5 -88.5t-88.5 -31.5q-53 0 -87 31.5zM185 811q32 5 45 13t13 30q0 39 -35 39q-22 0 -48 -13
l-18 47q34 24 79 24q44 0 67.5 -24t23.5 -66q0 -36 -17.5 -57.5t-48.5 -27.5v-57h-61v92z" />
    <glyph glyph-name="uni1EB5" unicode="&#x1eb5;" horiz-adv-x="451" 
d="M385 70.5q8 -13.5 26 -21.5l-19 -61q-37 6 -58.5 23.5t-30.5 52.5q-43 -76 -126 -76q-65 0 -103.5 43.5t-38.5 115.5q0 84 52 128.5t151 44.5h52v48q0 52 -20.5 76t-63.5 24q-51 0 -119 -27l-22 62q81 35 152 35q81 0 120.5 -43.5t39.5 -122.5v-260q0 -28 8 -41.5z
M290 138v123h-42q-63 0 -92.5 -27t-29.5 -83q0 -48 18 -72.5t51 -24.5q62 0 95 84zM129 629.5q-34 31.5 -39 88.5l54 13q15 -66 72 -66q29 0 48 17t26 49l54 -13q-5 -57 -39.5 -88.5t-88.5 -31.5q-53 0 -87 31.5zM238.5 774.5q-12.5 6.5 -31.5 19.5q-9 7 -19 12.5t-19 5.5
q-13 0 -23 -10.5t-22 -34.5l-48 23q15 40 38 62.5t52 22.5q17 0 30 -6.5t29 -18.5q25 -19 39 -19q12 0 22 10t22 33l49 -22q-29 -84 -90 -84q-16 0 -28.5 6.5z" />
    <glyph glyph-name="uni01CE" unicode="&#x1ce;" horiz-adv-x="451" 
d="M385 70.5q8 -13.5 26 -21.5l-19 -61q-37 6 -58.5 23.5t-30.5 52.5q-43 -76 -126 -76q-65 0 -103.5 43.5t-38.5 115.5q0 84 52 128.5t151 44.5h52v48q0 52 -20.5 76t-63.5 24q-51 0 -119 -27l-22 62q81 35 152 35q81 0 120.5 -43.5t39.5 -122.5v-260q0 -28 8 -41.5z
M290 138v123h-42q-63 0 -92.5 -27t-29.5 -83q0 -48 18 -72.5t51 -24.5q62 0 95 84zM321 782l35 -39l-112 -115h-56l-112 115l35 39l105 -88z" />
    <glyph glyph-name="acircumflex" unicode="&#xe2;" horiz-adv-x="451" 
d="M385 70.5q8 -13.5 26 -21.5l-19 -61q-37 6 -58.5 23.5t-30.5 52.5q-43 -76 -126 -76q-65 0 -103.5 43.5t-38.5 115.5q0 84 52 128.5t151 44.5h52v48q0 52 -20.5 76t-63.5 24q-51 0 -119 -27l-22 62q81 35 152 35q81 0 120.5 -43.5t39.5 -122.5v-260q0 -28 8 -41.5z
M290 138v123h-42q-63 0 -92.5 -27t-29.5 -83q0 -48 18 -72.5t51 -24.5q62 0 95 84zM111 637l-35 38l112 116h56l112 -116l-36 -38l-104 84z" />
    <glyph glyph-name="uni1EA5" unicode="&#x1ea5;" horiz-adv-x="451" 
d="M385 70.5q8 -13.5 26 -21.5l-19 -61q-37 6 -58.5 23.5t-30.5 52.5q-43 -76 -126 -76q-65 0 -103.5 43.5t-38.5 115.5q0 84 52 128.5t151 44.5h52v48q0 52 -20.5 76t-63.5 24q-51 0 -119 -27l-22 62q81 35 152 35q81 0 120.5 -43.5t39.5 -122.5v-260q0 -28 8 -41.5z
M290 138v123h-42q-63 0 -92.5 -27t-29.5 -83q0 -48 18 -72.5t51 -24.5q62 0 95 84zM108 590l-35 38l112 112h56l112 -112l-36 -38l-104 80zM390 886l58 -48l-122 -130l-37 32z" />
    <glyph glyph-name="uni1EAD" unicode="&#x1ead;" horiz-adv-x="451" 
d="M385 70.5q8 -13.5 26 -21.5l-19 -61q-37 6 -58.5 23.5t-30.5 52.5q-43 -76 -126 -76q-65 0 -103.5 43.5t-38.5 115.5q0 84 52 128.5t151 44.5h52v48q0 52 -20.5 76t-63.5 24q-51 0 -119 -27l-22 62q81 35 152 35q81 0 120.5 -43.5t39.5 -122.5v-260q0 -28 8 -41.5z
M290 138v123h-42q-63 0 -92.5 -27t-29.5 -83q0 -48 18 -72.5t51 -24.5q62 0 95 84zM111 637l-35 38l112 116h56l112 -116l-36 -38l-104 84zM175 -179q-16 17 -16 44q0 25 16.5 42t42.5 17t42.5 -17t16.5 -42q0 -26 -16.5 -43.5t-42.5 -17.5q-27 0 -43 17z" />
    <glyph glyph-name="uni1EA7" unicode="&#x1ea7;" horiz-adv-x="451" 
d="M385 70.5q8 -13.5 26 -21.5l-19 -61q-37 6 -58.5 23.5t-30.5 52.5q-43 -76 -126 -76q-65 0 -103.5 43.5t-38.5 115.5q0 84 52 128.5t151 44.5h52v48q0 52 -20.5 76t-63.5 24q-51 0 -119 -27l-22 62q81 35 152 35q81 0 120.5 -43.5t39.5 -122.5v-260q0 -28 8 -41.5z
M290 138v123h-42q-63 0 -92.5 -27t-29.5 -83q0 -48 18 -72.5t51 -24.5q62 0 95 84zM108 590l-35 38l112 112h56l112 -112l-36 -38l-104 80zM37 886l103 -146l-39 -32l-122 130z" />
    <glyph glyph-name="uni1EA9" unicode="&#x1ea9;" horiz-adv-x="451" 
d="M385 70.5q8 -13.5 26 -21.5l-19 -61q-37 6 -58.5 23.5t-30.5 52.5q-43 -76 -126 -76q-65 0 -103.5 43.5t-38.5 115.5q0 84 52 128.5t151 44.5h52v48q0 52 -20.5 76t-63.5 24q-51 0 -119 -27l-22 62q81 35 152 35q81 0 120.5 -43.5t39.5 -122.5v-260q0 -28 8 -41.5z
M290 138v123h-42q-63 0 -92.5 -27t-29.5 -83q0 -48 18 -72.5t51 -24.5q62 0 95 84zM108 590l-35 38l112 112h56l112 -112l-36 -38l-104 80zM302 804q32 5 45 13t13 30q0 39 -35 39q-22 0 -48 -13l-18 47q34 24 79 24q44 0 67.5 -24t23.5 -66q0 -36 -17.5 -57.5t-48.5 -27.5
v-57h-61v92z" />
    <glyph glyph-name="uni1EAB" unicode="&#x1eab;" horiz-adv-x="451" 
d="M385 70.5q8 -13.5 26 -21.5l-19 -61q-37 6 -58.5 23.5t-30.5 52.5q-43 -76 -126 -76q-65 0 -103.5 43.5t-38.5 115.5q0 84 52 128.5t151 44.5h52v48q0 52 -20.5 76t-63.5 24q-51 0 -119 -27l-22 62q81 35 152 35q81 0 120.5 -43.5t39.5 -122.5v-260q0 -28 8 -41.5z
M290 138v123h-42q-63 0 -92.5 -27t-29.5 -83q0 -48 18 -72.5t51 -24.5q62 0 95 84zM110 580l-35 38l112 112h56l112 -112l-36 -38l-104 80zM236.5 774.5q-12.5 6.5 -31.5 19.5q-9 7 -19 12.5t-19 5.5q-13 0 -23 -10.5t-22 -34.5l-48 23q15 40 38 62.5t52 22.5q17 0 30 -6.5
t29 -18.5q25 -19 39 -19q12 0 22 10t22 33l49 -22q-29 -84 -90 -84q-16 0 -28.5 6.5z" />
    <glyph glyph-name="uni0201" unicode="&#x201;" horiz-adv-x="451" 
d="M385 70.5q8 -13.5 26 -21.5l-19 -61q-37 6 -58.5 23.5t-30.5 52.5q-43 -76 -126 -76q-65 0 -103.5 43.5t-38.5 115.5q0 84 52 128.5t151 44.5h52v48q0 52 -20.5 76t-63.5 24q-51 0 -119 -27l-22 62q81 35 152 35q81 0 120.5 -43.5t39.5 -122.5v-260q0 -28 8 -41.5z
M290 138v123h-42q-63 0 -92.5 -27t-29.5 -83q0 -48 18 -72.5t51 -24.5q62 0 95 84zM119 827l70 -170l-49 -22l-90 155zM246 827l63 -165l-49 -22l-82 150z" />
    <glyph glyph-name="adieresis" unicode="&#xe4;" horiz-adv-x="451" 
d="M385 70.5q8 -13.5 26 -21.5l-19 -61q-37 6 -58.5 23.5t-30.5 52.5q-43 -76 -126 -76q-65 0 -103.5 43.5t-38.5 115.5q0 84 52 128.5t151 44.5h52v48q0 52 -20.5 76t-63.5 24q-51 0 -119 -27l-22 62q81 35 152 35q81 0 120.5 -43.5t39.5 -122.5v-260q0 -28 8 -41.5z
M290 138v123h-42q-63 0 -92.5 -27t-29.5 -83q0 -48 18 -72.5t51 -24.5q62 0 95 84zM166 749q15 -16 15 -39t-15 -39t-38 -16t-38 16t-15 39t15 39t38 16t38 -16zM341 749q15 -16 15 -39t-15 -39t-38 -16q-22 0 -37.5 16t-15.5 39t15.5 39t37.5 16q23 0 38 -16z" />
    <glyph glyph-name="uni01DF" unicode="&#x1df;" horiz-adv-x="451" 
d="M385 70.5q8 -13.5 26 -21.5l-19 -61q-37 6 -58.5 23.5t-30.5 52.5q-43 -76 -126 -76q-65 0 -103.5 43.5t-38.5 115.5q0 84 52 128.5t151 44.5h52v48q0 52 -20.5 76t-63.5 24q-51 0 -119 -27l-22 62q81 35 152 35q81 0 120.5 -43.5t39.5 -122.5v-260q0 -28 8 -41.5z
M290 138v123h-42q-63 0 -92.5 -27t-29.5 -83q0 -48 18 -72.5t51 -24.5q62 0 95 84zM167 719q15 -16 15 -39t-15 -39t-38 -16t-38 16t-15 39t15 39t38 16t38 -16zM342 719q15 -16 15 -39t-15 -39t-38 -16q-22 0 -37.5 16t-15.5 39t15.5 39t37.5 16q23 0 38 -16zM331 793h-228
v64h228v-64z" />
    <glyph glyph-name="uni0227" unicode="&#x227;" horiz-adv-x="451" 
d="M385 70.5q8 -13.5 26 -21.5l-19 -61q-37 6 -58.5 23.5t-30.5 52.5q-43 -76 -126 -76q-65 0 -103.5 43.5t-38.5 115.5q0 84 52 128.5t151 44.5h52v48q0 52 -20.5 76t-63.5 24q-51 0 -119 -27l-22 62q81 35 152 35q81 0 120.5 -43.5t39.5 -122.5v-260q0 -28 8 -41.5z
M290 138v123h-42q-63 0 -92.5 -27t-29.5 -83q0 -48 18 -72.5t51 -24.5q62 0 95 84zM258 760q16 -17 16 -44q0 -25 -16.5 -42t-42.5 -17t-42.5 17t-16.5 42q0 26 16.5 43.5t42.5 17.5q27 0 43 -17z" />
    <glyph glyph-name="uni1EA1" unicode="&#x1ea1;" horiz-adv-x="451" 
d="M385 70.5q8 -13.5 26 -21.5l-19 -61q-37 6 -58.5 23.5t-30.5 52.5q-43 -76 -126 -76q-65 0 -103.5 43.5t-38.5 115.5q0 84 52 128.5t151 44.5h52v48q0 52 -20.5 76t-63.5 24q-51 0 -119 -27l-22 62q81 35 152 35q81 0 120.5 -43.5t39.5 -122.5v-260q0 -28 8 -41.5z
M290 138v123h-42q-63 0 -92.5 -27t-29.5 -83q0 -48 18 -72.5t51 -24.5q62 0 95 84zM175 -179q-16 17 -16 44q0 25 16.5 42t42.5 17t42.5 -17t16.5 -42q0 -26 -16.5 -43.5t-42.5 -17.5q-27 0 -43 17z" />
    <glyph glyph-name="uni01E1" unicode="&#x1e1;" horiz-adv-x="451" 
d="M385 70.5q8 -13.5 26 -21.5l-19 -61q-37 6 -58.5 23.5t-30.5 52.5q-43 -76 -126 -76q-65 0 -103.5 43.5t-38.5 115.5q0 84 52 128.5t151 44.5h52v48q0 52 -20.5 76t-63.5 24q-51 0 -119 -27l-22 62q81 35 152 35q81 0 120.5 -43.5t39.5 -122.5v-260q0 -28 8 -41.5z
M290 138v123h-42q-63 0 -92.5 -27t-29.5 -83q0 -48 18 -72.5t51 -24.5q62 0 95 84zM259 710q16 -17 16 -44q0 -25 -16.5 -42t-42.5 -17t-42.5 17t-16.5 42q0 26 16.5 43.5t42.5 17.5q27 0 43 -17zM330 770h-228v64h228v-64z" />
    <glyph glyph-name="agrave" unicode="&#xe0;" horiz-adv-x="451" 
d="M385 70.5q8 -13.5 26 -21.5l-19 -61q-37 6 -58.5 23.5t-30.5 52.5q-43 -76 -126 -76q-65 0 -103.5 43.5t-38.5 115.5q0 84 52 128.5t151 44.5h52v48q0 52 -20.5 76t-63.5 24q-51 0 -119 -27l-22 62q81 35 152 35q81 0 120.5 -43.5t39.5 -122.5v-260q0 -28 8 -41.5z
M290 138v123h-42q-63 0 -92.5 -27t-29.5 -83q0 -48 18 -72.5t51 -24.5q62 0 95 84zM161 795l165 -112l-26 -44l-178 86z" />
    <glyph glyph-name="uni1EA3" unicode="&#x1ea3;" horiz-adv-x="451" 
d="M385 70.5q8 -13.5 26 -21.5l-19 -61q-37 6 -58.5 23.5t-30.5 52.5q-43 -76 -126 -76q-65 0 -103.5 43.5t-38.5 115.5q0 84 52 128.5t151 44.5h52v48q0 52 -20.5 76t-63.5 24q-51 0 -119 -27l-22 62q81 35 152 35q81 0 120.5 -43.5t39.5 -122.5v-260q0 -28 8 -41.5z
M290 138v123h-42q-63 0 -92.5 -27t-29.5 -83q0 -48 18 -72.5t51 -24.5q62 0 95 84zM185 704q32 5 45 13t13 30q0 39 -35 39q-22 0 -48 -13l-18 47q34 24 79 24q44 0 67.5 -24t23.5 -66q0 -36 -17.5 -57.5t-48.5 -27.5v-57h-61v92z" />
    <glyph glyph-name="uni0203" unicode="&#x203;" horiz-adv-x="451" 
d="M385 70.5q8 -13.5 26 -21.5l-19 -61q-37 6 -58.5 23.5t-30.5 52.5q-43 -76 -126 -76q-65 0 -103.5 43.5t-38.5 115.5q0 84 52 128.5t151 44.5h52v48q0 52 -20.5 76t-63.5 24q-51 0 -119 -27l-22 62q81 35 152 35q81 0 120.5 -43.5t39.5 -122.5v-260q0 -28 8 -41.5z
M290 138v123h-42q-63 0 -92.5 -27t-29.5 -83q0 -48 18 -72.5t51 -24.5q62 0 95 84zM304 724.5q34 -33.5 39 -97.5l-54 -12q-16 77 -74 77q-56 0 -72 -77l-54 12q5 64 38.5 97.5t87.5 33.5q55 0 89 -33.5z" />
    <glyph glyph-name="uni0251" unicode="&#x251;" horiz-adv-x="494" 
d="M425.5 82q8.5 -15 28.5 -27l-26 -67q-39 11 -59.5 28.5t-30.5 46.5q-47 -75 -127 -75q-76 0 -121 71t-45 202q0 86 22 148.5t61.5 95.5t90.5 33q75 0 117 -68l5 57h76v-400q0 -30 8.5 -45zM284 76q24 18 45 52v272q-19 33 -41 50.5t-50 17.5q-48 0 -74 -48t-26 -157
q0 -110 24 -157.5t68 -47.5q30 0 54 18z" />
    <glyph glyph-name="uni0252" unicode="&#x252;" horiz-adv-x="494" 
d="M404 468q45 -71 45 -202q0 -86 -22 -148.5t-61.5 -95.5t-90.5 -33q-75 0 -117 68l-5 -57h-76v400q0 30 -8.5 45t-28.5 27l26 67q39 -11 59.5 -28.5t30.5 -46.5q47 75 127 75q76 0 121 -71zM330 107q26 48 26 157q0 110 -24 157.5t-68 47.5q-30 0 -54 -18t-45 -52v-272
q19 -33 41 -50.5t50 -17.5q48 0 74 48z" />
    <glyph glyph-name="amacron" unicode="&#x101;" horiz-adv-x="451" 
d="M385 70.5q8 -13.5 26 -21.5l-19 -61q-37 6 -58.5 23.5t-30.5 52.5q-43 -76 -126 -76q-65 0 -103.5 43.5t-38.5 115.5q0 84 52 128.5t151 44.5h52v48q0 52 -20.5 76t-63.5 24q-51 0 -119 -27l-22 62q81 35 152 35q81 0 120.5 -43.5t39.5 -122.5v-260q0 -28 8 -41.5z
M290 138v123h-42q-63 0 -92.5 -27t-29.5 -83q0 -48 18 -72.5t51 -24.5q62 0 95 84zM330 669h-228v64h228v-64z" />
    <glyph glyph-name="aogonek" unicode="&#x105;" horiz-adv-x="451" 
d="M392 -12h-1v0q-57 -30 -78 -57t-21 -60q0 -24 11 -36t36 -12q19 0 48 6l-7 -64q-30 -7 -53 -7q-49 0 -77.5 26.5t-28.5 73.5q0 48 30 84t91 63q-29 18 -39 59q-43 -76 -126 -76q-65 0 -103.5 43.5t-38.5 115.5q0 84 52 128.5t151 44.5h52v48q0 52 -20.5 76t-63.5 24
q-51 0 -119 -27l-22 62q81 35 152 35q81 0 120.5 -43.5t39.5 -122.5v-260q0 -28 8 -41.5t26 -21.5zM290 138v123h-42q-63 0 -92.5 -27t-29.5 -83q0 -48 18 -72.5t51 -24.5q62 0 95 84z" />
    <glyph glyph-name="aring" unicode="&#xe5;" horiz-adv-x="451" 
d="M385 70.5q8 -13.5 26 -21.5l-19 -61q-37 6 -58.5 23.5t-30.5 52.5q-43 -76 -126 -76q-65 0 -103.5 43.5t-38.5 115.5q0 84 52 128.5t151 44.5h52v48q0 52 -20.5 76t-63.5 24q-51 0 -119 -27l-22 62q81 35 152 35q81 0 120.5 -43.5t39.5 -122.5v-260q0 -28 8 -41.5z
M290 138v123h-42q-63 0 -92.5 -27t-29.5 -83q0 -48 18 -72.5t51 -24.5q62 0 95 84zM287.5 806q26.5 -28 26.5 -76q0 -49 -26.5 -77t-71.5 -28t-71.5 28t-26.5 77q0 48 26.5 76t71.5 28t71.5 -28zM184 774.5q-11 -13.5 -11 -44.5q0 -32 11 -45.5t32 -13.5q43 0 43 59
q0 31 -11 44.5t-32 13.5t-32 -13.5z" />
    <glyph glyph-name="aringacute" unicode="&#x1fb;" horiz-adv-x="451" 
d="M318 881l-181 -79l-23 48l167 105zM144.5 765q26.5 28 71.5 28t71.5 -28t26.5 -76q0 -49 -26.5 -77t-71.5 -28t-71.5 28t-26.5 77q0 48 26.5 76zM248 733.5q-11 13.5 -32 13.5t-32 -13.5t-11 -44.5q0 -32 11 -45.5t32 -13.5q43 0 43 59q0 31 -11 44.5zM385 70.5
q8 -13.5 26 -21.5l-19 -61q-37 6 -58.5 23.5t-30.5 52.5q-43 -76 -126 -76q-65 0 -103.5 43.5t-38.5 115.5q0 84 52 128.5t151 44.5h52v48q0 52 -20.5 76t-63.5 24q-51 0 -119 -27l-22 62q81 35 152 35q81 0 120.5 -43.5t39.5 -122.5v-260q0 -28 8 -41.5zM290 138v123h-42
q-63 0 -92.5 -27t-29.5 -83q0 -48 18 -72.5t51 -24.5q62 0 95 84z" />
    <glyph glyph-name="uni2C65" unicode="&#x2c65;" horiz-adv-x="451" 
d="M385 70.5q8 -13.5 26 -21.5l-19 -61q-37 6 -58.5 23.5t-30.5 52.5q-22 -39 -54 -57.5t-71 -18.5l-13 -58l-39 9l12 54q-49 12 -76 53t-27 101q0 79 45 123t132 49l33 143q-16 6 -39 6q-51 0 -119 -27l-22 62q81 35 152 35q27 0 44 -4l14 61l39 -9l-15 -64q78 -36 78 -150
v-260q0 -28 8 -41.5zM279 430l-25 -110h36v48q0 38 -11 62zM290 138v123h-42h-8l-47 -207h2q62 0 95 84zM155 67l43 188q-72 -18 -72 -104q0 -63 29 -84z" />
    <glyph glyph-name="atilde" unicode="&#xe3;" horiz-adv-x="451" 
d="M385 70.5q8 -13.5 26 -21.5l-19 -61q-37 6 -58.5 23.5t-30.5 52.5q-43 -76 -126 -76q-65 0 -103.5 43.5t-38.5 115.5q0 84 52 128.5t151 44.5h52v48q0 52 -20.5 76t-63.5 24q-51 0 -119 -27l-22 62q81 35 152 35q81 0 120.5 -43.5t39.5 -122.5v-260q0 -28 8 -41.5z
M290 138v123h-42q-63 0 -92.5 -27t-29.5 -83q0 -48 18 -72.5t51 -24.5q62 0 95 84zM238.5 667.5q-12.5 6.5 -31.5 19.5q-9 7 -19 12.5t-19 5.5q-13 0 -23 -10.5t-22 -34.5l-48 23q15 40 38 62.5t52 22.5q17 0 30 -6.5t29 -18.5q25 -19 39 -19q12 0 22 10t22 33l49 -22
q-29 -84 -90 -84q-16 0 -28.5 6.5z" />
    <glyph glyph-name="uni0250" unicode="&#x250;" horiz-adv-x="451" 
d="M364 86l22 -62q-81 -35 -152 -35q-81 0 -120.5 43.5t-39.5 122.5v260q0 28 -8 41.5t-26 21.5l19 61q37 -6 58.5 -23.5t30.5 -52.5q43 76 126 76q65 0 103.5 -43.5t38.5 -115.5q0 -84 -52 -128.5t-151 -44.5h-52v-48q0 -52 20.5 -76t63.5 -24q51 0 119 27zM161 389v-123
h42q63 0 92.5 27t29.5 83q0 48 -18 72.5t-51 24.5q-62 0 -95 -84z" />
    <glyph glyph-name="ae" unicode="&#xe6;" horiz-adv-x="702" 
d="M660 233h-276q4 -90 34.5 -131.5t79.5 -41.5q30 0 56 10.5t53 33.5l39 -50q-69 -66 -155 -66q-54 0 -95 24.5t-66 71.5q-29 -51 -65.5 -73.5t-83.5 -22.5q-66 0 -106 44t-40 115q0 84 53.5 128.5t152.5 44.5h52v41q0 57 -21 82t-66 25q-48 0 -116 -28l-21 63
q81 35 152 35q50 0 81 -20.5t48 -59.5q50 80 137 80q83 0 129 -66.5t46 -192.5q0 -22 -2 -46zM575 305q0 85 -22 124.5t-68 39.5q-94 0 -101 -171h191v7zM257 77q25 23 48 73q-12 47 -12 107v4h-42q-62 0 -92.5 -27t-30.5 -83q0 -47 18.5 -72t52.5 -25q33 0 58 23z" />
    <glyph glyph-name="aeacute" unicode="&#x1fd;" horiz-adv-x="702" 
d="M660 233h-276q4 -90 34.5 -131.5t79.5 -41.5q30 0 56 10.5t53 33.5l39 -50q-69 -66 -155 -66q-54 0 -95 24.5t-66 71.5q-29 -51 -65.5 -73.5t-83.5 -22.5q-66 0 -106 44t-40 115q0 84 53.5 128.5t152.5 44.5h52v41q0 57 -21 82t-66 25q-48 0 -116 -28l-21 63
q81 35 152 35q50 0 81 -20.5t48 -59.5q50 80 137 80q83 0 129 -66.5t46 -192.5q0 -22 -2 -46zM575 305q0 85 -22 124.5t-68 39.5q-94 0 -101 -171h191v7zM257 77q25 23 48 73q-12 47 -12 107v4h-42q-62 0 -92.5 -27t-30.5 -83q0 -47 18.5 -72t52.5 -25q33 0 58 23zM413 795
l39 -70l-178 -86l-26 44z" />
    <glyph glyph-name="uni01E3" unicode="&#x1e3;" horiz-adv-x="702" 
d="M660 233h-276q4 -90 34.5 -131.5t79.5 -41.5q30 0 56 10.5t53 33.5l39 -50q-69 -66 -155 -66q-54 0 -95 24.5t-66 71.5q-29 -51 -65.5 -73.5t-83.5 -22.5q-66 0 -106 44t-40 115q0 84 53.5 128.5t152.5 44.5h52v41q0 57 -21 82t-66 25q-48 0 -116 -28l-21 63
q81 35 152 35q50 0 81 -20.5t48 -59.5q50 80 137 80q83 0 129 -66.5t46 -192.5q0 -22 -2 -46zM575 305q0 85 -22 124.5t-68 39.5q-94 0 -101 -171h191v7zM257 77q25 23 48 73q-12 47 -12 107v4h-42q-62 0 -92.5 -27t-30.5 -83q0 -47 18.5 -72t52.5 -25q33 0 58 23zM466 669
h-228v64h228v-64z" />
    <glyph glyph-name="b" unicode="b" horiz-adv-x="488" 
d="M400.5 469q42.5 -69 42.5 -205q0 -86 -21 -148t-59.5 -95t-89.5 -33q-34 0 -64 17.5t-52 49.5l-6 -55h-78v738l88 9v-284q47 75 121 75q76 0 118.5 -69zM350 264q0 113 -23 158.5t-66 45.5q-56 0 -100 -81v-261q18 -31 41.5 -49.5t51.5 -18.5q96 0 96 206z" />
    <glyph glyph-name="uni1E03" unicode="&#x1e03;" horiz-adv-x="488" 
d="M400.5 469q42.5 -69 42.5 -205q0 -86 -21 -148t-59.5 -95t-89.5 -33q-34 0 -64 17.5t-52 49.5l-6 -55h-78v738l88 9v-284q47 75 121 75q76 0 118.5 -69zM350 264q0 113 -23 158.5t-66 45.5q-56 0 -100 -81v-261q18 -31 41.5 -49.5t51.5 -18.5q96 0 96 206zM301 936
q16 -17 16 -44q0 -25 -16.5 -42t-42.5 -17t-42.5 17t-16.5 42q0 26 16.5 43.5t42.5 17.5q27 0 43 -17z" />
    <glyph glyph-name="uni1E05" unicode="&#x1e05;" horiz-adv-x="488" 
d="M400.5 469q42.5 -69 42.5 -205q0 -86 -21 -148t-59.5 -95t-89.5 -33q-34 0 -64 17.5t-52 49.5l-6 -55h-78v738l88 9v-284q47 75 121 75q76 0 118.5 -69zM350 264q0 113 -23 158.5t-66 45.5q-56 0 -100 -81v-261q18 -31 41.5 -49.5t51.5 -18.5q96 0 96 206zM211 -179
q-16 17 -16 44q0 25 16.5 42t42.5 17t42.5 -17t16.5 -42q0 -26 -16.5 -43.5t-42.5 -17.5q-27 0 -43 17z" />
    <glyph glyph-name="uniA7B5" unicode="&#xa7b5;" horiz-adv-x="499" 
d="M415.5 351.5q47.5 -43.5 47.5 -148.5q0 -66 -24.5 -114.5t-65 -74.5t-86.5 -26q-74 0 -127 44v-233l-87 -13v755q0 103 46.5 155.5t128.5 52.5q76 0 123 -48.5t47 -134.5q0 -71 -33.5 -112t-91.5 -50q75 -9 122.5 -52.5zM345 95q28 36 28 109q0 81 -35 120.5t-99 39.5
h-39l8 68h33q41 0 67 32t26 99q0 61 -23 89t-63 28q-45 0 -66.5 -32t-21.5 -107v-437q24 -23 50.5 -34t58.5 -11q48 0 76 36z" />
    <glyph glyph-name="uni0253" unicode="&#x253;" horiz-adv-x="488" 
d="M400.5 469q42.5 -69 42.5 -205q0 -86 -21 -148t-59.5 -95t-89.5 -33q-34 0 -64 17.5t-52 49.5l-6 -55h-78v610q0 62 37.5 100.5t105.5 38.5q57 0 107 -27l-27 -61q-37 17 -73 17q-33 0 -47.5 -16.5t-14.5 -50.5v-148q47 75 121 75q76 0 118.5 -69zM350 264
q0 113 -23 158.5t-66 45.5q-56 0 -100 -81v-261q18 -31 41.5 -49.5t51.5 -18.5q96 0 96 206z" />
    <glyph glyph-name="uni02AD" unicode="&#x2ad;" horiz-adv-x="294" 
d="M30 400v147h234v-147h-57v90h-120v-90h-57zM30 -1v147h234v-147h-57v90h-120v-90h-57z" />
    <glyph glyph-name="uni0298" unicode="&#x298;" horiz-adv-x="659" 
d="M478 660q64 -40 100 -119.5t36 -195.5q0 -115 -35.5 -195t-100 -121t-148.5 -41q-85 0 -149 40t-100 120t-36 196q0 113 36 193.5t100.5 121.5t148.5 41t148 -40zM184 560q-53 -69 -53 -216q0 -149 53 -217t146 -68q198 0 198 286q0 147 -52.5 215.5t-145.5 68.5
t-146 -69zM373 388q16 -17 16 -44q0 -25 -16.5 -42t-42.5 -17t-42.5 17t-16.5 42q0 26 16.5 43.5t42.5 17.5q27 0 43 -17z" />
    <glyph glyph-name="uni02AC" unicode="&#x2ac;" horiz-adv-x="381" 
d="M356 665l-54 -265h-73l-37 197l-38 -197h-74l-55 265h62l33 -203l41 203h65l38 -204l34 204h58zM356 265l-54 -265h-73l-37 197l-38 -197h-74l-55 265h62l33 -203l41 203h65l38 -204l34 204h58z" />
    <glyph glyph-name="uni0180" unicode="&#x180;" horiz-adv-x="492" 
d="M404.5 469q42.5 -69 42.5 -205q0 -86 -21 -148t-59.5 -95t-89.5 -33q-34 0 -64 17.5t-52 49.5l-6 -55h-78v607h-60v67h60v64l88 9v-73h120v-67h-120v-144q47 75 121 75q76 0 118.5 -69zM354 264q0 113 -23 158.5t-66 45.5q-56 0 -100 -81v-261q18 -31 41.5 -49.5
t51.5 -18.5q96 0 96 206z" />
    <glyph glyph-name="uni0183" unicode="&#x183;" horiz-adv-x="488" 
d="M400.5 469q42.5 -69 42.5 -205q0 -86 -21 -148t-59.5 -95t-89.5 -33q-34 0 -64 17.5t-52 49.5l-6 -55h-78v739h272l-11 -68h-173v-208q47 75 121 75q76 0 118.5 -69zM350 264q0 113 -23 158.5t-66 45.5q-56 0 -100 -81v-261q18 -31 41.5 -49.5t51.5 -18.5q96 0 96 206z
" />
    <glyph glyph-name="c" unicode="c" horiz-adv-x="391" 
d="M314 525q32 -13 62 -43l-40 -52q-23 19 -44.5 28t-46.5 9q-106 0 -106 -206q0 -107 27 -153t78 -46q25 0 45.5 9t45.5 28l41 -53q-60 -58 -133 -58q-94 0 -146 68t-52 203q0 132 53 205.5t144 73.5q40 0 72 -13z" />
    <glyph glyph-name="cacute" unicode="&#x107;" horiz-adv-x="391" 
d="M314 525q32 -13 62 -43l-40 -52q-23 19 -44.5 28t-46.5 9q-106 0 -106 -206q0 -107 27 -153t78 -46q25 0 45.5 9t45.5 28l41 -53q-60 -58 -133 -58q-94 0 -146 68t-52 203q0 132 53 205.5t144 73.5q40 0 72 -13zM304 795l39 -70l-178 -86l-26 44z" />
    <glyph glyph-name="cacute.loclPLK" horiz-adv-x="391" 
d="M314 525q32 -13 62 -43l-40 -52q-23 19 -44.5 28t-46.5 9q-106 0 -106 -206q0 -107 27 -153t78 -46q25 0 45.5 9t45.5 28l41 -53q-60 -58 -133 -58q-94 0 -146 68t-52 203q0 132 53 205.5t144 73.5q40 0 72 -13zM279 775l68 -45l-109 -153l-42 27z" />
    <glyph glyph-name="ccaron" unicode="&#x10d;" horiz-adv-x="391" 
d="M314 525q32 -13 62 -43l-40 -52q-23 19 -44.5 28t-46.5 9q-106 0 -106 -206q0 -107 27 -153t78 -46q25 0 45.5 9t45.5 28l41 -53q-60 -58 -133 -58q-94 0 -146 68t-52 203q0 132 53 205.5t144 73.5q40 0 72 -13zM348 782l35 -39l-112 -115h-56l-112 115l35 39l105 -88z
" />
    <glyph glyph-name="ccedilla" unicode="&#xe7;" horiz-adv-x="391" 
d="M259 -11v-49q78 -12 78 -84q0 -45 -29 -70t-76 -25q-46 0 -79 23l25 46q26 -12 49 -12q18 0 29.5 9.5t11.5 28.5q0 23 -17.5 34t-56.5 11l9 90q-75 14 -116.5 81t-41.5 187q0 132 53 205.5t144 73.5q40 0 72 -13t62 -43l-40 -52q-23 19 -44.5 28t-46.5 9
q-106 0 -106 -206q0 -107 27 -153t78 -46q25 0 45.5 9t45.5 28l41 -53q-53 -51 -117 -57z" />
    <glyph glyph-name="ccircumflex" unicode="&#x109;" horiz-adv-x="391" 
d="M314 525q32 -13 62 -43l-40 -52q-23 19 -44.5 28t-46.5 9q-106 0 -106 -206q0 -107 27 -153t78 -46q25 0 45.5 9t45.5 28l41 -53q-60 -58 -133 -58q-94 0 -146 68t-52 203q0 132 53 205.5t144 73.5q40 0 72 -13zM138 637l-35 38l112 116h56l112 -116l-36 -38l-104 84z
" />
    <glyph glyph-name="uni0255" unicode="&#x255;" horiz-adv-x="406" 
d="M363 199.5q27 -27.5 27 -74.5q0 -64 -41 -100.5t-105 -36.5q-33 0 -61 10l-27 -72l-53 21l31 76q-43 34 -66 94t-23 142q0 132 53 205.5t144 73.5q40 0 72 -13t62 -43l-40 -52q-23 19 -44.5 28t-46.5 9q-106 0 -106 -206q0 -106 30 -155q22 65 50 93t73 28q44 0 71 -27.5
zM302.5 78.5q17.5 15.5 17.5 46.5q0 21 -9 32t-27 11q-21 0 -35.5 -20t-36.5 -79q21 -6 41 -6q32 0 49.5 15.5z" />
    <glyph glyph-name="cdotaccent" unicode="&#x10b;" horiz-adv-x="391" 
d="M314 525q32 -13 62 -43l-40 -52q-23 19 -44.5 28t-46.5 9q-106 0 -106 -206q0 -107 27 -153t78 -46q25 0 45.5 9t45.5 28l41 -53q-60 -58 -133 -58q-94 0 -146 68t-52 203q0 132 53 205.5t144 73.5q40 0 72 -13zM285 760q16 -17 16 -44q0 -25 -16.5 -42t-42.5 -17
t-42.5 17t-16.5 42q0 26 16.5 43.5t42.5 17.5q27 0 43 -17z" />
    <glyph glyph-name="uni0188" unicode="&#x188;" horiz-adv-x="391" 
d="M516 712l-34 -54q-16 10 -28 15t-30 5q-48 0 -48 -62v-134l-36 -48q-29 17 -50 25t-45 8q-106 0 -106 -206q0 -107 27 -153t78 -46q25 0 45.5 9t45.5 28l41 -53q-60 -58 -133 -58q-94 0 -146 68t-52 203q0 132 53 205.5t144 73.5q31 0 51 -10v83q0 65 32.5 101.5
t88.5 36.5q57 0 102 -37z" />
    <glyph glyph-name="uni0297" unicode="&#x297;" horiz-adv-x="409" 
d="M332 525q32 -13 62 -43l-40 -53q-23 19 -44.5 28t-46.5 9q-54 0 -82 -70.5t-28 -234.5q0 -163 27.5 -230t80.5 -67q25 0 45.5 8.5t44.5 27.5l41 -53q-60 -58 -133 -58q-200 0 -200 370q0 190 52 284.5t149 94.5q40 0 72 -13z" />
    <glyph glyph-name="uni023C" unicode="&#x23c;" horiz-adv-x="391" 
d="M289.5 71q20.5 9 45.5 28l41 -53q-60 -58 -133 -58q-29 0 -53 6l-15 -64l-39 9l16 70q-52 27 -79.5 89.5t-27.5 160.5q0 132 53 205.5t144 73.5q10 0 30 -2l13 59l39 -9l-14 -60q36 -14 66 -44l-40 -52q-24 19 -41 26l-88 -387q15 -7 37 -7q25 0 45.5 9zM172 98l84 369
h-11q-106 0 -106 -206q0 -114 33 -163z" />
    <glyph glyph-name="d" unicode="d" horiz-adv-x="491" 
d="M418 739v-739h-78l-6 67q-47 -79 -120 -79q-82 0 -125.5 72.5t-43.5 200.5q0 83 22 146t61 97t89 34q69 0 113 -61v272zM330 133v267q-41 68 -95 68q-46 0 -71.5 -50t-25.5 -155q0 -205 93 -205q57 0 99 75z" />
    <glyph glyph-name="eth" unicode="&#xf0;" horiz-adv-x="476" 
d="M394 502q32 -96 32 -235q0 -134 -52 -206.5t-142 -72.5q-83 0 -135 63t-52 184q0 68 20 122.5t58 85.5t88 31q71 0 118 -59q-11 65 -33 112t-61 85l-61 -74l-59 31l67 80q-42 22 -90 35l16 65q65 -16 123 -48l59 73l54 -39l-58 -72q76 -65 108 -161zM309.5 109.5
q27.5 51.5 27.5 158.5q0 22 -2 60q-40 77 -106 77q-49 0 -72 -42.5t-23 -124.5q0 -92 26 -136t72 -44q50 0 77.5 51.5z" />
    <glyph glyph-name="uni0238" unicode="&#x238;" horiz-adv-x="712" 
d="M627.5 470.5q39.5 -67.5 39.5 -206.5q0 -88 -21 -150t-57.5 -94t-84.5 -32q-34 0 -60.5 20.5t-44.5 51.5l-8 -60h-67l-7 65q-20 -35 -49 -56t-64 -21q-73 0 -116 71t-43 202q0 130 44 203.5t118 73.5q65 0 107 -65v266l88 10v-278q23 33 50 50t65 17q71 0 110.5 -67.5z
M270.5 76.5q22.5 18.5 43.5 53.5v270q-40 68 -87 68q-89 0 -89 -205t82 -205q28 0 50.5 18.5zM574 264q0 116 -21.5 160t-61.5 44q-29 0 -50 -19t-39 -50v-266q21 -38 39 -56.5t46 -18.5q87 0 87 206z" />
    <glyph glyph-name="dcaron" unicode="&#x10f;" horiz-adv-x="515" 
d="M418 739v-739h-78l-6 67q-47 -79 -120 -79q-82 0 -125.5 72.5t-43.5 200.5q0 83 22 146t61 97t89 34q69 0 113 -61v272zM330 133v267q-41 68 -95 68q-46 0 -71.5 -50t-25.5 -155q0 -205 93 -205q57 0 99 75zM504 557l41 181l-74 10l-17 -183z" />
    <glyph glyph-name="uni1E13" unicode="&#x1e13;" horiz-adv-x="491" 
d="M418 739v-739h-78l-6 67q-47 -79 -120 -79q-82 0 -125.5 72.5t-43.5 200.5q0 83 22 146t61 97t89 34q69 0 113 -61v272zM330 133v267q-41 68 -95 68q-46 0 -71.5 -50t-25.5 -155q0 -205 93 -205q57 0 99 75zM147 -222l-35 38l112 116h56l112 -116l-36 -38l-104 84z" />
    <glyph glyph-name="dcroat" unicode="&#x111;" horiz-adv-x="495" 
d="M478 674v-67h-60v-607h-78l-6 67q-47 -79 -120 -79q-82 0 -125.5 72.5t-43.5 200.5q0 83 22 146t61 97t89 34q69 0 113 -61v130h-125v67h125v75l88 -10v-65h60zM330 133v267q-41 68 -95 68q-46 0 -71.5 -50t-25.5 -155q0 -205 93 -205q57 0 99 75z" />
    <glyph glyph-name="uni0221" unicode="&#x221;" horiz-adv-x="611" 
d="M600 191q26 -26 26 -71q0 -65 -39 -98.5t-104 -33.5q-25 0 -51 6l-26 -68l-51 20l28 71q-30 22 -44 60q-22 -42 -53.5 -65.5t-71.5 -23.5q-82 0 -125.5 72.5t-43.5 200.5q0 83 22 146t61 97t89 34q69 0 113 -61v272l88 -10v-610q0 -11 2 -25q20 58 46 85.5t67 27.5
t67 -26zM330 133v5v262q-41 68 -95 68q-46 0 -71.5 -50t-25.5 -155q0 -205 93 -205q56 0 99 75zM538.5 76.5q16.5 15.5 16.5 43.5q0 17 -7.5 27t-21.5 10q-19 0 -32.5 -20t-32.5 -74q16 -2 28 -2q33 0 49.5 15.5z" />
    <glyph glyph-name="uni1E0B" unicode="&#x1e0b;" horiz-adv-x="491" 
d="M418 739v-739h-78l-6 67q-47 -79 -120 -79q-82 0 -125.5 72.5t-43.5 200.5q0 83 22 146t61 97t89 34q69 0 113 -61v272zM330 133v267q-41 68 -95 68q-46 0 -71.5 -50t-25.5 -155q0 -205 93 -205q57 0 99 75zM286 936q16 -17 16 -44q0 -25 -16.5 -42t-42.5 -17t-42.5 17
t-16.5 42q0 26 16.5 43.5t42.5 17.5q27 0 43 -17z" />
    <glyph glyph-name="uni1E0D" unicode="&#x1e0d;" horiz-adv-x="491" 
d="M418 739v-739h-78l-6 67q-47 -79 -120 -79q-82 0 -125.5 72.5t-43.5 200.5q0 83 22 146t61 97t89 34q69 0 113 -61v272zM330 133v267q-41 68 -95 68q-46 0 -71.5 -50t-25.5 -155q0 -205 93 -205q57 0 99 75zM208 -179q-16 17 -16 44q0 25 16.5 42t42.5 17t42.5 -17
t16.5 -42q0 -26 -16.5 -43.5t-42.5 -17.5q-27 0 -43 17z" />
    <glyph glyph-name="uni018D" unicode="&#x18d;" horiz-adv-x="480" 
d="M371.5 1q18.5 -32 18.5 -74q0 -61 -40.5 -102t-116.5 -41q-43 0 -77.5 13.5t-65.5 39.5l40 52q27 -19 49.5 -27.5t51.5 -8.5q36 0 53.5 19t17.5 53q0 24 -7.5 40t-27.5 31.5t-60 36.5q-85 43 -123.5 99.5t-38.5 152.5q0 118 51.5 186t143.5 68t143.5 -61.5t51.5 -190.5
q0 -80 -33 -136.5t-93 -90.5q44 -27 62.5 -59zM148 197q10 -35 36 -61.5t75 -49.5q42 33 62.5 81t20.5 120q0 99 -24.5 140t-77.5 41q-52 0 -77 -41.5t-25 -141.5q0 -53 10 -88z" />
    <glyph glyph-name="uni02A4" unicode="&#x2a4;" horiz-adv-x="791" 
d="M720 153.5q49 -50.5 49 -146.5q0 -99 -54.5 -159t-146.5 -60q-59 0 -102 22t-76 67l52 46q30 -33 58 -48t65 -15q53 0 82 38.5t29 110.5q0 70 -29 100.5t-94 30.5h-66v64l169 250h-238v-454h-78l-6 67q-47 -79 -120 -79q-82 0 -125.5 72.5t-43.5 200.5q0 83 22 146t61 97
t89 34q69 0 113 -61v272l88 -10v-212h330v-68l-174 -254q97 -1 146 -51.5zM330 133v267q-41 68 -95 68q-46 0 -71.5 -50t-25.5 -155q0 -205 93 -205q57 0 99 75z" />
    <glyph glyph-name="uni0257" unicode="&#x257;" horiz-adv-x="491" 
d="M558 712l-34 -54q-16 10 -28 15t-30 5q-24 0 -36 -14.5t-12 -47.5v-616h-78l-6 67q-47 -79 -120 -79q-82 0 -125.5 72.5t-43.5 200.5q0 83 22 146t61 97t89 34q69 0 113 -61v134q0 67 34 102.5t92 35.5q57 0 102 -37zM330 133v267q-41 68 -95 68q-46 0 -71.5 -50
t-25.5 -155q0 -205 93 -205q57 0 99 75z" />
    <glyph glyph-name="uni1E0F" unicode="&#x1e0f;" horiz-adv-x="491" 
d="M418 739v-739h-78l-6 67q-47 -79 -120 -79q-82 0 -125.5 72.5t-43.5 200.5q0 83 22 146t61 97t89 34q69 0 113 -61v272zM330 133v267q-41 68 -95 68q-46 0 -71.5 -50t-25.5 -155q0 -205 93 -205q57 0 99 75zM365 -170h-228v64h228v-64z" />
    <glyph glyph-name="uni0256" unicode="&#x256;" horiz-adv-x="491" 
d="M562 -175q-43 -37 -102 -37q-57 0 -93.5 34t-36.5 95v143q-46 -72 -116 -72q-82 0 -125.5 72.5t-43.5 200.5q0 83 22 146t61 97t89 34q69 0 113 -61v272l88 -10v-822q0 -58 49 -58q17 0 29.5 4.5t28.5 14.5zM330 133v267q-41 68 -95 68q-46 0 -71.5 -50t-25.5 -155
q0 -205 93 -205q57 0 99 75z" />
    <glyph glyph-name="uni018C" unicode="&#x18c;" horiz-adv-x="491" 
d="M418 0h-78l-6 67q-47 -79 -120 -79q-82 0 -125.5 72.5t-43.5 200.5q0 83 22 146t61 97t89 34q69 0 113 -61v194h-178v68h266v-739zM330 133v267q-41 68 -95 68q-46 0 -71.5 -50t-25.5 -155q0 -205 93 -205q57 0 99 75z" />
    <glyph glyph-name="uni01F3" unicode="&#x1f3;" horiz-adv-x="853" 
d="M418 739v-739h-78l-6 67q-47 -79 -120 -79q-82 0 -125.5 72.5t-43.5 200.5q0 83 22 146t61 97t89 34q69 0 113 -61v272zM330 133v267q-41 68 -95 68q-46 0 -71.5 -50t-25.5 -155q0 -205 93 -205q57 0 99 75zM829 527v-68l-227 -385h229l-9 -74h-313v66l227 386h-208v75
h301z" />
    <glyph glyph-name="uni02A3" unicode="&#x2a3;" horiz-adv-x="762" 
d="M740 74l-9 -74h-391l-6 67q-47 -79 -120 -79q-82 0 -125.5 72.5t-43.5 200.5q0 83 22 146t61 97t89 34q69 0 113 -61v272l88 -10v-212h320v-68l-227 -385h229zM330 133v267q-41 68 -95 68q-46 0 -71.5 -50t-25.5 -155q0 -205 93 -205q57 0 99 75zM418 452v-386l227 386
h-227z" />
    <glyph glyph-name="uni01C6" unicode="&#x1c6;" horiz-adv-x="853" 
d="M418 739v-739h-78l-6 67q-47 -79 -120 -79q-82 0 -125.5 72.5t-43.5 200.5q0 83 22 146t61 97t89 34q69 0 113 -61v272zM330 133v267q-41 68 -95 68q-46 0 -71.5 -50t-25.5 -155q0 -205 93 -205q57 0 99 75zM829 527v-68l-227 -385h229l-9 -74h-313v66l227 386h-208v75
h301zM779 782l35 -39l-112 -115h-56l-112 115l35 39l105 -88z" />
    <glyph glyph-name="uni02A5" unicode="&#x2a5;" horiz-adv-x="791" 
d="M767.5 29.5q-39.5 -28.5 -118.5 -29.5q-4 -40 -4 -121h-59q0 66 4 121h-250l-6 67q-47 -79 -120 -79q-82 0 -125.5 72.5t-43.5 200.5q0 83 22 146t61 97t89 34q69 0 113 -61v272l88 -10v-212h319v-68l-227 -385h89q27 138 117 138q40 0 65.5 -24.5t25.5 -68.5
q0 -61 -39.5 -89.5zM330 133v267q-41 68 -95 68q-46 0 -71.5 -50t-25.5 -155q0 -205 93 -205q57 0 99 75zM418 452v-384l226 384h-226zM721.5 84q17.5 9 17.5 35q0 17 -7 26t-20 9q-18 0 -31.5 -17.5t-21.5 -62.5q45 1 62.5 10z" />
    <glyph glyph-name="e" unicode="e" horiz-adv-x="454" 
d="M412 233h-276q4 -95 31.5 -134t78.5 -39q33 0 59 10.5t54 33.5l39 -53q-66 -63 -155 -63q-94 0 -146 69.5t-52 200.5t49.5 205.5t139.5 74.5q87 0 133.5 -65.5t46.5 -193.5q0 -22 -2 -46zM329 305q0 86 -23 125t-72 39q-44 0 -69 -39.5t-29 -131.5h193v7z" />
    <glyph glyph-name="eacute" unicode="&#xe9;" horiz-adv-x="454" 
d="M412 233h-276q4 -95 31.5 -134t78.5 -39q33 0 59 10.5t54 33.5l39 -53q-66 -63 -155 -63q-94 0 -146 69.5t-52 200.5t49.5 205.5t139.5 74.5q87 0 133.5 -65.5t46.5 -193.5q0 -22 -2 -46zM329 305q0 86 -23 125t-72 39q-44 0 -69 -39.5t-29 -131.5h193v7zM294 795l39 -70
l-178 -86l-26 44z" />
    <glyph glyph-name="ebreve" unicode="&#x115;" horiz-adv-x="454" 
d="M412 233h-276q4 -95 31.5 -134t78.5 -39q33 0 59 10.5t54 33.5l39 -53q-66 -63 -155 -63q-94 0 -146 69.5t-52 200.5t49.5 205.5t139.5 74.5q87 0 133.5 -65.5t46.5 -193.5q0 -22 -2 -46zM329 305q0 86 -23 125t-72 39q-44 0 -69 -39.5t-29 -131.5h193v7zM144.5 677.5
q-33.5 33.5 -38.5 97.5l54 12q16 -77 72 -77q58 0 74 77l54 -12q-5 -64 -39 -97.5t-89 -33.5q-54 0 -87.5 33.5z" />
    <glyph glyph-name="ecaron" unicode="&#x11b;" horiz-adv-x="454" 
d="M412 233h-276q4 -95 31.5 -134t78.5 -39q33 0 59 10.5t54 33.5l39 -53q-66 -63 -155 -63q-94 0 -146 69.5t-52 200.5t49.5 205.5t139.5 74.5q87 0 133.5 -65.5t46.5 -193.5q0 -22 -2 -46zM329 305q0 86 -23 125t-72 39q-44 0 -69 -39.5t-29 -131.5h193v7zM338 782l35 -39
l-112 -115h-56l-112 115l35 39l105 -88z" />
    <glyph glyph-name="uni0229" unicode="&#x229;" horiz-adv-x="454" 
d="M412 233h-276q4 -95 31.5 -134t78.5 -39q33 0 59 10.5t54 33.5l39 -53q-55 -53 -130 -62v-49q78 -12 78 -84q0 -45 -29 -70t-76 -25q-46 0 -79 23l25 46q26 -12 49 -12q18 0 29.5 9.5t11.5 28.5q0 23 -17.5 34t-56.5 11l9 89q-79 11 -123 79.5t-44 188.5
q0 131 49.5 205.5t139.5 74.5q87 0 133.5 -65.5t46.5 -193.5q0 -22 -2 -46zM329 305q0 86 -23 125t-72 39q-44 0 -69 -39.5t-29 -131.5h193v7z" />
    <glyph glyph-name="ecircumflex" unicode="&#xea;" horiz-adv-x="454" 
d="M412 233h-276q4 -95 31.5 -134t78.5 -39q33 0 59 10.5t54 33.5l39 -53q-66 -63 -155 -63q-94 0 -146 69.5t-52 200.5t49.5 205.5t139.5 74.5q87 0 133.5 -65.5t46.5 -193.5q0 -22 -2 -46zM329 305q0 86 -23 125t-72 39q-44 0 -69 -39.5t-29 -131.5h193v7zM128 637l-35 38
l112 116h56l112 -116l-36 -38l-104 84z" />
    <glyph glyph-name="uni1EBF" unicode="&#x1ebf;" horiz-adv-x="454" 
d="M412 233h-276q4 -95 31.5 -134t78.5 -39q33 0 59 10.5t54 33.5l39 -53q-66 -63 -155 -63q-94 0 -146 69.5t-52 200.5t49.5 205.5t139.5 74.5q87 0 133.5 -65.5t46.5 -193.5q0 -22 -2 -46zM329 305q0 86 -23 125t-72 39q-44 0 -69 -39.5t-29 -131.5h193v7zM125 590l-35 38
l112 112h56l112 -112l-36 -38l-104 80zM407 886l58 -48l-122 -130l-37 32z" />
    <glyph glyph-name="uni1EC7" unicode="&#x1ec7;" horiz-adv-x="454" 
d="M412 233h-276q4 -95 31.5 -134t78.5 -39q33 0 59 10.5t54 33.5l39 -53q-66 -63 -155 -63q-94 0 -146 69.5t-52 200.5t49.5 205.5t139.5 74.5q87 0 133.5 -65.5t46.5 -193.5q0 -22 -2 -46zM329 305q0 86 -23 125t-72 39q-44 0 -69 -39.5t-29 -131.5h193v7zM128 637l-35 38
l112 116h56l112 -116l-36 -38l-104 84zM201 -179q-16 17 -16 44q0 25 16.5 42t42.5 17t42.5 -17t16.5 -42q0 -26 -16.5 -43.5t-42.5 -17.5q-27 0 -43 17z" />
    <glyph glyph-name="uni1EC1" unicode="&#x1ec1;" horiz-adv-x="454" 
d="M412 233h-276q4 -95 31.5 -134t78.5 -39q33 0 59 10.5t54 33.5l39 -53q-66 -63 -155 -63q-94 0 -146 69.5t-52 200.5t49.5 205.5t139.5 74.5q87 0 133.5 -65.5t46.5 -193.5q0 -22 -2 -46zM329 305q0 86 -23 125t-72 39q-44 0 -69 -39.5t-29 -131.5h193v7zM125 590l-35 38
l112 112h56l112 -112l-36 -38l-104 80zM54 886l103 -146l-39 -32l-122 130z" />
    <glyph glyph-name="uni1EC3" unicode="&#x1ec3;" horiz-adv-x="454" 
d="M412 233h-276q4 -95 31.5 -134t78.5 -39q33 0 59 10.5t54 33.5l39 -53q-66 -63 -155 -63q-94 0 -146 69.5t-52 200.5t49.5 205.5t139.5 74.5q87 0 133.5 -65.5t46.5 -193.5q0 -22 -2 -46zM329 305q0 86 -23 125t-72 39q-44 0 -69 -39.5t-29 -131.5h193v7zM125 590l-35 38
l112 112h56l112 -112l-36 -38l-104 80zM319 804q32 5 45 13t13 30q0 39 -35 39q-22 0 -48 -13l-18 47q34 24 79 24q44 0 67.5 -24t23.5 -66q0 -36 -17.5 -57.5t-48.5 -27.5v-57h-61v92z" />
    <glyph glyph-name="uni1EC5" unicode="&#x1ec5;" horiz-adv-x="454" 
d="M412 233h-276q4 -95 31.5 -134t78.5 -39q33 0 59 10.5t54 33.5l39 -53q-66 -63 -155 -63q-94 0 -146 69.5t-52 200.5t49.5 205.5t139.5 74.5q87 0 133.5 -65.5t46.5 -193.5q0 -22 -2 -46zM329 305q0 86 -23 125t-72 39q-44 0 -69 -39.5t-29 -131.5h193v7zM127 580l-35 38
l112 112h56l112 -112l-36 -38l-104 80zM253.5 774.5q-12.5 6.5 -31.5 19.5q-9 7 -19 12.5t-19 5.5q-13 0 -23 -10.5t-22 -34.5l-48 23q15 40 38 62.5t52 22.5q17 0 30 -6.5t29 -18.5q25 -19 39 -19q12 0 22 10t22 33l49 -22q-29 -84 -90 -84q-16 0 -28.5 6.5z" />
    <glyph glyph-name="uni0205" unicode="&#x205;" horiz-adv-x="454" 
d="M412 233h-276q4 -95 31.5 -134t78.5 -39q33 0 59 10.5t54 33.5l39 -53q-66 -63 -155 -63q-94 0 -146 69.5t-52 200.5t49.5 205.5t139.5 74.5q87 0 133.5 -65.5t46.5 -193.5q0 -22 -2 -46zM329 305q0 86 -23 125t-72 39q-44 0 -69 -39.5t-29 -131.5h193v7zM136 827
l70 -170l-49 -22l-90 155zM263 827l63 -165l-49 -22l-82 150z" />
    <glyph glyph-name="edieresis" unicode="&#xeb;" horiz-adv-x="454" 
d="M412 233h-276q4 -95 31.5 -134t78.5 -39q33 0 59 10.5t54 33.5l39 -53q-66 -63 -155 -63q-94 0 -146 69.5t-52 200.5t49.5 205.5t139.5 74.5q87 0 133.5 -65.5t46.5 -193.5q0 -22 -2 -46zM329 305q0 86 -23 125t-72 39q-44 0 -69 -39.5t-29 -131.5h193v7zM183 749
q15 -16 15 -39t-15 -39t-38 -16t-38 16t-15 39t15 39t38 16t38 -16zM358 749q15 -16 15 -39t-15 -39t-38 -16q-22 0 -37.5 16t-15.5 39t15.5 39t37.5 16q23 0 38 -16z" />
    <glyph glyph-name="edotaccent" unicode="&#x117;" horiz-adv-x="454" 
d="M412 233h-276q4 -95 31.5 -134t78.5 -39q33 0 59 10.5t54 33.5l39 -53q-66 -63 -155 -63q-94 0 -146 69.5t-52 200.5t49.5 205.5t139.5 74.5q87 0 133.5 -65.5t46.5 -193.5q0 -22 -2 -46zM329 305q0 86 -23 125t-72 39q-44 0 -69 -39.5t-29 -131.5h193v7zM275 760
q16 -17 16 -44q0 -25 -16.5 -42t-42.5 -17t-42.5 17t-16.5 42q0 26 16.5 43.5t42.5 17.5q27 0 43 -17z" />
    <glyph glyph-name="uni1EB9" unicode="&#x1eb9;" horiz-adv-x="454" 
d="M412 233h-276q4 -95 31.5 -134t78.5 -39q33 0 59 10.5t54 33.5l39 -53q-66 -63 -155 -63q-94 0 -146 69.5t-52 200.5t49.5 205.5t139.5 74.5q87 0 133.5 -65.5t46.5 -193.5q0 -22 -2 -46zM329 305q0 86 -23 125t-72 39q-44 0 -69 -39.5t-29 -131.5h193v7zM201 -179
q-16 17 -16 44q0 25 16.5 42t42.5 17t42.5 -17t16.5 -42q0 -26 -16.5 -43.5t-42.5 -17.5q-27 0 -43 17z" />
    <glyph glyph-name="egrave" unicode="&#xe8;" horiz-adv-x="454" 
d="M412 233h-276q4 -95 31.5 -134t78.5 -39q33 0 59 10.5t54 33.5l39 -53q-66 -63 -155 -63q-94 0 -146 69.5t-52 200.5t49.5 205.5t139.5 74.5q87 0 133.5 -65.5t46.5 -193.5q0 -22 -2 -46zM329 305q0 86 -23 125t-72 39q-44 0 -69 -39.5t-29 -131.5h193v7zM178 795
l165 -112l-26 -44l-178 86z" />
    <glyph glyph-name="uni1EBB" unicode="&#x1ebb;" horiz-adv-x="454" 
d="M412 233h-276q4 -95 31.5 -134t78.5 -39q33 0 59 10.5t54 33.5l39 -53q-66 -63 -155 -63q-94 0 -146 69.5t-52 200.5t49.5 205.5t139.5 74.5q87 0 133.5 -65.5t46.5 -193.5q0 -22 -2 -46zM329 305q0 86 -23 125t-72 39q-44 0 -69 -39.5t-29 -131.5h193v7zM202 704
q32 5 45 13t13 30q0 39 -35 39q-22 0 -48 -13l-18 47q34 24 79 24q44 0 67.5 -24t23.5 -66q0 -36 -17.5 -57.5t-48.5 -27.5v-57h-61v92z" />
    <glyph glyph-name="uni0207" unicode="&#x207;" horiz-adv-x="454" 
d="M412 233h-276q4 -95 31.5 -134t78.5 -39q33 0 59 10.5t54 33.5l39 -53q-66 -63 -155 -63q-94 0 -146 69.5t-52 200.5t49.5 205.5t139.5 74.5q87 0 133.5 -65.5t46.5 -193.5q0 -22 -2 -46zM329 305q0 86 -23 125t-72 39q-44 0 -69 -39.5t-29 -131.5h193v7zM321 724.5
q34 -33.5 39 -97.5l-54 -12q-16 77 -74 77q-56 0 -72 -77l-54 12q5 64 38.5 97.5t87.5 33.5q55 0 89 -33.5z" />
    <glyph glyph-name="emacron" unicode="&#x113;" horiz-adv-x="454" 
d="M412 233h-276q4 -95 31.5 -134t78.5 -39q33 0 59 10.5t54 33.5l39 -53q-66 -63 -155 -63q-94 0 -146 69.5t-52 200.5t49.5 205.5t139.5 74.5q87 0 133.5 -65.5t46.5 -193.5q0 -22 -2 -46zM329 305q0 86 -23 125t-72 39q-44 0 -69 -39.5t-29 -131.5h193v7zM347 669h-228
v64h228v-64z" />
    <glyph glyph-name="eogonek" unicode="&#x119;" horiz-adv-x="454" 
d="M412 233h-276q4 -95 31.5 -134t78.5 -39q33 0 59 10.5t54 33.5l39 -53q-35 -34 -78 -50q-51 -28 -70.5 -53.5t-19.5 -55.5q0 -49 46 -49q22 0 50 7l-8 -67q-30 -7 -53 -7q-48 0 -77 28t-29 72q0 34 18.5 63t53.5 49q-88 5 -137 74t-49 196q0 131 49.5 205.5t139.5 74.5
q87 0 133.5 -65.5t46.5 -193.5q0 -22 -2 -46zM329 305q0 86 -23 125t-72 39q-44 0 -69 -39.5t-29 -131.5h193v7z" />
    <glyph glyph-name="uni025B" unicode="&#x25b;" horiz-adv-x="389" 
d="M300.5 526q33.5 -12 64.5 -36l-37 -52q-25 16 -48 23.5t-51 7.5q-37 0 -57 -20t-20 -59q0 -36 21.5 -58.5t58.5 -22.5h52l-10 -69h-47q-47 0 -68 -22.5t-21 -70.5q0 -41 23 -64.5t66 -23.5q31 0 57 11t52 33l43 -53q-30 -30 -71.5 -46t-88.5 -16q-78 0 -126 42t-48 116
q0 112 118 134q-48 11 -74.5 40t-26.5 77q0 64 45 102.5t116 38.5q44 0 77.5 -12z" />
    <glyph glyph-name="uni029A" unicode="&#x29a;" horiz-adv-x="474" 
d="M95.5 33q-50.5 45 -50.5 122q0 56 29 86t89 41q-50 14 -72.5 41.5t-22.5 70.5q0 65 45 104.5t114 39.5q97 0 149.5 -71t52.5 -204q0 -135 -50.5 -205t-151.5 -70q-81 0 -131.5 45zM312.5 105.5q25.5 46.5 25.5 157.5q0 109 -27.5 157.5t-82.5 48.5q-33 0 -52.5 -20
t-19.5 -56q0 -42 23.5 -63t59.5 -21h21l5 -69h-30q-46 0 -72.5 -19t-26.5 -66q0 -50 24.5 -73t67.5 -23q59 0 84.5 46.5z" />
    <glyph glyph-name="uni025C" unicode="&#x25c;" horiz-adv-x="411" 
d="M297.5 499.5q45.5 -38.5 45.5 -104.5q0 -44 -22.5 -70.5t-73.5 -42.5q60 -11 89.5 -41t29.5 -86q0 -80 -52.5 -123.5t-134.5 -43.5q-98 0 -169 66l46 51q30 -24 57 -35t63 -11q97 0 97 96q0 48 -27 66.5t-84 18.5h-52l5 69h38q50 0 75 20.5t25 63.5q0 76 -78 76
q-32 0 -56 -10t-53 -30l-41 50q34 30 72.5 44.5t87.5 14.5q67 0 112.5 -38.5z" />
    <glyph glyph-name="uni025E" unicode="&#x25e;" horiz-adv-x="474" 
d="M95.5 58q-50.5 70 -50.5 205q0 133 52.5 204t149.5 71q69 0 114 -39.5t45 -104.5q0 -43 -22.5 -70.5t-72.5 -41.5q60 -11 89 -41t29 -86q0 -77 -50.5 -122t-131.5 -45q-101 0 -151.5 70zM313.5 82q24.5 23 24.5 73q0 47 -26.5 66t-72.5 19h-30l5 69h21q36 0 59.5 21
t23.5 63q0 36 -19.5 56t-52.5 20q-55 0 -82.5 -48.5t-27.5 -157.5q0 -111 25.5 -157.5t84.5 -46.5q43 0 67.5 23z" />
    <glyph glyph-name="uni025D" unicode="&#x25d;" horiz-adv-x="614" 
d="M634 352q-42 -38 -97 -38t-86 32t-31 89v20l-77 -50v-10q0 -44 -22.5 -70.5t-73.5 -42.5q60 -11 89.5 -41t29.5 -86q0 -80 -52.5 -123.5t-134.5 -43.5q-98 0 -169 66l46 51q30 -24 57 -35t63 -11q97 0 97 96q0 48 -27 66.5t-84 18.5h-52l5 69h38q50 0 75 20.5t25 63.5
q0 76 -78 76q-32 0 -56 -10t-53 -30l-41 50q34 30 72.5 44.5t87.5 14.5q45 0 82.5 -18.5t57.5 -53.5l92 61h79v-84q0 -58 50 -58q16 0 27 4.5t26 13.5z" />
    <glyph glyph-name="uni0258" unicode="&#x258;" horiz-adv-x="454" 
d="M409 258q0 -131 -52 -200.5t-146 -69.5q-87 0 -156 64l40 52q28 -23 54 -33.5t59 -10.5q51 0 78.5 39t31.5 134h-276q-2 24 -2 46q0 125 49 192t135 67q185 0 185 -280zM125 298h193q-3 97 -26 134t-68 37q-48 0 -73.5 -40.5t-25.5 -123.5v-7z" />
    <glyph glyph-name="uni0283" unicode="&#x283;" horiz-adv-x="234" 
d="M301 712l-34 -54q-16 10 -28 15t-30 5q-24 0 -36 -14.5t-12 -47.5v-699q0 -61 -36.5 -95t-93.5 -34q-59 0 -102 37l37 53q16 -10 28.5 -14.5t29.5 -4.5q49 0 49 58v694q0 67 34 102.5t92 35.5q57 0 102 -37z" />
    <glyph glyph-name="uni0286" unicode="&#x286;" horiz-adv-x="258" 
d="M184 -10q42 -13 90 -39l-19 -48q-32 17 -72 31q-7 -70 -43 -108t-99 -38q-53 0 -82.5 28t-29.5 78q0 55 32.5 84.5t89.5 29.5q28 0 46 -3v606q0 67 34 102.5t92 35.5q57 0 102 -37l-34 -54q-16 10 -28 15t-30 5q-24 0 -36 -14.5t-12 -47.5v-90zM83 -128.5
q13 24.5 14 78.5q-15 5 -45 5q-59 0 -59 -57q0 -26 11 -38.5t36 -12.5q30 0 43 24.5z" />
    <glyph glyph-name="uni01AA" unicode="&#x1aa;" horiz-adv-x="276" 
d="M347 -175q-43 -37 -102 -37q-57 0 -93.5 34t-36.5 95v571q-23 -9 -46 -9q-50 0 -82 35.5t-32 98.5q0 64 33.5 100t88.5 36q58 0 92 -35t34 -101v-696q0 -58 49 -58q17 0 29.5 4.5t28.5 14.5zM115 554v64q0 33 -9.5 47.5t-28.5 14.5q-39 0 -39 -65q0 -36 10.5 -51.5
t33.5 -15.5q17 0 33 6z" />
    <glyph glyph-name="uni0285" unicode="&#x285;" horiz-adv-x="368" 
d="M370 26q-43 -37 -102 -37q-57 0 -93.5 34t-36.5 95v287q0 33 -12 47.5t-36 14.5q-18 0 -30 -5t-28 -15l-34 54q45 37 102 37q58 0 92 -35.5t34 -102.5v-282q0 -58 49 -58q17 0 29.5 4.5t28.5 14.5z" />
    <glyph glyph-name="uni0247" unicode="&#x247;" horiz-adv-x="454" 
d="M234 233l-37 -162q19 -11 49 -11q33 0 59 10.5t54 33.5l39 -50q-68 -66 -155 -66q-34 0 -63 9l-15 -67l-39 9l17 76q-47 30 -72.5 91.5t-25.5 151.5q0 131 49.5 205.5t139.5 74.5q10 0 28 -2l13 59l39 -9l-14 -60q56 -22 85 -84t29 -163q0 -22 -2 -46h-178zM165 429.5
q-25 -39.5 -29 -131.5h72l38 170q-4 1 -12 1q-44 0 -69 -39.5zM284 455l-35 -157h80v7q0 117 -45 150zM193 233h-57q3 -86 28 -128z" />
    <glyph glyph-name="uni1EBD" unicode="&#x1ebd;" horiz-adv-x="454" 
d="M412 233h-276q4 -95 31.5 -134t78.5 -39q33 0 59 10.5t54 33.5l39 -53q-66 -63 -155 -63q-94 0 -146 69.5t-52 200.5t49.5 205.5t139.5 74.5q87 0 133.5 -65.5t46.5 -193.5q0 -22 -2 -46zM329 305q0 86 -23 125t-72 39q-44 0 -69 -39.5t-29 -131.5h193v7zM255.5 667.5
q-12.5 6.5 -31.5 19.5q-9 7 -19 12.5t-19 5.5q-13 0 -23 -10.5t-22 -34.5l-48 23q15 40 38 62.5t52 22.5q17 0 30 -6.5t29 -18.5q25 -19 39 -19q12 0 22 10t22 33l49 -22q-29 -84 -90 -84q-16 0 -28.5 6.5z" />
    <glyph glyph-name="uni01DD" unicode="&#x1dd;" 
d="M368 469q47 -69 47 -205q0 -137 -50 -206.5t-140 -69.5q-87 0 -136 65t-49 195q0 22 2 46h284q-3 94 -29 133t-74 39q-32 0 -58.5 -10.5t-55.5 -34.5l-39 55q65 62 152 62q99 0 146 -69zM298.5 94.5q24.5 36.5 27.5 133.5h-201v-7q0 -86 25.5 -124.5t74.5 -38.5
t73.5 36.5z" />
    <glyph glyph-name="uni0259" unicode="&#x259;" 
d="M368 469q47 -69 47 -205q0 -137 -50 -206.5t-140 -69.5q-87 0 -136 65t-49 195q0 22 2 46h284q-3 94 -29 133t-74 39q-32 0 -58.5 -10.5t-55.5 -34.5l-39 55q65 62 152 62q99 0 146 -69zM298.5 94.5q24.5 36.5 27.5 133.5h-201v-7q0 -86 25.5 -124.5t74.5 -38.5
t73.5 36.5z" />
    <glyph glyph-name="uni025A" unicode="&#x25a;" horiz-adv-x="659" 
d="M679 352q-42 -38 -97 -38t-86 32t-31 89v20l-69 -45q19 -58 19 -146q0 -137 -50 -206.5t-140 -69.5q-87 0 -136 65t-49 195q0 22 2 46h284q-3 94 -29 133t-74 39q-32 0 -58.5 -10.5t-55.5 -34.5l-39 55q65 62 152 62q102 0 148 -72l92 61h79v-84q0 -58 50 -58
q16 0 27 4.5t26 13.5zM298.5 94.5q24.5 36.5 27.5 133.5h-201v-7q0 -86 25.5 -124.5t74.5 -38.5t73.5 36.5z" />
    <glyph glyph-name="uni0292" unicode="&#x292;" horiz-adv-x="396" 
d="M325 153.5q49 -50.5 49 -146.5q0 -99 -54.5 -159t-146.5 -60q-59 0 -102 22t-76 67l52 46q30 -33 58 -48t65 -15q53 0 82 38.5t29 110.5q0 70 -29 100.5t-94 30.5h-66v64l169 250h-239v73h331v-68l-174 -254q97 -1 146 -51.5z" />
    <glyph glyph-name="uni01EF" unicode="&#x1ef;" horiz-adv-x="396" 
d="M325 153.5q49 -50.5 49 -146.5q0 -99 -54.5 -159t-146.5 -60q-59 0 -102 22t-76 67l52 46q30 -33 58 -48t65 -15q53 0 82 38.5t29 110.5q0 70 -29 100.5t-94 30.5h-66v64l169 250h-239v73h331v-68l-174 -254q97 -1 146 -51.5zM292 782l35 -39l-112 -115h-56l-112 115
l35 39l105 -88z" />
    <glyph glyph-name="uni0293" unicode="&#x293;" horiz-adv-x="396" 
d="M338.5 -125q-35.5 -54 -103.5 -75l21 -56l-54 -21l-24 66q-11 -1 -32 -1q-85 0 -129 34t-44 97q0 48 27.5 77.5t70.5 29.5q48 0 77.5 -34t57.5 -123q39 13 57 47.5t18 89.5q0 72 -29 103t-94 31h-66v64l169 250h-239v73h331v-68l-174 -254q97 -1 146 -51.5t49 -147.5
q0 -77 -35.5 -131zM66 -125.5q24 -14.5 81 -14.5h4q-21 61 -36.5 83t-37.5 22q-35 0 -35 -44q0 -32 24 -46.5z" />
    <glyph glyph-name="uni01B9" unicode="&#x1b9;" horiz-adv-x="396" 
d="M401 -123q-33 -45 -76 -67t-102 -22q-92 0 -146.5 57.5t-54.5 155.5q0 96 50.5 149.5t144.5 54.5l-174 254v68h331v-73h-239l169 -250v-64h-66q-64 0 -93.5 -33t-29.5 -104q0 -72 28.5 -107.5t82.5 -35.5q37 0 65 15t58 48z" />
    <glyph glyph-name="uni01BA" unicode="&#x1ba;" horiz-adv-x="393" 
d="M23 -76q0 48 33.5 75.5t104.5 38.5q65 10 92 30.5t27 68.5q0 69 -70 69h-119v65l161 183h-232v73h328v-68l-166 -187h33q75 0 116.5 -34.5t41.5 -99.5q0 -136 -164 -164q-60 -11 -80 -22t-20 -35q0 -20 13.5 -37t41.5 -36l-27 -58q-114 56 -114 138z" />
    <glyph glyph-name="f" unicode="f" horiz-adv-x="283" 
d="M186 662q-15 -16 -15 -51v-84h106l-10 -69h-96v-458h-88v458h-73v69h73v83q0 62 37.5 100.5t105.5 38.5q55 0 107 -27l-26 -62q-37 18 -74 18q-32 0 -47 -16z" />
    <glyph glyph-name="uni1E1F" unicode="&#x1e1f;" horiz-adv-x="283" 
d="M186 662q-15 -16 -15 -51v-84h106l-10 -69h-96v-458h-88v458h-73v69h73v83q0 62 37.5 100.5t105.5 38.5q55 0 107 -27l-26 -62q-37 18 -74 18q-32 0 -47 -16zM259 936q16 -17 16 -44q0 -25 -16.5 -42t-42.5 -17t-42.5 17t-16.5 42q0 26 16.5 43.5t42.5 17.5q27 0 43 -17z
" />
    <glyph glyph-name="uni02A9" unicode="&#x2a9;" horiz-adv-x="724" 
d="M621 497q34 -41 34 -110v-470q0 -61 -36.5 -95t-93.5 -34q-59 0 -102 37l37 53q16 -10 28.5 -14.5t29.5 -4.5q49 0 49 58v458q0 51 -14.5 72.5t-43.5 21.5q-57 0 -106 -98v-371h-88v458h-144v-458h-88v458h-73v69h73v83q0 62 37.5 100.5t105.5 38.5q55 0 107 -27l-26 -62
q-37 18 -74 18q-32 0 -47 -16t-15 -51v-84h220l7 -79q26 44 57 67t75 23q57 0 91 -41z" />
    <glyph glyph-name="g" unicode="g" horiz-adv-x="434" 
d="M432 504q-23 -10 -51.5 -13t-72.5 -3q77 -42 77 -134q0 -81 -45 -129.5t-124 -48.5q-29 0 -53 10q-10 -8 -15.5 -21.5t-5.5 -28.5q0 -22 12 -34.5t43 -12.5h58q49 0 86 -19t56.5 -51.5t19.5 -71.5q0 -72 -53.5 -115.5t-154.5 -43.5q-104 0 -147.5 40.5t-43.5 118.5h78
q0 -49 24 -69.5t90 -20.5q64 0 92 21.5t28 62.5q0 78 -92 78h-37q-72 0 -105 26.5t-33 71.5q0 48 52 90q-77 47 -77 148q0 83 49 133t127 50q70 0 110 11t82 34zM147 446q-22 -29 -22 -91q0 -54 23 -87t64 -33q44 0 65 28t21 93q0 119 -85 119q-44 0 -66 -29z" />
    <glyph glyph-name="g.ss04" horiz-adv-x="491" 
d="M418 527v-543q0 -92 -48.5 -144t-140.5 -52q-81 0 -140 43l33 57q23 -14 46 -21.5t56 -7.5q57 0 81.5 30t24.5 91v98q-42 -70 -114 -70q-81 0 -126 70t-45 193q0 122 47 194.5t130 72.5q35 0 64.5 -18t50.5 -48l5 55h76zM285 97.5q23 19.5 45 58.5v244q-20 33 -42 50.5
t-50 17.5q-48 0 -74 -47.5t-26 -147.5q0 -195 93 -195q31 0 54 19.5z" />
    <glyph glyph-name="uni01F5" unicode="&#x1f5;" horiz-adv-x="434" 
d="M432 504q-23 -10 -51.5 -13t-72.5 -3q77 -42 77 -134q0 -81 -45 -129.5t-124 -48.5q-29 0 -53 10q-10 -8 -15.5 -21.5t-5.5 -28.5q0 -22 12 -34.5t43 -12.5h58q49 0 86 -19t56.5 -51.5t19.5 -71.5q0 -72 -53.5 -115.5t-154.5 -43.5q-104 0 -147.5 40.5t-43.5 118.5h78
q0 -49 24 -69.5t90 -20.5q64 0 92 21.5t28 62.5q0 78 -92 78h-37q-72 0 -105 26.5t-33 71.5q0 48 52 90q-77 47 -77 148q0 83 49 133t127 50q70 0 110 11t82 34zM147 446q-22 -29 -22 -91q0 -54 23 -87t64 -33q44 0 65 28t21 93q0 119 -85 119q-44 0 -66 -29zM278 795
l39 -70l-178 -86l-26 44z" />
    <glyph glyph-name="uni0263" unicode="&#x263;" horiz-adv-x="417" 
d="M256 63q29 -59 41.5 -98t12.5 -80q0 -46 -25.5 -71.5t-74.5 -25.5t-74 25.5t-25 70.5q0 35 13 75.5t41 101.5l-155 466h91l109 -406l109 406h88zM230.5 -58.5q-6.5 25.5 -20.5 59.5q-13 -35 -19.5 -60.5t-6.5 -50.5q0 -36 26 -36q27 0 27 36q0 26 -6.5 51.5z" />
    <glyph glyph-name="gbreve" unicode="&#x11f;" horiz-adv-x="434" 
d="M432 504q-23 -10 -51.5 -13t-72.5 -3q77 -42 77 -134q0 -81 -45 -129.5t-124 -48.5q-29 0 -53 10q-10 -8 -15.5 -21.5t-5.5 -28.5q0 -22 12 -34.5t43 -12.5h58q49 0 86 -19t56.5 -51.5t19.5 -71.5q0 -72 -53.5 -115.5t-154.5 -43.5q-104 0 -147.5 40.5t-43.5 118.5h78
q0 -49 24 -69.5t90 -20.5q64 0 92 21.5t28 62.5q0 78 -92 78h-37q-72 0 -105 26.5t-33 71.5q0 48 52 90q-77 47 -77 148q0 83 49 133t127 50q70 0 110 11t82 34zM147 446q-22 -29 -22 -91q0 -54 23 -87t64 -33q44 0 65 28t21 93q0 119 -85 119q-44 0 -66 -29zM128.5 677.5
q-33.5 33.5 -38.5 97.5l54 12q16 -77 72 -77q58 0 74 77l54 -12q-5 -64 -39 -97.5t-89 -33.5q-54 0 -87.5 33.5z" />
    <glyph glyph-name="gcaron" unicode="&#x1e7;" horiz-adv-x="434" 
d="M432 504q-23 -10 -51.5 -13t-72.5 -3q77 -42 77 -134q0 -81 -45 -129.5t-124 -48.5q-29 0 -53 10q-10 -8 -15.5 -21.5t-5.5 -28.5q0 -22 12 -34.5t43 -12.5h58q49 0 86 -19t56.5 -51.5t19.5 -71.5q0 -72 -53.5 -115.5t-154.5 -43.5q-104 0 -147.5 40.5t-43.5 118.5h78
q0 -49 24 -69.5t90 -20.5q64 0 92 21.5t28 62.5q0 78 -92 78h-37q-72 0 -105 26.5t-33 71.5q0 48 52 90q-77 47 -77 148q0 83 49 133t127 50q70 0 110 11t82 34zM147 446q-22 -29 -22 -91q0 -54 23 -87t64 -33q44 0 65 28t21 93q0 119 -85 119q-44 0 -66 -29zM322 782
l35 -39l-112 -115h-56l-112 115l35 39l105 -88z" />
    <glyph glyph-name="gcircumflex" unicode="&#x11d;" horiz-adv-x="434" 
d="M432 504q-23 -10 -51.5 -13t-72.5 -3q77 -42 77 -134q0 -81 -45 -129.5t-124 -48.5q-29 0 -53 10q-10 -8 -15.5 -21.5t-5.5 -28.5q0 -22 12 -34.5t43 -12.5h58q49 0 86 -19t56.5 -51.5t19.5 -71.5q0 -72 -53.5 -115.5t-154.5 -43.5q-104 0 -147.5 40.5t-43.5 118.5h78
q0 -49 24 -69.5t90 -20.5q64 0 92 21.5t28 62.5q0 78 -92 78h-37q-72 0 -105 26.5t-33 71.5q0 48 52 90q-77 47 -77 148q0 83 49 133t127 50q70 0 110 11t82 34zM147 446q-22 -29 -22 -91q0 -54 23 -87t64 -33q44 0 65 28t21 93q0 119 -85 119q-44 0 -66 -29zM112 637
l-35 38l112 116h56l112 -116l-36 -38l-104 84z" />
    <glyph glyph-name="gcommaaccent" unicode="&#x123;" horiz-adv-x="434" 
d="M432 504q-23 -10 -51.5 -13t-72.5 -3q77 -42 77 -134q0 -81 -45 -129.5t-124 -48.5q-29 0 -53 10q-10 -8 -15.5 -21.5t-5.5 -28.5q0 -22 12 -34.5t43 -12.5h58q49 0 86 -19t56.5 -51.5t19.5 -71.5q0 -72 -53.5 -115.5t-154.5 -43.5q-104 0 -147.5 40.5t-43.5 118.5h78
q0 -49 24 -69.5t90 -20.5q64 0 92 21.5t28 62.5q0 78 -92 78h-37q-72 0 -105 26.5t-33 71.5q0 48 52 90q-77 47 -77 148q0 83 49 133t127 50q70 0 110 11t82 34zM147 446q-22 -29 -22 -91q0 -54 23 -87t64 -33q44 0 65 28t21 93q0 119 -85 119q-44 0 -66 -29zM181.5 599.5
q-14.5 15.5 -14.5 38.5q0 13 4.5 28.5t16.5 47.5l35 86h48l-28 -116q27 -16 27 -46q0 -23 -14.5 -38.5t-37.5 -15.5q-22 0 -36.5 15.5z" />
    <glyph glyph-name="gdotaccent" unicode="&#x121;" horiz-adv-x="434" 
d="M432 504q-23 -10 -51.5 -13t-72.5 -3q77 -42 77 -134q0 -81 -45 -129.5t-124 -48.5q-29 0 -53 10q-10 -8 -15.5 -21.5t-5.5 -28.5q0 -22 12 -34.5t43 -12.5h58q49 0 86 -19t56.5 -51.5t19.5 -71.5q0 -72 -53.5 -115.5t-154.5 -43.5q-104 0 -147.5 40.5t-43.5 118.5h78
q0 -49 24 -69.5t90 -20.5q64 0 92 21.5t28 62.5q0 78 -92 78h-37q-72 0 -105 26.5t-33 71.5q0 48 52 90q-77 47 -77 148q0 83 49 133t127 50q70 0 110 11t82 34zM147 446q-22 -29 -22 -91q0 -54 23 -87t64 -33q44 0 65 28t21 93q0 119 -85 119q-44 0 -66 -29zM259 760
q16 -17 16 -44q0 -25 -16.5 -42t-42.5 -17t-42.5 17t-16.5 42q0 26 16.5 43.5t42.5 17.5q27 0 43 -17z" />
    <glyph glyph-name="uni0260" unicode="&#x260;" horiz-adv-x="491" 
d="M558 712l-34 -54q-16 10 -28 15t-30 5q-24 0 -36 -14.5t-12 -47.5v-632q0 -92 -48.5 -144t-140.5 -52q-81 0 -140 43l33 57q23 -14 46 -21.5t56 -7.5q57 0 81.5 30t24.5 91v98q-42 -70 -114 -70q-81 0 -126 70t-45 193q0 122 47 194.5t130 72.5q33 0 60.5 -15.5
t47.5 -41.5v130q0 67 34 102.5t92 35.5q57 0 102 -37zM285 97.5q23 19.5 45 58.5v244q-20 33 -42 50.5t-50 17.5q-48 0 -74 -47.5t-26 -147.5q0 -195 93 -195q31 0 54 19.5z" />
    <glyph glyph-name="uni01BE" unicode="&#x1be;" horiz-adv-x="419" 
d="M336.5 355q37.5 -47 37.5 -144q0 -104 -51.5 -163t-139.5 -59q-50 0 -90 20.5t-78 63.5l46 47q31 -31 58 -45.5t62 -14.5q101 0 101 153q0 72 -26 108t-77 52l-55 17v156h-58v68h58v124l88 9v-133h90v-68h-90v-112l25 -9q62 -23 99.5 -70z" />
    <glyph glyph-name="uni0294" unicode="&#x294;" horiz-adv-x="369" 
d="M107 348l47 17q51 18 77 53.5t26 106.5q0 153 -101 153q-35 0 -62 -14.5t-58 -45.5l-46 47q37 43 78 63.5t91 20.5q88 0 139 -59t51 -163q0 -68 -19 -111t-48 -65.5t-70 -39.5l-17 -7v-304h-88v348z" />
    <glyph glyph-name="uni0296" unicode="&#x296;" horiz-adv-x="419" 
d="M212 747v-313l25 -9q62 -23 99.5 -70t37.5 -144q0 -104 -51.5 -163t-139.5 -59q-50 0 -90 20.5t-78 63.5l46 47q31 -31 58 -45.5t62 -14.5q101 0 101 153q0 72 -26 108t-77 52l-55 17v348z" />
    <glyph glyph-name="uni0295" unicode="&#x295;" horiz-adv-x="369" 
d="M174 0v304l-17 7q-41 17 -70 39.5t-48 65.5t-19 111q0 104 51.5 163t139.5 59q50 0 90 -20.5t78 -63.5l-46 -47q-31 31 -58 45.5t-62 14.5q-101 0 -101 -153q0 -71 26 -106.5t77 -53.5l47 -17v-348h-88z" />
    <glyph glyph-name="uni0242" unicode="&#x242;" horiz-adv-x="363" 
d="M95 196l54 18q44 15 67.5 46.5t23.5 84.5q0 58 -23 88.5t-65 30.5q-32 0 -55 -12t-50 -37l-47 49q34 37 71 55.5t86 18.5q80 0 128 -52.5t48 -138.5q0 -80 -34 -120.5t-93 -63.5l-23 -9v-154h-88v196z" />
    <glyph glyph-name="uni02A1" unicode="&#x2a1;" horiz-adv-x="369" 
d="M195 304v-90h87v-67h-87v-147h-88v147h-55v67h55v134l47 17q51 18 77 53.5t26 106.5q0 153 -101 153q-35 0 -62 -14.5t-58 -45.5l-46 47q37 43 78 63.5t91 20.5q88 0 139 -59t51 -163q0 -68 -19 -111t-48 -65.5t-70 -39.5z" />
    <glyph glyph-name="uni02A2" unicode="&#x2a2;" horiz-adv-x="369" 
d="M112 525q0 -71 26 -106.5t77 -53.5l47 -17v-134h56v-67h-56v-147h-88v147h-86v67h86v90l-17 7q-41 17 -70 39.5t-48 65.5t-19 111q0 104 51.5 163t139.5 59q50 0 90 -20.5t78 -63.5l-46 -47q-31 31 -58 45.5t-62 14.5q-101 0 -101 -153z" />
    <glyph glyph-name="uni0261" unicode="&#x261;" horiz-adv-x="491" 
d="M418 527v-543q0 -92 -48.5 -144t-140.5 -52q-81 0 -140 43l33 57q23 -14 46 -21.5t56 -7.5q57 0 81.5 30t24.5 91v98q-42 -70 -114 -70q-81 0 -126 70t-45 193q0 122 47 194.5t130 72.5q35 0 64.5 -18t50.5 -48l5 55h76zM285 97.5q23 19.5 45 58.5v244q-20 33 -42 50.5
t-50 17.5q-48 0 -74 -47.5t-26 -147.5q0 -195 93 -195q31 0 54 19.5z" />
    <glyph glyph-name="uni01E5" unicode="&#x1e5;" horiz-adv-x="434" 
d="M461 -88h-48q-12 -57 -64 -90.5t-140 -33.5q-104 0 -147.5 40.5t-43.5 118.5h78q0 -49 24 -69.5t90 -20.5q56 0 85.5 14t38.5 41h-112v59h112q-16 48 -96 48h-37q-72 0 -105 26.5t-33 71.5q0 48 52 90q-77 47 -77 148q0 83 49 133t127 50q70 0 110 11t82 34l26 -79
q-23 -10 -51.5 -13t-72.5 -3q77 -42 77 -134q0 -81 -45 -129.5t-124 -48.5q-29 0 -53 10q-10 -8 -15.5 -21.5t-5.5 -28.5q0 -22 12 -34.5t43 -12.5h58q66 0 108.5 -33.5t51.5 -84.5h46v-59zM147 446q-22 -29 -22 -91q0 -54 23 -87t64 -33q44 0 65 28t21 93q0 119 -85 119
q-44 0 -66 -29z" />
    <glyph glyph-name="uni021D" unicode="&#x21d;" horiz-adv-x="395" 
d="M282 500q46 -38 46 -107q0 -49 -24.5 -78t-75.5 -43q60 -2 91 -32t31 -82q0 -87 -77 -154t-220 -105l-11 64q113 41 164 85.5t51 106.5q0 41 -19.5 58t-55.5 17h-80l6 69h48q36 0 59 22t23 67q0 81 -79 81q-31 0 -54 -9.5t-52 -29.5l-43 49q34 30 71.5 44.5t84.5 14.5
q70 0 116 -38z" />
    <glyph glyph-name="h" unicode="h" horiz-adv-x="482" 
d="M379 497q34 -41 34 -110v-387h-88v375q0 51 -14.5 72.5t-43.5 21.5q-57 0 -106 -98v-371h-88v738l88 9v-294q25 42 54.5 63.5t72.5 21.5q57 0 91 -41z" />
    <glyph glyph-name="hbar" unicode="&#x127;" horiz-adv-x="486" 
d="M383 497q34 -41 34 -110v-387h-88v375q0 51 -14.5 72.5t-43.5 21.5q-57 0 -106 -98v-371h-88v609h-60v67h60v62l88 9v-71h120v-67h-120v-156q25 42 54.5 63.5t72.5 21.5q57 0 91 -41z" />
    <glyph glyph-name="uni021F" unicode="&#x21f;" horiz-adv-x="482" 
d="M379 497q34 -41 34 -110v-387h-88v375q0 51 -14.5 72.5t-43.5 21.5q-57 0 -106 -98v-371h-88v738l88 9v-294q25 42 54.5 63.5t72.5 21.5q57 0 91 -41zM346 954l35 -38l-112 -112h-56l-112 112l36 38l104 -80z" />
    <glyph glyph-name="hcircumflex" unicode="&#x125;" horiz-adv-x="482" 
d="M379 497q34 -41 34 -110v-387h-88v375q0 51 -14.5 72.5t-43.5 21.5q-57 0 -106 -98v-371h-88v738l88 9v-294q25 42 54.5 63.5t72.5 21.5q57 0 91 -41zM135 811l-35 38l112 112h56l112 -112l-36 -38l-104 80z" />
    <glyph glyph-name="uni1E25" unicode="&#x1e25;" horiz-adv-x="482" 
d="M379 497q34 -41 34 -110v-387h-88v375q0 51 -14.5 72.5t-43.5 21.5q-57 0 -106 -98v-371h-88v738l88 9v-294q25 42 54.5 63.5t72.5 21.5q57 0 91 -41zM201 -179q-16 17 -16 44q0 25 16.5 42t42.5 17t42.5 -17t16.5 -42q0 -26 -16.5 -43.5t-42.5 -17.5q-27 0 -43 17z" />
    <glyph glyph-name="uni0267" unicode="&#x267;" horiz-adv-x="482" 
d="M379.5 495q33.5 -43 33.5 -118v-460q0 -61 -36.5 -95t-93.5 -34q-59 0 -102 37l37 53q16 -10 28.5 -14.5t29.5 -4.5q49 0 49 58v448q0 57 -14.5 80.5t-43.5 23.5q-57 0 -106 -98v-371h-88v610q0 62 37.5 100.5t105.5 38.5q57 0 107 -27l-27 -61q-37 17 -73 17
q-33 0 -47.5 -16.5t-14.5 -50.5v-158q25 42 54.5 63.5t72.5 21.5q58 0 91.5 -43z" />
    <glyph glyph-name="uni0266" unicode="&#x266;" horiz-adv-x="482" 
d="M379.5 495q33.5 -43 33.5 -118v-377h-88v365q0 57 -14.5 80.5t-43.5 23.5q-57 0 -106 -98v-371h-88v610q0 62 37.5 100.5t105.5 38.5q57 0 107 -27l-27 -61q-37 17 -73 17q-33 0 -47.5 -16.5t-14.5 -50.5v-158q25 42 54.5 63.5t72.5 21.5q58 0 91.5 -43z" />
    <glyph glyph-name="uni0265" unicode="&#x265;" horiz-adv-x="482" 
d="M409 527v-739l-88 11v275q-25 -42 -54.5 -63.5t-72.5 -21.5q-57 0 -91 41t-34 110v387h88v-375q0 -51 14.5 -72.5t43.5 -21.5q57 0 106 98v371h88z" />
    <glyph glyph-name="uni02AE" unicode="&#x2ae;" horiz-adv-x="567" 
d="M494 527v-739l-88 11v275q-25 -42 -54.5 -63.5t-72.5 -21.5q-57 0 -91 41t-34 110v271q0 58 -49 58q-17 0 -29.5 -4.5t-28.5 -14.5l-37 53q43 37 102 37q57 0 93.5 -34t36.5 -95v-259q0 -51 14.5 -72.5t43.5 -21.5q57 0 106 98v371h88z" />
    <glyph glyph-name="uni02AF" unicode="&#x2af;" horiz-adv-x="567" 
d="M638 -175q-43 -37 -102 -37q-57 0 -93.5 34t-36.5 95v157q-25 -42 -54.5 -63.5t-72.5 -21.5q-57 0 -91 41t-34 110v271q0 58 -49 58q-17 0 -29.5 -4.5t-28.5 -14.5l-37 53q43 37 102 37q57 0 93.5 -34t36.5 -95v-259q0 -51 14.5 -72.5t43.5 -21.5q57 0 106 98v371h88
v-610q0 -58 49 -58q17 0 29.5 4.5t28.5 14.5z" />
    <glyph glyph-name="uni0195" unicode="&#x195;" horiz-adv-x="727" 
d="M672 262q0 -143 -55.5 -208.5t-138.5 -65.5q-67 0 -110 41t-43 114v232q0 51 -14.5 72.5t-43.5 21.5q-57 0 -106 -98v-371h-88v738l88 9v-294q25 42 54.5 63.5t72.5 21.5q57 0 91 -41t34 -110v-240q0 -88 68 -88q103 0 103 204q0 122 -22 264h87q23 -154 23 -265z" />
    <glyph glyph-name="i" unicode="i" horiz-adv-x="234" 
d="M161 527v-527h-88v527h88zM159 760q16 -17 16 -44q0 -25 -16.5 -42t-42.5 -17t-42.5 17t-16.5 42q0 26 16.5 43.5t42.5 17.5q27 0 43 -17z" />
    <glyph glyph-name="dotlessi" unicode="&#x131;" horiz-adv-x="234" 
d="M161 527v-527h-88v527h88z" />
    <glyph glyph-name="iacute" unicode="&#xed;" horiz-adv-x="234" 
d="M161 527v-527h-88v527h88zM178 795l39 -70l-178 -86l-26 44z" />
    <glyph glyph-name="ibreve" unicode="&#x12d;" horiz-adv-x="234" 
d="M161 527v-527h-88v527h88zM28.5 677.5q-33.5 33.5 -38.5 97.5l54 12q16 -77 72 -77q58 0 74 77l54 -12q-5 -64 -39 -97.5t-89 -33.5q-54 0 -87.5 33.5z" />
    <glyph glyph-name="uni01D0" unicode="&#x1d0;" horiz-adv-x="234" 
d="M161 527v-527h-88v527h88zM222 782l35 -39l-112 -115h-56l-112 115l35 39l105 -88z" />
    <glyph glyph-name="icircumflex" unicode="&#xee;" horiz-adv-x="234" 
d="M161 527v-527h-88v527h88zM12 637l-35 38l112 116h56l112 -116l-36 -38l-104 84z" />
    <glyph glyph-name="uni0209" unicode="&#x209;" horiz-adv-x="234" 
d="M161 527v-527h-88v527h88zM20 827l70 -170l-49 -22l-90 155zM147 827l63 -165l-49 -22l-82 150z" />
    <glyph glyph-name="idieresis" unicode="&#xef;" horiz-adv-x="234" 
d="M161 527v-527h-88v527h88zM67 749q15 -16 15 -39t-15 -39t-38 -16t-38 16t-15 39t15 39t38 16t38 -16zM242 749q15 -16 15 -39t-15 -39t-38 -16q-22 0 -37.5 16t-15.5 39t15.5 39t37.5 16q23 0 38 -16z" />
    <glyph glyph-name="uni1E2F" unicode="&#x1e2f;" horiz-adv-x="234" 
d="M161 527v-527h-88v527h88zM189 889l58 -48l-122 -130l-37 32zM67 719q15 -16 15 -39t-15 -39t-38 -16t-38 16t-15 39t15 39t38 16t38 -16zM242 719q15 -16 15 -39t-15 -39t-38 -16q-22 0 -37.5 16t-15.5 39t15.5 39t37.5 16q23 0 38 -16z" />
    <glyph glyph-name="i.loclTRK" horiz-adv-x="234" 
d="M161 527v-527h-88v527h88zM159 760q16 -17 16 -44q0 -25 -16.5 -42t-42.5 -17t-42.5 17t-16.5 42q0 26 16.5 43.5t42.5 17.5q27 0 43 -17z" />
    <glyph glyph-name="uni1ECB" unicode="&#x1ecb;" horiz-adv-x="234" 
d="M161 527v-527h-88v527h88zM159 760q16 -17 16 -44q0 -25 -16.5 -42t-42.5 -17t-42.5 17t-16.5 42q0 26 16.5 43.5t42.5 17.5q27 0 43 -17zM74 -179q-16 17 -16 44q0 25 16.5 42t42.5 17t42.5 -17t16.5 -42q0 -26 -16.5 -43.5t-42.5 -17.5q-27 0 -43 17z" />
    <glyph glyph-name="igrave" unicode="&#xec;" horiz-adv-x="234" 
d="M161 527v-527h-88v527h88zM62 795l165 -112l-26 -44l-178 86z" />
    <glyph glyph-name="uni1EC9" unicode="&#x1ec9;" horiz-adv-x="234" 
d="M161 527v-527h-88v527h88zM86 704q32 5 45 13t13 30q0 39 -35 39q-22 0 -48 -13l-18 47q34 24 79 24q44 0 67.5 -24t23.5 -66q0 -36 -17.5 -57.5t-48.5 -27.5v-57h-61v92z" />
    <glyph glyph-name="uni020B" unicode="&#x20b;" horiz-adv-x="234" 
d="M161 527v-527h-88v527h88zM205 724.5q34 -33.5 39 -97.5l-54 -12q-16 77 -74 77q-56 0 -72 -77l-54 12q5 64 38.5 97.5t87.5 33.5q55 0 89 -33.5z" />
    <glyph glyph-name="ij" unicode="&#x133;" horiz-adv-x="468" 
d="M161 527v-527h-88v527h88zM159 760q16 -17 16 -44q0 -25 -16.5 -42t-42.5 -17t-42.5 17t-16.5 42q0 26 16.5 43.5t42.5 17.5q27 0 43 -17zM395 10q0 -61 -16.5 -101t-47 -66.5t-82.5 -53.5l-28 62q32 19 49.5 36.5t27 46t9.5 75.5v518h88v-517zM393 760q16 -17 16 -44
q0 -25 -16.5 -42t-42.5 -17t-42.5 17t-16.5 42q0 26 16.5 43.5t42.5 17.5q27 0 43 -17z" />
    <glyph glyph-name="imacron" unicode="&#x12b;" horiz-adv-x="234" 
d="M161 527v-527h-88v527h88zM231 669h-228v64h228v-64z" />
    <glyph glyph-name="iogonek" unicode="&#x12f;" horiz-adv-x="234" 
d="M73.5 674q-16.5 17 -16.5 42q0 26 16.5 43.5t42.5 17.5q27 0 43 -17t16 -44q0 -25 -16.5 -42t-42.5 -17t-42.5 17zM73 527h88v-527h-5q-57 -30 -78 -57t-21 -60q0 -24 11 -36t36 -12q20 0 48 6l-7 -64q-30 -7 -53 -7q-49 0 -77.5 26.5t-28.5 73.5q0 80 87 130v527z" />
    <glyph glyph-name="uni0269" unicode="&#x269;" horiz-adv-x="244" 
d="M94.5 16q-26.5 28 -26.5 76v435h88v-433q0 -33 28 -33q13 0 25 5l20 -60q-29 -18 -64 -18q-44 0 -70.5 28z" />
    <glyph glyph-name="uni0268" unicode="&#x268;" horiz-adv-x="259" 
d="M87.5 674q-16.5 17 -16.5 42q0 26 16.5 43.5t42.5 17.5q27 0 43 -17t16 -44q0 -25 -16.5 -42t-42.5 -17t-42.5 17zM249 315v-67h-74v-248h-88v248h-77v67h77v212h88v-212h74z" />
    <glyph glyph-name="itilde" unicode="&#x129;" horiz-adv-x="234" 
d="M161 527v-527h-88v527h88zM139.5 667.5q-12.5 6.5 -31.5 19.5q-9 7 -19 12.5t-19 5.5q-13 0 -23 -10.5t-22 -34.5l-48 23q15 40 38 62.5t52 22.5q17 0 30 -6.5t29 -18.5q25 -19 39 -19q12 0 22 10t22 33l49 -22q-29 -84 -90 -84q-16 0 -28.5 6.5z" />
    <glyph glyph-name="j" unicode="j" horiz-adv-x="234" 
d="M161 10q0 -61 -16.5 -101t-47 -66.5t-82.5 -53.5l-28 62q32 19 49.5 36.5t27 46t9.5 75.5v518h88v-517zM159 760q16 -17 16 -44q0 -25 -16.5 -42t-42.5 -17t-42.5 17t-16.5 42q0 26 16.5 43.5t42.5 17.5q27 0 43 -17z" />
    <glyph glyph-name="uni0237" unicode="&#x237;" horiz-adv-x="234" 
d="M161 10q0 -61 -16.5 -101t-47 -66.5t-82.5 -53.5l-28 62q32 19 49.5 36.5t27 46t9.5 75.5v518h88v-517z" />
    <glyph glyph-name="uni01F0" unicode="&#x1f0;" horiz-adv-x="234" 
d="M161 10q0 -61 -16.5 -101t-47 -66.5t-82.5 -53.5l-28 62q32 19 49.5 36.5t27 46t9.5 75.5v518h88v-517zM222 782l35 -39l-112 -115h-56l-112 115l35 39l105 -88z" />
    <glyph glyph-name="jcircumflex" unicode="&#x135;" horiz-adv-x="234" 
d="M161 10q0 -61 -16.5 -101t-47 -66.5t-82.5 -53.5l-28 62q32 19 49.5 36.5t27 46t9.5 75.5v518h88v-517zM12 637l-35 38l112 116h56l112 -116l-36 -38l-104 84z" />
    <glyph glyph-name="uni029D" unicode="&#x29d;" horiz-adv-x="258" 
d="M255 -97q-32 17 -72 31q-7 -70 -43 -108t-99 -38q-53 0 -82.5 28t-29.5 78q0 55 32.5 84.5t89.5 29.5q28 0 46 -3v522h88l-1 -536q44 -15 90 -40zM83 -128.5q13 24.5 14 78.5q-15 5 -45 5q-59 0 -59 -57q0 -26 11 -38.5t36 -12.5q30 0 43 24.5zM183 760q16 -17 16 -44
q0 -25 -16.5 -42t-42.5 -17t-42.5 17t-16.5 42q0 26 16.5 43.5t42.5 17.5q27 0 43 -17z" />
    <glyph glyph-name="uni025F" unicode="&#x25f;" horiz-adv-x="264" 
d="M254 218h-75v-208q0 -61 -16.5 -101t-47 -66.5t-82.5 -53.5l-28 62q32 19 49.5 36.5t27 46t9.5 75.5v209h-76v67h76v242h88v-242h75v-67z" />
    <glyph glyph-name="uni0284" unicode="&#x284;" horiz-adv-x="254" 
d="M249 67v-67h-75q-1 -58 -18 -95.5t-47 -63t-81 -52.5l-28 62q31 19 48.5 35.5t27 43t10.5 70.5h-76v67h76v544q0 67 34 102.5t92 35.5q57 0 102 -37l-34 -54q-16 10 -28 15t-30 5q-24 0 -36 -14.5t-12 -47.5v-549h75z" />
    <glyph glyph-name="uni0249" unicode="&#x249;" horiz-adv-x="264" 
d="M254 218h-75v-208q0 -61 -16.5 -101t-47 -66.5t-82.5 -53.5l-28 62q32 19 49.5 36.5t27 46t9.5 75.5v209h-76v67h76v242h88v-242h75v-67zM177 760q16 -17 16 -44q0 -25 -16.5 -42t-42.5 -17t-42.5 17t-16.5 42q0 26 16.5 43.5t42.5 17.5q27 0 43 -17z" />
    <glyph glyph-name="k" unicode="k" horiz-adv-x="428" 
d="M161 749v-749h-88v739zM415 527l-158 -234l174 -293h-98l-167 288l159 239h90z" />
    <glyph glyph-name="uni01E9" unicode="&#x1e9;" horiz-adv-x="428" 
d="M161 749v-749h-88v739zM415 527l-158 -234l174 -293h-98l-167 288l159 239h90zM340 954l35 -38l-112 -112h-56l-112 112l36 38l104 -80z" />
    <glyph glyph-name="kcommaaccent" unicode="&#x137;" horiz-adv-x="428" 
d="M161 749v-749h-88v739zM415 527l-158 -234l174 -293h-98l-167 288l159 239h90zM255.5 -93.5q14.5 -15.5 14.5 -38.5q0 -13 -4.5 -28.5t-16.5 -47.5l-35 -86h-48l28 116q-27 16 -27 46q0 23 14.5 38.5t37.5 15.5q22 0 36.5 -15.5z" />
    <glyph glyph-name="kgreenlandic" unicode="&#x138;" horiz-adv-x="428" 
d="M161 527v-527h-88v527h88zM415 527l-158 -244l174 -283h-98l-167 278l159 249h90z" />
    <glyph glyph-name="uni0199" unicode="&#x199;" horiz-adv-x="428" 
d="M175.5 661.5q-14.5 -16.5 -14.5 -50.5v-611h-88v610q0 62 37.5 100.5t105.5 38.5q57 0 107 -27l-27 -61q-37 17 -73 17q-33 0 -47.5 -16.5zM257 293l174 -293h-98l-167 288l159 239h90z" />
    <glyph glyph-name="uni029E" unicode="&#x29e;" horiz-adv-x="428" 
d="M13 0l158 234l-174 293h98l167 -288l-159 -239h-90zM267 -201v728h88v-739z" />
    <glyph glyph-name="l" unicode="l" horiz-adv-x="244" 
d="M94.5 16q-26.5 28 -26.5 76v647l88 10v-655q0 -33 28 -33q13 0 25 5l20 -60q-29 -18 -64 -18q-44 0 -70.5 28z" />
    <glyph glyph-name="lacute" unicode="&#x13a;" horiz-adv-x="244" 
d="M94.5 16q-26.5 28 -26.5 76v647l88 10v-655q0 -33 28 -33q13 0 25 5l20 -60q-29 -18 -64 -18q-44 0 -70.5 28zM177 958l37 -74l-181 -79l-23 48z" />
    <glyph glyph-name="uni019B" unicode="&#x19b;" horiz-adv-x="407" 
d="M325 258q22 -89 44 -139.5t53 -97.5l-81 -33q-31 54 -52.5 106t-41 133.5t-39.5 211.5l-110 -451l-83 21l140 498h37q-13 67 -27 98l-53 -67l-51 31l67 84q-25 19 -72 30l12 68q70 -16 109 -46l56 69l45 -40l-60 -74q36 -51 56 -159q29 -154 51 -243z" />
    <glyph glyph-name="uni019A" unicode="&#x19a;" horiz-adv-x="259" 
d="M174 338v-244q0 -33 28 -33q13 0 25 5l20 -60q-29 -18 -64 -18q-44 0 -70.5 28t-26.5 76v246h-76v67h76v334l88 10v-344h75v-67h-75z" />
    <glyph glyph-name="uni026C" unicode="&#x26c;" horiz-adv-x="306" 
d="M281 6q-29 -18 -64 -18q-44 0 -70.5 28t-26.5 76v163h-1q-58 2 -88.5 31t-30.5 79q0 45 27 71t66 26q9 0 27 -3v280l88 10v-434q22 1 58 10l12 -53q-34 -11 -70 -14v-164q0 -33 28 -33q13 0 25 5zM120 315v90q-11 3 -21 3q-16 0 -25 -11t-9 -32q0 -50 54 -50h1z" />
    <glyph glyph-name="lcaron" unicode="&#x13e;" horiz-adv-x="244" 
d="M94.5 16q-26.5 28 -26.5 76v647l88 10v-655q0 -33 28 -33q13 0 25 5l20 -60q-29 -18 -64 -18q-44 0 -70.5 28zM243 557l41 181l-74 10l-17 -183z" />
    <glyph glyph-name="uni1E3D" unicode="&#x1e3d;" horiz-adv-x="244" 
d="M94.5 16q-26.5 28 -26.5 76v647l88 10v-655q0 -33 28 -33q13 0 25 5l20 -60q-29 -18 -64 -18q-44 0 -70.5 28zM44 -222l-35 38l112 116h56l112 -116l-36 -38l-104 84z" />
    <glyph glyph-name="lcommaaccent" unicode="&#x13c;" horiz-adv-x="244" 
d="M94.5 16q-26.5 28 -26.5 76v647l88 10v-655q0 -33 28 -33q13 0 25 5l20 -60q-29 -18 -64 -18q-44 0 -70.5 28zM186.5 -93.5q14.5 -15.5 14.5 -38.5q0 -13 -4.5 -28.5t-16.5 -47.5l-35 -86h-48l28 116q-27 16 -27 46q0 23 14.5 38.5t37.5 15.5q22 0 36.5 -15.5z" />
    <glyph glyph-name="uni0234" unicode="&#x234;" horiz-adv-x="349" 
d="M338 191q26 -26 26 -71q0 -65 -39 -98.5t-104 -33.5q-25 0 -51 6l-26 -68l-51 20l28 71q-53 39 -53 121v601l88 10v-620q0 -11 2 -25q20 58 46 85.5t67 27.5t67 -26zM276.5 76.5q16.5 15.5 16.5 43.5q0 17 -7.5 27t-21.5 10q-19 0 -32.5 -20t-32.5 -74q16 -2 28 -2
q33 0 49.5 15.5z" />
    <glyph glyph-name="ldot" unicode="&#x140;" horiz-adv-x="289" 
d="M94.5 16q-26.5 28 -26.5 76v647l88 10v-655q0 -33 28 -33q13 0 25 5l20 -60q-29 -18 -64 -18q-44 0 -70.5 28zM300 421q16 -17 16 -44q0 -25 -16.5 -42t-42.5 -17t-42.5 17t-16.5 42q0 26 16.5 43.5t42.5 17.5q27 0 43 -17z" />
    <glyph glyph-name="uni1E37" unicode="&#x1e37;" horiz-adv-x="244" 
d="M94.5 16q-26.5 28 -26.5 76v647l88 10v-655q0 -33 28 -33q13 0 25 5l20 -60q-29 -18 -64 -18q-44 0 -70.5 28zM105 -179q-16 17 -16 44q0 25 16.5 42t42.5 17t42.5 -17t16.5 -42q0 -26 -16.5 -43.5t-42.5 -17.5q-27 0 -43 17z" />
    <glyph glyph-name="uni026E" unicode="&#x26e;" horiz-adv-x="549" 
d="M478 153.5q49 -50.5 49 -146.5q0 -99 -54.5 -159t-146.5 -60q-56 0 -97.5 20t-73.5 60l51 47q28 -29 55 -42t62 -13q53 0 82 38.5t29 110.5q0 70 -29 100.5t-94 30.5h-66v64l169 250h-258v-360q0 -33 28 -33q13 0 25 5l20 -60q-29 -18 -64 -18q-44 0 -70.5 28t-26.5 76
v647l88 10v-222h350v-68l-174 -254q97 -1 146 -51.5z" />
    <glyph glyph-name="uni026D" unicode="&#x26d;" horiz-adv-x="234" 
d="M305 -175q-43 -37 -102 -37q-57 0 -93.5 34t-36.5 95v822l88 10v-832q0 -58 49 -58q17 0 29.5 4.5t28.5 14.5z" />
    <glyph glyph-name="uni01C9" unicode="&#x1c9;" horiz-adv-x="478" 
d="M94.5 16q-26.5 28 -26.5 76v647l88 10v-655q0 -33 28 -33q13 0 25 5l20 -60q-29 -18 -64 -18q-44 0 -70.5 28zM405 10q0 -61 -16.5 -101t-47 -66.5t-82.5 -53.5l-28 62q32 19 49.5 36.5t27 46t9.5 75.5v518h88v-517zM403 760q16 -17 16 -44q0 -25 -16.5 -42t-42.5 -17
t-42.5 17t-16.5 42q0 26 16.5 43.5t42.5 17.5q27 0 43 -17z" />
    <glyph glyph-name="uni026B" unicode="&#x26b;" horiz-adv-x="323" 
d="M206 304v-210q0 -33 28 -33q13 0 25 5l20 -60q-29 -18 -64 -18q-44 0 -70.5 28t-26.5 76v262q-16 7 -26 7q-17 0 -30 -13.5t-28 -38.5l-49 27q45 92 113 92q8 0 20 -2v313l88 10v-372q14 -7 25 -7q18 0 31.5 12t26.5 34l49 -27q-18 -37 -45.5 -62t-64.5 -25q-8 0 -22 2z
" />
    <glyph glyph-name="uni02AA" unicode="&#x2aa;" horiz-adv-x="553" 
d="M123 37.5q-55 49.5 -55 135.5v566l88 10v-578q0 -54 33 -82t104 -28q73 0 107 21.5t34 65.5q0 34 -17 55t-70 41q-69 26 -95 60.5t-26 90.5q0 62 42.5 102.5t107.5 40.5q77 0 141 -59l-37 -53q-27 21 -51 31.5t-50 10.5q-30 0 -48 -19t-18 -52t17.5 -51.5t67.5 -37.5
q65 -25 95 -61.5t30 -91.5q0 -82 -61 -124.5t-173 -42.5q-111 0 -166 49.5z" />
    <glyph glyph-name="lslash" unicode="&#x142;" horiz-adv-x="267" 
d="M220 66l20 -60q-29 -18 -64 -18q-44 0 -70.5 28t-26.5 76v210l-40 -28l-32 54l72 53v358l88 10v-307l69 47l31 -54l-100 -71v-270q0 -33 28 -33q13 0 25 5z" />
    <glyph glyph-name="uni02AB" unicode="&#x2ab;" horiz-adv-x="551" 
d="M520 0h-302q-26 -12 -53 -12q-44 0 -70.5 28t-26.5 76v647l88 10v-655q0 -33 28 -33q11 0 23 5l227 386h-208v75h301v-68l-227 -385h229z" />
    <glyph glyph-name="m" unicode="m" horiz-adv-x="703" 
d="M602 496.5q32 -41.5 32 -109.5v-387h-86v376q0 50 -13.5 72t-39.5 22q-53 0 -98 -94v-376h-86v376q0 94 -53 94q-28 0 -53.5 -25t-45.5 -69v-376h-86v527h76l6 -76q50 87 125 87q40 0 67.5 -24.5t39.5 -69.5q54 94 130 94q53 0 85 -41.5z" />
    <glyph glyph-name="uni1E3F" unicode="&#x1e3f;" horiz-adv-x="703" 
d="M602 496.5q32 -41.5 32 -109.5v-387h-86v376q0 50 -13.5 72t-39.5 22q-53 0 -98 -94v-376h-86v376q0 94 -53 94q-28 0 -53.5 -25t-45.5 -69v-376h-86v527h76l6 -76q50 87 125 87q40 0 67.5 -24.5t39.5 -69.5q54 94 130 94q53 0 85 -41.5zM413 795l39 -70l-178 -86l-26 44
z" />
    <glyph glyph-name="uni1E41" unicode="&#x1e41;" horiz-adv-x="703" 
d="M602 496.5q32 -41.5 32 -109.5v-387h-86v376q0 50 -13.5 72t-39.5 22q-53 0 -98 -94v-376h-86v376q0 94 -53 94q-28 0 -53.5 -25t-45.5 -69v-376h-86v527h76l6 -76q50 87 125 87q40 0 67.5 -24.5t39.5 -69.5q54 94 130 94q53 0 85 -41.5zM394 760q16 -17 16 -44
q0 -25 -16.5 -42t-42.5 -17t-42.5 17t-16.5 42q0 26 16.5 43.5t42.5 17.5q27 0 43 -17z" />
    <glyph glyph-name="uni0271" unicode="&#x271;" horiz-adv-x="703" 
d="M602 496.5q32 -41.5 32 -109.5v-463q0 -65 -36.5 -100.5t-92.5 -35.5q-58 0 -101 37l37 53q16 -10 28.5 -14.5t29.5 -4.5q49 0 49 58v459q0 50 -13.5 72t-39.5 22q-53 0 -98 -94v-376h-86v376q0 94 -53 94q-28 0 -53.5 -25t-45.5 -69v-376h-86v527h76l6 -76q50 87 125 87
q40 0 67.5 -24.5t39.5 -69.5q54 94 130 94q53 0 85 -41.5z" />
    <glyph glyph-name="uni0270" unicode="&#x270;" horiz-adv-x="703" 
d="M630 527v-739l-88 11v267q-50 -77 -119 -77q-40 0 -67.5 24.5t-39.5 69.5q-54 -94 -130 -94q-53 0 -85 41.5t-32 109.5v387h86v-376q0 -50 13.5 -72t39.5 -22q53 0 98 94v376h86v-376q0 -94 53 -94q28 0 53.5 25t45.5 69v376h86z" />
    <glyph glyph-name="uni026F" unicode="&#x26f;" horiz-adv-x="703" 
d="M630 527v-527h-76l-6 76q-50 -87 -125 -87q-40 0 -67.5 24.5t-39.5 69.5q-54 -94 -130 -94q-53 0 -85 41.5t-32 109.5v387h86v-376q0 -50 13.5 -72t39.5 -22q53 0 98 94v376h86v-376q0 -94 53 -94q28 0 53.5 25t45.5 69v376h86z" />
    <glyph glyph-name="n" unicode="n" horiz-adv-x="482" 
d="M379 497q34 -41 34 -110v-387h-88v375q0 51 -14.5 72.5t-43.5 21.5q-57 0 -106 -98v-371h-88v527h76l7 -79q26 44 57 67t75 23q57 0 91 -41z" />
    <glyph glyph-name="nacute" unicode="&#x144;" horiz-adv-x="482" 
d="M379 497q34 -41 34 -110v-387h-88v375q0 51 -14.5 72.5t-43.5 21.5q-57 0 -106 -98v-371h-88v527h76l7 -79q26 44 57 67t75 23q57 0 91 -41zM306 795l39 -70l-178 -86l-26 44z" />
    <glyph glyph-name="nacute.loclPLK" horiz-adv-x="482" 
d="M379 497q34 -41 34 -110v-387h-88v375q0 51 -14.5 72.5t-43.5 21.5q-57 0 -106 -98v-371h-88v527h76l7 -79q26 44 57 67t75 23q57 0 91 -41zM281 775l68 -45l-109 -153l-42 27z" />
    <glyph glyph-name="napostrophe" unicode="&#x149;" horiz-adv-x="578" 
d="M125.5 736.5q14.5 -15.5 14.5 -38.5q0 -11 -5.5 -29.5t-15.5 -46.5l-30 -86h-48l23 116q-27 17 -27 46q0 23 14.5 38.5t37.5 15.5q22 0 36.5 -15.5zM475 497q34 -41 34 -110v-387h-88v375q0 51 -14.5 72.5t-43.5 21.5q-57 0 -106 -98v-371h-88v527h76l7 -79q26 44 57 67
t75 23q57 0 91 -41z" />
    <glyph glyph-name="ncaron" unicode="&#x148;" horiz-adv-x="482" 
d="M379 497q34 -41 34 -110v-387h-88v375q0 51 -14.5 72.5t-43.5 21.5q-57 0 -106 -98v-371h-88v527h76l7 -79q26 44 57 67t75 23q57 0 91 -41zM350 782l35 -39l-112 -115h-56l-112 115l35 39l105 -88z" />
    <glyph glyph-name="uni1E4B" unicode="&#x1e4b;" horiz-adv-x="482" 
d="M379 497q34 -41 34 -110v-387h-88v375q0 51 -14.5 72.5t-43.5 21.5q-57 0 -106 -98v-371h-88v527h76l7 -79q26 44 57 67t75 23q57 0 91 -41zM137 -222l-35 38l112 116h56l112 -116l-36 -38l-104 84z" />
    <glyph glyph-name="ncommaaccent" unicode="&#x146;" horiz-adv-x="482" 
d="M379 497q34 -41 34 -110v-387h-88v375q0 51 -14.5 72.5t-43.5 21.5q-57 0 -106 -98v-371h-88v527h76l7 -79q26 44 57 67t75 23q57 0 91 -41zM279.5 -93.5q14.5 -15.5 14.5 -38.5q0 -13 -4.5 -28.5t-16.5 -47.5l-35 -86h-48l28 116q-27 16 -27 46q0 23 14.5 38.5
t37.5 15.5q22 0 36.5 -15.5z" />
    <glyph glyph-name="uni0235" unicode="&#x235;" horiz-adv-x="606" 
d="M595 191q26 -26 26 -71q0 -65 -39 -98.5t-104 -33.5q-25 0 -51 6l-26 -68l-51 20l28 71q-53 39 -53 121v237q0 51 -14.5 72.5t-43.5 21.5q-57 0 -106 -98v-371h-88v527h76l7 -79q26 44 57 67t75 23q57 0 91 -41t34 -110v-258q0 -11 2 -25q20 58 46 85.5t67 27.5t67 -26z
M533.5 76.5q16.5 15.5 16.5 43.5q0 17 -7.5 27t-21.5 10q-19 0 -32.5 -20t-32.5 -74q16 -2 28 -2q33 0 49.5 15.5z" />
    <glyph glyph-name="uni1E45" unicode="&#x1e45;" horiz-adv-x="482" 
d="M379 497q34 -41 34 -110v-387h-88v375q0 51 -14.5 72.5t-43.5 21.5q-57 0 -106 -98v-371h-88v527h76l7 -79q26 44 57 67t75 23q57 0 91 -41zM287 760q16 -17 16 -44q0 -25 -16.5 -42t-42.5 -17t-42.5 17t-16.5 42q0 26 16.5 43.5t42.5 17.5q27 0 43 -17z" />
    <glyph glyph-name="uni1E47" unicode="&#x1e47;" horiz-adv-x="482" 
d="M379 497q34 -41 34 -110v-387h-88v375q0 51 -14.5 72.5t-43.5 21.5q-57 0 -106 -98v-371h-88v527h76l7 -79q26 44 57 67t75 23q57 0 91 -41zM198 -179q-16 17 -16 44q0 25 16.5 42t42.5 17t42.5 -17t16.5 -42q0 -26 -16.5 -43.5t-42.5 -17.5q-27 0 -43 17z" />
    <glyph glyph-name="uni01F9" unicode="&#x1f9;" horiz-adv-x="482" 
d="M379 497q34 -41 34 -110v-387h-88v375q0 51 -14.5 72.5t-43.5 21.5q-57 0 -106 -98v-371h-88v527h76l7 -79q26 44 57 67t75 23q57 0 91 -41zM190 795l165 -112l-26 -44l-178 86z" />
    <glyph glyph-name="eng" unicode="&#x14b;" horiz-adv-x="482" 
d="M379 497q34 -41 34 -110v-470q0 -61 -36.5 -95t-93.5 -34q-59 0 -102 37l37 53q16 -10 28.5 -14.5t29.5 -4.5q49 0 49 58v458q0 51 -14.5 72.5t-43.5 21.5q-57 0 -106 -98v-371h-88v527h76l7 -79q26 44 57 67t75 23q57 0 91 -41z" />
    <glyph glyph-name="uni0272" unicode="&#x272;" horiz-adv-x="482" 
d="M379 497q34 -41 34 -110v-387h-88v375q0 51 -14.5 72.5t-43.5 21.5q-57 0 -106 -98v-454q0 -61 -36.5 -95t-93.5 -34q-59 0 -102 37l37 53q16 -10 28.5 -14.5t29.5 -4.5q49 0 49 58v610h76l7 -79q26 44 57 67t75 23q57 0 91 -41z" />
    <glyph glyph-name="uni0273" unicode="&#x273;" horiz-adv-x="478" 
d="M557 -175q-43 -37 -102 -37q-57 0 -93.5 34t-36.5 95v458q0 51 -14.5 72.5t-43.5 21.5q-57 0 -106 -98v-371h-88v527h76l7 -79q26 44 57 67t75 23q57 0 91 -41t34 -110v-470q0 -58 49 -58q17 0 29.5 4.5t28.5 14.5z" />
    <glyph glyph-name="uni01CC" unicode="&#x1cc;" horiz-adv-x="716" 
d="M379 497q34 -41 34 -110v-387h-88v375q0 51 -14.5 72.5t-43.5 21.5q-57 0 -106 -98v-371h-88v527h76l7 -79q26 44 57 67t75 23q57 0 91 -41zM643 10q0 -61 -16.5 -101t-47 -66.5t-82.5 -53.5l-28 62q32 19 49.5 36.5t27 46t9.5 75.5v518h88v-517zM641 760q16 -17 16 -44
q0 -25 -16.5 -42t-42.5 -17t-42.5 17t-16.5 42q0 26 16.5 43.5t42.5 17.5q27 0 43 -17z" />
    <glyph glyph-name="uni019E" unicode="&#x19e;" horiz-adv-x="482" 
d="M379 497q34 -41 34 -110v-599l-88 11v576q0 51 -14.5 72.5t-43.5 21.5q-57 0 -106 -98v-371h-88v527h76l7 -79q26 44 57 67t75 23q57 0 91 -41z" />
    <glyph glyph-name="ntilde" unicode="&#xf1;" horiz-adv-x="482" 
d="M379 497q34 -41 34 -110v-387h-88v375q0 51 -14.5 72.5t-43.5 21.5q-57 0 -106 -98v-371h-88v527h76l7 -79q26 44 57 67t75 23q57 0 91 -41zM267.5 667.5q-12.5 6.5 -31.5 19.5q-9 7 -19 12.5t-19 5.5q-13 0 -23 -10.5t-22 -34.5l-48 23q15 40 38 62.5t52 22.5
q17 0 30 -6.5t29 -18.5q25 -19 39 -19q12 0 22 10t22 33l49 -22q-29 -84 -90 -84q-16 0 -28.5 6.5z" />
    <glyph glyph-name="o" unicode="o" horiz-adv-x="485" 
d="M388.5 468.5q51.5 -69.5 51.5 -204.5q0 -127 -52.5 -201.5t-145.5 -74.5t-145 73t-52 202q0 133 52 204t146 71t145.5 -69.5zM164 419.5q-26 -47.5 -26 -156.5q0 -108 26 -156t78 -48q53 0 79 48t26 157q0 108 -26 155.5t-78 47.5q-53 0 -79 -47.5z" />
    <glyph glyph-name="oacute" unicode="&#xf3;" horiz-adv-x="485" 
d="M388.5 468.5q51.5 -69.5 51.5 -204.5q0 -127 -52.5 -201.5t-145.5 -74.5t-145 73t-52 202q0 133 52 204t146 71t145.5 -69.5zM164 419.5q-26 -47.5 -26 -156.5q0 -108 26 -156t78 -48q53 0 79 48t26 157q0 108 -26 155.5t-78 47.5q-53 0 -79 -47.5zM303 795l39 -70
l-178 -86l-26 44z" />
    <glyph glyph-name="oacute.loclPLK" horiz-adv-x="485" 
d="M388.5 468.5q51.5 -69.5 51.5 -204.5q0 -127 -52.5 -201.5t-145.5 -74.5t-145 73t-52 202q0 133 52 204t146 71t145.5 -69.5zM164 419.5q-26 -47.5 -26 -156.5q0 -108 26 -156t78 -48q53 0 79 48t26 157q0 108 -26 155.5t-78 47.5q-53 0 -79 -47.5zM278 775l68 -45
l-109 -153l-42 27z" />
    <glyph glyph-name="uni0275" unicode="&#x275;" horiz-adv-x="485" 
d="M388.5 468.5q51.5 -69.5 51.5 -204.5q0 -127 -52.5 -201.5t-145.5 -74.5t-145 73t-52 202q0 133 52 204t146 71t145.5 -69.5zM167.5 429q-26.5 -39 -30.5 -128h211q-4 88 -30 127.5t-75 39.5t-75.5 -39zM318.5 99.5q26.5 41.5 29.5 134.5h-211q3 -93 29 -134.5t76 -41.5
t76.5 41.5z" />
    <glyph glyph-name="obreve" unicode="&#x14f;" horiz-adv-x="485" 
d="M388.5 468.5q51.5 -69.5 51.5 -204.5q0 -127 -52.5 -201.5t-145.5 -74.5t-145 73t-52 202q0 133 52 204t146 71t145.5 -69.5zM164 419.5q-26 -47.5 -26 -156.5q0 -108 26 -156t78 -48q53 0 79 48t26 157q0 108 -26 155.5t-78 47.5q-53 0 -79 -47.5zM153.5 677.5
q-33.5 33.5 -38.5 97.5l54 12q16 -77 72 -77q58 0 74 77l54 -12q-5 -64 -39 -97.5t-89 -33.5q-54 0 -87.5 33.5z" />
    <glyph glyph-name="uni01D2" unicode="&#x1d2;" horiz-adv-x="485" 
d="M388.5 468.5q51.5 -69.5 51.5 -204.5q0 -127 -52.5 -201.5t-145.5 -74.5t-145 73t-52 202q0 133 52 204t146 71t145.5 -69.5zM164 419.5q-26 -47.5 -26 -156.5q0 -108 26 -156t78 -48q53 0 79 48t26 157q0 108 -26 155.5t-78 47.5q-53 0 -79 -47.5zM347 782l35 -39
l-112 -115h-56l-112 115l35 39l105 -88z" />
    <glyph glyph-name="ocircumflex" unicode="&#xf4;" horiz-adv-x="485" 
d="M388.5 468.5q51.5 -69.5 51.5 -204.5q0 -127 -52.5 -201.5t-145.5 -74.5t-145 73t-52 202q0 133 52 204t146 71t145.5 -69.5zM164 419.5q-26 -47.5 -26 -156.5q0 -108 26 -156t78 -48q53 0 79 48t26 157q0 108 -26 155.5t-78 47.5q-53 0 -79 -47.5zM137 637l-35 38
l112 116h56l112 -116l-36 -38l-104 84z" />
    <glyph glyph-name="uni1ED1" unicode="&#x1ed1;" horiz-adv-x="485" 
d="M388.5 468.5q51.5 -69.5 51.5 -204.5q0 -127 -52.5 -201.5t-145.5 -74.5t-145 73t-52 202q0 133 52 204t146 71t145.5 -69.5zM164 419.5q-26 -47.5 -26 -156.5q0 -108 26 -156t78 -48q53 0 79 48t26 157q0 108 -26 155.5t-78 47.5q-53 0 -79 -47.5zM134 590l-35 38
l112 112h56l112 -112l-36 -38l-104 80zM416 886l58 -48l-122 -130l-37 32z" />
    <glyph glyph-name="uni1ED9" unicode="&#x1ed9;" horiz-adv-x="485" 
d="M388.5 468.5q51.5 -69.5 51.5 -204.5q0 -127 -52.5 -201.5t-145.5 -74.5t-145 73t-52 202q0 133 52 204t146 71t145.5 -69.5zM164 419.5q-26 -47.5 -26 -156.5q0 -108 26 -156t78 -48q53 0 79 48t26 157q0 108 -26 155.5t-78 47.5q-53 0 -79 -47.5zM137 637l-35 38
l112 116h56l112 -116l-36 -38l-104 84zM199 -179q-16 17 -16 44q0 25 16.5 42t42.5 17t42.5 -17t16.5 -42q0 -26 -16.5 -43.5t-42.5 -17.5q-27 0 -43 17z" />
    <glyph glyph-name="uni1ED3" unicode="&#x1ed3;" horiz-adv-x="485" 
d="M388.5 468.5q51.5 -69.5 51.5 -204.5q0 -127 -52.5 -201.5t-145.5 -74.5t-145 73t-52 202q0 133 52 204t146 71t145.5 -69.5zM164 419.5q-26 -47.5 -26 -156.5q0 -108 26 -156t78 -48q53 0 79 48t26 157q0 108 -26 155.5t-78 47.5q-53 0 -79 -47.5zM134 590l-35 38
l112 112h56l112 -112l-36 -38l-104 80zM63 886l103 -146l-39 -32l-122 130z" />
    <glyph glyph-name="uni1ED5" unicode="&#x1ed5;" horiz-adv-x="485" 
d="M388.5 468.5q51.5 -69.5 51.5 -204.5q0 -127 -52.5 -201.5t-145.5 -74.5t-145 73t-52 202q0 133 52 204t146 71t145.5 -69.5zM164 419.5q-26 -47.5 -26 -156.5q0 -108 26 -156t78 -48q53 0 79 48t26 157q0 108 -26 155.5t-78 47.5q-53 0 -79 -47.5zM134 590l-35 38
l112 112h56l112 -112l-36 -38l-104 80zM328 804q32 5 45 13t13 30q0 39 -35 39q-22 0 -48 -13l-18 47q34 24 79 24q44 0 67.5 -24t23.5 -66q0 -36 -17.5 -57.5t-48.5 -27.5v-57h-61v92z" />
    <glyph glyph-name="uni1ED7" unicode="&#x1ed7;" horiz-adv-x="485" 
d="M388.5 468.5q51.5 -69.5 51.5 -204.5q0 -127 -52.5 -201.5t-145.5 -74.5t-145 73t-52 202q0 133 52 204t146 71t145.5 -69.5zM164 419.5q-26 -47.5 -26 -156.5q0 -108 26 -156t78 -48q53 0 79 48t26 157q0 108 -26 155.5t-78 47.5q-53 0 -79 -47.5zM136 580l-35 38
l112 112h56l112 -112l-36 -38l-104 80zM262.5 774.5q-12.5 6.5 -31.5 19.5q-9 7 -19 12.5t-19 5.5q-13 0 -23 -10.5t-22 -34.5l-48 23q15 40 38 62.5t52 22.5q17 0 30 -6.5t29 -18.5q25 -19 39 -19q12 0 22 10t22 33l49 -22q-29 -84 -90 -84q-16 0 -28.5 6.5z" />
    <glyph glyph-name="uni020D" unicode="&#x20d;" horiz-adv-x="485" 
d="M388.5 468.5q51.5 -69.5 51.5 -204.5q0 -127 -52.5 -201.5t-145.5 -74.5t-145 73t-52 202q0 133 52 204t146 71t145.5 -69.5zM164 419.5q-26 -47.5 -26 -156.5q0 -108 26 -156t78 -48q53 0 79 48t26 157q0 108 -26 155.5t-78 47.5q-53 0 -79 -47.5zM145 827l70 -170
l-49 -22l-90 155zM272 827l63 -165l-49 -22l-82 150z" />
    <glyph glyph-name="odieresis" unicode="&#xf6;" horiz-adv-x="485" 
d="M388.5 468.5q51.5 -69.5 51.5 -204.5q0 -127 -52.5 -201.5t-145.5 -74.5t-145 73t-52 202q0 133 52 204t146 71t145.5 -69.5zM164 419.5q-26 -47.5 -26 -156.5q0 -108 26 -156t78 -48q53 0 79 48t26 157q0 108 -26 155.5t-78 47.5q-53 0 -79 -47.5zM192 749
q15 -16 15 -39t-15 -39t-38 -16t-38 16t-15 39t15 39t38 16t38 -16zM367 749q15 -16 15 -39t-15 -39t-38 -16q-22 0 -37.5 16t-15.5 39t15.5 39t37.5 16q23 0 38 -16z" />
    <glyph glyph-name="uni022B" unicode="&#x22b;" horiz-adv-x="485" 
d="M388.5 468.5q51.5 -69.5 51.5 -204.5q0 -127 -52.5 -201.5t-145.5 -74.5t-145 73t-52 202q0 133 52 204t146 71t145.5 -69.5zM164 419.5q-26 -47.5 -26 -156.5q0 -108 26 -156t78 -48q53 0 79 48t26 157q0 108 -26 155.5t-78 47.5q-53 0 -79 -47.5zM193 719
q15 -16 15 -39t-15 -39t-38 -16t-38 16t-15 39t15 39t38 16t38 -16zM368 719q15 -16 15 -39t-15 -39t-38 -16q-22 0 -37.5 16t-15.5 39t15.5 39t37.5 16q23 0 38 -16zM357 793h-228v64h228v-64z" />
    <glyph glyph-name="uni022F" unicode="&#x22f;" horiz-adv-x="485" 
d="M388.5 468.5q51.5 -69.5 51.5 -204.5q0 -127 -52.5 -201.5t-145.5 -74.5t-145 73t-52 202q0 133 52 204t146 71t145.5 -69.5zM164 419.5q-26 -47.5 -26 -156.5q0 -108 26 -156t78 -48q53 0 79 48t26 157q0 108 -26 155.5t-78 47.5q-53 0 -79 -47.5zM284 760
q16 -17 16 -44q0 -25 -16.5 -42t-42.5 -17t-42.5 17t-16.5 42q0 26 16.5 43.5t42.5 17.5q27 0 43 -17z" />
    <glyph glyph-name="uni0231" unicode="&#x231;" horiz-adv-x="485" 
d="M388.5 468.5q51.5 -69.5 51.5 -204.5q0 -127 -52.5 -201.5t-145.5 -74.5t-145 73t-52 202q0 133 52 204t146 71t145.5 -69.5zM164 419.5q-26 -47.5 -26 -156.5q0 -108 26 -156t78 -48q53 0 79 48t26 157q0 108 -26 155.5t-78 47.5q-53 0 -79 -47.5zM285 710
q16 -17 16 -44q0 -25 -16.5 -42t-42.5 -17t-42.5 17t-16.5 42q0 26 16.5 43.5t42.5 17.5q27 0 43 -17zM356 770h-228v64h228v-64z" />
    <glyph glyph-name="uni1ECD" unicode="&#x1ecd;" horiz-adv-x="485" 
d="M388.5 468.5q51.5 -69.5 51.5 -204.5q0 -127 -52.5 -201.5t-145.5 -74.5t-145 73t-52 202q0 133 52 204t146 71t145.5 -69.5zM164 419.5q-26 -47.5 -26 -156.5q0 -108 26 -156t78 -48q53 0 79 48t26 157q0 108 -26 155.5t-78 47.5q-53 0 -79 -47.5zM199 -179
q-16 17 -16 44q0 25 16.5 42t42.5 17t42.5 -17t16.5 -42q0 -26 -16.5 -43.5t-42.5 -17.5q-27 0 -43 17z" />
    <glyph glyph-name="ograve" unicode="&#xf2;" horiz-adv-x="485" 
d="M388.5 468.5q51.5 -69.5 51.5 -204.5q0 -127 -52.5 -201.5t-145.5 -74.5t-145 73t-52 202q0 133 52 204t146 71t145.5 -69.5zM164 419.5q-26 -47.5 -26 -156.5q0 -108 26 -156t78 -48q53 0 79 48t26 157q0 108 -26 155.5t-78 47.5q-53 0 -79 -47.5zM187 795l165 -112
l-26 -44l-178 86z" />
    <glyph glyph-name="uni1ECF" unicode="&#x1ecf;" horiz-adv-x="485" 
d="M388.5 468.5q51.5 -69.5 51.5 -204.5q0 -127 -52.5 -201.5t-145.5 -74.5t-145 73t-52 202q0 133 52 204t146 71t145.5 -69.5zM164 419.5q-26 -47.5 -26 -156.5q0 -108 26 -156t78 -48q53 0 79 48t26 157q0 108 -26 155.5t-78 47.5q-53 0 -79 -47.5zM211 704q32 5 45 13
t13 30q0 39 -35 39q-22 0 -48 -13l-18 47q34 24 79 24q44 0 67.5 -24t23.5 -66q0 -36 -17.5 -57.5t-48.5 -27.5v-57h-61v92z" />
    <glyph glyph-name="ohorn" unicode="&#x1a1;" horiz-adv-x="496" 
d="M414 422q26 -64 26 -158q0 -127 -52.5 -201.5t-145.5 -74.5t-145 73t-52 202q0 133 52 204t146 71q92 0 143 -66q22 4 32 15.5t10 34.5q0 38 -12 72l63 15q17 -40 17 -86q0 -84 -82 -101zM321 107q26 48 26 157q0 108 -26 155.5t-78 47.5q-53 0 -79 -47.5t-26 -156.5
q0 -108 26 -156t78 -48q53 0 79 48z" />
    <glyph glyph-name="uni1EDB" unicode="&#x1edb;" horiz-adv-x="496" 
d="M342 725l-178 -86l-26 44l165 112zM414 422q26 -64 26 -158q0 -127 -52.5 -201.5t-145.5 -74.5t-145 73t-52 202q0 133 52 204t146 71q92 0 143 -66q22 4 32 15.5t10 34.5q0 38 -12 72l63 15q17 -40 17 -86q0 -84 -82 -101zM321 107q26 48 26 157q0 108 -26 155.5
t-78 47.5q-53 0 -79 -47.5t-26 -156.5q0 -108 26 -156t78 -48q53 0 79 48z" />
    <glyph glyph-name="uni1EE3" unicode="&#x1ee3;" horiz-adv-x="496" 
d="M414 422q26 -64 26 -158q0 -127 -52.5 -201.5t-145.5 -74.5t-145 73t-52 202q0 133 52 204t146 71q92 0 143 -66q22 4 32 15.5t10 34.5q0 38 -12 72l63 15q17 -40 17 -86q0 -84 -82 -101zM321 107q26 48 26 157q0 108 -26 155.5t-78 47.5q-53 0 -79 -47.5t-26 -156.5
q0 -108 26 -156t78 -48q53 0 79 48zM284.5 -93q16.5 -17 16.5 -42q0 -26 -16.5 -43.5t-42.5 -17.5q-27 0 -43 17t-16 44q0 25 16.5 42t42.5 17t42.5 -17z" />
    <glyph glyph-name="uni1EDD" unicode="&#x1edd;" horiz-adv-x="496" 
d="M352 683l-26 -44l-178 86l39 70zM414 422q26 -64 26 -158q0 -127 -52.5 -201.5t-145.5 -74.5t-145 73t-52 202q0 133 52 204t146 71q92 0 143 -66q22 4 32 15.5t10 34.5q0 38 -12 72l63 15q17 -40 17 -86q0 -84 -82 -101zM321 107q26 48 26 157q0 108 -26 155.5t-78 47.5
q-53 0 -79 -47.5t-26 -156.5q0 -108 26 -156t78 -48q53 0 79 48z" />
    <glyph glyph-name="uni1EDF" unicode="&#x1edf;" horiz-adv-x="496" 
d="M186 773l-18 47q34 24 79 24q44 0 67.5 -24t23.5 -66q0 -36 -17.5 -57.5t-48.5 -27.5v-57h-61v92q32 5 45 13t13 30q0 39 -35 39q-22 0 -48 -13zM414 422q26 -64 26 -158q0 -127 -52.5 -201.5t-145.5 -74.5t-145 73t-52 202q0 133 52 204t146 71q92 0 143 -66
q22 4 32 15.5t10 34.5q0 38 -12 72l63 15q17 -40 17 -86q0 -84 -82 -101zM321 107q26 48 26 157q0 108 -26 155.5t-78 47.5q-53 0 -79 -47.5t-26 -156.5q0 -108 26 -156t78 -48q53 0 79 48z" />
    <glyph glyph-name="uni1EE1" unicode="&#x1ee1;" horiz-adv-x="496" 
d="M172 694.5q-10 -10.5 -22 -34.5l-48 23q15 40 38 62.5t52 22.5q17 0 30 -6.5t29 -18.5q25 -19 39 -19q12 0 22 10t22 33l49 -22q-29 -84 -90 -84q-16 0 -28.5 6.5t-31.5 19.5q-9 7 -19 12.5t-19 5.5q-13 0 -23 -10.5zM414 422q26 -64 26 -158q0 -127 -52.5 -201.5
t-145.5 -74.5t-145 73t-52 202q0 133 52 204t146 71q92 0 143 -66q22 4 32 15.5t10 34.5q0 38 -12 72l63 15q17 -40 17 -86q0 -84 -82 -101zM321 107q26 48 26 157q0 108 -26 155.5t-78 47.5q-53 0 -79 -47.5t-26 -156.5q0 -108 26 -156t78 -48q53 0 79 48z" />
    <glyph glyph-name="ohungarumlaut" unicode="&#x151;" horiz-adv-x="485" 
d="M388.5 468.5q51.5 -69.5 51.5 -204.5q0 -127 -52.5 -201.5t-145.5 -74.5t-145 73t-52 202q0 133 52 204t146 71t145.5 -69.5zM164 419.5q-26 -47.5 -26 -156.5q0 -108 26 -156t78 -48q53 0 79 48t26 157q0 108 -26 155.5t-78 47.5q-53 0 -79 -47.5zM215 827l68 -37
l-82 -150l-49 22zM342 827l69 -37l-90 -155l-49 22z" />
    <glyph glyph-name="uni01A3" unicode="&#x1a3;" horiz-adv-x="662" 
d="M553.5 499.5q35.5 -38.5 35.5 -109.5v-602l-88 11v594q0 74 -57 74q-22 0 -47 -10q43 -71 43 -193q0 -127 -52.5 -201.5t-145.5 -74.5t-145 73t-52 202q0 133 52 204t146 71q63 0 107 -32q26 16 50.5 24t53.5 8q64 0 99.5 -38.5zM321 107q26 48 26 157q0 108 -26 155.5
t-78 47.5q-53 0 -79 -47.5t-26 -156.5q0 -108 26 -156t78 -48q53 0 79 48z" />
    <glyph glyph-name="uni020F" unicode="&#x20f;" horiz-adv-x="485" 
d="M388.5 468.5q51.5 -69.5 51.5 -204.5q0 -127 -52.5 -201.5t-145.5 -74.5t-145 73t-52 202q0 133 52 204t146 71t145.5 -69.5zM164 419.5q-26 -47.5 -26 -156.5q0 -108 26 -156t78 -48q53 0 79 48t26 157q0 108 -26 155.5t-78 47.5q-53 0 -79 -47.5zM330 724.5
q34 -33.5 39 -97.5l-54 -12q-16 77 -74 77q-56 0 -72 -77l-54 12q5 64 38.5 97.5t87.5 33.5q55 0 89 -33.5z" />
    <glyph glyph-name="omacron" unicode="&#x14d;" horiz-adv-x="485" 
d="M388.5 468.5q51.5 -69.5 51.5 -204.5q0 -127 -52.5 -201.5t-145.5 -74.5t-145 73t-52 202q0 133 52 204t146 71t145.5 -69.5zM164 419.5q-26 -47.5 -26 -156.5q0 -108 26 -156t78 -48q53 0 79 48t26 157q0 108 -26 155.5t-78 47.5q-53 0 -79 -47.5zM356 669h-228v64h228
v-64z" />
    <glyph glyph-name="uni1E53" unicode="&#x1e53;" horiz-adv-x="485" 
d="M388.5 468.5q51.5 -69.5 51.5 -204.5q0 -127 -52.5 -201.5t-145.5 -74.5t-145 73t-52 202q0 133 52 204t146 71t145.5 -69.5zM164 419.5q-26 -47.5 -26 -156.5q0 -108 26 -156t78 -48q53 0 79 48t26 157q0 108 -26 155.5t-78 47.5q-53 0 -79 -47.5zM356 618h-228v64h228
v-64zM307 885l37 -74l-181 -79l-23 48z" />
    <glyph glyph-name="uni1E51" unicode="&#x1e51;" horiz-adv-x="485" 
d="M388.5 468.5q51.5 -69.5 51.5 -204.5q0 -127 -52.5 -201.5t-145.5 -74.5t-145 73t-52 202q0 133 52 204t146 71t145.5 -69.5zM164 419.5q-26 -47.5 -26 -156.5q0 -108 26 -156t78 -48q53 0 79 48t26 157q0 108 -26 155.5t-78 47.5q-53 0 -79 -47.5zM356 618h-228v64h228
v-64zM176 885l168 -105l-23 -48l-181 79z" />
    <glyph glyph-name="uniA7B7" unicode="&#xa7b7;" horiz-adv-x="641" 
d="M591 239q0 -128 -41.5 -189.5t-113.5 -61.5q-47 0 -77.5 26.5t-37.5 74.5q-10 -49 -40 -75t-77 -26q-72 0 -113 60.5t-41 190.5q0 84 13.5 152.5t36.5 135.5h84q-24 -87 -35 -153t-11 -136q0 -95 18 -137t58 -42q31 0 48 24.5t17 87.5v184l83 11v-195q0 -58 17 -85
t47 -27q38 0 58 38.5t20 142.5q0 67 -11.5 132t-36.5 155h85q50 -144 50 -288z" />
    <glyph glyph-name="uni0277" unicode="&#x277;" horiz-adv-x="632" 
d="M518 458.5q69 -79.5 69 -219.5q0 -128 -41.5 -189.5t-113.5 -61.5q-47 0 -77.5 26.5t-37.5 74.5q-10 -49 -40 -75t-77 -26q-72 0 -113.5 60.5t-41.5 190.5q0 139 70 219t202 80t201 -79.5zM479 97.5q20 38.5 20 142.5q0 114 -42.5 171t-139.5 57q-98 0 -141 -57t-43 -173
q0 -95 18 -137t58 -42q31 0 48 24.5t17 87.5v124l83 11v-135q0 -58 17 -85t47 -27q38 0 58 38.5z" />
    <glyph glyph-name="uni01EB" unicode="&#x1eb;" horiz-adv-x="485" 
d="M229.5 -58q-20.5 -27 -20.5 -59q0 -24 11 -36t36 -12q20 0 48 6l-7 -64q-30 -7 -53 -7q-49 0 -77.5 26.5t-28.5 73.5q0 73 72 120q-79 13 -122 84t-43 189q0 133 52 204t146 71t145.5 -69.5t51.5 -204.5q0 -103 -35 -172.5t-99 -92.5q-56 -30 -76.5 -57zM164 107
q26 -48 78 -48q53 0 79 48t26 157q0 108 -26 155.5t-78 47.5q-53 0 -79 -47.5t-26 -156.5q0 -108 26 -156z" />
    <glyph glyph-name="uni01ED" unicode="&#x1ed;" horiz-adv-x="485" 
d="M356 733v-64h-228v64h228zM229.5 -58q-20.5 -27 -20.5 -59q0 -24 11 -36t36 -12q20 0 48 6l-7 -64q-30 -7 -53 -7q-49 0 -77.5 26.5t-28.5 73.5q0 73 72 120q-79 13 -122 84t-43 189q0 133 52 204t146 71t145.5 -69.5t51.5 -204.5q0 -103 -35 -172.5t-99 -92.5
q-56 -30 -76.5 -57zM164 107q26 -48 78 -48q53 0 79 48t26 157q0 108 -26 155.5t-78 47.5q-53 0 -79 -47.5t-26 -156.5q0 -108 26 -156z" />
    <glyph glyph-name="uni0254" unicode="&#x254;" horiz-adv-x="393" 
d="M15 46l42 52q25 -20 45 -29.5t47 -9.5q54 0 80 46.5t26 158.5q0 111 -25 157t-77 46q-26 0 -47.5 -8.5t-45.5 -28.5l-41 52q56 56 139 56q92 0 141 -68.5t49 -205.5q0 -133 -51.5 -204.5t-143.5 -71.5q-80 0 -138 58z" />
    <glyph glyph-name="oslash" unicode="&#xf8;" horiz-adv-x="485" 
d="M440 264q0 -127 -52.5 -201.5t-145.5 -74.5q-22 0 -39 4l-31 -121l-69 19l37 128q-46 32 -70.5 95t-24.5 150q0 133 52 204t146 71q21 0 39 -3l32 120l68 -20l-36 -126q94 -62 94 -245zM161.5 420.5q-26.5 -47.5 -26.5 -157.5q0 -131 36 -176l98 378q-12 3 -26 3
q-55 0 -81.5 -47.5zM323.5 106q26.5 48 26.5 158q0 68 -9 110.5t-28 64.5l-95 -379q14 -2 24 -2q55 0 81.5 48z" />
    <glyph glyph-name="oslashacute" unicode="&#x1ff;" horiz-adv-x="485" 
d="M440 264q0 -127 -52.5 -201.5t-145.5 -74.5q-22 0 -39 4l-31 -121l-69 19l37 128q-46 32 -70.5 95t-24.5 150q0 133 52 204t146 71q21 0 39 -3l32 120l68 -20l-36 -126q94 -62 94 -245zM161.5 420.5q-26.5 -47.5 -26.5 -157.5q0 -131 36 -176l98 378q-12 3 -26 3
q-55 0 -81.5 -47.5zM323.5 106q26.5 48 26.5 158q0 68 -9 110.5t-28 64.5l-95 -379q14 -2 24 -2q55 0 81.5 48zM303 795l39 -70l-178 -86l-26 44z" />
    <glyph glyph-name="otilde" unicode="&#xf5;" horiz-adv-x="485" 
d="M388.5 468.5q51.5 -69.5 51.5 -204.5q0 -127 -52.5 -201.5t-145.5 -74.5t-145 73t-52 202q0 133 52 204t146 71t145.5 -69.5zM164 419.5q-26 -47.5 -26 -156.5q0 -108 26 -156t78 -48q53 0 79 48t26 157q0 108 -26 155.5t-78 47.5q-53 0 -79 -47.5zM264.5 667.5
q-12.5 6.5 -31.5 19.5q-9 7 -19 12.5t-19 5.5q-13 0 -23 -10.5t-22 -34.5l-48 23q15 40 38 62.5t52 22.5q17 0 30 -6.5t29 -18.5q25 -19 39 -19q12 0 22 10t22 33l49 -22q-29 -84 -90 -84q-16 0 -28.5 6.5z" />
    </font>
</defs>
</svg>
