<?xml version="1.0" standalone="no"?>
<!DOCTYPE svg PUBLIC "-//W3C//DTD SVG 1.1//EN" "http://www.w3.org/Graphics/SVG/1.1/DTD/svg11.dtd" >
<svg>
<metadata>
Created by FontForge 20120731 at Fri May  5 11:12:50 2017
 By www-data
Digitized data copyright 2012-2016, The Mozilla Foundation and Telefonica S.A.
</metadata>
<defs>
<font id="FiraSansExtraCondensed-MediumItalic" horiz-adv-x="460" >
  <font-face 
    font-family="Fira Sans Extra Condensed Medium"
    font-weight="500"
    font-style="italic"
    font-stretch="condensed"
    units-per-em="1000"
    panose-1="2 11 6 3 5 0 0 2 0 4"
    ascent="800"
    descent="-200"
    x-height="529"
    cap-height="691"
    bbox="-648 -353 1417 1140"
    underline-thickness="50"
    underline-position="-50"
    slope="-8"
    unicode-range="U+000D-FEFF"
  />
<missing-glyph horiz-adv-x="658" 
d="M647 1050l-198 -1400h-414l197 1400h415zM586 998h-306l-183 -1296h306zM417.5 425.5q23.5 -25.5 23.5 -66.5q0 -9 -2 -27q-7 -52 -32 -79.5t-75 -34.5l-9 -47q-1 -11 -8.5 -16.5t-15.5 -5.5q-11 0 -18.5 7.5t-6.5 18.5l10 82q53 3 75.5 21t27.5 60q2 14 2 21
q0 44 -50 44q-30 0 -53 -13l-12 -1q-12 0 -19 7.5t-5 19.5q2 17 31 26t62 9q51 0 74.5 -25.5zM313.5 109q9.5 -11 7.5 -28q-2 -14 -12.5 -23.5t-24.5 -9.5q-16 0 -25 12t-6 29q1 13 11 22t24 9q16 0 25.5 -11z" />
    <glyph glyph-name="fi" unicode="fi" horiz-adv-x="489" 
d="M396 0h-121l62 440h-118l-55 -403q-11 -79 -38 -127t-65 -74t-100 -53l-29 90q35 16 56 34t35 49t21 84l54 400h-65l13 89h65l8 62q11 73 61 118t128 45q41 0 74 -11t68 -33l-46 -77q-45 27 -87 27q-35 0 -54 -18.5t-24 -57.5l-8 -55h239z" />
    <glyph glyph-name="fl" unicode="fl" horiz-adv-x="517" 
d="M463 89l13 -85q-34 -18 -78 -18q-47 0 -72.5 26.5t-25.5 74.5q0 9 2 27l75 538q-36 11 -65 11q-34 0 -51 -19.5t-22 -59.5l-8 -55h83l-25 -89h-70l-55 -403q-11 -79 -38 -127t-65 -74t-100 -53l-29 90q35 16 56 34t35 49t21 84l54 400h-65l13 89h65l8 62
q11 74 58.5 118.5t124.5 44.5q62 0 108 -20l101 11l-88 -628q-1 -4 -1 -11q0 -21 19 -21q11 0 22 4z" />
    <glyph glyph-name=".notdef" horiz-adv-x="658" 
d="M647 1050l-198 -1400h-414l197 1400h415zM586 998h-306l-183 -1296h306zM417.5 425.5q23.5 -25.5 23.5 -66.5q0 -9 -2 -27q-7 -52 -32 -79.5t-75 -34.5l-9 -47q-1 -11 -8.5 -16.5t-15.5 -5.5q-11 0 -18.5 7.5t-6.5 18.5l10 82q53 3 75.5 21t27.5 60q2 14 2 21
q0 44 -50 44q-30 0 -53 -13l-12 -1q-12 0 -19 7.5t-5 19.5q2 17 31 26t62 9q51 0 74.5 -25.5zM313.5 109q9.5 -11 7.5 -28q-2 -14 -12.5 -23.5t-24.5 -9.5q-16 0 -25 12t-6 29q1 13 11 22t24 9q16 0 25.5 -11z" />
    <glyph glyph-name="nonmarkingreturn" unicode="&#xd;" horiz-adv-x="189" 
 />
    <glyph glyph-name="space" unicode=" " horiz-adv-x="189" 
 />
    <glyph glyph-name="A" unicode="A" horiz-adv-x="490" 
d="M325 0l-10 162h-170l-54 -162h-130l267 691h153l74 -691h-130zM176 258h133l-20 340z" />
    <glyph glyph-name="Aacute" unicode="&#xc1;" horiz-adv-x="490" 
d="M325 0l-10 162h-170l-54 -162h-130l267 691h153l74 -691h-130zM176 258h133l-20 340zM399 923l45 -92l-201 -80l-30 59z" />
    <glyph glyph-name="Abreve" unicode="&#x102;" horiz-adv-x="490" 
d="M325 0l-10 162h-170l-54 -162h-130l267 691h153l74 -691h-130zM176 258h133l-20 340zM220.5 795.5q-30.5 40.5 -26.5 102.5l67 11q5 -66 57 -66q28 0 48.5 19t31.5 50l68 -18q-13 -63 -52.5 -101t-100.5 -38q-62 0 -92.5 40.5z" />
    <glyph glyph-name="uni1EAE" unicode="&#x1eae;" horiz-adv-x="490" 
d="M481 1026l-147 -139l-43 39l129 162zM366.5 845q20.5 19 31.5 50l68 -18q-13 -63 -52.5 -101t-100.5 -38q-62 0 -92.5 40.5t-26.5 102.5l67 11q5 -66 57 -66q28 0 48.5 19zM228 691h153l74 -691h-130l-10 162h-170l-54 -162h-130zM176 258h133l-20 340z" />
    <glyph glyph-name="uni1EB6" unicode="&#x1eb6;" horiz-adv-x="490" 
d="M325 0l-10 162h-170l-54 -162h-130l267 691h153l74 -691h-130zM176 258h133l-20 340zM220.5 795.5q-30.5 40.5 -26.5 102.5l67 11q5 -66 57 -66q28 0 48.5 19t31.5 50l68 -18q-13 -63 -52.5 -101t-100.5 -38q-62 0 -92.5 40.5zM243.5 -85.5q17.5 -17.5 17.5 -47.5
q0 -38 -23.5 -61t-58.5 -23q-31 0 -48.5 17.5t-17.5 47.5q0 37 24 60.5t58 23.5q31 0 48.5 -17.5z" />
    <glyph glyph-name="uni1EB0" unicode="&#x1eb0;" horiz-adv-x="490" 
d="M370 922l-52 -35l-109 143l77 56zM221.5 778.5q-30.5 40.5 -26.5 102.5l67 11q5 -66 57 -66q28 0 48.5 19t31.5 50l68 -18q-13 -63 -52.5 -101t-100.5 -38q-62 0 -92.5 40.5zM228 691h153l74 -691h-130l-10 162h-170l-54 -162h-130zM176 258h133l-20 340z" />
    <glyph glyph-name="uni1EB2" unicode="&#x1eb2;" horiz-adv-x="490" 
d="M325 0l-10 162h-170l-54 -162h-130l267 691h153l74 -691h-130zM176 258h133l-20 340zM222.5 778.5q-30.5 40.5 -26.5 102.5l67 11q5 -66 57 -66q28 0 48.5 19t31.5 50l68 -18q-13 -63 -52.5 -101t-100.5 -38q-62 0 -92.5 40.5zM302 968q33 4 48.5 14.5t15.5 33.5
q0 27 -27 27q-13 0 -23 -3t-25 -10l-16 59q19 12 38.5 17.5t45.5 5.5q43 0 68 -24.5t25 -63.5q0 -81 -81 -97l-6 -45h-73z" />
    <glyph glyph-name="uni1EB4" unicode="&#x1eb4;" horiz-adv-x="490" 
d="M266.5 959q-10.5 -10 -24.5 -32l-56 33q22 43 50.5 69.5t59.5 26.5q18 0 31.5 -7t28.5 -20q2 -2 9 -7.5t13.5 -8t12.5 -2.5q11 0 22 9.5t25 31.5l55 -32q-22 -45 -50.5 -70t-58.5 -25q-17 0 -29.5 6.5t-29.5 19.5q-22 18 -35 18t-23.5 -10zM364.5 845q20.5 19 31.5 50
l68 -18q-13 -63 -52.5 -101t-100.5 -38q-62 0 -92.5 40.5t-26.5 102.5l67 11q5 -66 57 -66q28 0 48.5 19zM228 691h153l74 -691h-130l-10 162h-170l-54 -162h-130zM176 258h133l-20 340z" />
    <glyph glyph-name="uni01CD" unicode="&#x1cd;" horiz-adv-x="490" 
d="M325 0l-10 162h-170l-54 -162h-130l267 691h153l74 -691h-130zM176 258h133l-20 340zM438 925l46 -51l-134 -122h-74l-100 128l49 45l97 -84z" />
    <glyph glyph-name="Acircumflex" unicode="&#xc2;" horiz-adv-x="490" 
d="M325 0l-10 162h-170l-54 -162h-130l267 691h153l74 -691h-130zM176 258h133l-20 340zM207 758l-46 51l134 122h74l100 -128l-49 -45l-97 83z" />
    <glyph glyph-name="uni1EA4" unicode="&#x1ea4;" horiz-adv-x="490" 
d="M595 992l-147 -139l-43 39l129 162zM290 893h74l100 -128l-49 -45l-97 83l-116 -83l-46 51zM228 691h153l74 -691h-130l-10 162h-170l-54 -162h-130zM176 258h133l-20 340z" />
    <glyph glyph-name="uni1EAC" unicode="&#x1eac;" horiz-adv-x="490" 
d="M325 0l-10 162h-170l-54 -162h-130l267 691h153l74 -691h-130zM176 258h133l-20 340zM207 758l-46 51l134 122h74l100 -128l-49 -45l-97 83zM243.5 -85.5q17.5 -17.5 17.5 -47.5q0 -38 -23.5 -61t-58.5 -23q-31 0 -48.5 17.5t-17.5 47.5q0 37 24 60.5t58 23.5
q31 0 48.5 -17.5z" />
    <glyph glyph-name="uni1EA6" unicode="&#x1ea6;" horiz-adv-x="490" 
d="M248 888l-52 -35l-109 143l77 56zM202 720l-46 51l134 122h74l100 -128l-49 -45l-97 83zM228 691h153l74 -691h-130l-10 162h-170l-54 -162h-130zM176 258h133l-20 340z" />
    <glyph glyph-name="uni1EA8" unicode="&#x1ea8;" horiz-adv-x="490" 
d="M325 0l-10 162h-170l-54 -162h-130l267 691h153l74 -691h-130zM176 258h133l-20 340zM201 720l-46 51l134 122h74l100 -128l-49 -45l-97 83zM432 921q33 4 48.5 14.5t15.5 33.5q0 27 -27 27q-13 0 -23 -3t-25 -10l-16 59q19 12 38.5 17.5t45.5 5.5q43 0 68 -24.5
t25 -63.5q0 -81 -81 -97l-6 -45h-73z" />
    <glyph glyph-name="uni1EAA" unicode="&#x1eaa;" horiz-adv-x="490" 
d="M270.5 956q-10.5 -10 -24.5 -32l-56 33q22 43 50.5 69.5t59.5 26.5q18 0 31.5 -7t28.5 -20q2 -2 9 -7.5t13.5 -8t12.5 -2.5q11 0 22 9.5t25 31.5l55 -32q-22 -45 -50.5 -70t-58.5 -25q-17 0 -29.5 6.5t-29.5 19.5q-22 18 -35 18t-23.5 -10zM292 893h74l100 -128l-49 -45
l-97 83l-116 -83l-46 51zM228 691h153l74 -691h-130l-10 162h-170l-54 -162h-130zM176 258h133l-20 340z" />
    <glyph glyph-name="uni0200" unicode="&#x200;" horiz-adv-x="490" 
d="M325 0l-10 162h-170l-54 -162h-130l267 691h153l74 -691h-130zM176 258h133l-20 340zM234 971l55 -188l-72 -27l-78 176zM373 970l47 -184l-71 -25l-72 172z" />
    <glyph glyph-name="Adieresis" unicode="&#xc4;" horiz-adv-x="490" 
d="M325 0l-10 162h-170l-54 -162h-130l267 691h153l74 -691h-130zM176 258h133l-20 340zM182.5 791q-15.5 16 -15.5 41q0 32 21 53.5t51 21.5q27 0 42.5 -16t15.5 -41q0 -32 -21.5 -53.5t-51.5 -21.5q-26 0 -41.5 16zM369 791q-16 16 -16 41q0 32 21.5 53.5t50.5 21.5
q27 0 42.5 -16t15.5 -41q0 -33 -21 -54t-51 -21q-26 0 -42 16z" />
    <glyph glyph-name="uni01DE" unicode="&#x1de;" horiz-adv-x="490" 
d="M325 0l-10 162h-170l-54 -162h-130l267 691h153l74 -691h-130zM176 258h133l-20 340zM175.5 763q-15.5 16 -15.5 41q0 32 21 53.5t51 21.5q27 0 42.5 -16t15.5 -41q0 -32 -21.5 -53.5t-51.5 -21.5q-26 0 -41.5 16zM362 763q-16 16 -16 41q0 32 21.5 53.5t50.5 21.5
q27 0 42.5 -16t15.5 -41q0 -33 -21 -54t-51 -21q-26 0 -42 16zM451 924h-242l13 88h243z" />
    <glyph glyph-name="uni0226" unicode="&#x226;" horiz-adv-x="490" 
d="M325 0l-10 162h-170l-54 -162h-130l267 691h153l74 -691h-130zM176 258h133l-20 340zM271.5 787.5q-17.5 17.5 -17.5 47.5q0 38 23.5 61t58.5 23q31 0 48.5 -17.5t17.5 -47.5q0 -37 -24 -60.5t-58 -23.5q-31 0 -48.5 17.5z" />
    <glyph glyph-name="uni1EA0" unicode="&#x1ea0;" horiz-adv-x="490" 
d="M325 0l-10 162h-170l-54 -162h-130l267 691h153l74 -691h-130zM176 258h133l-20 340zM243.5 -85.5q17.5 -17.5 17.5 -47.5q0 -38 -23.5 -61t-58.5 -23q-31 0 -48.5 17.5t-17.5 47.5q0 37 24 60.5t58 23.5q31 0 48.5 -17.5z" />
    <glyph glyph-name="uni01E0" unicode="&#x1e0;" horiz-adv-x="490" 
d="M325 0l-10 162h-170l-54 -162h-130l267 691h153l74 -691h-130zM176 258h133l-20 340zM263.5 756.5q-17.5 17.5 -17.5 47.5q0 38 23.5 61t58.5 23q31 0 48.5 -17.5t17.5 -47.5q0 -37 -24 -60.5t-58 -23.5q-31 0 -48.5 17.5zM455 925h-242l13 88h243z" />
    <glyph glyph-name="Agrave" unicode="&#xc0;" horiz-adv-x="490" 
d="M325 0l-10 162h-170l-54 -162h-130l267 691h153l74 -691h-130zM176 258h133l-20 340zM278 921l161 -112l-38 -57l-178 79z" />
    <glyph glyph-name="uni1EA2" unicode="&#x1ea2;" horiz-adv-x="490" 
d="M325 0l-10 162h-170l-54 -162h-130l267 691h153l74 -691h-130zM176 258h133l-20 340zM289 850q33 4 48.5 14.5t15.5 33.5q0 27 -27 27q-13 0 -23 -3t-25 -10l-16 59q19 12 38.5 17.5t45.5 5.5q43 0 68 -24.5t25 -63.5q0 -81 -81 -97l-6 -45h-73z" />
    <glyph glyph-name="uni0202" unicode="&#x202;" horiz-adv-x="490" 
d="M325 0l-10 162h-170l-54 -162h-130l267 691h153l74 -691h-130zM176 258h133l-20 340zM179 786q17 69 58 109t100 40q61 0 91.5 -42t26.5 -111l-69 -10q-5 75 -58 75q-57 0 -82 -79z" />
    <glyph glyph-name="uni2C6D" unicode="&#x2c6d;" horiz-adv-x="568" 
d="M484 111q0 -16 5 -25.5t17 -16.5l-37 -82q-76 8 -99 73q-28 -36 -61.5 -55t-75.5 -19q-89 0 -140.5 67t-51.5 189q0 129 36 234.5t100.5 167t146.5 61.5q39 0 66.5 -17.5t47.5 -50.5l18 54h108l-79 -559q-1 -8 -1 -21zM362 145l56 404q-17 30 -35.5 44.5t-44.5 14.5
q-52 0 -90 -51.5t-58 -136t-20 -182.5q0 -81 24.5 -118.5t66.5 -37.5q55 0 101 63z" />
    <glyph glyph-name="Amacron" unicode="&#x100;" horiz-adv-x="490" 
d="M325 0l-10 162h-170l-54 -162h-130l267 691h153l74 -691h-130zM176 258h133l-20 340zM438 787h-242l13 88h243z" />
    <glyph glyph-name="Aogonek" unicode="&#x104;" horiz-adv-x="490" 
d="M307.5 -61.5q-23.5 -29.5 -23.5 -59.5q0 -34 38 -34q20 0 48 5l-18 -80q-24 -7 -56 -7q-46 0 -74.5 27.5t-28.5 73.5q0 48 30.5 86.5t100.5 70.5l-9 141h-170l-54 -162h-130l267 691h153l74 -691h-58q-66 -32 -89.5 -61.5zM176 258h133l-20 340z" />
    <glyph glyph-name="Aring" unicode="&#xc5;" horiz-adv-x="490" 
d="M325 0l-10 162h-170l-54 -162h-130l267 691h153l74 -691h-130zM176 258h133l-20 340zM412.5 946q26.5 -29 26.5 -75q0 -55 -34.5 -92t-89.5 -37q-45 0 -71.5 29t-26.5 75q0 55 35 92t89 37q45 0 71.5 -29zM301 894.5q-13 -18.5 -13 -46.5q0 -21 8.5 -32.5t24.5 -11.5
q22 0 34.5 19t12.5 46q0 44 -32 44q-22 0 -35 -18.5z" />
    <glyph glyph-name="Aringacute" unicode="&#x1fa;" horiz-adv-x="490" 
d="M325 0l-10 162h-170l-54 -162h-130l267 691h153l74 -691h-130zM176 258h133l-20 340zM406.5 933q26.5 -29 26.5 -75q0 -55 -34.5 -92t-89.5 -37q-45 0 -71.5 29t-26.5 75q0 55 35 92t89 37q45 0 71.5 -29zM295 881.5q-13 -18.5 -13 -46.5q0 -21 8.5 -32.5t24.5 -11.5
q22 0 34.5 19t12.5 46q0 44 -32 44q-22 0 -35 -18.5zM407 1140l45 -92l-201 -80l-30 59z" />
    <glyph glyph-name="uni023A" unicode="&#x23a;" horiz-adv-x="490" 
d="M338 0l-13 162h-93l-84 -234l-44 13l79 221h-46l-56 -162h-120l268 691h143l22 61l44 -13l-48 -134l65 -605h-117zM168 253h48l84 237l-9 118zM264 253h54l-9 125z" />
    <glyph glyph-name="Atilde" unicode="&#xc3;" horiz-adv-x="490" 
d="M325 0l-10 162h-170l-54 -162h-130l267 691h153l74 -691h-130zM176 258h133l-20 340zM341 779q-13 7 -29 20q-12 10 -20.5 14.5t-16.5 4.5q-13 0 -23.5 -10.5t-24.5 -33.5l-56 34q23 45 51 72.5t59 27.5q18 0 31 -7t30 -21q12 -10 19 -14.5t16 -4.5q11 0 21.5 10t25.5 33
l56 -33q-22 -47 -50.5 -73t-59.5 -26q-16 0 -29 7z" />
    <glyph glyph-name="AE" unicode="&#xc6;" horiz-adv-x="688" 
d="M660 596h-222l5 -199h198l-15 -94h-180l5 -207h186l-15 -96h-286l-2 162h-181l-66 -162h-133l312 691h422zM192 258h141l-4 337z" />
    <glyph glyph-name="AEacute" unicode="&#x1fc;" horiz-adv-x="688" 
d="M660 596h-222l5 -199h198l-15 -94h-180l5 -207h186l-15 -96h-286l-2 162h-181l-66 -162h-133l312 691h422zM192 258h141l-4 337zM550 923l45 -92l-201 -80l-30 59z" />
    <glyph glyph-name="uni01E2" unicode="&#x1e2;" horiz-adv-x="688" 
d="M660 596h-222l5 -199h198l-15 -94h-180l5 -207h186l-15 -96h-286l-2 162h-181l-66 -162h-133l312 691h422zM192 258h141l-4 337zM589 787h-242l13 88h243z" />
    <glyph glyph-name="B" unicode="B" horiz-adv-x="509" 
d="M476 230q0 -104 -69.5 -167t-204.5 -63h-180l98 691h178q96 0 151 -40.5t55 -112.5q0 -69 -40.5 -112.5t-107.5 -60.5q120 -28 120 -135zM232 597l-27 -191h56q57 0 86 31.5t29 90.5q0 69 -79 69h-65zM318 134q30 38 30 99q0 44 -22 63.5t-69 19.5h-65l-31 -220h55
q72 0 102 38z" />
    <glyph glyph-name="uni1E02" unicode="&#x1e02;" horiz-adv-x="509" 
d="M476 230q0 -104 -69.5 -167t-204.5 -63h-180l98 691h178q96 0 151 -40.5t55 -112.5q0 -69 -40.5 -112.5t-107.5 -60.5q120 -28 120 -135zM232 597l-27 -191h56q57 0 86 31.5t29 90.5q0 69 -79 69h-65zM318 134q30 38 30 99q0 44 -22 63.5t-69 19.5h-65l-31 -220h55
q72 0 102 38zM273.5 787.5q-17.5 17.5 -17.5 47.5q0 38 23.5 61t58.5 23q31 0 48.5 -17.5t17.5 -47.5q0 -37 -24 -60.5t-58 -23.5q-31 0 -48.5 17.5z" />
    <glyph glyph-name="uni1E04" unicode="&#x1e04;" horiz-adv-x="509" 
d="M476 230q0 -104 -69.5 -167t-204.5 -63h-180l98 691h178q96 0 151 -40.5t55 -112.5q0 -69 -40.5 -112.5t-107.5 -60.5q120 -28 120 -135zM232 597l-27 -191h56q57 0 86 31.5t29 90.5q0 69 -79 69h-65zM318 134q30 38 30 99q0 44 -22 63.5t-69 19.5h-65l-31 -220h55
q72 0 102 38zM253.5 -85.5q17.5 -17.5 17.5 -47.5q0 -38 -23.5 -61t-58.5 -23q-31 0 -48.5 17.5t-17.5 47.5q0 37 24 60.5t58 23.5q31 0 48.5 -17.5z" />
    <glyph glyph-name="uniA7B4" unicode="&#xa7b4;" horiz-adv-x="506" 
d="M474 230q0 -66 -30 -118.5t-83.5 -82t-121.5 -29.5q-43 0 -89 12l-31 -218h-126l127 897h166q96 0 151 -40.5t55 -114.5q0 -69 -38.5 -112.5t-99.5 -58.5q120 -24 120 -135zM316 135.5q30 39.5 30 97.5q0 44 -22 63.5t-67 19.5h-26l21 90h13q46 0 72.5 31.5t26.5 89.5
q0 70 -76 70h-56l-69 -492q33 -9 68 -9q55 0 85 39.5z" />
    <glyph glyph-name="uni0181" unicode="&#x181;" horiz-adv-x="618" 
d="M585 230q0 -104 -69.5 -167t-204.5 -63h-180l85 597h-24q-47 0 -47 -60q0 -29 9 -61l-85 -32q-23 48 -23 96q0 69 41 110t112 41h208q96 0 151 -40.5t55 -112.5q0 -69 -40.5 -112.5t-107.5 -60.5q120 -28 120 -135zM341 597l-27 -191h56q57 0 86 31.5t29 90.5
q0 69 -79 69h-65zM427 134q30 38 30 99q0 44 -22 63.5t-69 19.5h-65l-31 -220h55q72 0 102 38z" />
    <glyph glyph-name="uni0243" unicode="&#x243;" horiz-adv-x="516" 
d="M483 230q0 -104 -69.5 -167t-204.5 -63h-180l24 172h-54l11 74h54l63 445h178q96 0 151 -40.5t55 -112.5q0 -69 -40.5 -112.5t-107.5 -60.5q120 -28 120 -135zM239 597l-27 -191h56q57 0 86 31.5t29 90.5q0 69 -79 69h-65zM325 134q30 38 30 99q0 44 -22 63.5t-69 19.5
h-65l-10 -70h98l-11 -74h-97l-11 -76h55q72 0 102 38z" />
    <glyph glyph-name="uni0182" unicode="&#x182;" horiz-adv-x="486" 
d="M412.5 389.5q54.5 -47.5 54.5 -135.5q0 -66 -26 -123.5t-83.5 -94t-146.5 -36.5h-188l97 691h343l-28 -99h-204l-22 -155h51q98 0 152.5 -47.5zM307 141q28 45 28 110q0 48 -21 71t-64 23h-54l-35 -249h53q65 0 93 45z" />
    <glyph glyph-name="C" unicode="C" horiz-adv-x="474" 
d="M445.5 686q38.5 -19 70.5 -55l-68 -67q-22 22 -45 33t-50 11q-64 0 -105 -57.5t-59.5 -142.5t-18.5 -172q0 -77 24.5 -113t69.5 -36q32 0 56.5 12.5t64.5 41.5l47 -76q-86 -80 -189 -80q-93 0 -148 67t-55 191q0 118 34.5 223.5t105.5 172t174 66.5q53 0 91.5 -19z" />
    <glyph glyph-name="Cacute" unicode="&#x106;" horiz-adv-x="474" 
d="M445.5 686q38.5 -19 70.5 -55l-68 -67q-22 22 -45 33t-50 11q-64 0 -105 -57.5t-59.5 -142.5t-18.5 -172q0 -77 24.5 -113t69.5 -36q32 0 56.5 12.5t64.5 41.5l47 -76q-86 -80 -189 -80q-93 0 -148 67t-55 191q0 118 34.5 223.5t105.5 172t174 66.5q53 0 91.5 -19z
M446 923l45 -92l-201 -80l-30 59z" />
    <glyph glyph-name="Ccaron" unicode="&#x10c;" horiz-adv-x="474" 
d="M445.5 686q38.5 -19 70.5 -55l-68 -67q-22 22 -45 33t-50 11q-64 0 -105 -57.5t-59.5 -142.5t-18.5 -172q0 -77 24.5 -113t69.5 -36q32 0 56.5 12.5t64.5 41.5l47 -76q-86 -80 -189 -80q-93 0 -148 67t-55 191q0 118 34.5 223.5t105.5 172t174 66.5q53 0 91.5 -19z
M485 925l46 -51l-134 -122h-74l-100 128l49 45l97 -84z" />
    <glyph glyph-name="Ccedilla" unicode="&#xc7;" horiz-adv-x="474" 
d="M248 550.5q-41 -57.5 -59.5 -142.5t-18.5 -172q0 -77 24.5 -113t69.5 -36q32 0 56.5 12.5t64.5 41.5l47 -76q-75 -69 -162 -78l-6 -43q36 -4 54 -24.5t18 -54.5q0 -45 -32.5 -80t-98.5 -35q-54 0 -86 28l36 56q24 -13 48 -13q20 0 32.5 10t12.5 29t-15 26.5t-54 7.5
l22 95q-75 15 -118 80t-43 174q0 118 34.5 223.5t105.5 172t174 66.5q53 0 91.5 -19t70.5 -55l-68 -67q-22 22 -45 33t-50 11q-64 0 -105 -57.5z" />
    <glyph glyph-name="Ccircumflex" unicode="&#x108;" horiz-adv-x="474" 
d="M445.5 686q38.5 -19 70.5 -55l-68 -67q-22 22 -45 33t-50 11q-64 0 -105 -57.5t-59.5 -142.5t-18.5 -172q0 -77 24.5 -113t69.5 -36q32 0 56.5 12.5t64.5 41.5l47 -76q-86 -80 -189 -80q-93 0 -148 67t-55 191q0 118 34.5 223.5t105.5 172t174 66.5q53 0 91.5 -19z
M254 758l-46 51l134 122h74l100 -128l-49 -45l-97 83z" />
    <glyph glyph-name="Cdotaccent" unicode="&#x10a;" horiz-adv-x="474" 
d="M445.5 686q38.5 -19 70.5 -55l-68 -67q-22 22 -45 33t-50 11q-64 0 -105 -57.5t-59.5 -142.5t-18.5 -172q0 -77 24.5 -113t69.5 -36q32 0 56.5 12.5t64.5 41.5l47 -76q-86 -80 -189 -80q-93 0 -148 67t-55 191q0 118 34.5 223.5t105.5 172t174 66.5q53 0 91.5 -19z
M318.5 787.5q-17.5 17.5 -17.5 47.5q0 38 23.5 61t58.5 23q31 0 48.5 -17.5t17.5 -47.5q0 -37 -24 -60.5t-58 -23.5q-31 0 -48.5 17.5z" />
    <glyph glyph-name="uniA7B3" unicode="&#xa7b3;" horiz-adv-x="457" 
d="M507 691l-202 -392l97 -443h-130l-54 356l-140 -356h-138l216 443l-85 392h131l41 -311l129 311h135z" />
    <glyph glyph-name="uni0187" unicode="&#x187;" horiz-adv-x="470" 
d="M673 803l-46 -73q-28 18 -52 18q-44 0 -52 -65l-7 -52l-63 -63q-26 20 -50 30t-50 10q-64 0 -105 -57.5t-59.5 -142.5t-18.5 -172q0 -77 24.5 -113t69.5 -36q32 0 56.5 12.5t64.5 41.5l47 -76q-86 -80 -189 -80q-93 0 -148 67t-55 191q0 116 34.5 222t102 173t162.5 67
q43 0 77 -17l4 24q10 58 47 93.5t101 35.5q59 0 105 -38z" />
    <glyph glyph-name="uni023B" unicode="&#x23b;" horiz-adv-x="474" 
d="M406 596l-181 -501q19 -8 39 -8q32 0 56.5 12.5t64.5 41.5l47 -76q-86 -80 -189 -80q-31 0 -55 7l-23 -64l-46 13l25 69q-49 29 -76.5 88t-27.5 145q0 118 34.5 223.5t105.5 172t174 66.5q21 0 40 -3l18 50l46 -13l-18 -50q40 -17 76 -58l-68 -67q-21 21 -42 32zM360 608
h-7q-64 0 -105 -57.5t-59.5 -142.5t-18.5 -172q0 -64 19 -102z" />
    <glyph glyph-name="D" unicode="D" horiz-adv-x="547" 
d="M462 637.5q67 -53.5 67 -184.5q0 -202 -82.5 -327.5t-258.5 -125.5h-166l98 691h160q115 0 182 -53.5zM232 596l-71 -501h49q69 0 112 54t61.5 136t18.5 170q0 78 -30 109.5t-88 31.5h-52z" />
    <glyph glyph-name="uni01F1" unicode="&#x1f1;" horiz-adv-x="958" 
d="M462 637.5q67 -53.5 67 -184.5q0 -202 -82.5 -327.5t-258.5 -125.5h-166l98 691h160q115 0 182 -53.5zM232 596l-71 -501h49q69 0 112 54t61.5 136t18.5 170q0 78 -30 109.5t-88 31.5h-52zM500 0l15 98l326 491h-234l15 102h370l-15 -99l-327 -488h266l-30 -104h-386z
" />
    <glyph glyph-name="uni01C4" unicode="&#x1c4;" horiz-adv-x="958" 
d="M462 637.5q67 -53.5 67 -184.5q0 -202 -82.5 -327.5t-258.5 -125.5h-166l98 691h160q115 0 182 -53.5zM232 596l-71 -501h49q69 0 112 54t61.5 136t18.5 170q0 78 -30 109.5t-88 31.5h-52zM500 0l15 98l326 491h-234l15 102h370l-15 -99l-327 -488h266l-30 -104h-386z
M939 925l46 -51l-134 -122h-74l-100 128l49 45l97 -84z" />
    <glyph glyph-name="uni0189" unicode="&#x189;" horiz-adv-x="554" 
d="M469 637.5q67 -53.5 67 -184.5q0 -202 -82.5 -327.5t-258.5 -125.5h-166l44 311h-55l13 84h54l42 296h160q115 0 182 -53.5zM329 149q43 54 61.5 136t18.5 170q0 78 -30 109.5t-88 31.5h-52l-28 -201h111l-13 -84h-110l-31 -216h49q69 0 112 54z" />
    <glyph glyph-name="Eth" unicode="&#xd0;" horiz-adv-x="554" 
d="M469 637.5q67 -53.5 67 -184.5q0 -202 -82.5 -327.5t-258.5 -125.5h-166l44 311h-55l13 84h54l42 296h160q115 0 182 -53.5zM329 149q43 54 61.5 136t18.5 170q0 78 -30 109.5t-88 31.5h-52l-28 -201h111l-13 -84h-110l-31 -216h49q69 0 112 54z" />
    <glyph glyph-name="Dcaron" unicode="&#x10e;" horiz-adv-x="547" 
d="M462 637.5q67 -53.5 67 -184.5q0 -202 -82.5 -327.5t-258.5 -125.5h-166l98 691h160q115 0 182 -53.5zM232 596l-71 -501h49q69 0 112 54t61.5 136t18.5 170q0 78 -30 109.5t-88 31.5h-52zM452 925l46 -51l-134 -122h-74l-100 128l49 45l97 -84z" />
    <glyph glyph-name="uni1E12" unicode="&#x1e12;" horiz-adv-x="547" 
d="M462 637.5q67 -53.5 67 -184.5q0 -202 -82.5 -327.5t-258.5 -125.5h-166l98 691h160q115 0 182 -53.5zM232 596l-71 -501h49q69 0 112 54t61.5 136t18.5 170q0 78 -30 109.5t-88 31.5h-52zM77 -242l-45 51l134 125h74l100 -130l-52 -46l-93 87z" />
    <glyph glyph-name="Dcroat" unicode="&#x110;" horiz-adv-x="554" 
d="M469 637.5q67 -53.5 67 -184.5q0 -202 -82.5 -327.5t-258.5 -125.5h-166l44 311h-55l13 84h54l42 296h160q115 0 182 -53.5zM329 149q43 54 61.5 136t18.5 170q0 78 -30 109.5t-88 31.5h-52l-28 -201h111l-13 -84h-110l-31 -216h49q69 0 112 54z" />
    <glyph glyph-name="uni1E0A" unicode="&#x1e0a;" horiz-adv-x="547" 
d="M462 637.5q67 -53.5 67 -184.5q0 -202 -82.5 -327.5t-258.5 -125.5h-166l98 691h160q115 0 182 -53.5zM232 596l-71 -501h49q69 0 112 54t61.5 136t18.5 170q0 78 -30 109.5t-88 31.5h-52zM285.5 787.5q-17.5 17.5 -17.5 47.5q0 38 23.5 61t58.5 23q31 0 48.5 -17.5
t17.5 -47.5q0 -37 -24 -60.5t-58 -23.5q-31 0 -48.5 17.5z" />
    <glyph glyph-name="uni1E0C" unicode="&#x1e0c;" horiz-adv-x="547" 
d="M462 637.5q67 -53.5 67 -184.5q0 -202 -82.5 -327.5t-258.5 -125.5h-166l98 691h160q115 0 182 -53.5zM232 596l-71 -501h49q69 0 112 54t61.5 136t18.5 170q0 78 -30 109.5t-88 31.5h-52zM248.5 -85.5q17.5 -17.5 17.5 -47.5q0 -38 -23.5 -61t-58.5 -23
q-31 0 -48.5 17.5t-17.5 47.5q0 37 24 60.5t58 23.5q31 0 48.5 -17.5z" />
    <glyph glyph-name="uni018A" unicode="&#x18a;" horiz-adv-x="655" 
d="M571 637.5q67 -53.5 67 -184.5q0 -202 -82.5 -327.5t-258.5 -125.5h-166l85 597h-24q-47 0 -47 -60q0 -29 9 -61l-85 -32q-23 48 -23 96q0 69 41 110t112 41h190q115 0 182 -53.5zM431 149q43 54 61.5 136t18.5 170q0 78 -30 109.5t-88 31.5h-52l-71 -501h49q69 0 112 54
z" />
    <glyph glyph-name="uni1E0E" unicode="&#x1e0e;" horiz-adv-x="547" 
d="M462 637.5q67 -53.5 67 -184.5q0 -202 -82.5 -327.5t-258.5 -125.5h-166l98 691h160q115 0 182 -53.5zM232 596l-71 -501h49q69 0 112 54t61.5 136t18.5 170q0 78 -30 109.5t-88 31.5h-52zM86 -93h242l-13 -88h-243z" />
    <glyph glyph-name="uni018B" unicode="&#x18b;" horiz-adv-x="486" 
d="M485 690l-97 -690h-164q-104 0 -160 48.5t-56 144.5q0 116 69 180.5t185 64.5h62l22 154h-215l13 99h342zM276 96l35 249h-52q-59 0 -89 -38.5t-30 -109.5q0 -52 23 -76.5t76 -24.5h37z" />
    <glyph glyph-name="uni01F2" unicode="&#x1f2;" horiz-adv-x="909" 
d="M462 637.5q67 -53.5 67 -184.5q0 -202 -82.5 -327.5t-258.5 -125.5h-166l98 691h160q115 0 182 -53.5zM232 596l-71 -501h49q69 0 112 54t61.5 136t18.5 170q0 78 -30 109.5t-88 31.5h-52zM924 529l-13 -89l-244 -343h202l-26 -97h-330l13 89l244 343h-181l15 97h320z
" />
    <glyph glyph-name="uni01C5" unicode="&#x1c5;" horiz-adv-x="909" 
d="M462 637.5q67 -53.5 67 -184.5q0 -202 -82.5 -327.5t-258.5 -125.5h-166l98 691h160q115 0 182 -53.5zM232 596l-71 -501h49q69 0 112 54t61.5 136t18.5 170q0 78 -30 109.5t-88 31.5h-52zM924 529l-13 -89l-244 -343h202l-26 -97h-330l13 89l244 343h-181l15 97h320z
M902 794l43 -50l-133 -124h-74l-98 124l48 50l94 -85z" />
    <glyph glyph-name="E" unicode="E" horiz-adv-x="429" 
d="M458 691l-29 -95h-197l-28 -198h175l-14 -94h-174l-30 -208h215l-15 -96h-339l98 691h338z" />
    <glyph glyph-name="Eacute" unicode="&#xc9;" horiz-adv-x="429" 
d="M458 691l-29 -95h-197l-28 -198h175l-14 -94h-174l-30 -208h215l-15 -96h-339l98 691h338zM384 923l45 -92l-201 -80l-30 59z" />
    <glyph glyph-name="Ebreve" unicode="&#x114;" horiz-adv-x="429" 
d="M458 691l-29 -95h-197l-28 -198h175l-14 -94h-174l-30 -208h215l-15 -96h-339l98 691h338zM205.5 795.5q-30.5 40.5 -26.5 102.5l67 11q5 -66 57 -66q28 0 48.5 19t31.5 50l68 -18q-13 -63 -52.5 -101t-100.5 -38q-62 0 -92.5 40.5z" />
    <glyph glyph-name="Ecaron" unicode="&#x11a;" horiz-adv-x="429" 
d="M458 691l-29 -95h-197l-28 -198h175l-14 -94h-174l-30 -208h215l-15 -96h-339l98 691h338zM423 925l46 -51l-134 -122h-74l-100 128l49 45l97 -84z" />
    <glyph glyph-name="uni0228" unicode="&#x228;" horiz-adv-x="429" 
d="M232 596l-28 -198h175l-14 -94h-174l-30 -208h215l-15 -96h-135l-9 -56q36 -4 54 -24.5t18 -54.5q0 -45 -32.5 -80t-98.5 -35q-54 0 -86 28l36 56q24 -13 48 -13q20 0 32.5 10t12.5 29t-15 26.5t-54 7.5l24 106h-134l98 691h338l-29 -95h-197z" />
    <glyph glyph-name="Ecircumflex" unicode="&#xca;" horiz-adv-x="429" 
d="M458 691l-29 -95h-197l-28 -198h175l-14 -94h-174l-30 -208h215l-15 -96h-339l98 691h338zM192 758l-46 51l134 122h74l100 -128l-49 -45l-97 83z" />
    <glyph glyph-name="uni1EBE" unicode="&#x1ebe;" horiz-adv-x="429" 
d="M519 1054l61 -62l-147 -139l-43 39zM187 720l-46 51l134 122h74l100 -128l-49 -45l-97 83zM458 691l-29 -95h-197l-28 -198h175l-14 -94h-174l-30 -208h215l-15 -96h-339l98 691h338z" />
    <glyph glyph-name="uni1EC6" unicode="&#x1ec6;" horiz-adv-x="429" 
d="M458 691l-29 -95h-197l-28 -198h175l-14 -94h-174l-30 -208h215l-15 -96h-339l98 691h338zM192 758l-46 51l134 122h74l100 -128l-49 -45l-97 83zM228.5 -85.5q17.5 -17.5 17.5 -47.5q0 -38 -23.5 -61t-58.5 -23q-31 0 -48.5 17.5t-17.5 47.5q0 37 24 60.5t58 23.5
q31 0 48.5 -17.5z" />
    <glyph glyph-name="uni1EC0" unicode="&#x1ec0;" horiz-adv-x="429" 
d="M149 1052l84 -164l-52 -35l-109 143zM187 720l-46 51l134 122h74l100 -128l-49 -45l-97 83zM458 691l-29 -95h-197l-28 -198h175l-14 -94h-174l-30 -208h215l-15 -96h-339l98 691h338z" />
    <glyph glyph-name="uni1EC2" unicode="&#x1ec2;" horiz-adv-x="429" 
d="M458 691l-29 -95h-197l-28 -198h175l-14 -94h-174l-30 -208h215l-15 -96h-339l98 691h338zM186 720l-46 51l134 122h74l100 -128l-49 -45l-97 83zM417 921q33 4 48.5 14.5t15.5 33.5q0 27 -27 27q-13 0 -23 -3t-25 -10l-16 59q19 12 38.5 17.5t45.5 5.5q43 0 68 -24.5
t25 -63.5q0 -81 -81 -97l-6 -45h-73z" />
    <glyph glyph-name="uni1EC4" unicode="&#x1ec4;" horiz-adv-x="429" 
d="M343.5 928.5q-12.5 6.5 -29.5 19.5q-22 18 -35 18t-23.5 -10t-24.5 -32l-56 33q22 43 50.5 69.5t59.5 26.5q18 0 31.5 -7t28.5 -20q2 -2 9 -7.5t13.5 -8t12.5 -2.5q11 0 22 9.5t25 31.5l55 -32q-22 -45 -50.5 -70t-58.5 -25q-17 0 -29.5 6.5zM189 720l-46 51l134 122h74
l100 -128l-49 -45l-97 83zM458 691l-29 -95h-197l-28 -198h175l-14 -94h-174l-30 -208h215l-15 -96h-339l98 691h338z" />
    <glyph glyph-name="uni0204" unicode="&#x204;" horiz-adv-x="429" 
d="M458 691l-29 -95h-197l-28 -198h175l-14 -94h-174l-30 -208h215l-15 -96h-339l98 691h338zM219 971l55 -188l-72 -27l-78 176zM358 970l47 -184l-71 -25l-72 172z" />
    <glyph glyph-name="Edieresis" unicode="&#xcb;" horiz-adv-x="429" 
d="M458 691l-29 -95h-197l-28 -198h175l-14 -94h-174l-30 -208h215l-15 -96h-339l98 691h338zM167.5 791q-15.5 16 -15.5 41q0 32 21 53.5t51 21.5q27 0 42.5 -16t15.5 -41q0 -32 -21.5 -53.5t-51.5 -21.5q-26 0 -41.5 16zM354 791q-16 16 -16 41q0 32 21.5 53.5t50.5 21.5
q27 0 42.5 -16t15.5 -41q0 -33 -21 -54t-51 -21q-26 0 -42 16z" />
    <glyph glyph-name="Edotaccent" unicode="&#x116;" horiz-adv-x="429" 
d="M458 691l-29 -95h-197l-28 -198h175l-14 -94h-174l-30 -208h215l-15 -96h-339l98 691h338zM256.5 787.5q-17.5 17.5 -17.5 47.5q0 38 23.5 61t58.5 23q31 0 48.5 -17.5t17.5 -47.5q0 -37 -24 -60.5t-58 -23.5q-31 0 -48.5 17.5z" />
    <glyph glyph-name="uni1EB8" unicode="&#x1eb8;" horiz-adv-x="429" 
d="M458 691l-29 -95h-197l-28 -198h175l-14 -94h-174l-30 -208h215l-15 -96h-339l98 691h338zM228.5 -85.5q17.5 -17.5 17.5 -47.5q0 -38 -23.5 -61t-58.5 -23q-31 0 -48.5 17.5t-17.5 47.5q0 37 24 60.5t58 23.5q31 0 48.5 -17.5z" />
    <glyph glyph-name="Egrave" unicode="&#xc8;" horiz-adv-x="429" 
d="M458 691l-29 -95h-197l-28 -198h175l-14 -94h-174l-30 -208h215l-15 -96h-339l98 691h338zM263 921l161 -112l-38 -57l-178 79z" />
    <glyph glyph-name="uni1EBA" unicode="&#x1eba;" horiz-adv-x="429" 
d="M458 691l-29 -95h-197l-28 -198h175l-14 -94h-174l-30 -208h215l-15 -96h-339l98 691h338zM274 850q33 4 48.5 14.5t15.5 33.5q0 27 -27 27q-13 0 -23 -3t-25 -10l-16 59q19 12 38.5 17.5t45.5 5.5q43 0 68 -24.5t25 -63.5q0 -81 -81 -97l-6 -45h-73z" />
    <glyph glyph-name="uni0206" unicode="&#x206;" horiz-adv-x="429" 
d="M458 691l-29 -95h-197l-28 -198h175l-14 -94h-174l-30 -208h215l-15 -96h-339l98 691h338zM164 786q17 69 58 109t100 40q61 0 91.5 -42t26.5 -111l-69 -10q-5 75 -58 75q-57 0 -82 -79z" />
    <glyph glyph-name="Emacron" unicode="&#x112;" horiz-adv-x="429" 
d="M458 691l-29 -95h-197l-28 -198h175l-14 -94h-174l-30 -208h215l-15 -96h-339l98 691h338zM423 787h-242l13 88h243z" />
    <glyph glyph-name="Eogonek" unicode="&#x118;" horiz-adv-x="429" 
d="M232 596l-28 -198h175l-14 -94h-174l-30 -208h215l-15 -96h-31q-66 -32 -89.5 -61.5t-23.5 -59.5q0 -34 38 -34q20 0 48 5l-18 -80q-24 -7 -56 -7q-46 0 -74.5 27.5t-28.5 73.5q0 40 21.5 74t69.5 62h-195l98 691h338l-29 -95h-197z" />
    <glyph glyph-name="uni0190" unicode="&#x190;" horiz-adv-x="441" 
d="M408 682.5q42 -22.5 75 -66.5l-70 -64q-25 29 -50 43t-53 14q-45 0 -71 -34t-26 -84q0 -38 21 -58t58 -20h52l-29 -96h-39q-63 0 -97.5 -36.5t-34.5 -105.5q0 -90 79 -90q35 0 66 15.5t62 45.5l59 -67q-84 -93 -206 -93q-86 0 -138.5 48.5t-52.5 129.5q0 89 49 142.5
t134 62.5q-54 12 -81 44.5t-27 83.5q0 61 30 108.5t80 73.5t108 26q60 0 102 -22.5z" />
    <glyph glyph-name="uni018E" unicode="&#x18e;" horiz-adv-x="426" 
d="M89 691h337l-97 -691h-340l14 96h213l30 208h-176l14 94h175l28 198h-211z" />
    <glyph glyph-name="uni01A9" unicode="&#x1a9;" horiz-adv-x="419" 
d="M452 691l-13 -97h-237l114 -227l-7 -62l-168 -207h230l-14 -98h-368l14 96l200 250l-131 249l13 96h367z" />
    <glyph glyph-name="uni0246" unicode="&#x246;" horiz-adv-x="429" 
d="M429 596h-33l-71 -198h54l-14 -94h-74l-75 -208h160l-15 -96h-180l-26 -72l-45 13l21 59h-109l98 691h261l22 61l45 -13l-17 -48h27zM275 398l72 198h-115l-28 -198h71zM166 96l75 208h-50l-30 -208h5z" />
    <glyph glyph-name="uni1EBC" unicode="&#x1ebc;" horiz-adv-x="429" 
d="M458 691l-29 -95h-197l-28 -198h175l-14 -94h-174l-30 -208h215l-15 -96h-339l98 691h338zM326 779q-13 7 -29 20q-12 10 -20.5 14.5t-16.5 4.5q-13 0 -23.5 -10.5t-24.5 -33.5l-56 34q23 45 51 72.5t59 27.5q18 0 31 -7t30 -21q12 -10 19 -14.5t16 -4.5q11 0 21.5 10
t25.5 33l56 -33q-22 -47 -50.5 -73t-59.5 -26q-16 0 -29 7z" />
    <glyph glyph-name="uni01B7" unicode="&#x1b7;" horiz-adv-x="439" 
d="M436 597l-182 -199q79 -4 119 -46t40 -116q0 -75 -33 -131.5t-89.5 -87.5t-125.5 -31q-67 0 -110.5 24.5t-72.5 72.5l75 61q24 -32 48 -46t60 -14q52 0 85 40t33 107q0 47 -22.5 67t-67.5 20h-81l1 1l11 78l175 197h-217l15 97h353z" />
    <glyph glyph-name="uni01EE" unicode="&#x1ee;" horiz-adv-x="439" 
d="M436 597l-182 -199q79 -4 119 -46t40 -116q0 -75 -33 -131.5t-89.5 -87.5t-125.5 -31q-67 0 -110.5 24.5t-72.5 72.5l75 61q24 -32 48 -46t60 -14q52 0 85 40t33 107q0 47 -22.5 67t-67.5 20h-81l1 1l11 78l175 197h-217l15 97h353zM407 925l46 -51l-134 -122h-74
l-100 128l49 45l97 -84z" />
    <glyph glyph-name="uni01B8" unicode="&#x1b8;" horiz-adv-x="441" 
d="M445 594h-227l133 -198l-12 -78h-74q-61 0 -93 -37.5t-32 -104.5q0 -92 77 -92q36 0 66.5 15t64.5 47l60 -66q-41 -47 -90.5 -70.5t-113.5 -23.5q-91 0 -143 50t-52 136q0 67 28.5 118.5t79 80t114.5 28.5l-137 198l14 94h352z" />
    <glyph glyph-name="F" unicode="F" horiz-adv-x="396" 
d="M448 691l-28 -95h-188l-30 -211h167l-15 -95h-165l-41 -290h-126l98 691h328z" />
    <glyph glyph-name="uni1E1E" unicode="&#x1e1e;" horiz-adv-x="396" 
d="M448 691l-28 -95h-188l-30 -211h167l-15 -95h-165l-41 -290h-126l98 691h328zM250.5 787.5q-17.5 17.5 -17.5 47.5q0 38 23.5 61t58.5 23q31 0 48.5 -17.5t17.5 -47.5q0 -37 -24 -60.5t-58 -23.5q-31 0 -48.5 17.5z" />
    <glyph glyph-name="uni0191" unicode="&#x191;" horiz-adv-x="396" 
d="M232 596l-30 -211h167l-15 -95h-165l-41 -290l-8 -57q-12 -78 -58.5 -119t-116.5 -41q-38 0 -64 11t-47 30l51 74q17 -10 27.5 -14.5t25.5 -4.5q23 0 38 16t19 45l7 60l98 691h328l-28 -95h-188z" />
    <glyph glyph-name="G" unicode="G" horiz-adv-x="534" 
d="M543 624l-72 -64q-26 27 -49.5 38t-56.5 11q-68 0 -113 -58.5t-65.5 -148t-20.5 -183.5q0 -70 22.5 -103t66.5 -33q45 0 91 28l25 184h-77l2 95h209l-46 -335q-104 -69 -213 -69q-102 0 -155 63t-53 186q0 120 37.5 227.5t112 175t180.5 67.5q107 0 175 -81z" />
    <glyph glyph-name="uni01F4" unicode="&#x1f4;" horiz-adv-x="534" 
d="M543 624l-72 -64q-26 27 -49.5 38t-56.5 11q-68 0 -113 -58.5t-65.5 -148t-20.5 -183.5q0 -70 22.5 -103t66.5 -33q45 0 91 28l25 184h-77l2 95h209l-46 -335q-104 -69 -213 -69q-102 0 -155 63t-53 186q0 120 37.5 227.5t112 175t180.5 67.5q107 0 175 -81zM454 923
l45 -92l-201 -80l-30 59z" />
    <glyph glyph-name="uni0194" unicode="&#x194;" horiz-adv-x="474" 
d="M276 77q17 -50 24.5 -84.5t7.5 -68.5q0 -68 -35.5 -104.5t-99.5 -36.5q-51 0 -78 27.5t-27 73.5q0 42 19 87t61 109l-90 611h128l40 -526l180 526h130zM203 9q-40 -75 -40 -114q0 -12 5 -19t15 -7q31 0 31 53q0 37 -11 87z" />
    <glyph glyph-name="Gbreve" unicode="&#x11e;" horiz-adv-x="534" 
d="M543 624l-72 -64q-26 27 -49.5 38t-56.5 11q-68 0 -113 -58.5t-65.5 -148t-20.5 -183.5q0 -70 22.5 -103t66.5 -33q45 0 91 28l25 184h-77l2 95h209l-46 -335q-104 -69 -213 -69q-102 0 -155 63t-53 186q0 120 37.5 227.5t112 175t180.5 67.5q107 0 175 -81zM275.5 795.5
q-30.5 40.5 -26.5 102.5l67 11q5 -66 57 -66q28 0 48.5 19t31.5 50l68 -18q-13 -63 -52.5 -101t-100.5 -38q-62 0 -92.5 40.5z" />
    <glyph glyph-name="Gcaron" unicode="&#x1e6;" horiz-adv-x="534" 
d="M543 624l-72 -64q-26 27 -49.5 38t-56.5 11q-68 0 -113 -58.5t-65.5 -148t-20.5 -183.5q0 -70 22.5 -103t66.5 -33q45 0 91 28l25 184h-77l2 95h209l-46 -335q-104 -69 -213 -69q-102 0 -155 63t-53 186q0 120 37.5 227.5t112 175t180.5 67.5q107 0 175 -81zM493 925
l46 -51l-134 -122h-74l-100 128l49 45l97 -84z" />
    <glyph glyph-name="Gcircumflex" unicode="&#x11c;" horiz-adv-x="534" 
d="M543 624l-72 -64q-26 27 -49.5 38t-56.5 11q-68 0 -113 -58.5t-65.5 -148t-20.5 -183.5q0 -70 22.5 -103t66.5 -33q45 0 91 28l25 184h-77l2 95h209l-46 -335q-104 -69 -213 -69q-102 0 -155 63t-53 186q0 120 37.5 227.5t112 175t180.5 67.5q107 0 175 -81zM262 758
l-46 51l134 122h74l100 -128l-49 -45l-97 83z" />
    <glyph glyph-name="Gcommaaccent" unicode="&#x122;" horiz-adv-x="534" 
d="M543 624l-72 -64q-26 27 -49.5 38t-56.5 11q-68 0 -113 -58.5t-65.5 -148t-20.5 -183.5q0 -70 22.5 -103t66.5 -33q45 0 91 28l25 184h-77l2 95h209l-46 -335q-104 -69 -213 -69q-102 0 -155 63t-53 186q0 120 37.5 227.5t112 175t180.5 67.5q107 0 175 -81zM275 -89.5
q16 -16.5 16 -40.5q0 -20 -7 -37.5t-28 -54.5l-49 -87h-61l40 117q-22 19 -22 46q0 32 19.5 52.5t48.5 20.5q27 0 43 -16.5z" />
    <glyph glyph-name="Gdotaccent" unicode="&#x120;" horiz-adv-x="534" 
d="M543 624l-72 -64q-26 27 -49.5 38t-56.5 11q-68 0 -113 -58.5t-65.5 -148t-20.5 -183.5q0 -70 22.5 -103t66.5 -33q45 0 91 28l25 184h-77l2 95h209l-46 -335q-104 -69 -213 -69q-102 0 -155 63t-53 186q0 120 37.5 227.5t112 175t180.5 67.5q107 0 175 -81zM326.5 787.5
q-17.5 17.5 -17.5 47.5q0 38 23.5 61t58.5 23q31 0 48.5 -17.5t17.5 -47.5q0 -37 -24 -60.5t-58 -23.5q-31 0 -48.5 17.5z" />
    <glyph glyph-name="uni0193" unicode="&#x193;" horiz-adv-x="499" 
d="M702 803l-46 -73q-28 18 -52 18q-44 0 -52 -65l-8 -59l-65 -60q-30 24 -55.5 34.5t-58.5 10.5q-68 0 -112.5 -58.5t-65 -148t-20.5 -183.5q0 -136 88 -136q47 0 91 28l26 184h-77l2 95h209l-47 -335q-104 -69 -212 -69q-103 0 -155.5 63t-52.5 186q0 120 36.5 227.5
t108 175t172.5 67.5q54 0 88 -22l5 29q10 58 47 93.5t101 35.5q61 0 105 -38z" />
    <glyph glyph-name="uni0241" unicode="&#x241;" horiz-adv-x="414" 
d="M133 324l47 17q60 22 90 63.5t30 110.5q0 45 -18 69.5t-53 24.5q-29 0 -57.5 -15t-62.5 -44l-52 68q44 43 90.5 65t100.5 22q84 0 133.5 -49.5t49.5 -133.5q0 -93 -39.5 -149t-116.5 -86l-24 -9l-38 -278h-126z" />
    <glyph glyph-name="uni01E4" unicode="&#x1e4;" horiz-adv-x="545" 
d="M486 255h57l-11 -83h-57l-16 -117q-104 -69 -213 -69q-102 0 -155 63t-53 186q0 120 37.5 227.5t112 175t180.5 67.5q107 0 175 -81l-72 -64q-26 27 -49.5 38t-56.5 11q-68 0 -113 -58.5t-65.5 -148t-20.5 -183.5q0 -70 22.5 -103t66.5 -33q48 0 94 30l8 59h-78l11 83h78
l8 56h-80v86h209z" />
    <glyph glyph-name="uni021C" unicode="&#x21c;" horiz-adv-x="415" 
d="M374.5 662q44.5 -43 44.5 -114q0 -151 -160 -190q124 -14 124 -129q0 -132 -111.5 -216t-283.5 -120l6 96q124 38 190 91.5t66 146.5q0 41 -21.5 60.5t-68.5 19.5h-55l29 96h43q50 0 80.5 35t30.5 93q0 38 -14 58t-46 20q-30 0 -60 -15t-66 -45l-49 70q92 86 199 86
q78 0 122.5 -43z" />
    <glyph glyph-name="H" unicode="H" horiz-adv-x="547" 
d="M148 0h-126l98 691h125l-39 -279h176l39 279h126l-97 -691h-126l44 310h-176z" />
    <glyph glyph-name="Hbar" unicode="&#x126;" horiz-adv-x="552" 
d="M581 583l-11 -78h-46l-71 -505h-126l44 310h-176l-44 -310h-126l72 505h-48l11 78h48l15 108h125l-15 -108h176l15 108h126l-15 -108h46zM385 412l13 93h-176l-13 -93h176z" />
    <glyph glyph-name="uni021E" unicode="&#x21e;" horiz-adv-x="547" 
d="M148 0h-126l98 691h125l-39 -279h176l39 279h126l-97 -691h-126l44 310h-176zM466 925l46 -51l-134 -122h-74l-100 128l49 45l97 -84z" />
    <glyph glyph-name="Hcircumflex" unicode="&#x124;" horiz-adv-x="547" 
d="M148 0h-126l98 691h125l-39 -279h176l39 279h126l-97 -691h-126l44 310h-176zM235 758l-46 51l134 122h74l100 -128l-49 -45l-97 83z" />
    <glyph glyph-name="uni1E24" unicode="&#x1e24;" horiz-adv-x="547" 
d="M148 0h-126l98 691h125l-39 -279h176l39 279h126l-97 -691h-126l44 310h-176zM274.5 -85.5q17.5 -17.5 17.5 -47.5q0 -38 -23.5 -61t-58.5 -23q-31 0 -48.5 17.5t-17.5 47.5q0 37 24 60.5t58 23.5q31 0 48.5 -17.5z" />
    <glyph glyph-name="uniA7AA" unicode="&#xa7aa;" horiz-adv-x="655" 
d="M656 691l-97 -691h-126l44 310h-176l-44 -310h-126l85 597h-24q-47 0 -47 -60q0 -29 9 -61l-85 -32q-23 48 -23 96q0 69 41 110t112 41h155l-39 -279h176l39 279h126z" />
    <glyph glyph-name="uniA78D" unicode="&#xa78d;" horiz-adv-x="509" 
d="M509 691l-97 -691h-125l37 265q-32 -28 -63.5 -41t-70.5 -13q-69 0 -108 44.5t-39 116.5q0 20 3 39l39 280h123l-38 -282q-2 -20 -2 -27q0 -72 67 -72q56 0 103 51l46 330h125z" />
    <glyph glyph-name="uni01F6" unicode="&#x1f6;" horiz-adv-x="780" 
d="M384.5 28.5q-39.5 42.5 -39.5 102.5q0 8 2 24l21 155h-176l-44 -310h-126l98 691h125l-39 -279h176l39 279h126l-75 -540q-2 -16 -2 -21q0 -51 42 -51q69 0 94.5 110t25.5 242q0 58 -3 98h114q6 -48 6 -97q0 -205 -54.5 -325.5t-193.5 -120.5q-77 0 -116.5 42.5z" />
    <glyph glyph-name="I" unicode="I" horiz-adv-x="245" 
d="M245 691l-97 -691h-126l98 691h125z" />
    <glyph glyph-name="IJ" unicode="&#x132;" horiz-adv-x="509" 
d="M245 691l-97 -691h-126l98 691h125zM428 93q-11 -76 -40 -124t-70 -74t-101 -48l-24 88q39 20 60.5 41t32.5 50.5t17 77.5l83 587h126z" />
    <glyph glyph-name="Iacute" unicode="&#xcd;" horiz-adv-x="245" 
d="M245 691l-97 -691h-126l98 691h125zM276 923l45 -92l-201 -80l-30 59z" />
    <glyph glyph-name="Ibreve" unicode="&#x12c;" horiz-adv-x="245" 
d="M245 691l-97 -691h-126l98 691h125zM97.5 795.5q-30.5 40.5 -26.5 102.5l67 11q5 -66 57 -66q28 0 48.5 19t31.5 50l68 -18q-13 -63 -52.5 -101t-100.5 -38q-62 0 -92.5 40.5z" />
    <glyph glyph-name="uni01CF" unicode="&#x1cf;" horiz-adv-x="245" 
d="M245 691l-97 -691h-126l98 691h125zM315 925l46 -51l-134 -122h-74l-100 128l49 45l97 -84z" />
    <glyph glyph-name="Icircumflex" unicode="&#xce;" horiz-adv-x="245" 
d="M245 691l-97 -691h-126l98 691h125zM84 758l-46 51l134 122h74l100 -128l-49 -45l-97 83z" />
    <glyph glyph-name="uni0208" unicode="&#x208;" horiz-adv-x="245" 
d="M245 691l-97 -691h-126l98 691h125zM111 971l55 -188l-72 -27l-78 176zM250 970l47 -184l-71 -25l-72 172z" />
    <glyph glyph-name="Idieresis" unicode="&#xcf;" horiz-adv-x="245" 
d="M245 691l-97 -691h-126l98 691h125zM59.5 791q-15.5 16 -15.5 41q0 32 21 53.5t51 21.5q27 0 42.5 -16t15.5 -41q0 -32 -21.5 -53.5t-51.5 -21.5q-26 0 -41.5 16zM246 791q-16 16 -16 41q0 32 21.5 53.5t50.5 21.5q27 0 42.5 -16t15.5 -41q0 -33 -21 -54t-51 -21
q-26 0 -42 16z" />
    <glyph glyph-name="uni1E2E" unicode="&#x1e2e;" horiz-adv-x="245" 
d="M245 691l-97 -691h-126l98 691h125zM291 1053l61 -62l-147 -139l-43 39zM52.5 764q-15.5 16 -15.5 42q0 32 21.5 53.5t50.5 21.5q27 0 42.5 -16t15.5 -42q0 -32 -21 -53.5t-52 -21.5q-26 0 -41.5 16zM245.5 764q-15.5 16 -15.5 42q0 32 21 53.5t51 21.5q27 0 42.5 -16
t15.5 -42q0 -32 -21.5 -53.5t-51.5 -21.5q-26 0 -41.5 16z" />
    <glyph glyph-name="Idotaccent" unicode="&#x130;" horiz-adv-x="245" 
d="M245 691l-97 -691h-126l98 691h125zM148.5 787.5q-17.5 17.5 -17.5 47.5q0 38 23.5 61t58.5 23q31 0 48.5 -17.5t17.5 -47.5q0 -37 -24 -60.5t-58 -23.5q-31 0 -48.5 17.5z" />
    <glyph glyph-name="uni1ECA" unicode="&#x1eca;" horiz-adv-x="245" 
d="M245 691l-97 -691h-126l98 691h125zM121.5 -85.5q17.5 -17.5 17.5 -47.5q0 -38 -23.5 -61t-58.5 -23q-31 0 -48.5 17.5t-17.5 47.5q0 37 24 60.5t58 23.5q31 0 48.5 -17.5z" />
    <glyph glyph-name="Igrave" unicode="&#xcc;" horiz-adv-x="245" 
d="M245 691l-97 -691h-126l98 691h125zM155 921l161 -112l-38 -57l-178 79z" />
    <glyph glyph-name="uni1EC8" unicode="&#x1ec8;" horiz-adv-x="245" 
d="M245 691l-97 -691h-126l98 691h125zM166 850q33 4 48.5 14.5t15.5 33.5q0 27 -27 27q-13 0 -23 -3t-25 -10l-16 59q19 12 38.5 17.5t45.5 5.5q43 0 68 -24.5t25 -63.5q0 -81 -81 -97l-6 -45h-73z" />
    <glyph glyph-name="uni020A" unicode="&#x20a;" horiz-adv-x="245" 
d="M245 691l-97 -691h-126l98 691h125zM56 786q17 69 58 109t100 40q61 0 91.5 -42t26.5 -111l-69 -10q-5 75 -58 75q-57 0 -82 -79z" />
    <glyph glyph-name="Imacron" unicode="&#x12a;" horiz-adv-x="245" 
d="M245 691l-97 -691h-126l98 691h125zM315 787h-242l13 88h243z" />
    <glyph glyph-name="Iogonek" unicode="&#x12e;" horiz-adv-x="245" 
d="M245 691l-97 -691h-30q-66 -32 -89.5 -61.5t-23.5 -59.5q0 -34 38 -34q20 0 48 5l-18 -80q-24 -7 -56 -7q-46 0 -74.5 27.5t-28.5 73.5q0 44 26 80t83 66l97 681h125z" />
    <glyph glyph-name="uni0196" unicode="&#x196;" horiz-adv-x="313" 
d="M284 24q-52 -39 -116 -39t-100 34t-36 97q0 10 2 32l7 54l70 489h124l-68 -489h-1l-8 -65q-1 -5 -1 -14q0 -42 36 -42q16 0 27.5 4t30.5 14z" />
    <glyph glyph-name="uni0197" unicode="&#x197;" horiz-adv-x="268" 
d="M281 407l-13 -95h-62l-44 -312h-126l44 312h-66l13 95h67l40 284h125l-40 -284h62z" />
    <glyph glyph-name="Itilde" unicode="&#x128;" horiz-adv-x="245" 
d="M245 691l-97 -691h-126l98 691h125zM218 779q-13 7 -29 20q-12 10 -20.5 14.5t-16.5 4.5q-13 0 -23.5 -10.5t-24.5 -33.5l-56 34q23 45 51 72.5t59 27.5q18 0 31 -7t30 -21q12 -10 19 -14.5t16 -4.5q11 0 21.5 10t25.5 33l56 -33q-22 -47 -50.5 -73t-59.5 -26
q-16 0 -29 7z" />
    <glyph glyph-name="J" unicode="J" horiz-adv-x="264" 
d="M183 93q-11 -76 -40 -124t-70 -74t-101 -48l-24 88q39 20 60.5 41t32.5 50.5t17 77.5l83 587h126z" />
    <glyph glyph-name="Jcircumflex" unicode="&#x134;" horiz-adv-x="264" 
d="M183 93q-11 -76 -40 -124t-70 -74t-101 -48l-24 88q39 20 60.5 41t32.5 50.5t17 77.5l83 587h126zM106 758l-46 51l134 122h74l100 -128l-49 -45l-97 83z" />
    <glyph glyph-name="uniA7B2" unicode="&#xa7b2;" horiz-adv-x="300" 
d="M204 -10q44 -16 77 -39l-34 -54q-19 12 -56 26q-19 -69 -63.5 -104.5t-119.5 -35.5q-57 0 -88.5 28t-31.5 77q0 60 40 94t101 34q26 0 52 -2l95 677h126zM49.5 -122q15.5 23 21.5 70q-18 3 -43 3q-28 0 -43.5 -16t-15.5 -42q0 -38 35 -38q30 0 45.5 23z" />
    <glyph glyph-name="uni0248" unicode="&#x248;" horiz-adv-x="276" 
d="M274 293h-62l-28 -200q-11 -76 -40 -124t-70 -74t-101 -48l-24 88q39 20 60.5 41t32.5 50.5t17 77.5l27 189h-66l13 98h67l42 300h126l-42 -300h61z" />
    <glyph glyph-name="K" unicode="K" horiz-adv-x="519" 
d="M22 0l98 691h125l-97 -691h-126zM344 0l-140 369l230 322h130l-230 -322l148 -369h-138z" />
    <glyph glyph-name="uni01E8" unicode="&#x1e8;" horiz-adv-x="519" 
d="M22 0l98 691h125l-97 -691h-126zM344 0l-140 369l230 322h130l-230 -322l148 -369h-138zM461 925l46 -51l-134 -122h-74l-100 128l49 45l97 -84z" />
    <glyph glyph-name="Kcommaaccent" unicode="&#x136;" horiz-adv-x="519" 
d="M22 0l98 691h125l-97 -691h-126zM344 0l-140 369l230 322h130l-230 -322l148 -369h-138zM260 -89.5q16 -16.5 16 -40.5q0 -20 -7 -37.5t-28 -54.5l-49 -87h-61l40 117q-22 19 -22 46q0 32 19.5 52.5t48.5 20.5q27 0 43 -16.5z" />
    <glyph glyph-name="uni0198" unicode="&#x198;" horiz-adv-x="539" 
d="M204 369l162 247q30 48 61.5 68.5t76.5 20.5q55 0 91 -38l-50 -68q-14 11 -32 11q-15 0 -26.5 -9t-24.5 -31l-128 -201l148 -369h-138zM22 0l98 691h125l-97 -691h-126z" />
    <glyph glyph-name="L" unicode="L" horiz-adv-x="410" 
d="M245 691l-82 -586h221l-29 -105h-333l98 691h125z" />
    <glyph glyph-name="uni01C7" unicode="&#x1c7;" horiz-adv-x="653" 
d="M245 691l-82 -586h221l-29 -105h-333l98 691h125zM572 93q-11 -76 -40 -124t-70 -74t-101 -48l-24 88q39 20 60.5 41t32.5 50.5t17 77.5l83 587h126z" />
    <glyph glyph-name="Lacute" unicode="&#x139;" horiz-adv-x="410" 
d="M245 691l-82 -586h221l-29 -105h-333l98 691h125zM276 923l45 -92l-201 -80l-30 59z" />
    <glyph glyph-name="uni023D" unicode="&#x23d;" horiz-adv-x="419" 
d="M172 105h221l-29 -105h-333l45 314h-62l13 98h62l40 279h125l-39 -279h66l-13 -98h-67z" />
    <glyph glyph-name="uniA7AD" unicode="&#xa7ad;" horiz-adv-x="486" 
d="M460 105l-29 -105h-333l36 256q-58 3 -87.5 31.5t-29.5 77.5q0 56 33 89.5t85 33.5q16 0 32 -4l29 207h125l-50 -356q31 2 87 11l4 -73q-53 -12 -101 -14l-22 -154h221zM145 334l12 80q-9 3 -19 3q-17 0 -27 -12t-10 -34q0 -37 44 -37z" />
    <glyph glyph-name="Lcaron" unicode="&#x13d;" horiz-adv-x="410" 
d="M245 691l-82 -586h221l-29 -105h-333l98 691h125zM295 702l91 -12l-67 -198l-63 8z" />
    <glyph glyph-name="uni1E3C" unicode="&#x1e3c;" horiz-adv-x="410" 
d="M245 691l-82 -586h221l-29 -105h-333l98 691h125zM54 -242l-45 51l134 125h74l100 -130l-52 -46l-93 87z" />
    <glyph glyph-name="Lcommaaccent" unicode="&#x13b;" horiz-adv-x="410" 
d="M245 691l-82 -586h221l-29 -105h-333l98 691h125zM221 -89.5q16 -16.5 16 -40.5q0 -20 -7 -37.5t-28 -54.5l-49 -87h-61l40 117q-22 19 -22 46q0 32 19.5 52.5t48.5 20.5q27 0 43 -16.5z" />
    <glyph glyph-name="Ldot" unicode="&#x13f;" horiz-adv-x="410" 
d="M245 691l-82 -586h221l-29 -105h-333l98 691h125zM284.5 334.5q-17.5 17.5 -17.5 47.5q0 38 23.5 61t58.5 23q31 0 48.5 -17.5t17.5 -47.5q0 -37 -24 -60.5t-58 -23.5q-31 0 -48.5 17.5z" />
    <glyph glyph-name="uni1E36" unicode="&#x1e36;" horiz-adv-x="410" 
d="M245 691l-82 -586h221l-29 -105h-333l98 691h125zM225.5 -85.5q17.5 -17.5 17.5 -47.5q0 -38 -23.5 -61t-58.5 -23q-31 0 -48.5 17.5t-17.5 47.5q0 37 24 60.5t58 23.5q31 0 48.5 -17.5z" />
    <glyph glyph-name="uni01C8" unicode="&#x1c8;" horiz-adv-x="629" 
d="M245 691l-82 -586h221l-29 -105h-333l98 691h125zM310 -127q35 16 55.5 33.5t34.5 49t22 84.5l68 489h121l-69 -492q-11 -79 -38.5 -127t-65 -74t-100.5 -53zM518.5 661.5q-17.5 17.5 -17.5 47.5q0 38 23.5 61t58.5 23q31 0 48.5 -17.5t17.5 -47.5q0 -37 -24 -60.5
t-58 -23.5q-31 0 -48.5 17.5z" />
    <glyph glyph-name="Lslash" unicode="&#x141;" horiz-adv-x="438" 
d="M191 105h221l-29 -105h-333l34 241l-38 -28l-36 65l88 58l50 355h125l-37 -264l117 77l35 -65l-165 -108z" />
    <glyph glyph-name="M" unicode="M" horiz-adv-x="657" 
d="M580 0h-122l27 288q12 128 37 293l-159 -505h-122l-28 504q-14 -151 -39 -294l-49 -286h-122l140 691h154l22 -493l149 493h165z" />
    <glyph glyph-name="uni1E3E" unicode="&#x1e3e;" horiz-adv-x="657" 
d="M580 0h-122l27 288q12 128 37 293l-159 -505h-122l-28 504q-14 -151 -39 -294l-49 -286h-122l140 691h154l22 -493l149 493h165zM476 923l45 -92l-201 -80l-30 59z" />
    <glyph glyph-name="uni1E40" unicode="&#x1e40;" horiz-adv-x="657" 
d="M580 0h-122l27 288q12 128 37 293l-159 -505h-122l-28 504q-14 -151 -39 -294l-49 -286h-122l140 691h154l22 -493l149 493h165zM348.5 787.5q-17.5 17.5 -17.5 47.5q0 38 23.5 61t58.5 23q31 0 48.5 -17.5t17.5 -47.5q0 -37 -24 -60.5t-58 -23.5q-31 0 -48.5 17.5z" />
    <glyph glyph-name="uni019C" unicode="&#x19c;" horiz-adv-x="747" 
d="M748 691l-97 -691h-110v65q-33 -42 -65 -60.5t-69 -18.5q-42 0 -70 23.5t-40 63.5q-63 -87 -145 -87q-57 0 -88 40t-31 100q0 21 2 32l76 533h125l-75 -533q-1 -7 -1 -19q0 -26 10.5 -40.5t29.5 -14.5q24 0 45.5 18.5t46.5 58.5v4l74 526h126l-74 -526q-2 -18 -2 -24
q0 -27 10.5 -42t29.5 -15q24 0 45.5 19t45.5 60l75 528h126z" />
    <glyph glyph-name="N" unicode="N" horiz-adv-x="545" 
d="M448 0h-155l-102 584q0 -78 -3.5 -145t-15.5 -155l-38 -284h-111l97 691h155l102 -584q0 82 2.5 136.5t11.5 122.5l43 325h111z" />
    <glyph glyph-name="uni01CA" unicode="&#x1ca;" horiz-adv-x="809" 
d="M448 0h-155l-102 584q0 -78 -3.5 -145t-15.5 -155l-38 -284h-111l97 691h155l102 -584q0 82 2.5 136.5t11.5 122.5l43 325h111zM728 93q-11 -76 -40 -124t-70 -74t-101 -48l-24 88q39 20 60.5 41t32.5 50.5t17 77.5l83 587h126z" />
    <glyph glyph-name="Nacute" unicode="&#x143;" horiz-adv-x="545" 
d="M448 0h-155l-102 584q0 -78 -3.5 -145t-15.5 -155l-38 -284h-111l97 691h155l102 -584q0 82 2.5 136.5t11.5 122.5l43 325h111zM430 923l45 -92l-201 -80l-30 59z" />
    <glyph glyph-name="Ncaron" unicode="&#x147;" horiz-adv-x="545" 
d="M448 0h-155l-102 584q0 -78 -3.5 -145t-15.5 -155l-38 -284h-111l97 691h155l102 -584q0 82 2.5 136.5t11.5 122.5l43 325h111zM469 925l46 -51l-134 -122h-74l-100 128l49 45l97 -84z" />
    <glyph glyph-name="uni1E4A" unicode="&#x1e4a;" horiz-adv-x="545" 
d="M448 0h-155l-102 584q0 -78 -3.5 -145t-15.5 -155l-38 -284h-111l97 691h155l102 -584q0 82 2.5 136.5t11.5 122.5l43 325h111zM101 -242l-45 51l134 125h74l100 -130l-52 -46l-93 87z" />
    <glyph glyph-name="Ncommaaccent" unicode="&#x145;" horiz-adv-x="545" 
d="M448 0h-155l-102 584q0 -78 -3.5 -145t-15.5 -155l-38 -284h-111l97 691h155l102 -584q0 82 2.5 136.5t11.5 122.5l43 325h111zM268 -89.5q16 -16.5 16 -40.5q0 -20 -7 -37.5t-28 -54.5l-49 -87h-61l40 117q-22 19 -22 46q0 32 19.5 52.5t48.5 20.5q27 0 43 -16.5z" />
    <glyph glyph-name="uni1E44" unicode="&#x1e44;" horiz-adv-x="545" 
d="M448 0h-155l-102 584q0 -78 -3.5 -145t-15.5 -155l-38 -284h-111l97 691h155l102 -584q0 82 2.5 136.5t11.5 122.5l43 325h111zM302.5 787.5q-17.5 17.5 -17.5 47.5q0 38 23.5 61t58.5 23q31 0 48.5 -17.5t17.5 -47.5q0 -37 -24 -60.5t-58 -23.5q-31 0 -48.5 17.5z" />
    <glyph glyph-name="uni1E46" unicode="&#x1e46;" horiz-adv-x="545" 
d="M448 0h-155l-102 584q0 -78 -3.5 -145t-15.5 -155l-38 -284h-111l97 691h155l102 -584q0 82 2.5 136.5t11.5 122.5l43 325h111zM272.5 -85.5q17.5 -17.5 17.5 -47.5q0 -38 -23.5 -61t-58.5 -23q-31 0 -48.5 17.5t-17.5 47.5q0 37 24 60.5t58 23.5q31 0 48.5 -17.5z" />
    <glyph glyph-name="uni01F8" unicode="&#x1f8;" horiz-adv-x="545" 
d="M448 0h-155l-102 584q0 -78 -3.5 -145t-15.5 -155l-38 -284h-111l97 691h155l102 -584q0 82 2.5 136.5t11.5 122.5l43 325h111zM309 921l161 -112l-38 -57l-178 79z" />
    <glyph glyph-name="Eng" unicode="&#x14a;" horiz-adv-x="545" 
d="M545 691l-105 -748q-12 -78 -58.5 -119t-116.5 -41q-38 0 -64 11t-47 30l51 74q17 -10 27.5 -14.5t25.5 -4.5q23 0 38 16t19 45l7 60h-29l-102 584q0 -78 -3.5 -145t-15.5 -155l-38 -284h-111l97 691h155l102 -584q0 82 2.5 136.5t11.5 122.5l43 325h111z" />
    <glyph glyph-name="uni019D" unicode="&#x19d;" horiz-adv-x="545" 
d="M545 691l-97 -691h-155l-102 584q0 -78 -3.5 -145t-15.5 -155l-38 -284l-10 -65q-10 -73 -53 -112.5t-109 -39.5q-36 0 -61 11.5t-47 30.5l51 69q17 -10 27.5 -14.5t25.5 -4.5q23 0 38 17t19 48l8 60l97 691h155l102 -584q0 82 2.5 136.5t11.5 122.5l43 325h111z" />
    <glyph glyph-name="uni01CB" unicode="&#x1cb;" horiz-adv-x="779" 
d="M448 0h-155l-102 584q0 -78 -3.5 -145t-15.5 -155l-38 -284h-111l97 691h155l102 -584q0 82 2.5 136.5t11.5 122.5l43 325h111zM460 -127q35 16 55.5 33.5t34.5 49t22 84.5l68 489h121l-69 -492q-11 -79 -38.5 -127t-65 -74t-100.5 -53zM668.5 661.5
q-17.5 17.5 -17.5 47.5q0 38 23.5 61t58.5 23q31 0 48.5 -17.5t17.5 -47.5q0 -37 -24 -60.5t-58 -23.5q-31 0 -48.5 17.5z" />
    <glyph glyph-name="uni0220" unicode="&#x220;" horiz-adv-x="538" 
d="M486.5 664.5q34.5 -40.5 34.5 -103.5q0 -20 -2 -31l-102 -736h-125l101 730q2 16 2 23q0 60 -52 60q-29 0 -56 -16.5t-62 -49.5l-77 -541h-126l98 691h109v-60q76 74 158 74q65 0 99.5 -40.5z" />
    <glyph glyph-name="Ntilde" unicode="&#xd1;" horiz-adv-x="545" 
d="M448 0h-155l-102 584q0 -78 -3.5 -145t-15.5 -155l-38 -284h-111l97 691h155l102 -584q0 82 2.5 136.5t11.5 122.5l43 325h111zM372 779q-13 7 -29 20q-12 10 -20.5 14.5t-16.5 4.5q-13 0 -23.5 -10.5t-24.5 -33.5l-56 34q23 45 51 72.5t59 27.5q18 0 31 -7t30 -21
q12 -10 19 -14.5t16 -4.5q11 0 21.5 10t25.5 33l56 -33q-22 -47 -50.5 -73t-59.5 -26q-16 0 -29 7z" />
    <glyph glyph-name="O" unicode="O" horiz-adv-x="576" 
d="M505.5 639.5q53.5 -65.5 53.5 -189.5q0 -116 -33 -222.5t-103 -174.5t-176 -68q-100 0 -154 65.5t-54 188.5q0 115 33 221.5t103.5 175.5t176.5 69q100 0 153.5 -65.5zM242.5 545q-39.5 -63 -57 -152.5t-17.5 -170.5q0 -73 22 -106t65 -33q63 0 102.5 63t56.5 152t17 171
q0 72 -21.5 105.5t-65.5 33.5q-62 0 -101.5 -63z" />
    <glyph glyph-name="uni0222" unicode="&#x222;" horiz-adv-x="539" 
d="M474 441q-26 -33 -70 -51q45 -20 69 -57.5t24 -90.5q0 -73 -33 -131.5t-93 -91.5t-138 -33q-65 0 -112 25.5t-71 69t-24 98.5q0 75 38.5 129.5t105.5 81.5q-33 16 -49.5 42t-16.5 67q0 9 2 31l21 161h127l-24 -167q-2 -20 -2 -28q0 -33 15.5 -48t48.5 -15q77 0 89 96
l23 162h126l-23 -165q-7 -52 -33 -85zM332.5 125q33.5 42 33.5 113q0 48 -21.5 73.5t-64.5 25.5q-55 0 -88.5 -42t-33.5 -112q0 -100 85 -100q56 0 89.5 42z" />
    <glyph glyph-name="Oacute" unicode="&#xd3;" horiz-adv-x="576" 
d="M505.5 639.5q53.5 -65.5 53.5 -189.5q0 -116 -33 -222.5t-103 -174.5t-176 -68q-100 0 -154 65.5t-54 188.5q0 115 33 221.5t103.5 175.5t176.5 69q100 0 153.5 -65.5zM242.5 545q-39.5 -63 -57 -152.5t-17.5 -170.5q0 -73 22 -106t65 -33q63 0 102.5 63t56.5 152t17 171
q0 72 -21.5 105.5t-65.5 33.5q-62 0 -101.5 -63zM445 923l45 -92l-201 -80l-30 59z" />
    <glyph glyph-name="Obreve" unicode="&#x14e;" horiz-adv-x="576" 
d="M505.5 639.5q53.5 -65.5 53.5 -189.5q0 -116 -33 -222.5t-103 -174.5t-176 -68q-100 0 -154 65.5t-54 188.5q0 115 33 221.5t103.5 175.5t176.5 69q100 0 153.5 -65.5zM242.5 545q-39.5 -63 -57 -152.5t-17.5 -170.5q0 -73 22 -106t65 -33q63 0 102.5 63t56.5 152t17 171
q0 72 -21.5 105.5t-65.5 33.5q-62 0 -101.5 -63zM266.5 795.5q-30.5 40.5 -26.5 102.5l67 11q5 -66 57 -66q28 0 48.5 19t31.5 50l68 -18q-13 -63 -52.5 -101t-100.5 -38q-62 0 -92.5 40.5z" />
    <glyph glyph-name="uni01D1" unicode="&#x1d1;" horiz-adv-x="576" 
d="M505.5 639.5q53.5 -65.5 53.5 -189.5q0 -116 -33 -222.5t-103 -174.5t-176 -68q-100 0 -154 65.5t-54 188.5q0 115 33 221.5t103.5 175.5t176.5 69q100 0 153.5 -65.5zM242.5 545q-39.5 -63 -57 -152.5t-17.5 -170.5q0 -73 22 -106t65 -33q63 0 102.5 63t56.5 152t17 171
q0 72 -21.5 105.5t-65.5 33.5q-62 0 -101.5 -63zM484 925l46 -51l-134 -122h-74l-100 128l49 45l97 -84z" />
    <glyph glyph-name="uni019F" unicode="&#x19f;" horiz-adv-x="576" 
d="M505.5 639.5q53.5 -65.5 53.5 -189.5q0 -116 -33 -222.5t-103 -174.5t-176 -68q-100 0 -154 65.5t-54 188.5q0 115 33 221.5t103.5 175.5t176.5 69q100 0 153.5 -65.5zM240 548.5q-41 -61.5 -61 -157.5h253q4 37 4 78q0 74 -22 107.5t-69 33.5q-64 0 -105 -61.5z
M361.5 146q41.5 65 60.5 165h-255q-5 -53 -5 -89q0 -74 23 -107.5t68 -33.5q67 0 108.5 65z" />
    <glyph glyph-name="Ocircumflex" unicode="&#xd4;" horiz-adv-x="576" 
d="M505.5 639.5q53.5 -65.5 53.5 -189.5q0 -116 -33 -222.5t-103 -174.5t-176 -68q-100 0 -154 65.5t-54 188.5q0 115 33 221.5t103.5 175.5t176.5 69q100 0 153.5 -65.5zM242.5 545q-39.5 -63 -57 -152.5t-17.5 -170.5q0 -73 22 -106t65 -33q63 0 102.5 63t56.5 152t17 171
q0 72 -21.5 105.5t-65.5 33.5q-62 0 -101.5 -63zM253 758l-46 51l134 122h74l100 -128l-49 -45l-97 83z" />
    <glyph glyph-name="uni1ED0" unicode="&#x1ed0;" horiz-adv-x="576" 
d="M580 1054l61 -62l-147 -139l-43 39zM248 720l-46 51l134 122h74l100 -128l-49 -45l-97 83zM505.5 639.5q53.5 -65.5 53.5 -189.5q0 -116 -33 -222.5t-103 -174.5t-176 -68q-100 0 -154 65.5t-54 188.5q0 115 33 221.5t103.5 175.5t176.5 69q100 0 153.5 -65.5zM242.5 545
q-39.5 -63 -57 -152.5t-17.5 -170.5q0 -73 22 -106t65 -33q63 0 102.5 63t56.5 152t17 171q0 72 -21.5 105.5t-65.5 33.5q-62 0 -101.5 -63z" />
    <glyph glyph-name="uni1ED8" unicode="&#x1ed8;" horiz-adv-x="576" 
d="M505.5 639.5q53.5 -65.5 53.5 -189.5q0 -116 -33 -222.5t-103 -174.5t-176 -68q-100 0 -154 65.5t-54 188.5q0 115 33 221.5t103.5 175.5t176.5 69q100 0 153.5 -65.5zM242.5 545q-39.5 -63 -57 -152.5t-17.5 -170.5q0 -73 22 -106t65 -33q63 0 102.5 63t56.5 152t17 171
q0 72 -21.5 105.5t-65.5 33.5q-62 0 -101.5 -63zM253 758l-46 51l134 122h74l100 -128l-49 -45l-97 83zM284.5 -85.5q17.5 -17.5 17.5 -47.5q0 -38 -23.5 -61t-58.5 -23q-31 0 -48.5 17.5t-17.5 47.5q0 37 24 60.5t58 23.5q31 0 48.5 -17.5z" />
    <glyph glyph-name="uni1ED2" unicode="&#x1ed2;" horiz-adv-x="576" 
d="M210 1052l84 -164l-52 -35l-109 143zM248 720l-46 51l134 122h74l100 -128l-49 -45l-97 83zM505.5 639.5q53.5 -65.5 53.5 -189.5q0 -116 -33 -222.5t-103 -174.5t-176 -68q-100 0 -154 65.5t-54 188.5q0 115 33 221.5t103.5 175.5t176.5 69q100 0 153.5 -65.5z
M242.5 545q-39.5 -63 -57 -152.5t-17.5 -170.5q0 -73 22 -106t65 -33q63 0 102.5 63t56.5 152t17 171q0 72 -21.5 105.5t-65.5 33.5q-62 0 -101.5 -63z" />
    <glyph glyph-name="uni1ED4" unicode="&#x1ed4;" horiz-adv-x="576" 
d="M505.5 639.5q53.5 -65.5 53.5 -189.5q0 -116 -33 -222.5t-103 -174.5t-176 -68q-100 0 -154 65.5t-54 188.5q0 115 33 221.5t103.5 175.5t176.5 69q100 0 153.5 -65.5zM242.5 545q-39.5 -63 -57 -152.5t-17.5 -170.5q0 -73 22 -106t65 -33q63 0 102.5 63t56.5 152t17 171
q0 72 -21.5 105.5t-65.5 33.5q-62 0 -101.5 -63zM247 720l-46 51l134 122h74l100 -128l-49 -45l-97 83zM478 921q33 4 48.5 14.5t15.5 33.5q0 27 -27 27q-13 0 -23 -3t-25 -10l-16 59q19 12 38.5 17.5t45.5 5.5q43 0 68 -24.5t25 -63.5q0 -81 -81 -97l-6 -45h-73z" />
    <glyph glyph-name="uni1ED6" unicode="&#x1ed6;" horiz-adv-x="576" 
d="M404.5 928.5q-12.5 6.5 -29.5 19.5q-22 18 -35 18t-23.5 -10t-24.5 -32l-56 33q22 43 50.5 69.5t59.5 26.5q18 0 31.5 -7t28.5 -20q2 -2 9 -7.5t13.5 -8t12.5 -2.5q11 0 22 9.5t25 31.5l55 -32q-22 -45 -50.5 -70t-58.5 -25q-17 0 -29.5 6.5zM250 720l-46 51l134 122h74
l100 -128l-49 -45l-97 83zM505.5 639.5q53.5 -65.5 53.5 -189.5q0 -116 -33 -222.5t-103 -174.5t-176 -68q-100 0 -154 65.5t-54 188.5q0 115 33 221.5t103.5 175.5t176.5 69q100 0 153.5 -65.5zM242.5 545q-39.5 -63 -57 -152.5t-17.5 -170.5q0 -73 22 -106t65 -33
q63 0 102.5 63t56.5 152t17 171q0 72 -21.5 105.5t-65.5 33.5q-62 0 -101.5 -63z" />
    <glyph glyph-name="uni020C" unicode="&#x20c;" horiz-adv-x="576" 
d="M505.5 639.5q53.5 -65.5 53.5 -189.5q0 -116 -33 -222.5t-103 -174.5t-176 -68q-100 0 -154 65.5t-54 188.5q0 115 33 221.5t103.5 175.5t176.5 69q100 0 153.5 -65.5zM242.5 545q-39.5 -63 -57 -152.5t-17.5 -170.5q0 -73 22 -106t65 -33q63 0 102.5 63t56.5 152t17 171
q0 72 -21.5 105.5t-65.5 33.5q-62 0 -101.5 -63zM280 971l55 -188l-72 -27l-78 176zM419 970l47 -184l-71 -25l-72 172z" />
    <glyph glyph-name="Odieresis" unicode="&#xd6;" horiz-adv-x="576" 
d="M505.5 639.5q53.5 -65.5 53.5 -189.5q0 -116 -33 -222.5t-103 -174.5t-176 -68q-100 0 -154 65.5t-54 188.5q0 115 33 221.5t103.5 175.5t176.5 69q100 0 153.5 -65.5zM242.5 545q-39.5 -63 -57 -152.5t-17.5 -170.5q0 -73 22 -106t65 -33q63 0 102.5 63t56.5 152t17 171
q0 72 -21.5 105.5t-65.5 33.5q-62 0 -101.5 -63zM228.5 791q-15.5 16 -15.5 41q0 32 21 53.5t51 21.5q27 0 42.5 -16t15.5 -41q0 -32 -21.5 -53.5t-51.5 -21.5q-26 0 -41.5 16zM415 791q-16 16 -16 41q0 32 21.5 53.5t50.5 21.5q27 0 42.5 -16t15.5 -41q0 -33 -21 -54
t-51 -21q-26 0 -42 16z" />
    <glyph glyph-name="uni022A" unicode="&#x22a;" horiz-adv-x="576" 
d="M505.5 639.5q53.5 -65.5 53.5 -189.5q0 -116 -33 -222.5t-103 -174.5t-176 -68q-100 0 -154 65.5t-54 188.5q0 115 33 221.5t103.5 175.5t176.5 69q100 0 153.5 -65.5zM242.5 545q-39.5 -63 -57 -152.5t-17.5 -170.5q0 -73 22 -106t65 -33q63 0 102.5 63t56.5 152t17 171
q0 72 -21.5 105.5t-65.5 33.5q-62 0 -101.5 -63zM221.5 763q-15.5 16 -15.5 41q0 32 21 53.5t51 21.5q27 0 42.5 -16t15.5 -41q0 -32 -21.5 -53.5t-51.5 -21.5q-26 0 -41.5 16zM408 763q-16 16 -16 41q0 32 21.5 53.5t50.5 21.5q27 0 42.5 -16t15.5 -41q0 -33 -21 -54
t-51 -21q-26 0 -42 16zM497 924h-242l13 88h243z" />
    <glyph glyph-name="uni022E" unicode="&#x22e;" horiz-adv-x="576" 
d="M505.5 639.5q53.5 -65.5 53.5 -189.5q0 -116 -33 -222.5t-103 -174.5t-176 -68q-100 0 -154 65.5t-54 188.5q0 115 33 221.5t103.5 175.5t176.5 69q100 0 153.5 -65.5zM242.5 545q-39.5 -63 -57 -152.5t-17.5 -170.5q0 -73 22 -106t65 -33q63 0 102.5 63t56.5 152t17 171
q0 72 -21.5 105.5t-65.5 33.5q-62 0 -101.5 -63zM317.5 787.5q-17.5 17.5 -17.5 47.5q0 38 23.5 61t58.5 23q31 0 48.5 -17.5t17.5 -47.5q0 -37 -24 -60.5t-58 -23.5q-31 0 -48.5 17.5z" />
    <glyph glyph-name="uni0230" unicode="&#x230;" horiz-adv-x="576" 
d="M505.5 639.5q53.5 -65.5 53.5 -189.5q0 -116 -33 -222.5t-103 -174.5t-176 -68q-100 0 -154 65.5t-54 188.5q0 115 33 221.5t103.5 175.5t176.5 69q100 0 153.5 -65.5zM242.5 545q-39.5 -63 -57 -152.5t-17.5 -170.5q0 -73 22 -106t65 -33q63 0 102.5 63t56.5 152t17 171
q0 72 -21.5 105.5t-65.5 33.5q-62 0 -101.5 -63zM309.5 756.5q-17.5 17.5 -17.5 47.5q0 38 23.5 61t58.5 23q31 0 48.5 -17.5t17.5 -47.5q0 -37 -24 -60.5t-58 -23.5q-31 0 -48.5 17.5zM501 925h-242l13 88h243z" />
    <glyph glyph-name="uni1ECC" unicode="&#x1ecc;" horiz-adv-x="576" 
d="M505.5 639.5q53.5 -65.5 53.5 -189.5q0 -116 -33 -222.5t-103 -174.5t-176 -68q-100 0 -154 65.5t-54 188.5q0 115 33 221.5t103.5 175.5t176.5 69q100 0 153.5 -65.5zM242.5 545q-39.5 -63 -57 -152.5t-17.5 -170.5q0 -73 22 -106t65 -33q63 0 102.5 63t56.5 152t17 171
q0 72 -21.5 105.5t-65.5 33.5q-62 0 -101.5 -63zM284.5 -85.5q17.5 -17.5 17.5 -47.5q0 -38 -23.5 -61t-58.5 -23q-31 0 -48.5 17.5t-17.5 47.5q0 37 24 60.5t58 23.5q31 0 48.5 -17.5z" />
    <glyph glyph-name="Ograve" unicode="&#xd2;" horiz-adv-x="576" 
d="M505.5 639.5q53.5 -65.5 53.5 -189.5q0 -116 -33 -222.5t-103 -174.5t-176 -68q-100 0 -154 65.5t-54 188.5q0 115 33 221.5t103.5 175.5t176.5 69q100 0 153.5 -65.5zM242.5 545q-39.5 -63 -57 -152.5t-17.5 -170.5q0 -73 22 -106t65 -33q63 0 102.5 63t56.5 152t17 171
q0 72 -21.5 105.5t-65.5 33.5q-62 0 -101.5 -63zM324 921l161 -112l-38 -57l-178 79z" />
    <glyph glyph-name="uni1ECE" unicode="&#x1ece;" horiz-adv-x="576" 
d="M505.5 639.5q53.5 -65.5 53.5 -189.5q0 -116 -33 -222.5t-103 -174.5t-176 -68q-100 0 -154 65.5t-54 188.5q0 115 33 221.5t103.5 175.5t176.5 69q100 0 153.5 -65.5zM242.5 545q-39.5 -63 -57 -152.5t-17.5 -170.5q0 -73 22 -106t65 -33q63 0 102.5 63t56.5 152t17 171
q0 72 -21.5 105.5t-65.5 33.5q-62 0 -101.5 -63zM335 850q33 4 48.5 14.5t15.5 33.5q0 27 -27 27q-13 0 -23 -3t-25 -10l-16 59q19 12 38.5 17.5t45.5 5.5q43 0 68 -24.5t25 -63.5q0 -81 -81 -97l-6 -45h-73z" />
    <glyph glyph-name="Ohorn" unicode="&#x1a0;" horiz-adv-x="605" 
d="M615.5 621q-26.5 -35 -75.5 -46q19 -51 19 -125q0 -116 -33 -222.5t-103 -174.5t-176 -68q-100 0 -154 65.5t-54 188.5q0 115 33 221.5t103.5 175.5t176.5 69q104 0 156 -69q27 4 39 23.5t12 54.5q0 20 -4 46l81 11q6 -28 6 -57q0 -58 -26.5 -93zM357.5 146
q39.5 63 56.5 152t17 171q0 72 -21.5 105.5t-65.5 33.5q-62 0 -101.5 -63t-57 -152.5t-17.5 -170.5q0 -73 22 -106t65 -33q63 0 102.5 63z" />
    <glyph glyph-name="uni1EDA" unicode="&#x1eda;" horiz-adv-x="605" 
d="M490 831l-201 -80l-30 59l186 113zM615.5 621q-26.5 -35 -75.5 -46q19 -51 19 -125q0 -116 -33 -222.5t-103 -174.5t-176 -68q-100 0 -154 65.5t-54 188.5q0 115 33 221.5t103.5 175.5t176.5 69q104 0 156 -69q27 4 39 23.5t12 54.5q0 20 -4 46l81 11q6 -28 6 -57
q0 -58 -26.5 -93zM357.5 146q39.5 63 56.5 152t17 171q0 72 -21.5 105.5t-65.5 33.5q-62 0 -101.5 -63t-57 -152.5t-17.5 -170.5q0 -73 22 -106t65 -33q63 0 102.5 63z" />
    <glyph glyph-name="uni1EE2" unicode="&#x1ee2;" horiz-adv-x="605" 
d="M615.5 621q-26.5 -35 -75.5 -46q19 -51 19 -125q0 -116 -33 -222.5t-103 -174.5t-176 -68q-100 0 -154 65.5t-54 188.5q0 115 33 221.5t103.5 175.5t176.5 69q104 0 156 -69q27 4 39 23.5t12 54.5q0 20 -4 46l81 11q6 -28 6 -57q0 -58 -26.5 -93zM357.5 146
q39.5 63 56.5 152t17 171q0 72 -21.5 105.5t-65.5 33.5q-62 0 -101.5 -63t-57 -152.5t-17.5 -170.5q0 -73 22 -106t65 -33q63 0 102.5 63zM284.5 -85.5q17.5 -17.5 17.5 -47.5q0 -38 -23.5 -61t-58.5 -23q-31 0 -48.5 17.5t-17.5 47.5q0 37 24 60.5t58 23.5q31 0 48.5 -17.5
z" />
    <glyph glyph-name="uni1EDC" unicode="&#x1edc;" horiz-adv-x="605" 
d="M485 809l-38 -57l-178 79l55 90zM615.5 621q-26.5 -35 -75.5 -46q19 -51 19 -125q0 -116 -33 -222.5t-103 -174.5t-176 -68q-100 0 -154 65.5t-54 188.5q0 115 33 221.5t103.5 175.5t176.5 69q104 0 156 -69q27 4 39 23.5t12 54.5q0 20 -4 46l81 11q6 -28 6 -57
q0 -58 -26.5 -93zM357.5 146q39.5 63 56.5 152t17 171q0 72 -21.5 105.5t-65.5 33.5q-62 0 -101.5 -63t-57 -152.5t-17.5 -170.5q0 -73 22 -106t65 -33q63 0 102.5 63z" />
    <glyph glyph-name="uni1EDE" unicode="&#x1ede;" horiz-adv-x="605" 
d="M349 922q-10 -3 -25 -10l-16 59q19 12 38.5 17.5t45.5 5.5q43 0 68 -24.5t25 -63.5q0 -81 -81 -97l-6 -45h-73l10 86q33 4 48.5 14.5t15.5 33.5q0 27 -27 27q-13 0 -23 -3zM615.5 621q-26.5 -35 -75.5 -46q19 -51 19 -125q0 -116 -33 -222.5t-103 -174.5t-176 -68
q-100 0 -154 65.5t-54 188.5q0 115 33 221.5t103.5 175.5t176.5 69q104 0 156 -69q27 4 39 23.5t12 54.5q0 20 -4 46l81 11q6 -28 6 -57q0 -58 -26.5 -93zM357.5 146q39.5 63 56.5 152t17 171q0 72 -21.5 105.5t-65.5 33.5q-62 0 -101.5 -63t-57 -152.5t-17.5 -170.5
q0 -73 22 -106t65 -33q63 0 102.5 63z" />
    <glyph glyph-name="uni1EE0" unicode="&#x1ee0;" horiz-adv-x="605" 
d="M298 807.5q-11 -10.5 -25 -33.5l-56 34q23 45 51 72.5t59 27.5q18 0 31 -7t30 -21q12 -10 19 -14.5t16 -4.5q11 0 21.5 10t25.5 33l56 -33q-22 -47 -50.5 -73t-59.5 -26q-16 0 -29 7t-29 20q-12 10 -20.5 14.5t-16.5 4.5q-12 0 -23 -10.5zM615.5 621q-26.5 -35 -75.5 -46
q19 -51 19 -125q0 -116 -33 -222.5t-103 -174.5t-176 -68q-100 0 -154 65.5t-54 188.5q0 115 33 221.5t103.5 175.5t176.5 69q104 0 156 -69q27 4 39 23.5t12 54.5q0 20 -4 46l81 11q6 -28 6 -57q0 -58 -26.5 -93zM357.5 146q39.5 63 56.5 152t17 171q0 72 -21.5 105.5
t-65.5 33.5q-62 0 -101.5 -63t-57 -152.5t-17.5 -170.5q0 -73 22 -106t65 -33q63 0 102.5 63z" />
    <glyph glyph-name="Ohungarumlaut" unicode="&#x150;" horiz-adv-x="576" 
d="M505.5 639.5q53.5 -65.5 53.5 -189.5q0 -116 -33 -222.5t-103 -174.5t-176 -68q-100 0 -154 65.5t-54 188.5q0 115 33 221.5t103.5 175.5t176.5 69q100 0 153.5 -65.5zM242.5 545q-39.5 -63 -57 -152.5t-17.5 -170.5q0 -73 22 -106t65 -33q63 0 102.5 63t56.5 152t17 171
q0 72 -21.5 105.5t-65.5 33.5q-62 0 -101.5 -63zM489 971l76 -47l-120 -168l-59 31zM351 970l76 -44l-113 -165l-60 29z" />
    <glyph glyph-name="uni01A2" unicode="&#x1a2;" horiz-adv-x="785" 
d="M730 670.5q37 -35.5 37 -95.5q0 -20 -2 -30l-106 -751h-125l106 756q1 6 1 18q0 22 -10 33.5t-33 11.5q-33 0 -65 -23q26 -58 26 -140q0 -116 -33 -222.5t-103 -174.5t-176 -68q-100 0 -154 65.5t-54 188.5q0 115 33 221.5t103.5 175.5t176.5 69q80 0 134 -48
q64 49 140 49q67 0 104 -35.5zM357.5 146q39.5 63 56.5 152t17 171q0 72 -21.5 105.5t-65.5 33.5q-62 0 -101.5 -63t-57 -152.5t-17.5 -170.5q0 -73 22 -106t65 -33q63 0 102.5 63z" />
    <glyph glyph-name="uni020E" unicode="&#x20e;" horiz-adv-x="576" 
d="M505.5 639.5q53.5 -65.5 53.5 -189.5q0 -116 -33 -222.5t-103 -174.5t-176 -68q-100 0 -154 65.5t-54 188.5q0 115 33 221.5t103.5 175.5t176.5 69q100 0 153.5 -65.5zM242.5 545q-39.5 -63 -57 -152.5t-17.5 -170.5q0 -73 22 -106t65 -33q63 0 102.5 63t56.5 152t17 171
q0 72 -21.5 105.5t-65.5 33.5q-62 0 -101.5 -63zM225 786q17 69 58 109t100 40q61 0 91.5 -42t26.5 -111l-69 -10q-5 75 -58 75q-57 0 -82 -79z" />
    <glyph glyph-name="Omacron" unicode="&#x14c;" horiz-adv-x="576" 
d="M505.5 639.5q53.5 -65.5 53.5 -189.5q0 -116 -33 -222.5t-103 -174.5t-176 -68q-100 0 -154 65.5t-54 188.5q0 115 33 221.5t103.5 175.5t176.5 69q100 0 153.5 -65.5zM242.5 545q-39.5 -63 -57 -152.5t-17.5 -170.5q0 -73 22 -106t65 -33q63 0 102.5 63t56.5 152t17 171
q0 72 -21.5 105.5t-65.5 33.5q-62 0 -101.5 -63zM484 787h-242l13 88h243z" />
    <glyph glyph-name="uni1E52" unicode="&#x1e52;" horiz-adv-x="576" 
d="M505.5 639.5q53.5 -65.5 53.5 -189.5q0 -116 -33 -222.5t-103 -174.5t-176 -68q-100 0 -154 65.5t-54 188.5q0 115 33 221.5t103.5 175.5t176.5 69q100 0 153.5 -65.5zM242.5 545q-39.5 -63 -57 -152.5t-17.5 -170.5q0 -73 22 -106t65 -33q63 0 102.5 63t56.5 152t17 171
q0 72 -21.5 105.5t-65.5 33.5q-62 0 -101.5 -63zM484 759h-242l13 88h243zM458 1059l45 -92l-201 -80l-30 59z" />
    <glyph glyph-name="uni1E50" unicode="&#x1e50;" horiz-adv-x="576" 
d="M505.5 639.5q53.5 -65.5 53.5 -189.5q0 -116 -33 -222.5t-103 -174.5t-176 -68q-100 0 -154 65.5t-54 188.5q0 115 33 221.5t103.5 175.5t176.5 69q100 0 153.5 -65.5zM242.5 545q-39.5 -63 -57 -152.5t-17.5 -170.5q0 -73 22 -106t65 -33q63 0 102.5 63t56.5 152t17 171
q0 72 -21.5 105.5t-65.5 33.5q-62 0 -101.5 -63zM483 759h-242l13 88h243zM338 1057l161 -112l-38 -57l-178 79z" />
    <glyph glyph-name="uniA7B6" unicode="&#xa7b6;" horiz-adv-x="724" 
d="M80.5 35q-38.5 49 -38.5 154q0 120 34 252t92 250h117q-52 -125 -85.5 -259.5t-33.5 -246.5q0 -55 12 -78.5t39 -23.5t44.5 21.5t24.5 66.5l32 227h123l-32 -232q-2 -18 -2 -24q0 -60 46 -60q65 0 92.5 122.5t27.5 275.5q0 55 -5 103.5t-14 107.5h120q23 -92 23 -213
q0 -216 -55 -354t-182 -138q-55 0 -86 29.5t-35 85.5q-21 -57 -59 -86t-86 -29q-75 0 -113.5 49z" />
    <glyph glyph-name="uni01EA" unicode="&#x1ea;" horiz-adv-x="576" 
d="M244.5 -62.5q-22.5 -29.5 -22.5 -58.5q0 -34 38 -34q20 0 48 5l-18 -80q-24 -7 -56 -7q-46 0 -74.5 27.5t-28.5 73.5q0 73 73 125q-79 13 -122 77t-43 173q0 115 33 221.5t103.5 175.5t176.5 69q100 0 153.5 -65.5t53.5 -189.5q0 -99 -24 -192.5t-75.5 -163.5t-128.5 -96
q-64 -31 -86.5 -60.5zM190 116q22 -33 65 -33q63 0 102.5 63t56.5 152t17 171q0 72 -21.5 105.5t-65.5 33.5q-62 0 -101.5 -63t-57 -152.5t-17.5 -170.5q0 -73 22 -106z" />
    <glyph glyph-name="uni01EC" unicode="&#x1ec;" horiz-adv-x="576" 
d="M498 875l-14 -88h-242l13 88h243zM244.5 -62.5q-22.5 -29.5 -22.5 -58.5q0 -34 38 -34q20 0 48 5l-18 -80q-24 -7 -56 -7q-46 0 -74.5 27.5t-28.5 73.5q0 73 73 125q-79 13 -122 77t-43 173q0 115 33 221.5t103.5 175.5t176.5 69q100 0 153.5 -65.5t53.5 -189.5
q0 -99 -24 -192.5t-75.5 -163.5t-128.5 -96q-64 -31 -86.5 -60.5zM190 116q22 -33 65 -33q63 0 102.5 63t56.5 152t17 171q0 72 -21.5 105.5t-65.5 33.5q-62 0 -101.5 -63t-57 -152.5t-17.5 -170.5q0 -73 22 -106z" />
    <glyph glyph-name="uni0186" unicode="&#x186;" horiz-adv-x="478" 
d="M408 640q53 -65 53 -190q0 -128 -37 -234t-107.5 -168t-168.5 -62q-104 0 -168 84l68 69q27 -26 49 -39t53 -13q60 0 101 55.5t61 140t20 171.5q0 82 -22.5 118t-64.5 36q-30 0 -56.5 -11.5t-59.5 -35.5l-51 74q41 35 85 52.5t97 17.5q95 0 148 -65z" />
    <glyph glyph-name="Oslash" unicode="&#xd8;" horiz-adv-x="576" 
d="M537 578.5q22 -55.5 22 -128.5q0 -116 -33 -222.5t-103 -174.5t-176 -68q-19 0 -37 3l-44 -118l-92 26l49 130q-41 32 -62.5 86.5t-21.5 126.5q0 115 33 221.5t103.5 175.5t176.5 69q19 0 35 -3l46 121l91 -27l-49 -130q40 -32 62 -87.5zM239.5 546.5
q-40.5 -63.5 -58 -153t-17.5 -171.5q0 -75 22 -107l177 494q-6 1 -19 1q-64 0 -104.5 -63.5zM360 145q40 63 57 152t17 172q0 72 -19 104l-178 -490q6 -1 18 -1q65 0 105 63z" />
    <glyph glyph-name="Oslashacute" unicode="&#x1fe;" horiz-adv-x="576" 
d="M537 578.5q22 -55.5 22 -128.5q0 -116 -33 -222.5t-103 -174.5t-176 -68q-19 0 -37 3l-44 -118l-92 26l49 130q-41 32 -62.5 86.5t-21.5 126.5q0 115 33 221.5t103.5 175.5t176.5 69q19 0 35 -3l46 121l91 -27l-49 -130q40 -32 62 -87.5zM239.5 546.5
q-40.5 -63.5 -58 -153t-17.5 -171.5q0 -75 22 -107l177 494q-6 1 -19 1q-64 0 -104.5 -63.5zM360 145q40 63 57 152t17 172q0 72 -19 104l-178 -490q6 -1 18 -1q65 0 105 63zM434 947l45 -92l-201 -80l-30 59z" />
    <glyph glyph-name="Otilde" unicode="&#xd5;" horiz-adv-x="576" 
d="M505.5 639.5q53.5 -65.5 53.5 -189.5q0 -116 -33 -222.5t-103 -174.5t-176 -68q-100 0 -154 65.5t-54 188.5q0 115 33 221.5t103.5 175.5t176.5 69q100 0 153.5 -65.5zM242.5 545q-39.5 -63 -57 -152.5t-17.5 -170.5q0 -73 22 -106t65 -33q63 0 102.5 63t56.5 152t17 171
q0 72 -21.5 105.5t-65.5 33.5q-62 0 -101.5 -63zM387 779q-13 7 -29 20q-12 10 -20.5 14.5t-16.5 4.5q-13 0 -23.5 -10.5t-24.5 -33.5l-56 34q23 45 51 72.5t59 27.5q18 0 31 -7t30 -21q12 -10 19 -14.5t16 -4.5q11 0 21.5 10t25.5 33l56 -33q-22 -47 -50.5 -73t-59.5 -26
q-16 0 -29 7z" />
    <glyph glyph-name="uni1E4C" unicode="&#x1e4c;" horiz-adv-x="576" 
d="M505.5 639.5q53.5 -65.5 53.5 -189.5q0 -116 -33 -222.5t-103 -174.5t-176 -68q-100 0 -154 65.5t-54 188.5q0 115 33 221.5t103.5 175.5t176.5 69q100 0 153.5 -65.5zM242.5 545q-39.5 -63 -57 -152.5t-17.5 -170.5q0 -73 22 -106t65 -33q63 0 102.5 63t56.5 152t17 171
q0 72 -21.5 105.5t-65.5 33.5q-62 0 -101.5 -63zM384 764q-13 7 -29 20q-12 10 -20.5 14.5t-16.5 4.5q-13 0 -23.5 -10.5t-24.5 -33.5l-56 34q23 45 51 72.5t59 27.5q18 0 31 -7t30 -21q12 -10 19 -14.5t16 -4.5q11 0 21.5 10t25.5 33l56 -33q-22 -47 -50.5 -73t-59.5 -26
q-16 0 -29 7zM456 1088l45 -92l-201 -80l-30 59z" />
    <glyph glyph-name="uni022C" unicode="&#x22c;" horiz-adv-x="576" 
d="M500 929h-242l13 88h243zM381 764q-13 7 -29 20q-12 10 -20.5 14.5t-16.5 4.5q-12 0 -23 -10.5t-25 -33.5l-56 34q23 45 51 72.5t59 27.5q18 0 31 -7t30 -21q12 -10 19 -14.5t16 -4.5q11 0 21.5 10t25.5 33l56 -33q-22 -47 -50.5 -73t-59.5 -26q-16 0 -29 7zM505.5 639.5
q53.5 -65.5 53.5 -189.5q0 -116 -33 -222.5t-103 -174.5t-176 -68q-100 0 -154 65.5t-54 188.5q0 115 33 221.5t103.5 175.5t176.5 69q100 0 153.5 -65.5zM242.5 545q-39.5 -63 -57 -152.5t-17.5 -170.5q0 -73 22 -106t65 -33q63 0 102.5 63t56.5 152t17 171
q0 72 -21.5 105.5t-65.5 33.5q-62 0 -101.5 -63z" />
    <glyph glyph-name="OE" unicode="&#x152;" horiz-adv-x="736" 
d="M737 596h-231q33 -58 33 -146q0 -18 -2 -52h149l-14 -94h-147q-26 -128 -91 -208h251l-16 -96h-355q-34 -15 -78 -15q-92 0 -144.5 66t-52.5 188q0 114 32.5 221t99.5 176t167 69q42 0 75 -14h352zM246 83q58 0 95 63t53.5 152.5t16.5 170.5q0 73 -20 106t-59 33
q-56 0 -93 -63.5t-54 -153t-17 -169.5q0 -139 78 -139z" />
    <glyph glyph-name="P" unicode="P" horiz-adv-x="478" 
d="M441.5 643.5q54.5 -47.5 54.5 -137.5q0 -72 -29 -131.5t-89 -95.5t-149 -36h-47l-34 -243h-126l98 691h165q102 0 156.5 -47.5zM336.5 385.5q30.5 47.5 30.5 119.5q0 50 -22.5 71t-71.5 21h-41l-36 -259h35q75 0 105.5 47.5z" />
    <glyph glyph-name="uni1E54" unicode="&#x1e54;" horiz-adv-x="478" 
d="M441.5 643.5q54.5 -47.5 54.5 -137.5q0 -72 -29 -131.5t-89 -95.5t-149 -36h-47l-34 -243h-126l98 691h165q102 0 156.5 -47.5zM336.5 385.5q30.5 47.5 30.5 119.5q0 50 -22.5 71t-71.5 21h-41l-36 -259h35q75 0 105.5 47.5zM398 923l45 -92l-201 -80l-30 59z" />
    <glyph glyph-name="uni1E56" unicode="&#x1e56;" horiz-adv-x="478" 
d="M441.5 643.5q54.5 -47.5 54.5 -137.5q0 -72 -29 -131.5t-89 -95.5t-149 -36h-47l-34 -243h-126l98 691h165q102 0 156.5 -47.5zM336.5 385.5q30.5 47.5 30.5 119.5q0 50 -22.5 71t-71.5 21h-41l-36 -259h35q75 0 105.5 47.5zM270.5 787.5q-17.5 17.5 -17.5 47.5
q0 38 23.5 61t58.5 23q31 0 48.5 -17.5t17.5 -47.5q0 -37 -24 -60.5t-58 -23.5q-31 0 -48.5 17.5z" />
    <glyph glyph-name="uni01A4" unicode="&#x1a4;" horiz-adv-x="587" 
d="M550.5 643.5q54.5 -47.5 54.5 -137.5q0 -72 -29 -131.5t-89 -95.5t-149 -36h-47l-34 -243h-126l85 597h-24q-47 0 -47 -60q0 -29 9 -61l-85 -32q-23 48 -23 96q0 69 41 110t112 41h195q102 0 156.5 -47.5zM445.5 385.5q30.5 47.5 30.5 119.5q0 50 -22.5 71t-71.5 21h-41
l-36 -259h35q75 0 105.5 47.5z" />
    <glyph glyph-name="Thorn" unicode="&#xde;" horiz-adv-x="483" 
d="M430 528.5q54 -48.5 54 -141.5q0 -73 -29 -133.5t-89 -96.5t-149 -36h-52l-17 -121h-125l97 691h125l-16 -114h45q102 0 156 -48.5zM325.5 264q30.5 48 30.5 122q0 52 -22.5 74t-71.5 22h-46l-38 -266h41q76 0 106.5 48z" />
    <glyph glyph-name="Q" unicode="Q" horiz-adv-x="576" 
d="M462.5 19.5q38.5 -17.5 68.5 -50.5l-94 -93q-34 57 -77 84t-113 27q-100 0 -154 64.5t-54 187.5q0 115 33 221.5t103.5 175.5t176.5 69q100 0 153.5 -65.5t53.5 -189.5q0 -136 -46 -250t-141 -161q52 -2 90.5 -19.5zM190 116q22 -33 65 -33q63 0 102.5 63t56.5 152
t17 171q0 72 -21.5 105.5t-65.5 33.5q-62 0 -101.5 -63t-57 -152.5t-17.5 -170.5q0 -73 22 -106z" />
    <glyph glyph-name="uni024A" unicode="&#x24a;" horiz-adv-x="568" 
d="M586 -178q-52 -39 -116 -39t-100 34t-36 97q0 10 2 32l7 54l5 35q-49 -49 -115 -49q-89 0 -140.5 67t-51.5 189q0 129 36 234.5t100.5 167t146.5 61.5q39 0 66.5 -17.5t47.5 -50.5l18 54h108l-96 -691l-8 -65q-1 -5 -1 -14q0 -42 36 -42q16 0 27.5 4t30.5 14zM363 146
l55 403q-17 30 -35.5 44.5t-44.5 14.5q-52 0 -90 -51.5t-58 -136t-20 -182.5q0 -81 24.5 -118.5t66.5 -37.5q56 0 102 64z" />
    <glyph glyph-name="R" unicode="R" horiz-adv-x="505" 
d="M463 392.5q-34 -55.5 -101 -87.5l102 -305h-130l-85 278l-62 1l-39 -279h-126l98 691h163q107 0 160.5 -45t53.5 -127q0 -71 -34 -126.5zM243 371q67 0 96 42t29 102q0 44 -21.5 63.5t-66.5 19.5h-48l-32 -227h43z" />
    <glyph glyph-name="Racute" unicode="&#x154;" horiz-adv-x="505" 
d="M463 392.5q-34 -55.5 -101 -87.5l102 -305h-130l-85 278l-62 1l-39 -279h-126l98 691h163q107 0 160.5 -45t53.5 -127q0 -71 -34 -126.5zM243 371q67 0 96 42t29 102q0 44 -21.5 63.5t-66.5 19.5h-48l-32 -227h43zM394 923l45 -92l-201 -80l-30 59z" />
    <glyph glyph-name="Rcaron" unicode="&#x158;" horiz-adv-x="505" 
d="M463 392.5q-34 -55.5 -101 -87.5l102 -305h-130l-85 278l-62 1l-39 -279h-126l98 691h163q107 0 160.5 -45t53.5 -127q0 -71 -34 -126.5zM243 371q67 0 96 42t29 102q0 44 -21.5 63.5t-66.5 19.5h-48l-32 -227h43zM433 925l46 -51l-134 -122h-74l-100 128l49 45l97 -84z
" />
    <glyph glyph-name="Rcommaaccent" unicode="&#x156;" horiz-adv-x="505" 
d="M463 392.5q-34 -55.5 -101 -87.5l102 -305h-130l-85 278l-62 1l-39 -279h-126l98 691h163q107 0 160.5 -45t53.5 -127q0 -71 -34 -126.5zM243 371q67 0 96 42t29 102q0 44 -21.5 63.5t-66.5 19.5h-48l-32 -227h43zM268 -89.5q16 -16.5 16 -40.5q0 -20 -7 -37.5t-28 -54.5
l-49 -87h-61l40 117q-22 19 -22 46q0 32 19.5 52.5t48.5 20.5q27 0 43 -16.5z" />
    <glyph glyph-name="uni0210" unicode="&#x210;" horiz-adv-x="505" 
d="M463 392.5q-34 -55.5 -101 -87.5l102 -305h-130l-85 278l-62 1l-39 -279h-126l98 691h163q107 0 160.5 -45t53.5 -127q0 -71 -34 -126.5zM243 371q67 0 96 42t29 102q0 44 -21.5 63.5t-66.5 19.5h-48l-32 -227h43zM229 971l55 -188l-72 -27l-78 176zM368 970l47 -184
l-71 -25l-72 172z" />
    <glyph glyph-name="uni1E5A" unicode="&#x1e5a;" horiz-adv-x="505" 
d="M463 392.5q-34 -55.5 -101 -87.5l102 -305h-130l-85 278l-62 1l-39 -279h-126l98 691h163q107 0 160.5 -45t53.5 -127q0 -71 -34 -126.5zM243 371q67 0 96 42t29 102q0 44 -21.5 63.5t-66.5 19.5h-48l-32 -227h43zM272.5 -85.5q17.5 -17.5 17.5 -47.5q0 -38 -23.5 -61
t-58.5 -23q-31 0 -48.5 17.5t-17.5 47.5q0 37 24 60.5t58 23.5q31 0 48.5 -17.5z" />
    <glyph glyph-name="uni0212" unicode="&#x212;" horiz-adv-x="505" 
d="M463 392.5q-34 -55.5 -101 -87.5l102 -305h-130l-85 278l-62 1l-39 -279h-126l98 691h163q107 0 160.5 -45t53.5 -127q0 -71 -34 -126.5zM243 371q67 0 96 42t29 102q0 44 -21.5 63.5t-66.5 19.5h-48l-32 -227h43zM174 786q17 69 58 109t100 40q61 0 91.5 -42t26.5 -111
l-69 -10q-5 75 -58 75q-57 0 -82 -79z" />
    <glyph glyph-name="uni024C" unicode="&#x24c;" horiz-adv-x="514" 
d="M472 392.5q-34 -55.5 -101 -87.5l102 -305h-130l-85 278l-62 1l-39 -279h-126l40 279h-57l13 92h57l45 320h163q107 0 160.5 -45t53.5 -127q0 -71 -34 -126.5zM252 371q67 0 96 42t29 102q0 44 -21.5 63.5t-66.5 19.5h-48l-32 -227h43z" />
    <glyph glyph-name="uni2C64" unicode="&#x2c64;" horiz-adv-x="505" 
d="M463 392.5q-34 -55.5 -101 -87.5l102 -305h-130l-85 278l-62 1l-39 -279h-1l-8 -65q-1 -5 -1 -14q0 -42 36 -42q16 0 27.5 4t30.5 14l33 -75q-52 -39 -116 -39t-100 34t-36 97q0 10 2 32l7 54l98 691h163q107 0 160.5 -45t53.5 -127q0 -71 -34 -126.5zM243 371
q67 0 96 42t29 102q0 44 -21.5 63.5t-66.5 19.5h-48l-32 -227h43z" />
    <glyph glyph-name="S" unicode="S" horiz-adv-x="462" 
d="M481 619l-68 -66q-26 28 -53 41.5t-61 13.5q-46 0 -73.5 -28t-27.5 -72q0 -33 19.5 -54t76.5 -48q69 -33 102.5 -74.5t33.5 -109.5q0 -65 -32 -119.5t-89 -86t-129 -31.5q-66 0 -115 25.5t-87 70.5l72 67q31 -33 61 -49t71 -16q53 0 86 33.5t33 90.5q0 39 -21 62.5
t-79 51.5q-70 34 -100 72t-30 100q0 57 29 106t80.5 77.5t116.5 28.5q115 0 184 -86z" />
    <glyph glyph-name="Sacute" unicode="&#x15a;" horiz-adv-x="462" 
d="M481 619l-68 -66q-26 28 -53 41.5t-61 13.5q-46 0 -73.5 -28t-27.5 -72q0 -33 19.5 -54t76.5 -48q69 -33 102.5 -74.5t33.5 -109.5q0 -65 -32 -119.5t-89 -86t-129 -31.5q-66 0 -115 25.5t-87 70.5l72 67q31 -33 61 -49t71 -16q53 0 86 33.5t33 90.5q0 39 -21 62.5
t-79 51.5q-70 34 -100 72t-30 100q0 57 29 106t80.5 77.5t116.5 28.5q115 0 184 -86zM390 923l45 -92l-201 -80l-30 59z" />
    <glyph glyph-name="uniA78B" unicode="&#xa78b;" horiz-adv-x="209" 
d="M72 341l34 350h117l-66 -350h-85z" />
    <glyph glyph-name="Scaron" unicode="&#x160;" horiz-adv-x="462" 
d="M481 619l-68 -66q-26 28 -53 41.5t-61 13.5q-46 0 -73.5 -28t-27.5 -72q0 -33 19.5 -54t76.5 -48q69 -33 102.5 -74.5t33.5 -109.5q0 -65 -32 -119.5t-89 -86t-129 -31.5q-66 0 -115 25.5t-87 70.5l72 67q31 -33 61 -49t71 -16q53 0 86 33.5t33 90.5q0 39 -21 62.5
t-79 51.5q-70 34 -100 72t-30 100q0 57 29 106t80.5 77.5t116.5 28.5q115 0 184 -86zM429 925l46 -51l-134 -122h-74l-100 128l49 45l97 -84z" />
    <glyph glyph-name="Scedilla" unicode="&#x15e;" horiz-adv-x="462" 
d="M396.5 331.5q33.5 -41.5 33.5 -109.5q0 -58 -25 -107t-70.5 -82.5t-104.5 -43.5l-7 -45q36 -4 54 -24.5t18 -54.5q0 -45 -32.5 -80t-98.5 -35q-55 0 -86 28l36 56q24 -13 48 -13q20 0 32.5 10t12.5 29t-15 26.5t-54 7.5l21 92q-108 7 -181 95l72 67q31 -33 61 -49t71 -16
q53 0 86 33.5t33 90.5q0 39 -21 62.5t-79 51.5q-70 34 -100 72t-30 100q0 57 29 106t80.5 77.5t116.5 28.5q115 0 184 -86l-68 -66q-26 28 -53 41.5t-61 13.5q-46 0 -73.5 -28t-27.5 -72q0 -33 19.5 -54t76.5 -48q69 -33 102.5 -74.5z" />
    <glyph glyph-name="Scircumflex" unicode="&#x15c;" horiz-adv-x="462" 
d="M481 619l-68 -66q-26 28 -53 41.5t-61 13.5q-46 0 -73.5 -28t-27.5 -72q0 -33 19.5 -54t76.5 -48q69 -33 102.5 -74.5t33.5 -109.5q0 -65 -32 -119.5t-89 -86t-129 -31.5q-66 0 -115 25.5t-87 70.5l72 67q31 -33 61 -49t71 -16q53 0 86 33.5t33 90.5q0 39 -21 62.5
t-79 51.5q-70 34 -100 72t-30 100q0 57 29 106t80.5 77.5t116.5 28.5q115 0 184 -86zM198 758l-46 51l134 122h74l100 -128l-49 -45l-97 83z" />
    <glyph glyph-name="Scommaaccent" unicode="&#x218;" horiz-adv-x="462" 
d="M481 619l-68 -66q-26 28 -53 41.5t-61 13.5q-46 0 -73.5 -28t-27.5 -72q0 -33 19.5 -54t76.5 -48q69 -33 102.5 -74.5t33.5 -109.5q0 -65 -32 -119.5t-89 -86t-129 -31.5q-66 0 -115 25.5t-87 70.5l72 67q31 -33 61 -49t71 -16q53 0 86 33.5t33 90.5q0 39 -21 62.5
t-79 51.5q-70 34 -100 72t-30 100q0 57 29 106t80.5 77.5t116.5 28.5q115 0 184 -86zM227 -89.5q16 -16.5 16 -40.5q0 -20 -7 -37.5t-28 -54.5l-49 -87h-61l40 117q-22 19 -22 46q0 32 19.5 52.5t48.5 20.5q27 0 43 -16.5z" />
    <glyph glyph-name="uni1E60" unicode="&#x1e60;" horiz-adv-x="462" 
d="M481 619l-68 -66q-26 28 -53 41.5t-61 13.5q-46 0 -73.5 -28t-27.5 -72q0 -33 19.5 -54t76.5 -48q69 -33 102.5 -74.5t33.5 -109.5q0 -65 -32 -119.5t-89 -86t-129 -31.5q-66 0 -115 25.5t-87 70.5l72 67q31 -33 61 -49t71 -16q53 0 86 33.5t33 90.5q0 39 -21 62.5
t-79 51.5q-70 34 -100 72t-30 100q0 57 29 106t80.5 77.5t116.5 28.5q115 0 184 -86zM262.5 787.5q-17.5 17.5 -17.5 47.5q0 38 23.5 61t58.5 23q31 0 48.5 -17.5t17.5 -47.5q0 -37 -24 -60.5t-58 -23.5q-31 0 -48.5 17.5z" />
    <glyph glyph-name="uni1E62" unicode="&#x1e62;" horiz-adv-x="462" 
d="M481 619l-68 -66q-26 28 -53 41.5t-61 13.5q-46 0 -73.5 -28t-27.5 -72q0 -33 19.5 -54t76.5 -48q69 -33 102.5 -74.5t33.5 -109.5q0 -65 -32 -119.5t-89 -86t-129 -31.5q-66 0 -115 25.5t-87 70.5l72 67q31 -33 61 -49t71 -16q53 0 86 33.5t33 90.5q0 39 -21 62.5
t-79 51.5q-70 34 -100 72t-30 100q0 57 29 106t80.5 77.5t116.5 28.5q115 0 184 -86zM231.5 -85.5q17.5 -17.5 17.5 -47.5q0 -38 -23.5 -61t-58.5 -23q-31 0 -48.5 17.5t-17.5 47.5q0 37 24 60.5t58 23.5q31 0 48.5 -17.5z" />
    <glyph glyph-name="uni1E9E" unicode="&#x1e9e;" horiz-adv-x="547" 
d="M433 686q58 -19 108 -50l-8 -67l-161 -187q65 -11 103.5 -50t38.5 -108q0 -72 -28.5 -126t-79 -83t-115.5 -29t-102 25l48 84q22 -10 49 -10q45 0 70.5 37.5t25.5 97.5q0 50 -29 74t-92 27l11 79l157 187q-58 21 -116 21q-40 0 -63.5 -24.5t-30.5 -76.5l-70 -507h-126
l70 506q14 98 70 148.5t152 50.5q60 0 118 -19z" />
    <glyph glyph-name="uni018F" unicode="&#x18f;" horiz-adv-x="534" 
d="M466.5 648q51.5 -57 51.5 -173q0 -132 -33.5 -243t-102 -178.5t-168.5 -67.5q-92 0 -140 61t-48 170q0 48 6 90t18 90l338 -1q5 41 5 83q0 71 -22 100t-67 29q-38 0 -71 -15.5t-68 -43.5l-50 72q50 43 99.5 63.5t108.5 20.5q92 0 143.5 -57zM310.5 130q37.5 48 62.5 170
h-225q-8 -50 -8 -88q0 -66 19 -98t60 -32q54 0 91.5 48z" />
    <glyph glyph-name="T" unicode="T" horiz-adv-x="437" 
d="M494 691l-27 -102h-140l-83 -589h-126l83 589h-148l14 102h427z" />
    <glyph glyph-name="Tbar" unicode="&#x166;" horiz-adv-x="437" 
d="M467 589h-140l-28 -199h94l-12 -80h-93l-44 -310h-126l44 310h-94l11 80h94l28 199h-148l14 102h427z" />
    <glyph glyph-name="Tcaron" unicode="&#x164;" horiz-adv-x="437" 
d="M494 691l-27 -102h-140l-83 -589h-126l83 589h-148l14 102h427zM411 925l46 -51l-134 -122h-74l-100 128l49 45l97 -84z" />
    <glyph glyph-name="uni0162" unicode="&#x162;" horiz-adv-x="437" 
d="M494 691l-27 -102h-140l-83 -589l-8 -53q35 -4 53 -25.5t18 -53.5q0 -47 -32 -82.5t-99 -35.5q-54 0 -86 28l36 59q24 -16 48 -16q19 0 31.5 10t13.5 29t-14.5 26.5t-54.5 7.5l24 106h-56l83 589h-148l14 102h427z" />
    <glyph glyph-name="uni1E70" unicode="&#x1e70;" horiz-adv-x="437" 
d="M494 691l-27 -102h-140l-83 -589h-126l83 589h-148l14 102h427zM46 -242l-45 51l134 125h74l100 -130l-52 -46l-93 87z" />
    <glyph glyph-name="uni021A" unicode="&#x21a;" horiz-adv-x="437" 
d="M494 691l-27 -102h-140l-83 -589h-126l83 589h-148l14 102h427zM213 -89.5q16 -16.5 16 -40.5q0 -20 -7 -37.5t-28 -54.5l-49 -87h-61l40 117q-22 19 -22 46q0 32 19.5 52.5t48.5 20.5q27 0 43 -16.5z" />
    <glyph glyph-name="uni023E" unicode="&#x23e;" horiz-adv-x="438" 
d="M468 592h-66l-112 -232l-50 -360h-115l4 27l-48 -99l-38 19l105 217l60 428h-155l15 99h335l29 61l38 -19l-20 -42h45zM309 497l46 95h-33z" />
    <glyph glyph-name="uni1E6A" unicode="&#x1e6a;" horiz-adv-x="437" 
d="M494 691l-27 -102h-140l-83 -589h-126l83 589h-148l14 102h427zM244.5 787.5q-17.5 17.5 -17.5 47.5q0 38 23.5 61t58.5 23q31 0 48.5 -17.5t17.5 -47.5q0 -37 -24 -60.5t-58 -23.5q-31 0 -48.5 17.5z" />
    <glyph glyph-name="uni1E6C" unicode="&#x1e6c;" horiz-adv-x="437" 
d="M494 691l-27 -102h-140l-83 -589h-126l83 589h-148l14 102h427zM217.5 -85.5q17.5 -17.5 17.5 -47.5q0 -38 -23.5 -61t-58.5 -23q-31 0 -48.5 17.5t-17.5 47.5q0 37 24 60.5t58 23.5q31 0 48.5 -17.5z" />
    <glyph glyph-name="uni01AC" unicode="&#x1ac;" horiz-adv-x="482" 
d="M512 589h-141l-83 -589h-125l83 589h-54q-47 0 -47 -52q0 -29 9 -61l-85 -32q-23 48 -23 96q0 69 41.5 110t114.5 41h337z" />
    <glyph glyph-name="uni1E6E" unicode="&#x1e6e;" horiz-adv-x="437" 
d="M494 691l-27 -102h-140l-83 -589h-126l83 589h-148l14 102h427zM55 -93h242l-13 -88h-243z" />
    <glyph glyph-name="uni01BC" unicode="&#x1bc;" horiz-adv-x="444" 
d="M-12 80l75 61q21 -31 44.5 -45.5t55.5 -14.5q65 0 95.5 59t30.5 134q0 82 -62 82q-39 0 -83 -24h-85l51 359h335l-28 -91h-207l-26 -182q48 27 97 27q62 0 96.5 -42.5t34.5 -123.5q0 -77 -28.5 -144t-86 -108.5t-141.5 -41.5q-109 0 -168 95z" />
    <glyph glyph-name="uni0184" unicode="&#x184;" horiz-adv-x="494" 
d="M424.5 397q54.5 -48 54.5 -139q0 -68 -26 -126.5t-83.5 -95t-146.5 -36.5h-188l70 509l-53 46q55 52 101 136h104l-34 -246h48q99 0 153.5 -48zM319.5 141.5q27.5 45.5 27.5 113.5q0 51 -20.5 74.5t-63.5 23.5h-53l-36 -257h53q65 0 92.5 45.5z" />
    <glyph glyph-name="uni01A7" unicode="&#x1a7;" horiz-adv-x="447" 
d="M433.5 663.5q45.5 -41.5 45.5 -114.5q0 -62 -23.5 -105t-68.5 -73t-118 -57q-72 -27 -99.5 -61t-27.5 -92q0 -37 19 -56.5t54 -19.5q71 0 146 65l56 -72q-92 -92 -220 -92q-85 0 -135 47t-50 123q0 96 51 155.5t152 94.5q52 18 80.5 35.5t42 41.5t13.5 61
q0 33 -16.5 48.5t-46.5 15.5q-36 0 -68 -13.5t-68 -41.5l-48 70q48 41 97.5 61.5t109.5 20.5q77 0 122.5 -41.5z" />
    <glyph glyph-name="uni01AE" unicode="&#x1ae;" horiz-adv-x="437" 
d="M236 -65q-1 -5 -1 -14q0 -42 36 -42q16 0 27.5 4t30.5 14l33 -75q-52 -39 -116 -39t-100 34t-36 97q0 10 2 32l7 54h-1l83 589h-148l14 102h427l-27 -102h-140l-83 -589z" />
    <glyph glyph-name="U" unicode="U" horiz-adv-x="531" 
d="M470 189q-8 -56 -39 -102.5t-82 -73.5t-119 -27q-94 0 -143.5 50t-49.5 126q0 18 3 34l70 495h125l-70 -507q-2 -16 -2 -22q0 -36 18.5 -56.5t56.5 -20.5q46 0 73 29t34 75l69 502h126z" />
    <glyph glyph-name="Uacute" unicode="&#xda;" horiz-adv-x="531" 
d="M470 189q-8 -56 -39 -102.5t-82 -73.5t-119 -27q-94 0 -143.5 50t-49.5 126q0 18 3 34l70 495h125l-70 -507q-2 -16 -2 -22q0 -36 18.5 -56.5t56.5 -20.5q46 0 73 29t34 75l69 502h126zM418 923l45 -92l-201 -80l-30 59z" />
    <glyph glyph-name="uni0244" unicode="&#x244;" horiz-adv-x="555" 
d="M573 505h-47l-44 -316q-8 -56 -39 -102.5t-82 -73.5t-119 -27q-94 0 -143.5 50t-49.5 126q0 18 3 34l44 309h-47l12 78h46l15 108h125l-15 -108h179l15 108h126l-15 -108h47zM400 505h-179l-44 -321q-2 -16 -2 -22q0 -36 18.5 -56.5t56.5 -20.5q46 0 73 29t34 75z" />
    <glyph glyph-name="Ubreve" unicode="&#x16c;" horiz-adv-x="531" 
d="M470 189q-8 -56 -39 -102.5t-82 -73.5t-119 -27q-94 0 -143.5 50t-49.5 126q0 18 3 34l70 495h125l-70 -507q-2 -16 -2 -22q0 -36 18.5 -56.5t56.5 -20.5q46 0 73 29t34 75l69 502h126zM239.5 795.5q-30.5 40.5 -26.5 102.5l67 11q5 -66 57 -66q28 0 48.5 19t31.5 50
l68 -18q-13 -63 -52.5 -101t-100.5 -38q-62 0 -92.5 40.5z" />
    <glyph glyph-name="uni01D3" unicode="&#x1d3;" horiz-adv-x="531" 
d="M470 189q-8 -56 -39 -102.5t-82 -73.5t-119 -27q-94 0 -143.5 50t-49.5 126q0 18 3 34l70 495h125l-70 -507q-2 -16 -2 -22q0 -36 18.5 -56.5t56.5 -20.5q46 0 73 29t34 75l69 502h126zM457 925l46 -51l-134 -122h-74l-100 128l49 45l97 -84z" />
    <glyph glyph-name="Ucircumflex" unicode="&#xdb;" horiz-adv-x="531" 
d="M470 189q-8 -56 -39 -102.5t-82 -73.5t-119 -27q-94 0 -143.5 50t-49.5 126q0 18 3 34l70 495h125l-70 -507q-2 -16 -2 -22q0 -36 18.5 -56.5t56.5 -20.5q46 0 73 29t34 75l69 502h126zM226 758l-46 51l134 122h74l100 -128l-49 -45l-97 83z" />
    <glyph glyph-name="uni0214" unicode="&#x214;" horiz-adv-x="531" 
d="M470 189q-8 -56 -39 -102.5t-82 -73.5t-119 -27q-94 0 -143.5 50t-49.5 126q0 18 3 34l70 495h125l-70 -507q-2 -16 -2 -22q0 -36 18.5 -56.5t56.5 -20.5q46 0 73 29t34 75l69 502h126zM253 971l55 -188l-72 -27l-78 176zM392 970l47 -184l-71 -25l-72 172z" />
    <glyph glyph-name="Udieresis" unicode="&#xdc;" horiz-adv-x="531" 
d="M470 189q-8 -56 -39 -102.5t-82 -73.5t-119 -27q-94 0 -143.5 50t-49.5 126q0 18 3 34l70 495h125l-70 -507q-2 -16 -2 -22q0 -36 18.5 -56.5t56.5 -20.5q46 0 73 29t34 75l69 502h126zM201.5 791q-15.5 16 -15.5 41q0 32 21 53.5t51 21.5q27 0 42.5 -16t15.5 -41
q0 -32 -21.5 -53.5t-51.5 -21.5q-26 0 -41.5 16zM388 791q-16 16 -16 41q0 32 21.5 53.5t50.5 21.5q27 0 42.5 -16t15.5 -41q0 -33 -21 -54t-51 -21q-26 0 -42 16z" />
    <glyph glyph-name="uni01D7" unicode="&#x1d7;" horiz-adv-x="531" 
d="M470 189q-8 -56 -39 -102.5t-82 -73.5t-119 -27q-94 0 -143.5 50t-49.5 126q0 18 3 34l70 495h125l-70 -507q-2 -16 -2 -22q0 -36 18.5 -56.5t56.5 -20.5q46 0 73 29t34 75l69 502h126zM433 1053l61 -62l-147 -139l-43 39zM194.5 764q-15.5 16 -15.5 42q0 32 21.5 53.5
t50.5 21.5q27 0 42.5 -16t15.5 -42q0 -32 -21 -53.5t-52 -21.5q-26 0 -41.5 16zM387.5 764q-15.5 16 -15.5 42q0 32 21 53.5t51 21.5q27 0 42.5 -16t15.5 -42q0 -32 -21.5 -53.5t-51.5 -21.5q-26 0 -41.5 16z" />
    <glyph glyph-name="uni01D9" unicode="&#x1d9;" horiz-adv-x="531" 
d="M470 189q-8 -56 -39 -102.5t-82 -73.5t-119 -27q-94 0 -143.5 50t-49.5 126q0 18 3 34l70 495h125l-70 -507q-2 -16 -2 -22q0 -36 18.5 -56.5t56.5 -20.5q46 0 73 29t34 75l69 502h126zM472 1056l46 -51l-134 -122h-74l-100 128l49 45l97 -84zM193.5 764
q-15.5 16 -15.5 42q0 32 21.5 53.5t51.5 21.5q26 0 41.5 -16t15.5 -42q0 -32 -21 -53.5t-51 -21.5q-27 0 -42.5 16zM386.5 764q-15.5 16 -15.5 42q0 32 21.5 53.5t51.5 21.5q26 0 41.5 -16t15.5 -42q0 -32 -21 -53.5t-51 -21.5q-27 0 -42.5 16z" />
    <glyph glyph-name="uni01DB" unicode="&#x1db;" horiz-adv-x="531" 
d="M470 189q-8 -56 -39 -102.5t-82 -73.5t-119 -27q-94 0 -143.5 50t-49.5 126q0 18 3 34l70 495h125l-70 -507q-2 -16 -2 -22q0 -36 18.5 -56.5t56.5 -20.5q46 0 73 29t34 75l69 502h126zM306 1051l84 -164l-52 -35l-109 143zM191.5 764q-15.5 16 -15.5 42q0 32 21.5 53.5
t50.5 21.5q27 0 42.5 -16t15.5 -42q0 -32 -21 -53.5t-52 -21.5q-26 0 -41.5 16zM384.5 764q-15.5 16 -15.5 42q0 32 21 53.5t51 21.5q27 0 42.5 -16t15.5 -42q0 -32 -21.5 -53.5t-51.5 -21.5q-26 0 -41.5 16z" />
    <glyph glyph-name="uni01D5" unicode="&#x1d5;" horiz-adv-x="531" 
d="M470 189q-8 -56 -39 -102.5t-82 -73.5t-119 -27q-94 0 -143.5 50t-49.5 126q0 18 3 34l70 495h125l-70 -507q-2 -16 -2 -22q0 -36 18.5 -56.5t56.5 -20.5q46 0 73 29t34 75l69 502h126zM194.5 763q-15.5 16 -15.5 41q0 32 21 53.5t51 21.5q27 0 42.5 -16t15.5 -41
q0 -32 -21.5 -53.5t-51.5 -21.5q-26 0 -41.5 16zM381 763q-16 16 -16 41q0 32 21.5 53.5t50.5 21.5q27 0 42.5 -16t15.5 -41q0 -33 -21 -54t-51 -21q-26 0 -42 16zM470 924h-242l13 88h243z" />
    <glyph glyph-name="uni1EE4" unicode="&#x1ee4;" horiz-adv-x="531" 
d="M470 189q-8 -56 -39 -102.5t-82 -73.5t-119 -27q-94 0 -143.5 50t-49.5 126q0 18 3 34l70 495h125l-70 -507q-2 -16 -2 -22q0 -36 18.5 -56.5t56.5 -20.5q46 0 73 29t34 75l69 502h126zM263.5 -85.5q17.5 -17.5 17.5 -47.5q0 -38 -23.5 -61t-58.5 -23q-31 0 -48.5 17.5
t-17.5 47.5q0 37 24 60.5t58 23.5q31 0 48.5 -17.5z" />
    <glyph glyph-name="Ugrave" unicode="&#xd9;" horiz-adv-x="531" 
d="M470 189q-8 -56 -39 -102.5t-82 -73.5t-119 -27q-94 0 -143.5 50t-49.5 126q0 18 3 34l70 495h125l-70 -507q-2 -16 -2 -22q0 -36 18.5 -56.5t56.5 -20.5q46 0 73 29t34 75l69 502h126zM297 921l161 -112l-38 -57l-178 79z" />
    <glyph glyph-name="uni1EE6" unicode="&#x1ee6;" horiz-adv-x="531" 
d="M470 189q-8 -56 -39 -102.5t-82 -73.5t-119 -27q-94 0 -143.5 50t-49.5 126q0 18 3 34l70 495h125l-70 -507q-2 -16 -2 -22q0 -36 18.5 -56.5t56.5 -20.5q46 0 73 29t34 75l69 502h126zM308 850q33 4 48.5 14.5t15.5 33.5q0 27 -27 27q-13 0 -23 -3t-25 -10l-16 59
q19 12 38.5 17.5t45.5 5.5q43 0 68 -24.5t25 -63.5q0 -81 -81 -97l-6 -45h-73z" />
    <glyph glyph-name="Uhorn" unicode="&#x1af;" horiz-adv-x="586" 
d="M621.5 611q-34.5 -36 -98.5 -40l-53 -382q-8 -56 -39 -102.5t-82 -73.5t-119 -27q-94 0 -143.5 50t-49.5 126q0 18 3 34l70 495h125l-70 -507q-2 -16 -2 -22q0 -36 18.5 -56.5t56.5 -20.5q46 0 73 29t34 75l69 502h126l-7 -52q21 7 30.5 25t9.5 50q0 20 -4 46l81 11
q6 -28 6 -57q0 -67 -34.5 -103z" />
    <glyph glyph-name="uni1EE8" unicode="&#x1ee8;" horiz-adv-x="586" 
d="M463 831l-201 -80l-30 59l186 113zM621.5 611q-34.5 -36 -98.5 -40l-53 -382q-8 -56 -39 -102.5t-82 -73.5t-119 -27q-94 0 -143.5 50t-49.5 126q0 18 3 34l70 495h125l-70 -507q-2 -16 -2 -22q0 -36 18.5 -56.5t56.5 -20.5q46 0 73 29t34 75l69 502h126l-7 -52
q21 7 30.5 25t9.5 50q0 20 -4 46l81 11q6 -28 6 -57q0 -67 -34.5 -103z" />
    <glyph glyph-name="uni1EF0" unicode="&#x1ef0;" horiz-adv-x="586" 
d="M621.5 611q-34.5 -36 -98.5 -40l-53 -382q-8 -56 -39 -102.5t-82 -73.5t-119 -27q-94 0 -143.5 50t-49.5 126q0 18 3 34l70 495h125l-70 -507q-2 -16 -2 -22q0 -36 18.5 -56.5t56.5 -20.5q46 0 73 29t34 75l69 502h126l-7 -52q21 7 30.5 25t9.5 50q0 20 -4 46l81 11
q6 -28 6 -57q0 -67 -34.5 -103zM263.5 -85.5q17.5 -17.5 17.5 -47.5q0 -38 -23.5 -61t-58.5 -23q-31 0 -48.5 17.5t-17.5 47.5q0 37 24 60.5t58 23.5q31 0 48.5 -17.5z" />
    <glyph glyph-name="uni1EEA" unicode="&#x1eea;" horiz-adv-x="586" 
d="M458 809l-38 -57l-178 79l55 90zM621.5 611q-34.5 -36 -98.5 -40l-53 -382q-8 -56 -39 -102.5t-82 -73.5t-119 -27q-94 0 -143.5 50t-49.5 126q0 18 3 34l70 495h125l-70 -507q-2 -16 -2 -22q0 -36 18.5 -56.5t56.5 -20.5q46 0 73 29t34 75l69 502h126l-7 -52
q21 7 30.5 25t9.5 50q0 20 -4 46l81 11q6 -28 6 -57q0 -67 -34.5 -103z" />
    <glyph glyph-name="uni1EEC" unicode="&#x1eec;" horiz-adv-x="586" 
d="M322 922q-10 -3 -25 -10l-16 59q19 12 38.5 17.5t45.5 5.5q43 0 68 -24.5t25 -63.5q0 -81 -81 -97l-6 -45h-73l10 86q33 4 48.5 14.5t15.5 33.5q0 27 -27 27q-13 0 -23 -3zM621.5 611q-34.5 -36 -98.5 -40l-53 -382q-8 -56 -39 -102.5t-82 -73.5t-119 -27
q-94 0 -143.5 50t-49.5 126q0 18 3 34l70 495h125l-70 -507q-2 -16 -2 -22q0 -36 18.5 -56.5t56.5 -20.5q46 0 73 29t34 75l69 502h126l-7 -52q21 7 30.5 25t9.5 50q0 20 -4 46l81 11q6 -28 6 -57q0 -67 -34.5 -103z" />
    <glyph glyph-name="uni1EEE" unicode="&#x1eee;" horiz-adv-x="586" 
d="M271 807.5q-11 -10.5 -25 -33.5l-56 34q23 45 51 72.5t59 27.5q18 0 31 -7t30 -21q12 -10 19 -14.5t16 -4.5q11 0 21.5 10t25.5 33l56 -33q-22 -47 -50.5 -73t-59.5 -26q-16 0 -29 7t-29 20q-12 10 -20.5 14.5t-16.5 4.5q-12 0 -23 -10.5zM621.5 611q-34.5 -36 -98.5 -40
l-53 -382q-8 -56 -39 -102.5t-82 -73.5t-119 -27q-94 0 -143.5 50t-49.5 126q0 18 3 34l70 495h125l-70 -507q-2 -16 -2 -22q0 -36 18.5 -56.5t56.5 -20.5q46 0 73 29t34 75l69 502h126l-7 -52q21 7 30.5 25t9.5 50q0 20 -4 46l81 11q6 -28 6 -57q0 -67 -34.5 -103z" />
    <glyph glyph-name="Uhungarumlaut" unicode="&#x170;" horiz-adv-x="531" 
d="M470 189q-8 -56 -39 -102.5t-82 -73.5t-119 -27q-94 0 -143.5 50t-49.5 126q0 18 3 34l70 495h125l-70 -507q-2 -16 -2 -22q0 -36 18.5 -56.5t56.5 -20.5q46 0 73 29t34 75l69 502h126zM462 971l76 -47l-120 -168l-59 31zM324 970l76 -44l-113 -165l-60 29z" />
    <glyph glyph-name="uni0216" unicode="&#x216;" horiz-adv-x="531" 
d="M470 189q-8 -56 -39 -102.5t-82 -73.5t-119 -27q-94 0 -143.5 50t-49.5 126q0 18 3 34l70 495h125l-70 -507q-2 -16 -2 -22q0 -36 18.5 -56.5t56.5 -20.5q46 0 73 29t34 75l69 502h126zM198 786q17 69 58 109t100 40q61 0 91.5 -42t26.5 -111l-69 -10q-5 75 -58 75
q-57 0 -82 -79z" />
    <glyph glyph-name="Umacron" unicode="&#x16a;" horiz-adv-x="531" 
d="M470 189q-8 -56 -39 -102.5t-82 -73.5t-119 -27q-94 0 -143.5 50t-49.5 126q0 18 3 34l70 495h125l-70 -507q-2 -16 -2 -22q0 -36 18.5 -56.5t56.5 -20.5q46 0 73 29t34 75l69 502h126zM457 787h-242l13 88h243z" />
    <glyph glyph-name="Uogonek" unicode="&#x172;" horiz-adv-x="531" 
d="M540 691l-70 -502q-10 -68 -51 -119.5t-107 -71.5q-58 -29 -80.5 -56t-22.5 -56q0 -41 40 -41q24 0 51 7l-17 -82q-29 -8 -57 -8q-49 0 -78.5 26.5t-29.5 70.5q0 41 24.5 74t67.5 54q-84 5 -128 54t-44 121q0 23 2 34l70 495h125l-70 -507q-2 -16 -2 -22
q0 -36 18.5 -56.5t56.5 -20.5q46 0 73 29t34 75l69 502h126z" />
    <glyph glyph-name="uni01B1" unicode="&#x1b1;" horiz-adv-x="581" 
d="M96 53.5q-55 67.5 -55 183.5q0 118 36.5 211t127.5 148h-98l14 95h200l-13 -92q-76 -36 -107.5 -145t-31.5 -229q0 -143 87 -143q64 0 104.5 58.5t58 144t17.5 170.5q0 57 -14.5 89.5t-48.5 55.5l13 91h201l-14 -95h-100q44 -33 65 -75t21 -104q0 -106 -34.5 -205
t-105 -162.5t-170.5 -63.5q-98 0 -153 67.5z" />
    <glyph glyph-name="Uring" unicode="&#x16e;" horiz-adv-x="531" 
d="M470 189q-8 -56 -39 -102.5t-82 -73.5t-119 -27q-94 0 -143.5 50t-49.5 126q0 18 3 34l70 495h125l-70 -507q-2 -16 -2 -22q0 -36 18.5 -56.5t56.5 -20.5q46 0 73 29t34 75l69 502h126zM431.5 946q26.5 -29 26.5 -75q0 -55 -34.5 -92t-89.5 -37q-45 0 -71.5 29t-26.5 75
q0 55 35 92t89 37q45 0 71.5 -29zM320 894.5q-13 -18.5 -13 -46.5q0 -21 8.5 -32.5t24.5 -11.5q22 0 34.5 19t12.5 46q0 44 -32 44q-22 0 -35 -18.5z" />
    <glyph glyph-name="Utilde" unicode="&#x168;" horiz-adv-x="531" 
d="M470 189q-8 -56 -39 -102.5t-82 -73.5t-119 -27q-94 0 -143.5 50t-49.5 126q0 18 3 34l70 495h125l-70 -507q-2 -16 -2 -22q0 -36 18.5 -56.5t56.5 -20.5q46 0 73 29t34 75l69 502h126zM360 779q-13 7 -29 20q-12 10 -20.5 14.5t-16.5 4.5q-13 0 -23.5 -10.5t-24.5 -33.5
l-56 34q23 45 51 72.5t59 27.5q18 0 31 -7t30 -21q12 -10 19 -14.5t16 -4.5q11 0 21.5 10t25.5 33l56 -33q-22 -47 -50.5 -73t-59.5 -26q-16 0 -29 7z" />
    <glyph glyph-name="uni1E78" unicode="&#x1e78;" horiz-adv-x="531" 
d="M470 189q-8 -56 -39 -102.5t-82 -73.5t-119 -27q-94 0 -143.5 50t-49.5 126q0 18 3 34l70 495h125l-70 -507q-2 -16 -2 -22q0 -36 18.5 -56.5t56.5 -20.5q46 0 73 29t34 75l69 502h126zM357 764q-13 7 -29 20q-12 10 -20.5 14.5t-16.5 4.5q-13 0 -23.5 -10.5t-24.5 -33.5
l-56 34q23 45 51 72.5t59 27.5q18 0 31 -7t30 -21q12 -10 19 -14.5t16 -4.5q11 0 21.5 10t25.5 33l56 -33q-22 -47 -50.5 -73t-59.5 -26q-16 0 -29 7zM429 1088l45 -92l-201 -80l-30 59z" />
    <glyph glyph-name="V" unicode="V" horiz-adv-x="474" 
d="M535 691l-253 -691h-158l-66 691h128l33 -579l187 579h129z" />
    <glyph glyph-name="uni01B2" unicode="&#x1b2;" horiz-adv-x="528" 
d="M498 677.5q27 -27.5 27 -79.5q0 -16 -3 -34l-41 -301q-18 -130 -89 -203.5t-177 -73.5q-83 0 -130.5 48.5t-47.5 125.5q0 18 3 36l70 495h126l-70 -501q-2 -20 -2 -29q0 -37 15.5 -56.5t46.5 -19.5q49 0 83.5 46.5t46.5 138.5l41 309l1 10q0 22 -20 22q-14 0 -23 -4
l-9 81q34 17 75 17q50 0 77 -27.5z" />
    <glyph glyph-name="uni0245" unicode="&#x245;" horiz-adv-x="490" 
d="M382 691l73 -691h-127l-36 596l-199 -596h-132l268 691h153z" />
    <glyph glyph-name="W" unicode="W" horiz-adv-x="692" 
d="M738 691l-193 -691h-163l3 559l-151 -559h-162l2 691h122l-20 -588l164 588h132l-4 -588l151 588h119z" />
    <glyph glyph-name="Wacute" unicode="&#x1e82;" horiz-adv-x="692" 
d="M738 691l-193 -691h-163l3 559l-151 -559h-162l2 691h122l-20 -588l164 588h132l-4 -588l151 588h119zM501 923l45 -92l-201 -80l-30 59z" />
    <glyph glyph-name="Wcircumflex" unicode="&#x174;" horiz-adv-x="692" 
d="M738 691l-193 -691h-163l3 559l-151 -559h-162l2 691h122l-20 -588l164 588h132l-4 -588l151 588h119zM309 758l-46 51l134 122h74l100 -128l-49 -45l-97 83z" />
    <glyph glyph-name="Wdieresis" unicode="&#x1e84;" horiz-adv-x="692" 
d="M738 691l-193 -691h-163l3 559l-151 -559h-162l2 691h122l-20 -588l164 588h132l-4 -588l151 588h119zM284.5 791q-15.5 16 -15.5 41q0 32 21 53.5t51 21.5q27 0 42.5 -16t15.5 -41q0 -32 -21.5 -53.5t-51.5 -21.5q-26 0 -41.5 16zM471 791q-16 16 -16 41q0 32 21.5 53.5
t50.5 21.5q27 0 42.5 -16t15.5 -41q0 -33 -21 -54t-51 -21q-26 0 -42 16z" />
    <glyph glyph-name="Wgrave" unicode="&#x1e80;" horiz-adv-x="692" 
d="M738 691l-193 -691h-163l3 559l-151 -559h-162l2 691h122l-20 -588l164 588h132l-4 -588l151 588h119zM380 921l161 -112l-38 -57l-178 79z" />
    <glyph glyph-name="uni2C72" unicode="&#x2c72;" horiz-adv-x="722" 
d="M234 0l151 559l-3 -559h162l143 567q7 24 17.5 34t27.5 10q12 0 20.5 -3t18.5 -11l49 67q-41 41 -99 41q-112 0 -139 -124l-114 -479l4 589h-132l-164 -588l20 588h-122l-2 -691h162z" />
    <glyph glyph-name="uni01F7" unicode="&#x1f7;" horiz-adv-x="482" 
d="M467 662q38 -43 38 -120q0 -80 -33 -137t-88.5 -96t-138.5 -76l-69 -30l-28 -203h-126l98 691h125l-6 -39q56 53 129 53q61 0 99 -43zM338 411q36 51 36 123q0 77 -57 77q-46 0 -90 -47l-37 -264l44 23q68 37 104 88z" />
    <glyph glyph-name="X" unicode="X" horiz-adv-x="464" 
d="M512 691l-193 -319l111 -372h-132l-63 290l-138 -290h-137l209 368l-99 323h132l51 -249l123 249h136z" />
    <glyph glyph-name="Y" unicode="Y" horiz-adv-x="475" 
d="M539 691l-239 -429l-37 -262h-126l36 262l-118 429h132l64 -328l153 328h135z" />
    <glyph glyph-name="Yacute" unicode="&#xdd;" horiz-adv-x="475" 
d="M539 691l-239 -429l-37 -262h-126l36 262l-118 429h132l64 -328l153 328h135zM389 923l45 -92l-201 -80l-30 59z" />
    <glyph glyph-name="Ycircumflex" unicode="&#x176;" horiz-adv-x="475" 
d="M539 691l-239 -429l-37 -262h-126l36 262l-118 429h132l64 -328l153 328h135zM197 758l-46 51l134 122h74l100 -128l-49 -45l-97 83z" />
    <glyph glyph-name="Ydieresis" unicode="&#x178;" horiz-adv-x="475" 
d="M539 691l-239 -429l-37 -262h-126l36 262l-118 429h132l64 -328l153 328h135zM172.5 791q-15.5 16 -15.5 41q0 32 21 53.5t51 21.5q27 0 42.5 -16t15.5 -41q0 -32 -21.5 -53.5t-51.5 -21.5q-26 0 -41.5 16zM359 791q-16 16 -16 41q0 32 21.5 53.5t50.5 21.5
q27 0 42.5 -16t15.5 -41q0 -33 -21 -54t-51 -21q-26 0 -42 16z" />
    <glyph glyph-name="uni1EF4" unicode="&#x1ef4;" horiz-adv-x="475" 
d="M539 691l-239 -429l-37 -262h-126l36 262l-118 429h132l64 -328l153 328h135zM236.5 -85.5q17.5 -17.5 17.5 -47.5q0 -38 -23.5 -61t-58.5 -23q-31 0 -48.5 17.5t-17.5 47.5q0 37 24 60.5t58 23.5q31 0 48.5 -17.5z" />
    <glyph glyph-name="Ygrave" unicode="&#x1ef2;" horiz-adv-x="475" 
d="M539 691l-239 -429l-37 -262h-126l36 262l-118 429h132l64 -328l153 328h135zM268 921l161 -112l-38 -57l-178 79z" />
    <glyph glyph-name="uni01B3" unicode="&#x1b3;" horiz-adv-x="493" 
d="M173 262l-118 430h132l63 -329l101 230q24 59 57.5 85.5t84.5 26.5q59 0 98 -41l-49 -67q-10 8 -18.5 11t-20.5 3q-16 0 -26.5 -9t-21.5 -33l-155 -306l-37 -263h-126z" />
    <glyph glyph-name="uni1EF6" unicode="&#x1ef6;" horiz-adv-x="475" 
d="M539 691l-239 -429l-37 -262h-126l36 262l-118 429h132l64 -328l153 328h135zM279 850q33 4 48.5 14.5t15.5 33.5q0 27 -27 27q-13 0 -23 -3t-25 -10l-16 59q19 12 38.5 17.5t45.5 5.5q43 0 68 -24.5t25 -63.5q0 -81 -81 -97l-6 -45h-73z" />
    <glyph glyph-name="uni0232" unicode="&#x232;" horiz-adv-x="475" 
d="M539 691l-239 -429l-37 -262h-126l36 262l-118 429h132l64 -328l153 328h135zM428 787h-242l13 88h243z" />
    <glyph glyph-name="uni01A6" unicode="&#x1a6;" horiz-adv-x="509" 
d="M450.5 273.5q-33.5 -55.5 -100.5 -87.5l102 -305h-130l-85 278l-66 1l-22 -160h-126l97 691h126l-17 -118h41q107 0 160.5 -45.5t53.5 -127.5q0 -71 -33.5 -126.5zM230 252q68 0 97 42t29 102q0 44 -21.5 63.5t-67.5 19.5h-51l-32 -227h46z" />
    <glyph glyph-name="uni024E" unicode="&#x24e;" horiz-adv-x="475" 
d="M494 609h33l-12 -79h-65l-149 -268l-37 -262h-127l37 262l-74 268h-67l12 79h34l-23 82h123l18 -82h177l40 82h126zM252 356l84 174h-122z" />
    <glyph glyph-name="uni1EF8" unicode="&#x1ef8;" horiz-adv-x="475" 
d="M539 691l-239 -429l-37 -262h-126l36 262l-118 429h132l64 -328l153 328h135zM331 779q-13 7 -29 20q-12 10 -20.5 14.5t-16.5 4.5q-13 0 -23.5 -10.5t-24.5 -33.5l-56 34q23 45 51 72.5t59 27.5q18 0 31 -7t30 -21q12 -10 19 -14.5t16 -4.5q11 0 21.5 10t25.5 33l56 -33
q-22 -47 -50.5 -73t-59.5 -26q-16 0 -29 7z" />
    <glyph glyph-name="Z" unicode="Z" horiz-adv-x="436" 
d="M-22 0l15 98l326 491h-234l15 102h370l-15 -99l-327 -488h266l-30 -104h-386z" />
    <glyph glyph-name="Zacute" unicode="&#x179;" horiz-adv-x="436" 
d="M-22 0l15 98l326 491h-234l15 102h370l-15 -99l-327 -488h266l-30 -104h-386zM378 923l45 -92l-201 -80l-30 59z" />
    <glyph glyph-name="Zcaron" unicode="&#x17d;" horiz-adv-x="436" 
d="M-22 0l15 98l326 491h-234l15 102h370l-15 -99l-327 -488h266l-30 -104h-386zM417 925l46 -51l-134 -122h-74l-100 128l49 45l97 -84z" />
    <glyph glyph-name="Zdotaccent" unicode="&#x17b;" horiz-adv-x="436" 
d="M-22 0l15 98l326 491h-234l15 102h370l-15 -99l-327 -488h266l-30 -104h-386zM250.5 787.5q-17.5 17.5 -17.5 47.5q0 38 23.5 61t58.5 23q31 0 48.5 -17.5t17.5 -47.5q0 -37 -24 -60.5t-58 -23.5q-31 0 -48.5 17.5z" />
    <glyph glyph-name="uni1E92" unicode="&#x1e92;" horiz-adv-x="436" 
d="M-22 0l15 98l326 491h-234l15 102h370l-15 -99l-327 -488h266l-30 -104h-386zM207.5 -85.5q17.5 -17.5 17.5 -47.5q0 -38 -23.5 -61t-58.5 -23q-31 0 -48.5 17.5t-17.5 47.5q0 37 24 60.5t58 23.5q31 0 48.5 -17.5z" />
    <glyph glyph-name="uni0224" unicode="&#x224;" horiz-adv-x="430" 
d="M455 592l-327 -488h256l-15 -104l-9 -61q-12 -75 -57.5 -115.5t-110.5 -40.5q-39 0 -65 11.5t-46 29.5l50 72q17 -10 27.5 -14.5t26.5 -4.5q23 0 37.5 16.5t18.5 46.5l8 60h-271l15 98l326 491h-234l15 102h370z" />
    <glyph glyph-name="uni01B5" unicode="&#x1b5;" horiz-adv-x="436" 
d="M470 691l-15 -99l-139 -204h69l-12 -86h-115l-135 -198h271l-30 -104h-386l15 98l138 204h-74l12 86h119l136 201h-239l15 102h370z" />
    <glyph glyph-name="Cacute.loclPLK" horiz-adv-x="474" 
d="M445.5 686q38.5 -19 70.5 -55l-68 -67q-22 22 -45 33t-50 11q-64 0 -105 -57.5t-59.5 -142.5t-18.5 -172q0 -77 24.5 -113t69.5 -36q32 0 56.5 12.5t64.5 41.5l47 -76q-86 -80 -189 -80q-93 0 -148 67t-55 191q0 118 34.5 223.5t105.5 172t174 66.5q53 0 91.5 -19z
M399 944l81 -55l-135 -151l-50 34z" />
    <glyph glyph-name="Nacute.loclPLK" horiz-adv-x="545" 
d="M448 0h-155l-102 584q0 -78 -3.5 -145t-15.5 -155l-38 -284h-111l97 691h155l102 -584q0 82 2.5 136.5t11.5 122.5l43 325h111zM383 944l81 -55l-135 -151l-50 34z" />
    <glyph glyph-name="Oacute.loclPLK" horiz-adv-x="576" 
d="M505.5 639.5q53.5 -65.5 53.5 -189.5q0 -116 -33 -222.5t-103 -174.5t-176 -68q-100 0 -154 65.5t-54 188.5q0 115 33 221.5t103.5 175.5t176.5 69q100 0 153.5 -65.5zM242.5 545q-39.5 -63 -57 -152.5t-17.5 -170.5q0 -73 22 -106t65 -33q63 0 102.5 63t56.5 152t17 171
q0 72 -21.5 105.5t-65.5 33.5q-62 0 -101.5 -63zM398 944l81 -55l-135 -151l-50 34z" />
    <glyph glyph-name="Sacute.loclPLK" horiz-adv-x="462" 
d="M481 619l-68 -66q-26 28 -53 41.5t-61 13.5q-46 0 -73.5 -28t-27.5 -72q0 -33 19.5 -54t76.5 -48q69 -33 102.5 -74.5t33.5 -109.5q0 -65 -32 -119.5t-89 -86t-129 -31.5q-66 0 -115 25.5t-87 70.5l72 67q31 -33 61 -49t71 -16q53 0 86 33.5t33 90.5q0 39 -21 62.5
t-79 51.5q-70 34 -100 72t-30 100q0 57 29 106t80.5 77.5t116.5 28.5q115 0 184 -86zM343 944l81 -55l-135 -151l-50 34z" />
    <glyph glyph-name="Zacute.loclPLK" horiz-adv-x="436" 
d="M-22 0l15 98l326 491h-234l15 102h370l-15 -99l-327 -488h266l-30 -104h-386zM331 944l81 -55l-135 -151l-50 34z" />
    <glyph glyph-name="Eng.ss01" horiz-adv-x="538" 
d="M486.5 664.5q34.5 -40.5 34.5 -103.5q0 -20 -2 -31l-73 -530l-8 -57q-12 -78 -58.5 -119t-116.5 -41q-38 0 -64 11t-47 30l51 74q17 -10 27.5 -14.5t25.5 -4.5q23 0 38 16t19 45l7 60h1l72 524q2 16 2 23q0 60 -52 60q-29 0 -56 -16.5t-62 -49.5l-77 -541h-126l98 691
h109v-60q76 74 158 74q65 0 99.5 -40.5z" />
    <glyph glyph-name="uni019D.ss01" horiz-adv-x="538" 
d="M486.5 664.5q34.5 -40.5 34.5 -103.5q0 -20 -2 -31l-73 -530h-125l72 524q2 16 2 23q0 60 -52 60q-29 0 -56 -16.5t-62 -49.5l-77 -541l-8 -57q-12 -78 -58.5 -119t-116.5 -41q-38 0 -64 11t-47 30l51 74q17 -10 27.5 -14.5t25.5 -4.5q23 0 38 16t19 45l7 60l98 691h109
v-60q76 74 158 74q65 0 99.5 -40.5z" />
    <glyph glyph-name="uni2C64.ss01" horiz-adv-x="354" 
d="M418 695l-38 -122q-24 8 -45 8q-47 0 -76 -34.5t-51 -107.5l-60 -439l-8 -65q-1 -5 -1 -14q0 -42 36 -42q16 0 27.5 4t30.5 14l33 -75q-52 -39 -116 -39t-100 34t-36 97q0 10 2 32l7 54l97 691h109l-3 -84q49 97 140 97q30 0 52 -9z" />
    <glyph glyph-name="uni0181.ss02" horiz-adv-x="486" 
d="M412.5 389.5q54.5 -47.5 54.5 -135.5q0 -66 -26 -123.5t-83.5 -94t-146.5 -36.5h-188l97 691h343l-28 -99h-204l-22 -155h51q98 0 152.5 -47.5zM307 141q28 45 28 110q0 48 -21 71t-64 23h-54l-35 -249h53q65 0 93 45z" />
    <glyph glyph-name="uniA78D.ss02" horiz-adv-x="495" 
d="M398 0h-125l36 256h-280l62 435h126l-48 -333h154l47 333h125z" />
    <glyph glyph-name="uni0299" unicode="&#x299;" horiz-adv-x="443" 
d="M308 288q102 -11 102 -102q0 -89 -60.5 -137.5t-162.5 -48.5h-168l73 523q87 20 163 20q80 0 125 -34.5t45 -92.5q0 -102 -117 -128zM284 340.5q21 23.5 21 67.5q0 27 -14 39t-43 12q-23 0 -48 -5l-19 -137h42q40 0 61 23.5zM261 111q29 25 29 79q0 31 -16.5 42t-53.5 11
h-49l-22 -157h38q45 0 74 25z" />
    <glyph glyph-name="uni0262" unicode="&#x262;" horiz-adv-x="466" 
d="M446 474l-67 -65q-21 22 -42.5 32t-49.5 10q-66 0 -99.5 -79t-33.5 -190q0 -55 16.5 -79.5t51.5 -24.5q31 0 65 17l17 123h-61l1 86h184l-37 -260q-83 -57 -180 -57q-90 0 -136 50t-46 146q0 107 33 189t92 127t135 45q96 0 157 -70z" />
    <glyph glyph-name="uni029B" unicode="&#x29b;" 
d="M613 715l-46 -73q-28 18 -53 18q-21 0 -33 -15.5t-17 -47.5l-18 -123l-60 -59q-28 19 -50 27.5t-49 8.5q-66 0 -99.5 -79t-33.5 -190q0 -55 16.5 -79.5t51.5 -24.5q31 0 65 17l17 123h-61l1 86h184l-37 -260q-83 -57 -180 -57q-90 0 -136 50t-46 146q0 107 32.5 189
t90.5 127t132 45q34 0 64 -12l12 80q11 69 48 105.5t99 36.5q61 0 106 -39z" />
    <glyph glyph-name="uni029C" unicode="&#x29c;" horiz-adv-x="479" 
d="M265 0l31 223h-125l-31 -223h-121l74 529h121l-30 -213h125l30 213h121l-74 -529h-121z" />
    <glyph glyph-name="uni026A" unicode="&#x26a;" horiz-adv-x="269" 
d="M281 440h-61l-50 -351h62l-12 -89h-245l13 89h61l50 351h-62l12 89h245z" />
    <glyph glyph-name="uni029F" unicode="&#x29f;" horiz-adv-x="360" 
d="M214 529l-58 -431h180l-29 -98h-288l74 529h121z" />
    <glyph glyph-name="uni0274" unicode="&#x274;" horiz-adv-x="481" 
d="M388 0h-144l-80 416q0 -118 -16 -235l-26 -181h-103l74 529h143l80 -416q0 56 2 99t9 92l31 225h104z" />
    <glyph glyph-name="uni0276" unicode="&#x276;" horiz-adv-x="618" 
d="M616 440h-186q24 -45 24 -102q0 -17 -1 -26h125l-12 -87h-125q-18 -80 -63 -136h202l-13 -89h-290q-33 -15 -76 -15q-81 0 -127 53.5t-46 149.5q0 88 27.5 169t85 133.5t142.5 52.5q43 0 70 -14h288zM211 79q44 0 71.5 45.5t39.5 109t12 122.5q0 94 -59 94
q-44 0 -71.5 -45t-39.5 -109t-12 -123q0 -94 59 -94z" />
    <glyph glyph-name="uni0280" unicode="&#x280;" horiz-adv-x="439" 
d="M308 216l79 -216h-118l-65 194h-42l-27 -194h-116l74 529h139q87 0 132 -37t45 -111q0 -117 -101 -165zM174 279h34q42 0 63 26t21 74q0 33 -15.5 47.5t-49.5 14.5h-31z" />
    <glyph glyph-name="uni0281" unicode="&#x281;" horiz-adv-x="439" 
d="M382 193q0 -95 -56.5 -144t-154.5 -49h-152l74 529h116l-27 -195h45l115 195h120l-142 -221q62 -35 62 -115zM241 113q23 25 23 75q0 33 -15.5 47t-45.5 14h-33l-23 -161h29q42 0 65 25z" />
    <glyph glyph-name="uni028F" unicode="&#x28f;" horiz-adv-x="417" 
d="M453 529l-194 -333l-28 -196h-121l28 195l-99 334h126l45 -247l115 247h128z" />
    <glyph glyph-name="a" unicode="a" horiz-adv-x="481" 
d="M460 499l-52 -363q-3 -18 -3 -31t5 -21.5t17 -14.5l-38 -82q-80 10 -94 78q-29 -39 -59.5 -59.5t-71.5 -20.5q-65 0 -101.5 50t-36.5 135q0 93 28 178t89 140t154 55q83 0 163 -44zM211.5 411q-31.5 -42 -47 -107.5t-15.5 -135.5q0 -48 13 -69t39 -21q24 0 44.5 19.5
t45.5 57.5l40 290q-19 8 -41 8q-47 0 -78.5 -42z" />
    <glyph glyph-name="aacute" unicode="&#xe1;" horiz-adv-x="481" 
d="M460 499l-52 -363q-3 -18 -3 -31t5 -21.5t17 -14.5l-38 -82q-80 10 -94 78q-29 -39 -59.5 -59.5t-71.5 -20.5q-65 0 -101.5 50t-36.5 135q0 93 28 178t89 140t154 55q83 0 163 -44zM211.5 411q-31.5 -42 -47 -107.5t-15.5 -135.5q0 -48 13 -69t39 -21q24 0 44.5 19.5
t45.5 57.5l40 290q-19 8 -41 8q-47 0 -78.5 -42zM395 812l45 -91l-200 -90l-32 59z" />
    <glyph glyph-name="abreve" unicode="&#x103;" horiz-adv-x="481" 
d="M460 499l-52 -363q-3 -18 -3 -31t5 -21.5t17 -14.5l-38 -82q-80 10 -94 78q-29 -39 -59.5 -59.5t-71.5 -20.5q-65 0 -101.5 50t-36.5 135q0 93 28 178t89 140t154 55q83 0 163 -44zM211.5 411q-31.5 -42 -47 -107.5t-15.5 -135.5q0 -48 13 -69t39 -21q24 0 44.5 19.5
t45.5 57.5l40 290q-19 8 -41 8q-47 0 -78.5 -42zM224 680.5q-32 42.5 -27 111.5l68 10q5 -75 57 -75q27 0 48.5 20.5t33.5 57.5l65 -18q-14 -68 -53.5 -108.5t-97.5 -40.5q-62 0 -94 42.5z" />
    <glyph glyph-name="uni1EAF" unicode="&#x1eaf;" horiz-adv-x="481" 
d="M419 949l61 -62l-147 -139l-43 39zM221.5 640.5q-30.5 40.5 -26.5 102.5l67 11q5 -66 57 -66q28 0 48.5 19t31.5 50l68 -18q-13 -63 -52.5 -101t-100.5 -38q-62 0 -92.5 40.5zM460 499l-52 -363q-3 -18 -3 -31t5 -21.5t17 -14.5l-38 -82q-80 10 -94 78
q-29 -39 -59.5 -59.5t-71.5 -20.5q-65 0 -101.5 50t-36.5 135q0 93 28 178t89 140t154 55q83 0 163 -44zM211.5 411q-31.5 -42 -47 -107.5t-15.5 -135.5q0 -48 13 -69t39 -21q24 0 44.5 19.5t45.5 57.5l40 290q-19 8 -41 8q-47 0 -78.5 -42z" />
    <glyph glyph-name="uni1EB7" unicode="&#x1eb7;" horiz-adv-x="481" 
d="M460 499l-52 -363q-3 -18 -3 -31t5 -21.5t17 -14.5l-38 -82q-80 10 -94 78q-29 -39 -59.5 -59.5t-71.5 -20.5q-65 0 -101.5 50t-36.5 135q0 93 28 178t89 140t154 55q83 0 163 -44zM211.5 411q-31.5 -42 -47 -107.5t-15.5 -135.5q0 -48 13 -69t39 -21q24 0 44.5 19.5
t45.5 57.5l40 290q-19 8 -41 8q-47 0 -78.5 -42zM224 680.5q-32 42.5 -27 111.5l68 10q5 -75 57 -75q27 0 48.5 20.5t33.5 57.5l65 -18q-14 -68 -53.5 -108.5t-97.5 -40.5q-62 0 -94 42.5zM257.5 -85.5q17.5 -17.5 17.5 -47.5q0 -38 -23.5 -61t-58.5 -23q-31 0 -48.5 17.5
t-17.5 47.5q0 37 24 60.5t58 23.5q31 0 48.5 -17.5z" />
    <glyph glyph-name="uni1EB1" unicode="&#x1eb1;" horiz-adv-x="481" 
d="M287 947l84 -164l-52 -35l-109 143zM221.5 640.5q-30.5 40.5 -26.5 102.5l67 11q5 -66 57 -66q28 0 48.5 19t31.5 50l68 -18q-13 -63 -52.5 -101t-100.5 -38q-62 0 -92.5 40.5zM460 499l-52 -363q-3 -18 -3 -31t5 -21.5t17 -14.5l-38 -82q-80 10 -94 78
q-29 -39 -59.5 -59.5t-71.5 -20.5q-65 0 -101.5 50t-36.5 135q0 93 28 178t89 140t154 55q83 0 163 -44zM211.5 411q-31.5 -42 -47 -107.5t-15.5 -135.5q0 -48 13 -69t39 -21q24 0 44.5 19.5t45.5 57.5l40 290q-19 8 -41 8q-47 0 -78.5 -42z" />
    <glyph glyph-name="uni1EB3" unicode="&#x1eb3;" horiz-adv-x="481" 
d="M460 499l-52 -363q-3 -18 -3 -31t5 -21.5t17 -14.5l-38 -82q-80 10 -94 78q-29 -39 -59.5 -59.5t-71.5 -20.5q-65 0 -101.5 50t-36.5 135q0 93 28 178t89 140t154 55q83 0 163 -44zM211.5 411q-31.5 -42 -47 -107.5t-15.5 -135.5q0 -48 13 -69t39 -21q24 0 44.5 19.5
t45.5 57.5l40 290q-19 8 -41 8q-47 0 -78.5 -42zM222.5 640.5q-30.5 40.5 -26.5 102.5l67 11q5 -66 57 -66q28 0 48.5 19t31.5 50l68 -18q-13 -63 -52.5 -101t-100.5 -38q-62 0 -92.5 40.5zM305 838q33 4 48.5 14.5t15.5 33.5q0 27 -27 27q-22 0 -48 -13l-16 59
q20 11 39.5 17t44.5 6q43 0 68 -24.5t25 -63.5q0 -81 -81 -97l-9 -54h-73z" />
    <glyph glyph-name="uni1EB5" unicode="&#x1eb5;" horiz-adv-x="481" 
d="M351.5 789.5q-12.5 6.5 -29.5 19.5q-22 18 -35 18t-23.5 -10t-24.5 -32l-56 33q22 43 50.5 69.5t59.5 26.5q18 0 31.5 -7t28.5 -20q2 -2 9 -7.5t13.5 -8t12.5 -2.5q11 0 22 9.5t25 31.5l55 -32q-22 -45 -50.5 -70t-58.5 -25q-17 0 -29.5 6.5zM216.5 640.5
q-30.5 40.5 -26.5 102.5l67 11q5 -66 57 -66q28 0 48.5 19t31.5 50l68 -18q-13 -63 -52.5 -101t-100.5 -38q-62 0 -92.5 40.5zM460 499l-52 -363q-3 -18 -3 -31t5 -21.5t17 -14.5l-38 -82q-80 10 -94 78q-29 -39 -59.5 -59.5t-71.5 -20.5q-65 0 -101.5 50t-36.5 135
q0 93 28 178t89 140t154 55q83 0 163 -44zM211.5 411q-31.5 -42 -47 -107.5t-15.5 -135.5q0 -48 13 -69t39 -21q24 0 44.5 19.5t45.5 57.5l40 290q-19 8 -41 8q-47 0 -78.5 -42z" />
    <glyph glyph-name="uni01CE" unicode="&#x1ce;" horiz-adv-x="481" 
d="M460 499l-52 -363q-3 -18 -3 -31t5 -21.5t17 -14.5l-38 -82q-80 10 -94 78q-29 -39 -59.5 -59.5t-71.5 -20.5q-65 0 -101.5 50t-36.5 135q0 93 28 178t89 140t154 55q83 0 163 -44zM211.5 411q-31.5 -42 -47 -107.5t-15.5 -135.5q0 -48 13 -69t39 -21q24 0 44.5 19.5
t45.5 57.5l40 290q-19 8 -41 8q-47 0 -78.5 -42zM439 794l43 -50l-133 -124h-74l-98 124l48 50l94 -85z" />
    <glyph glyph-name="acircumflex" unicode="&#xe2;" horiz-adv-x="481" 
d="M460 499l-52 -363q-3 -18 -3 -31t5 -21.5t17 -14.5l-38 -82q-80 10 -94 78q-29 -39 -59.5 -59.5t-71.5 -20.5q-65 0 -101.5 50t-36.5 135q0 93 28 178t89 140t154 55q83 0 163 -44zM211.5 411q-31.5 -42 -47 -107.5t-15.5 -135.5q0 -48 13 -69t39 -21q24 0 44.5 19.5
t45.5 57.5l40 290q-19 8 -41 8q-47 0 -78.5 -42zM212 630l-44 51l134 125h74l100 -130l-53 -46l-93 87z" />
    <glyph glyph-name="uni1EA5" unicode="&#x1ea5;" horiz-adv-x="481" 
d="M533 921l61 -62l-147 -139l-43 39zM201 587l-46 51l134 122h74l100 -128l-49 -45l-97 83zM460 499l-52 -363q-3 -18 -3 -31t5 -21.5t17 -14.5l-38 -82q-80 10 -94 78q-29 -39 -59.5 -59.5t-71.5 -20.5q-65 0 -101.5 50t-36.5 135q0 93 28 178t89 140t154 55q83 0 163 -44
zM211.5 411q-31.5 -42 -47 -107.5t-15.5 -135.5q0 -48 13 -69t39 -21q24 0 44.5 19.5t45.5 57.5l40 290q-19 8 -41 8q-47 0 -78.5 -42z" />
    <glyph glyph-name="uni1EAD" unicode="&#x1ead;" horiz-adv-x="481" 
d="M460 499l-52 -363q-3 -18 -3 -31t5 -21.5t17 -14.5l-38 -82q-80 10 -94 78q-29 -39 -59.5 -59.5t-71.5 -20.5q-65 0 -101.5 50t-36.5 135q0 93 28 178t89 140t154 55q83 0 163 -44zM211.5 411q-31.5 -42 -47 -107.5t-15.5 -135.5q0 -48 13 -69t39 -21q24 0 44.5 19.5
t45.5 57.5l40 290q-19 8 -41 8q-47 0 -78.5 -42zM212 630l-44 51l134 125h74l100 -130l-53 -46l-93 87zM257.5 -85.5q17.5 -17.5 17.5 -47.5q0 -38 -23.5 -61t-58.5 -23q-31 0 -48.5 17.5t-17.5 47.5q0 37 24 60.5t58 23.5q31 0 48.5 -17.5z" />
    <glyph glyph-name="uni1EA7" unicode="&#x1ea7;" horiz-adv-x="481" 
d="M161 919l84 -164l-52 -35l-109 143zM199 587l-46 51l134 122h74l100 -128l-49 -45l-97 83zM460 499l-52 -363q-3 -18 -3 -31t5 -21.5t17 -14.5l-38 -82q-80 10 -94 78q-29 -39 -59.5 -59.5t-71.5 -20.5q-65 0 -101.5 50t-36.5 135q0 93 28 178t89 140t154 55
q83 0 163 -44zM211.5 411q-31.5 -42 -47 -107.5t-15.5 -135.5q0 -48 13 -69t39 -21q24 0 44.5 19.5t45.5 57.5l40 290q-19 8 -41 8q-47 0 -78.5 -42z" />
    <glyph glyph-name="uni1EA9" unicode="&#x1ea9;" horiz-adv-x="481" 
d="M460 499l-52 -363q-3 -18 -3 -31t5 -21.5t17 -14.5l-38 -82q-80 10 -94 78q-29 -39 -59.5 -59.5t-71.5 -20.5q-65 0 -101.5 50t-36.5 135q0 93 28 178t89 140t154 55q83 0 163 -44zM211.5 411q-31.5 -42 -47 -107.5t-15.5 -135.5q0 -48 13 -69t39 -21q24 0 44.5 19.5
t45.5 57.5l40 290q-19 8 -41 8q-47 0 -78.5 -42zM200 587l-46 51l134 122h74l100 -128l-49 -45l-97 83zM429 828q33 4 48.5 14.5t15.5 33.5q0 27 -27 27q-22 0 -48 -13l-16 59q20 11 39.5 17t44.5 6q43 0 68 -24.5t25 -63.5q0 -81 -81 -97l-9 -54h-73z" />
    <glyph glyph-name="uni1EAB" unicode="&#x1eab;" horiz-adv-x="481" 
d="M358.5 789.5q-12.5 6.5 -29.5 19.5q-22 18 -35 18t-23.5 -10t-24.5 -32l-56 33q22 43 50.5 69.5t59.5 26.5q18 0 31.5 -7t28.5 -20q2 -2 9 -7.5t13.5 -8t12.5 -2.5q11 0 22 9.5t25 31.5l55 -32q-22 -45 -50.5 -70t-58.5 -25q-17 0 -29.5 6.5zM202 580l-46 51l134 122h74
l100 -128l-49 -45l-97 83zM460 499l-52 -363q-3 -18 -3 -31t5 -21.5t17 -14.5l-38 -82q-80 10 -94 78q-29 -39 -59.5 -59.5t-71.5 -20.5q-65 0 -101.5 50t-36.5 135q0 93 28 178t89 140t154 55q83 0 163 -44zM211.5 411q-31.5 -42 -47 -107.5t-15.5 -135.5q0 -48 13 -69
t39 -21q24 0 44.5 19.5t45.5 57.5l40 290q-19 8 -41 8q-47 0 -78.5 -42z" />
    <glyph glyph-name="uni0201" unicode="&#x201;" horiz-adv-x="481" 
d="M460 499l-52 -363q-3 -18 -3 -31t5 -21.5t17 -14.5l-38 -82q-80 10 -94 78q-29 -39 -59.5 -59.5t-71.5 -20.5q-65 0 -101.5 50t-36.5 135q0 93 28 178t89 140t154 55q83 0 163 -44zM211.5 411q-31.5 -42 -47 -107.5t-15.5 -135.5q0 -48 13 -69t39 -21q24 0 44.5 19.5
t45.5 57.5l40 290q-19 8 -41 8q-47 0 -78.5 -42zM237 845l55 -188l-72 -27l-78 176zM376 844l47 -184l-71 -25l-72 172z" />
    <glyph glyph-name="adieresis" unicode="&#xe4;" horiz-adv-x="481" 
d="M460 499l-52 -363q-3 -18 -3 -31t5 -21.5t17 -14.5l-38 -82q-80 10 -94 78q-29 -39 -59.5 -59.5t-71.5 -20.5q-65 0 -101.5 50t-36.5 135q0 93 28 178t89 140t154 55q83 0 163 -44zM211.5 411q-31.5 -42 -47 -107.5t-15.5 -135.5q0 -48 13 -69t39 -21q24 0 44.5 19.5
t45.5 57.5l40 290q-19 8 -41 8q-47 0 -78.5 -42zM183.5 665q-15.5 16 -15.5 41q0 32 21 53.5t51 21.5q27 0 42.5 -16t15.5 -41q0 -32 -21.5 -53.5t-51.5 -21.5q-26 0 -41.5 16zM370 665q-16 16 -16 41q0 32 21.5 53.5t50.5 21.5q27 0 42.5 -16t15.5 -41q0 -33 -21 -54
t-51 -21q-26 0 -42 16z" />
    <glyph glyph-name="uni01DF" unicode="&#x1df;" horiz-adv-x="481" 
d="M460 499l-52 -363q-3 -18 -3 -31t5 -21.5t17 -14.5l-38 -82q-80 10 -94 78q-29 -39 -59.5 -59.5t-71.5 -20.5q-65 0 -101.5 50t-36.5 135q0 93 28 178t89 140t154 55q83 0 163 -44zM211.5 411q-31.5 -42 -47 -107.5t-15.5 -135.5q0 -48 13 -69t39 -21q24 0 44.5 19.5
t45.5 57.5l40 290q-19 8 -41 8q-47 0 -78.5 -42zM175.5 630q-15.5 16 -15.5 41q0 32 21 53.5t51 21.5q27 0 42.5 -16t15.5 -41q0 -32 -21.5 -53.5t-51.5 -21.5q-26 0 -41.5 16zM362 630q-16 16 -16 41q0 32 21.5 53.5t50.5 21.5q27 0 42.5 -16t15.5 -41q0 -33 -21 -54
t-51 -21q-26 0 -42 16zM451 797h-242l13 88h243z" />
    <glyph glyph-name="uni0227" unicode="&#x227;" horiz-adv-x="481" 
d="M460 499l-52 -363q-3 -18 -3 -31t5 -21.5t17 -14.5l-38 -82q-80 10 -94 78q-29 -39 -59.5 -59.5t-71.5 -20.5q-65 0 -101.5 50t-36.5 135q0 93 28 178t89 140t154 55q83 0 163 -44zM211.5 411q-31.5 -42 -47 -107.5t-15.5 -135.5q0 -48 13 -69t39 -21q24 0 44.5 19.5
t45.5 57.5l40 290q-19 8 -41 8q-47 0 -78.5 -42zM268.5 661.5q-17.5 17.5 -17.5 47.5q0 38 23.5 61t58.5 23q31 0 48.5 -17.5t17.5 -47.5q0 -37 -24 -60.5t-58 -23.5q-31 0 -48.5 17.5z" />
    <glyph glyph-name="uni1EA1" unicode="&#x1ea1;" horiz-adv-x="481" 
d="M460 499l-52 -363q-3 -18 -3 -31t5 -21.5t17 -14.5l-38 -82q-80 10 -94 78q-29 -39 -59.5 -59.5t-71.5 -20.5q-65 0 -101.5 50t-36.5 135q0 93 28 178t89 140t154 55q83 0 163 -44zM211.5 411q-31.5 -42 -47 -107.5t-15.5 -135.5q0 -48 13 -69t39 -21q24 0 44.5 19.5
t45.5 57.5l40 290q-19 8 -41 8q-47 0 -78.5 -42zM257.5 -85.5q17.5 -17.5 17.5 -47.5q0 -38 -23.5 -61t-58.5 -23q-31 0 -48.5 17.5t-17.5 47.5q0 37 24 60.5t58 23.5q31 0 48.5 -17.5z" />
    <glyph glyph-name="uni01E1" unicode="&#x1e1;" horiz-adv-x="481" 
d="M460 499l-52 -363q-3 -18 -3 -31t5 -21.5t17 -14.5l-38 -82q-80 10 -94 78q-29 -39 -59.5 -59.5t-71.5 -20.5q-65 0 -101.5 50t-36.5 135q0 93 28 178t89 140t154 55q83 0 163 -44zM211.5 411q-31.5 -42 -47 -107.5t-15.5 -135.5q0 -48 13 -69t39 -21q24 0 44.5 19.5
t45.5 57.5l40 290q-19 8 -41 8q-47 0 -78.5 -42zM263.5 617.5q-17.5 17.5 -17.5 47.5q0 38 23.5 61t58.5 23q31 0 48.5 -17.5t17.5 -47.5q0 -37 -24 -60.5t-58 -23.5q-31 0 -48.5 17.5zM456 788h-242l13 88h243z" />
    <glyph glyph-name="agrave" unicode="&#xe0;" horiz-adv-x="481" 
d="M460 499l-52 -363q-3 -18 -3 -31t5 -21.5t17 -14.5l-38 -82q-80 10 -94 78q-29 -39 -59.5 -59.5t-71.5 -20.5q-65 0 -101.5 50t-36.5 135q0 93 28 178t89 140t154 55q83 0 163 -44zM211.5 411q-31.5 -42 -47 -107.5t-15.5 -135.5q0 -48 13 -69t39 -21q24 0 44.5 19.5
t45.5 57.5l40 290q-19 8 -41 8q-47 0 -78.5 -42zM284 810l159 -122l-37 -56l-179 89z" />
    <glyph glyph-name="uni1EA3" unicode="&#x1ea3;" horiz-adv-x="481" 
d="M460 499l-52 -363q-3 -18 -3 -31t5 -21.5t17 -14.5l-38 -82q-80 10 -94 78q-29 -39 -59.5 -59.5t-71.5 -20.5q-65 0 -101.5 50t-36.5 135q0 93 28 178t89 140t154 55q83 0 163 -44zM211.5 411q-31.5 -42 -47 -107.5t-15.5 -135.5q0 -48 13 -69t39 -21q24 0 44.5 19.5
t45.5 57.5l40 290q-19 8 -41 8q-47 0 -78.5 -42zM286 704q33 4 48.5 14.5t15.5 33.5q0 27 -27 27q-22 0 -48 -13l-16 59q20 11 39.5 17t44.5 6q43 0 68 -24.5t25 -63.5q0 -81 -81 -97l-9 -54h-73z" />
    <glyph glyph-name="uni0203" unicode="&#x203;" horiz-adv-x="481" 
d="M460 499l-52 -363q-3 -18 -3 -31t5 -21.5t17 -14.5l-38 -82q-80 10 -94 78q-29 -39 -59.5 -59.5t-71.5 -20.5q-65 0 -101.5 50t-36.5 135q0 93 28 178t89 140t154 55q83 0 163 -44zM211.5 411q-31.5 -42 -47 -107.5t-15.5 -135.5q0 -48 13 -69t39 -21q24 0 44.5 19.5
t45.5 57.5l40 290q-19 8 -41 8q-47 0 -78.5 -42zM175 624q17 69 58 109t100 40q61 0 91.5 -42t26.5 -111l-69 -10q-5 75 -58 75q-57 0 -82 -79z" />
    <glyph glyph-name="uni0251" unicode="&#x251;" horiz-adv-x="481" 
d="M405 106q0 -14 5 -22.5t18 -14.5l-39 -82q-80 10 -94 78q-29 -40 -59 -60t-72 -20q-65 0 -101.5 50t-36.5 135q0 92 26 178t77 140.5t121 54.5q36 0 62 -15t43 -48l22 49h87l-56 -393q-3 -16 -3 -30zM324 394q-11 32 -26.5 45t-36.5 13q-33 0 -58.5 -42.5t-39.5 -108
t-14 -133.5q0 -48 13 -69t39 -21q24 0 44.5 19.5t45.5 57.5z" />
    <glyph glyph-name="uni0252" unicode="&#x252;" horiz-adv-x="481" 
d="M418.5 494q36.5 -50 36.5 -135q0 -92 -26 -178t-77 -140.5t-121 -54.5q-36 0 -62 15t-43 48l-22 -49h-87l56 393q3 17 3 30q0 14 -5 22.5t-18 14.5l39 82q80 -10 94 -78q29 40 59 60t72 20q65 0 101.5 -50zM278.5 119.5q25.5 42.5 39.5 108t14 133.5q0 48 -13 69t-39 21
q-24 0 -44.5 -19.5t-45.5 -57.5l-33 -239q11 -32 26.5 -45t36.5 -13q33 0 58.5 42.5z" />
    <glyph glyph-name="amacron" unicode="&#x101;" horiz-adv-x="481" 
d="M460 499l-52 -363q-3 -18 -3 -31t5 -21.5t17 -14.5l-38 -82q-80 10 -94 78q-29 -39 -59.5 -59.5t-71.5 -20.5q-65 0 -101.5 50t-36.5 135q0 93 28 178t89 140t154 55q83 0 163 -44zM211.5 411q-31.5 -42 -47 -107.5t-15.5 -135.5q0 -48 13 -69t39 -21q24 0 44.5 19.5
t45.5 57.5l40 290q-19 8 -41 8q-47 0 -78.5 -42zM440 661h-242l13 88h243z" />
    <glyph glyph-name="aogonek" unicode="&#x105;" horiz-adv-x="481" 
d="M405 105q0 -13 5 -21.5t17 -14.5l-38 -82q-66 -32 -89.5 -61.5t-23.5 -59.5q0 -34 38 -34q20 0 48 5l-18 -80q-24 -7 -56 -7q-46 0 -74.5 27.5t-28.5 73.5q0 49 33 89t107 72q-22 18 -30 53q-29 -39 -59.5 -59.5t-71.5 -20.5q-65 0 -101.5 50t-36.5 135q0 93 28 178
t89 140t154 55q83 0 163 -44l-52 -363q-3 -18 -3 -31zM331 445q-19 8 -41 8q-47 0 -78.5 -42t-47 -107.5t-15.5 -135.5q0 -48 13 -69t39 -21q24 0 44.5 19.5t45.5 57.5z" />
    <glyph glyph-name="aring" unicode="&#xe5;" horiz-adv-x="481" 
d="M460 499l-52 -363q-3 -18 -3 -31t5 -21.5t17 -14.5l-38 -82q-80 10 -94 78q-29 -39 -59.5 -59.5t-71.5 -20.5q-65 0 -101.5 50t-36.5 135q0 93 28 178t89 140t154 55q83 0 163 -44zM211.5 411q-31.5 -42 -47 -107.5t-15.5 -135.5q0 -48 13 -69t39 -21q24 0 44.5 19.5
t45.5 57.5l40 290q-19 8 -41 8q-47 0 -78.5 -42zM411.5 820q26.5 -29 26.5 -75q0 -55 -34.5 -92t-89.5 -37q-45 0 -71.5 29t-26.5 75q0 55 35 92t89 37q45 0 71.5 -29zM300 768.5q-13 -18.5 -13 -46.5q0 -21 8.5 -32.5t24.5 -11.5q22 0 34.5 19t12.5 46q0 44 -32 44
q-22 0 -35 -18.5z" />
    <glyph glyph-name="aringacute" unicode="&#x1fb;" horiz-adv-x="481" 
d="M460 499l-52 -363q-3 -18 -3 -31t5 -21.5t17 -14.5l-38 -82q-80 10 -94 78q-29 -39 -59.5 -59.5t-71.5 -20.5q-65 0 -101.5 50t-36.5 135q0 93 28 178t89 140t154 55q83 0 163 -44zM211.5 411q-31.5 -42 -47 -107.5t-15.5 -135.5q0 -48 13 -69t39 -21q24 0 44.5 19.5
t45.5 57.5l40 290q-19 8 -41 8q-47 0 -78.5 -42zM408.5 786q26.5 -29 26.5 -75q0 -55 -34.5 -92t-89.5 -37q-45 0 -71.5 29t-26.5 75q0 55 35 92t89 37q45 0 71.5 -29zM297 734.5q-13 -18.5 -13 -46.5q0 -21 8.5 -32.5t24.5 -11.5q22 0 34.5 19t12.5 46q0 44 -32 44
q-22 0 -35 -18.5zM411 995l45 -92l-201 -80l-30 59z" />
    <glyph glyph-name="uni2C65" unicode="&#x2c65;" horiz-adv-x="481" 
d="M405 105q0 -13 5 -21.5t17 -14.5l-38 -82q-80 10 -94 78q-29 -39 -59.5 -59.5t-71.5 -20.5h-7l-21 -57l-41 12l20 54q-43 17 -66 63t-23 113q0 93 28 178t89 140t154 55h15l20 55l41 -13l-17 -48q55 -10 104 -38l-52 -363q-3 -18 -3 -31zM154 105l127 351
q-45 -5 -75.5 -49t-45 -109t-14.5 -133q0 -38 8 -60zM335 447l-10 4l-136 -375q4 -1 11 -1q46 0 94 80z" />
    <glyph glyph-name="atilde" unicode="&#xe3;" horiz-adv-x="481" 
d="M460 499l-52 -363q-3 -18 -3 -31t5 -21.5t17 -14.5l-38 -82q-80 10 -94 78q-29 -39 -59.5 -59.5t-71.5 -20.5q-65 0 -101.5 50t-36.5 135q0 93 28 178t89 140t154 55q83 0 163 -44zM211.5 411q-31.5 -42 -47 -107.5t-15.5 -135.5q0 -48 13 -69t39 -21q24 0 44.5 19.5
t45.5 57.5l40 290q-19 8 -41 8q-47 0 -78.5 -42zM342 653q-13 7 -29 20q-12 10 -20.5 14.5t-16.5 4.5q-13 0 -23.5 -10.5t-24.5 -33.5l-56 34q23 45 51 72.5t59 27.5q18 0 31 -7t30 -21q12 -10 19 -14.5t16 -4.5q11 0 21.5 10t25.5 33l56 -33q-22 -47 -50.5 -73t-59.5 -26
q-16 0 -29 7z" />
    <glyph glyph-name="uni0250" unicode="&#x250;" horiz-adv-x="449" 
d="M161 153q-1 -7 -1 -20q0 -28 14 -41t49 -13q45 0 107 25l26 -82q-37 -18 -79.5 -27t-81.5 -9q-78 0 -117.5 35t-39.5 99q0 9 2 31l33 242q3 17 3 29q0 14 -5 23t-18 15l39 82q73 -10 91 -67q53 68 132 68q58 0 91.5 -37t33.5 -100q0 -99 -62 -150.5t-163 -51.5h-47z
M193 394l-15 -117h34q50 0 77.5 30.5t27.5 87.5q0 59 -43 59q-44 0 -81 -60z" />
    <glyph glyph-name="ae" unicode="&#xe6;" horiz-adv-x="697" 
d="M321.5 526q29.5 -17 51.5 -51q65 68 161 68q72 0 113 -38.5t41 -96.5q0 -102 -80 -149.5t-212 -63.5q0 -61 16.5 -87.5t56.5 -26.5q28 0 54.5 11t57.5 35l45 -74q-81 -68 -175 -68q-53 0 -91.5 21t-60.5 62q-35 -45 -73 -63.5t-81 -18.5q-64 0 -100 37t-36 99
q0 82 52.5 137t176.5 55h52q7 32 21 65q-7 34 -30 52t-56 18q-50 0 -115 -26l-17 85q83 35 153 35q46 0 75.5 -17zM444.5 404.5q-29.5 -51.5 -40.5 -128.5q84 10 124.5 42t40.5 87q0 24 -11.5 37.5t-34.5 13.5q-49 0 -78.5 -51.5zM239 239q-101 0 -101 -106q0 -58 44 -58
q24 0 46 18t48 57q-1 10 -1 33q0 35 3 56h-39z" />
    <glyph glyph-name="aeacute" unicode="&#x1fd;" horiz-adv-x="697" 
d="M321.5 526q29.5 -17 51.5 -51q65 68 161 68q72 0 113 -38.5t41 -96.5q0 -102 -80 -149.5t-212 -63.5q0 -61 16.5 -87.5t56.5 -26.5q28 0 54.5 11t57.5 35l45 -74q-81 -68 -175 -68q-53 0 -91.5 21t-60.5 62q-35 -45 -73 -63.5t-81 -18.5q-64 0 -100 37t-36 99
q0 82 52.5 137t176.5 55h52q7 32 21 65q-7 34 -30 52t-56 18q-50 0 -115 -26l-17 85q83 35 153 35q46 0 75.5 -17zM444.5 404.5q-29.5 -51.5 -40.5 -128.5q84 10 124.5 42t40.5 87q0 24 -11.5 37.5t-34.5 13.5q-49 0 -78.5 -51.5zM239 239q-101 0 -101 -106q0 -58 44 -58
q24 0 46 18t48 57q-1 10 -1 33q0 35 3 56h-39zM479 812l45 -91l-200 -90l-32 59z" />
    <glyph glyph-name="uni01E3" unicode="&#x1e3;" horiz-adv-x="697" 
d="M321.5 526q29.5 -17 51.5 -51q65 68 161 68q72 0 113 -38.5t41 -96.5q0 -102 -80 -149.5t-212 -63.5q0 -61 16.5 -87.5t56.5 -26.5q28 0 54.5 11t57.5 35l45 -74q-81 -68 -175 -68q-53 0 -91.5 21t-60.5 62q-35 -45 -73 -63.5t-81 -18.5q-64 0 -100 37t-36 99
q0 82 52.5 137t176.5 55h52q7 32 21 65q-7 34 -30 52t-56 18q-50 0 -115 -26l-17 85q83 35 153 35q46 0 75.5 -17zM444.5 404.5q-29.5 -51.5 -40.5 -128.5q84 10 124.5 42t40.5 87q0 24 -11.5 37.5t-34.5 13.5q-49 0 -78.5 -51.5zM239 239q-101 0 -101 -106q0 -58 44 -58
q24 0 46 18t48 57q-1 10 -1 33q0 35 3 56h-39zM524 661h-242l13 88h243z" />
    <glyph glyph-name="b" unicode="b" horiz-adv-x="489" 
d="M427 496.5q35 -46.5 35 -132.5q0 -103 -26.5 -188.5t-87 -138t-155.5 -52.5q-79 0 -171 39l101 717l122 13l-38 -273q26 30 57.5 46t66.5 16q61 0 96 -46.5zM239 432.5q-25 -17.5 -46 -46.5l-41 -297q28 -11 56 -11q44 0 73.5 43t43.5 107.5t14 131.5q0 49 -13 69.5
t-39 20.5q-23 0 -48 -17.5z" />
    <glyph glyph-name="uni1E03" unicode="&#x1e03;" horiz-adv-x="489" 
d="M427 496.5q35 -46.5 35 -132.5q0 -103 -26.5 -188.5t-87 -138t-155.5 -52.5q-79 0 -171 39l101 717l122 13l-38 -273q26 30 57.5 46t66.5 16q61 0 96 -46.5zM239 432.5q-25 -17.5 -46 -46.5l-41 -297q28 -11 56 -11q44 0 73.5 43t43.5 107.5t14 131.5q0 49 -13 69.5
t-39 20.5q-23 0 -48 -17.5zM302.5 837.5q-17.5 17.5 -17.5 47.5q0 38 23.5 61t58.5 23q31 0 48.5 -17.5t17.5 -47.5q0 -37 -24 -60.5t-58 -23.5q-31 0 -48.5 17.5z" />
    <glyph glyph-name="uni1E05" unicode="&#x1e05;" horiz-adv-x="489" 
d="M427 496.5q35 -46.5 35 -132.5q0 -103 -26.5 -188.5t-87 -138t-155.5 -52.5q-79 0 -171 39l101 717l122 13l-38 -273q26 30 57.5 46t66.5 16q61 0 96 -46.5zM239 432.5q-25 -17.5 -46 -46.5l-41 -297q28 -11 56 -11q44 0 73.5 43t43.5 107.5t14 131.5q0 49 -13 69.5
t-39 20.5q-23 0 -48 -17.5zM237.5 -85.5q17.5 -17.5 17.5 -47.5q0 -38 -23.5 -61t-58.5 -23q-31 0 -48.5 17.5t-17.5 47.5q0 37 24 60.5t58 23.5q31 0 48.5 -17.5z" />
    <glyph glyph-name="uniA7B5" unicode="&#xa7b5;" horiz-adv-x="491" 
d="M96 549q13 97 71 151t143 54q74 0 117.5 -44t43.5 -117q0 -68 -35.5 -122t-111.5 -70q56 -5 95 -43.5t39 -115.5q0 -59 -23.5 -118.5t-72.5 -98.5t-120 -39q-61 0 -103 39l-32 -230l-119 -14zM309 130.5q27 49.5 27 114.5q0 109 -95 109h-23l22 88h20q45 0 68.5 45.5
t23.5 101.5q0 75 -52 75q-34 0 -56.5 -29.5t-31.5 -89.5l-61 -434q28 -30 73 -30q58 0 85 49.5z" />
    <glyph glyph-name="uni0253" unicode="&#x253;" horiz-adv-x="489" 
d="M427 496.5q35 -46.5 35 -132.5q0 -103 -26.5 -188.5t-87 -138t-155.5 -52.5q-79 0 -171 39l71 504h-1l11 77q10 68 55.5 108.5t121.5 40.5q61 0 116 -31l-45 -79q-33 16 -65 16q-29 0 -44 -17.5t-20 -53.5l-8 -61l-6 -47q25 30 56.5 46t66.5 16q61 0 96 -46.5zM281.5 121
q29.5 43 43.5 107.5t14 131.5q0 49 -13 69.5t-39 20.5q-23 0 -48 -17.5t-46 -46.5l-41 -297q28 -11 56 -11q44 0 73.5 43z" />
    <glyph glyph-name="uni02AD" unicode="&#x2ad;" horiz-adv-x="305" 
d="M293 400h-75l12 90h-94l-12 -90h-75l22 155h244zM237 -1h-75l12 90h-94l-12 -90h-75l22 155h244z" />
    <glyph glyph-name="uni0298" unicode="&#x298;" horiz-adv-x="662" 
d="M578 633q66 -72 66 -201q0 -132 -45 -233t-126 -157t-186 -56q-113 0 -179.5 72.5t-66.5 201.5q0 131 45.5 232.5t127 157t184.5 55.5q114 0 180 -72zM264 568.5q-52 -46.5 -78.5 -127.5t-26.5 -184q0 -92 36 -136.5t101 -44.5q73 0 125 46t78.5 126.5t26.5 183.5
q0 92 -36 137.5t-100 45.5q-74 0 -126 -46.5zM292 289.5q-16 16.5 -16 43.5q0 35 21.5 57t54.5 22q29 0 45 -16.5t16 -44.5q0 -35 -22 -56.5t-54 -21.5q-29 0 -45 16.5z" />
    <glyph glyph-name="uni02AC" unicode="&#x2ac;" horiz-adv-x="388" 
d="M414 666l-87 -266h-81l-3 196l-60 -196h-81l-16 266h61l4 -205l64 205h75l4 -206l61 206h59zM358 266l-87 -266h-81l-3 196l-60 -196h-81l-16 266h61l4 -205l64 205h75l4 -206l61 206h59z" />
    <glyph glyph-name="uni0180" unicode="&#x180;" horiz-adv-x="497" 
d="M435 496.5q35 -46.5 35 -132.5q0 -103 -26.5 -188.5t-87 -138t-155.5 -52.5q-79 0 -171 39l82 580h-52l12 79h51l8 58l122 13l-10 -71h116l-22 -79h-105l-17 -123q26 30 57.5 46t66.5 16q61 0 96 -46.5zM289.5 121q29.5 43 43.5 107.5t14 131.5q0 49 -13 69.5t-39 20.5
q-23 0 -48 -17.5t-46 -46.5l-41 -297q28 -11 56 -11q44 0 73.5 43z" />
    <glyph glyph-name="uni0183" unicode="&#x183;" horiz-adv-x="489" 
d="M427 489q35 -48 35 -137q-1 -99 -27.5 -181.5t-86.5 -134t-155 -51.5q-79 0 -171 39l101 717h299l-27 -91h-165l-24 -176q26 30 58 46.5t67 16.5q61 0 96 -48zM281.5 120.5q29.5 42.5 43.5 105.5t14 125q0 51 -13.5 72t-39.5 21q-22 0 -47.5 -18t-46.5 -47l-40 -290
q28 -11 56 -11q44 0 73.5 42.5z" />
    <glyph glyph-name="c" unicode="c" horiz-adv-x="396" 
d="M360.5 528q33.5 -15 61.5 -46l-61 -68q-20 17 -37 25t-39 8q-67 0 -98.5 -80.5t-31.5 -180.5q0 -54 17 -78t49 -24q22 0 41.5 8.5t46.5 26.5l44 -76q-72 -58 -150 -58q-81 0 -127.5 54.5t-46.5 150.5q0 91 29 171.5t86 131t139 50.5q44 0 77.5 -15z" />
    <glyph glyph-name="cacute" unicode="&#x107;" horiz-adv-x="396" 
d="M360.5 528q33.5 -15 61.5 -46l-61 -68q-20 17 -37 25t-39 8q-67 0 -98.5 -80.5t-31.5 -180.5q0 -54 17 -78t49 -24q22 0 41.5 8.5t46.5 26.5l44 -76q-72 -58 -150 -58q-81 0 -127.5 54.5t-46.5 150.5q0 91 29 171.5t86 131t139 50.5q44 0 77.5 -15zM371 812l45 -91
l-200 -90l-32 59z" />
    <glyph glyph-name="ccaron" unicode="&#x10d;" horiz-adv-x="396" 
d="M360.5 528q33.5 -15 61.5 -46l-61 -68q-20 17 -37 25t-39 8q-67 0 -98.5 -80.5t-31.5 -180.5q0 -54 17 -78t49 -24q22 0 41.5 8.5t46.5 26.5l44 -76q-72 -58 -150 -58q-81 0 -127.5 54.5t-46.5 150.5q0 91 29 171.5t86 131t139 50.5q44 0 77.5 -15zM415 794l43 -50
l-133 -124h-74l-98 124l48 50l94 -85z" />
    <glyph glyph-name="ccedilla" unicode="&#xe7;" horiz-adv-x="396" 
d="M186.5 366.5q-31.5 -80.5 -31.5 -180.5q0 -54 17 -78t49 -24q22 0 41.5 8.5t46.5 26.5l44 -76q-64 -51 -132 -57l-6 -42q36 -4 54 -24.5t18 -54.5q0 -45 -32.5 -80t-98.5 -35q-54 0 -86 28l36 56q24 -13 48 -13q20 0 32.5 10t12.5 29t-15 26.5t-54 7.5l22 97
q-58 16 -90.5 67.5t-32.5 131.5q0 91 29 171.5t86 131t139 50.5q44 0 77.5 -15t61.5 -46l-61 -68q-20 17 -37 25t-39 8q-67 0 -98.5 -80.5z" />
    <glyph glyph-name="ccircumflex" unicode="&#x109;" horiz-adv-x="396" 
d="M360.5 528q33.5 -15 61.5 -46l-61 -68q-20 17 -37 25t-39 8q-67 0 -98.5 -80.5t-31.5 -180.5q0 -54 17 -78t49 -24q22 0 41.5 8.5t46.5 26.5l44 -76q-72 -58 -150 -58q-81 0 -127.5 54.5t-46.5 150.5q0 91 29 171.5t86 131t139 50.5q44 0 77.5 -15zM188 630l-44 51
l134 125h74l100 -130l-53 -46l-93 87z" />
    <glyph glyph-name="uni0255" unicode="&#x255;" horiz-adv-x="414" 
d="M359.5 214q26.5 -27 26.5 -73q0 -49 -23 -84t-61 -53t-84 -18q-39 0 -63 8l-38 -73l-55 28l39 72q-35 26 -53.5 70t-18.5 100q0 90 29 170.5t86.5 131t138.5 50.5q44 0 77.5 -15t61.5 -46l-61 -68q-19 17 -37 25t-39 8q-46 0 -75.5 -40t-42 -99.5t-12.5 -120.5
q0 -38 4 -58q28 58 60.5 85t71.5 27q42 0 68.5 -27zM283 95q17 16 17 44q0 30 -23 30q-18 0 -36 -19.5t-39 -65.5q14 -5 36 -5q28 0 45 16z" />
    <glyph glyph-name="cdotaccent" unicode="&#x10b;" horiz-adv-x="396" 
d="M360.5 528q33.5 -15 61.5 -46l-61 -68q-20 17 -37 25t-39 8q-67 0 -98.5 -80.5t-31.5 -180.5q0 -54 17 -78t49 -24q22 0 41.5 8.5t46.5 26.5l44 -76q-72 -58 -150 -58q-81 0 -127.5 54.5t-46.5 150.5q0 91 29 171.5t86 131t139 50.5q44 0 77.5 -15zM244.5 661.5
q-17.5 17.5 -17.5 47.5q0 38 23.5 61t58.5 23q31 0 48.5 -17.5t17.5 -47.5q0 -37 -24 -60.5t-58 -23.5q-31 0 -48.5 17.5z" />
    <glyph glyph-name="uni0188" unicode="&#x188;" horiz-adv-x="395" 
d="M588 715l-47 -73q-28 18 -52 18q-22 0 -34 -16t-17 -51l-16 -111l-56 -63q-42 28 -81 28q-67 0 -98.5 -80.5t-31.5 -180.5q0 -54 17 -78t49 -24q22 0 42 8.5t46 26.5l44 -76q-72 -58 -150 -58q-81 0 -127.5 54.5t-46.5 150.5q0 90 28 171t83 131.5t130 50.5q30 0 53 -10
l11 79q11 69 48 105.5t100 36.5q59 0 106 -39z" />
    <glyph glyph-name="uni0297" unicode="&#x297;" horiz-adv-x="414" 
d="M378 528q33 -15 62 -46l-61 -68q-20 17 -37 25t-39 8q-50 0 -85 -60.5t-52 -155.5t-17 -198q0 -88 16.5 -119.5t49.5 -31.5q22 0 41.5 8t45.5 26l45 -75q-70 -58 -150 -58q-84 0 -129 61.5t-45 190.5q0 144 33 259.5t96 182t149 66.5q44 0 77 -15z" />
    <glyph glyph-name="uni023C" unicode="&#x23c;" horiz-adv-x="396" 
d="M330 436l-127 -350q12 -2 18 -2q22 0 41.5 8.5t46.5 26.5l44 -76q-72 -58 -150 -58q-18 0 -35 3l-22 -60l-41 12l22 60q-47 22 -72.5 70.5t-25.5 119.5q0 91 29 171.5t86 131t139 50.5q21 0 39 -3l21 58l41 -13l-21 -58q31 -14 59 -45l-61 -68q-20 17 -31 22zM288 447h-3
q-67 0 -98.5 -80.5t-31.5 -180.5q0 -44 13 -72z" />
    <glyph glyph-name="d" unicode="d" horiz-adv-x="490" 
d="M502 740l-104 -740h-107l3 72q-27 -43 -59 -65t-74 -22q-64 0 -99 49.5t-35 137.5t25 174t75.5 142t121.5 56q65 0 97 -55l36 263zM203 406q-27 -45 -40 -110.5t-13 -124.5q0 -93 53 -93q26 0 50 25t49 73l31 225q-12 26 -26.5 38t-37.5 12q-39 0 -66 -45z" />
    <glyph glyph-name="eth" unicode="&#xf0;" horiz-adv-x="490" 
d="M431 552.5q24 -61.5 24 -151.5q0 -110 -29 -204.5t-86.5 -152.5t-140.5 -58q-80 0 -126.5 51t-46.5 144q0 71 26 139.5t73.5 112t107.5 43.5q35 0 60.5 -13t45.5 -39q-1 60 -14 96.5t-44 72.5l-59 -59l-67 38l66 69q-32 17 -77 30l35 82q59 -15 110 -44l76 77l54 -55
l-66 -68q54 -49 78 -110.5zM289 144q27 66 42 184q-24 59 -74 59q-56 0 -83 -65.5t-27 -146.5q0 -97 61 -97q54 0 81 66z" />
    <glyph glyph-name="uni0238" unicode="&#x238;" horiz-adv-x="713" 
d="M653.5 494q31.5 -49 31.5 -140q0 -97 -25.5 -181.5t-73 -135.5t-110.5 -51q-30 0 -53.5 18.5t-38.5 52.5l-15 -57h-93v63q-47 -77 -115 -77q-63 0 -98 53t-35 145q0 94 26.5 176.5t74.5 132.5t109 50q30 0 53.5 -17.5t36.5 -47.5l36 263l123 13l-38 -275q23 30 51.5 47
t62.5 17q59 0 90.5 -49zM240.5 95.5q20.5 17.5 42.5 56.5l33 239q-11 31 -25 45t-33 14q-33 0 -56.5 -39t-35.5 -99.5t-12 -124.5q0 -58 11.5 -83.5t33.5 -25.5q21 0 41.5 17.5zM514 118.5q23 40.5 35 103t12 125.5q0 56 -12 79.5t-34 23.5q-39 0 -78 -61l-35 -249
q21 -62 57 -62q32 0 55 40.5z" />
    <glyph glyph-name="dcaron" unicode="&#x10f;" horiz-adv-x="564" 
d="M502 740l-104 -740h-107l3 72q-27 -43 -59 -65t-74 -22q-64 0 -99 49.5t-35 137.5t25 174t75.5 142t121.5 56q65 0 97 -55l36 263zM203 406q-27 -45 -40 -110.5t-13 -124.5q0 -93 53 -93q26 0 50 25t49 73l31 225q-12 26 -26.5 38t-37.5 12q-39 0 -66 -45zM556 752
l91 -12l-67 -198l-63 8z" />
    <glyph glyph-name="uni1E13" unicode="&#x1e13;" horiz-adv-x="490" 
d="M502 740l-104 -740h-107l3 72q-27 -43 -59 -65t-74 -22q-64 0 -99 49.5t-35 137.5t25 174t75.5 142t121.5 56q65 0 97 -55l36 263zM203 406q-27 -45 -40 -110.5t-13 -124.5q0 -93 53 -93q26 0 50 25t49 73l31 225q-12 26 -26.5 38t-37.5 12q-39 0 -66 -45zM75 -242
l-45 51l134 125h74l100 -130l-52 -46l-93 87z" />
    <glyph glyph-name="dcroat" unicode="&#x111;" horiz-adv-x="500" 
d="M546 681l-13 -79h-50l-85 -602h-107l3 72q-27 -43 -59 -65t-74 -22q-64 0 -99 49.5t-35 137.5t25 174t75.5 142t121.5 56q65 0 97 -55l15 113h-106l2 79h115l10 71l120 -12l-8 -59h52zM333 401q-12 26 -26.5 38t-37.5 12q-39 0 -66 -45t-40 -110.5t-13 -124.5
q0 -93 53 -93q26 0 50 25t49 73z" />
    <glyph glyph-name="uni0221" unicode="&#x221;" horiz-adv-x="639" 
d="M605 206q24 -25 24 -70q0 -73 -48.5 -111.5t-122.5 -38.5q-22 0 -42 3l-35 -68l-56 28l33 59q-41 22 -55 75q-30 -50 -64 -74t-78 -24q-64 0 -99 49.5t-35 137.5t25 174t75.5 142t121.5 56q65 0 97 -55l36 263l120 -12l-85 -600q-2 -14 -1 -19q27 60 56 85t70 25
q39 0 63 -25zM333 401q-12 26 -26.5 38t-37.5 12q-39 0 -66 -45t-40 -110.5t-13 -124.5q0 -93 53 -93q26 0 50 25.5t49 73.5zM528 94q17 15 17 41q0 24 -21 24q-15 0 -28.5 -16.5t-34.5 -62.5q7 -1 23 -1q27 0 44 15z" />
    <glyph glyph-name="uni1E0B" unicode="&#x1e0b;" horiz-adv-x="490" 
d="M502 740l-104 -740h-107l3 72q-27 -43 -59 -65t-74 -22q-64 0 -99 49.5t-35 137.5t25 174t75.5 142t121.5 56q65 0 97 -55l36 263zM203 406q-27 -45 -40 -110.5t-13 -124.5q0 -93 53 -93q26 0 50 25t49 73l31 225q-12 26 -26.5 38t-37.5 12q-39 0 -66 -45zM281.5 837.5
q-17.5 17.5 -17.5 47.5q0 38 23.5 61t58.5 23q31 0 48.5 -17.5t17.5 -47.5q0 -37 -24 -60.5t-58 -23.5q-31 0 -48.5 17.5z" />
    <glyph glyph-name="uni1E0D" unicode="&#x1e0d;" horiz-adv-x="490" 
d="M502 740l-104 -740h-107l3 72q-27 -43 -59 -65t-74 -22q-64 0 -99 49.5t-35 137.5t25 174t75.5 142t121.5 56q65 0 97 -55l36 263zM203 406q-27 -45 -40 -110.5t-13 -124.5q0 -93 53 -93q26 0 50 25t49 73l31 225q-12 26 -26.5 38t-37.5 12q-39 0 -66 -45zM246.5 -85.5
q17.5 -17.5 17.5 -47.5q0 -38 -23.5 -61t-58.5 -23q-31 0 -48.5 17.5t-17.5 47.5q0 37 24 60.5t58 23.5q31 0 48.5 -17.5z" />
    <glyph glyph-name="uni018D" unicode="&#x18d;" horiz-adv-x="482" 
d="M7 -152l64 61q21 -21 41 -30.5t46 -9.5q35 0 53 19t18 50q0 25 -14.5 42t-54.5 39q-68 38 -98.5 84t-30.5 118q0 70 26 144.5t82.5 126t141.5 51.5q82 0 127.5 -55t45.5 -143q0 -102 -38.5 -173.5t-133.5 -118.5q33 -26 48 -53t15 -59q0 -41 -21 -77.5t-63 -59.5
t-101 -23q-99 0 -153 67zM308.5 201q21.5 59 21.5 149q0 47 -15 73t-44 26q-58 0 -86.5 -72t-28.5 -159q0 -46 14 -74.5t52 -53.5q65 52 86.5 111z" />
    <glyph glyph-name="uni02A4" unicode="&#x2a4;" horiz-adv-x="823" 
d="M804 441l-191 -236q80 -4 120 -46t40 -116q0 -77 -32 -136.5t-88 -91.5t-125 -32q-62 0 -105 24.5t-72 72.5l74 59q25 -33 48.5 -46.5t56.5 -13.5q54 0 86.5 45t32.5 117q0 49 -22.5 69t-69.5 20h-74l1 1l11 77l181 226h-217l-61 -434h-107l3 72q-27 -43 -59 -65t-74 -22
q-64 0 -99 49.5t-35 137.5t25 174t75.5 142t121.5 56q65 0 97 -55l36 263l120 -12l-30 -211h345zM333 401q-12 26 -26.5 38t-37.5 12q-39 0 -66 -45t-40 -110.5t-13 -124.5q0 -93 53 -93q26 0 50 25t49 73z" />
    <glyph glyph-name="uni0257" unicode="&#x257;" horiz-adv-x="490" 
d="M631 715l-49 -72q-23 17 -50 17q-41 0 -50 -61l-10 -70l-74 -529h-107l3 72q-27 -43 -59 -65t-74 -22q-64 0 -99 49.5t-35 137.5t25 174t75.5 142t121.5 56q65 0 97 -55l5 40l10 69q10 73 52.5 114.5t112.5 41.5q60 0 105 -39zM333 401q-12 26 -26.5 38t-37.5 12
q-39 0 -66 -45t-40 -110.5t-13 -124.5q0 -93 53 -93q26 0 50 25t49 73z" />
    <glyph glyph-name="uni1E0F" unicode="&#x1e0f;" horiz-adv-x="490" 
d="M502 740l-104 -740h-107l3 72q-27 -43 -59 -65t-74 -22q-64 0 -99 49.5t-35 137.5t25 174t75.5 142t121.5 56q65 0 97 -55l36 263zM203 406q-27 -45 -40 -110.5t-13 -124.5q0 -93 53 -93q26 0 50 25t49 73l31 225q-12 26 -26.5 38t-37.5 12q-39 0 -66 -45zM84 -93h242
l-13 -88h-243z" />
    <glyph glyph-name="uni0256" unicode="&#x256;" horiz-adv-x="491" 
d="M518 -178q-49 -39 -117 -39q-63 0 -98.5 35t-35.5 98q0 9 2 31l7 53h1l8 65q-49 -80 -124 -80q-64 0 -99 49.5t-35 137.5t25 174t75.5 142t121.5 56q65 0 97 -55l36 263l120 -12l-104 -740h-1l-8 -68q-1 -6 -1 -16q0 -40 40 -40q15 0 26.5 4.5t27.5 13.5zM253 103
q24 25 49 73l31 225q-12 26 -26.5 38t-37.5 12q-39 0 -66 -45t-40 -110.5t-13 -124.5q0 -93 53 -93q26 0 50 25z" />
    <glyph glyph-name="uni018C" unicode="&#x18c;" horiz-adv-x="490" 
d="M397 0h-106l2 72q-26 -42 -58 -64.5t-74 -22.5q-64 0 -99.5 49.5t-35.5 137.5q0 85 25 169.5t75.5 140t121.5 55.5q65 0 97 -55l23 168h-173l12 91h294zM332 394q-12 26 -26.5 38.5t-37.5 12.5q-39 0 -65.5 -45t-39.5 -109t-13 -120q0 -93 53 -93q25 0 49 25.5t49 72.5z
" />
    <glyph glyph-name="uni01F3" unicode="&#x1f3;" horiz-adv-x="862" 
d="M502 740l-104 -740h-107l3 72q-27 -43 -59 -65t-74 -22q-64 0 -99 49.5t-35 137.5t25 174t75.5 142t121.5 56q65 0 97 -55l36 263zM203 406q-27 -45 -40 -110.5t-13 -124.5q0 -93 53 -93q26 0 50 25t49 73l31 225q-12 26 -26.5 38t-37.5 12q-39 0 -66 -45zM877 529
l-13 -89l-244 -343h202l-26 -97h-330l13 89l244 343h-181l15 97h320z" />
    <glyph glyph-name="uni02A3" unicode="&#x2a3;" horiz-adv-x="792" 
d="M794 440l-242 -343h201l-26 -97h-436l3 72q-27 -43 -59 -65t-74 -22q-64 0 -99 49.5t-35 137.5t25 174t75.5 142t121.5 56q65 0 97 -55l36 263l120 -12l-30 -211h335zM333 401q-12 26 -26.5 38t-37.5 12q-39 0 -66 -45t-40 -110.5t-13 -124.5q0 -93 53 -93q26 0 50 25
t49 73zM411 90l242 342h-194z" />
    <glyph glyph-name="uni01C6" unicode="&#x1c6;" horiz-adv-x="862" 
d="M502 740l-104 -740h-107l3 72q-27 -43 -59 -65t-74 -22q-64 0 -99 49.5t-35 137.5t25 174t75.5 142t121.5 56q65 0 97 -55l36 263zM203 406q-27 -45 -40 -110.5t-13 -124.5q0 -93 53 -93q26 0 50 25t49 73l31 225q-12 26 -26.5 38t-37.5 12q-39 0 -66 -45zM877 529
l-13 -89l-244 -343h202l-26 -97h-330l13 89l244 343h-181l15 97h320zM855 794l43 -50l-133 -124h-74l-98 124l48 50l94 -85z" />
    <glyph glyph-name="uni02A5" unicode="&#x2a5;" horiz-adv-x="851" 
d="M829.5 213.5q25.5 -24.5 25.5 -69.5q0 -75 -50 -109.5t-134 -34.5h-1q-9 -35 -23 -127l-70 5q9 61 21 122h-307l3 72q-27 -43 -59 -65t-74 -22q-64 0 -99 49.5t-35 137.5t25 174t75.5 142t121.5 56q65 0 97 -55l36 263l120 -12l-30 -211h335l-13 -83l-249 -349h80
q26 76 58.5 108.5t78.5 32.5q42 0 67.5 -24.5zM333 401q-12 26 -26.5 38t-37.5 12q-39 0 -66 -45t-40 -110.5t-13 -124.5q0 -93 53 -93q26 0 50 25t49 73zM459 432l-48 -340l242 340h-194zM753 107q19 10 19 38q0 24 -21 24q-34 0 -55 -72q38 0 57 10z" />
    <glyph glyph-name="e" unicode="e" horiz-adv-x="450" 
d="M400.5 505q40.5 -38 40.5 -97q0 -102 -79.5 -149.5t-211.5 -63.5v-14q0 -53 18.5 -76.5t53.5 -23.5q29 0 54.5 11t58.5 35l44 -74q-81 -68 -174 -68q-83 0 -130 51.5t-47 146.5q0 92 28 174.5t87 134t145 51.5q72 0 112.5 -38zM282 318q40 32 40 87q0 51 -46 51
q-48 0 -77 -51.5t-41 -128.5q84 10 124 42z" />
    <glyph glyph-name="eacute" unicode="&#xe9;" horiz-adv-x="450" 
d="M400.5 505q40.5 -38 40.5 -97q0 -102 -79.5 -149.5t-211.5 -63.5v-14q0 -53 18.5 -76.5t53.5 -23.5q29 0 54.5 11t58.5 35l44 -74q-81 -68 -174 -68q-83 0 -130 51.5t-47 146.5q0 92 28 174.5t87 134t145 51.5q72 0 112.5 -38zM282 318q40 32 40 87q0 51 -46 51
q-48 0 -77 -51.5t-41 -128.5q84 10 124 42zM376 812l45 -91l-200 -90l-32 59z" />
    <glyph glyph-name="ebreve" unicode="&#x115;" horiz-adv-x="450" 
d="M400.5 505q40.5 -38 40.5 -97q0 -102 -79.5 -149.5t-211.5 -63.5v-14q0 -53 18.5 -76.5t53.5 -23.5q29 0 54.5 11t58.5 35l44 -74q-81 -68 -174 -68q-83 0 -130 51.5t-47 146.5q0 92 28 174.5t87 134t145 51.5q72 0 112.5 -38zM282 318q40 32 40 87q0 51 -46 51
q-48 0 -77 -51.5t-41 -128.5q84 10 124 42zM205 680.5q-32 42.5 -27 111.5l68 10q5 -75 57 -75q27 0 48.5 20.5t33.5 57.5l65 -18q-14 -68 -53.5 -108.5t-97.5 -40.5q-62 0 -94 42.5z" />
    <glyph glyph-name="ecaron" unicode="&#x11b;" horiz-adv-x="450" 
d="M400.5 505q40.5 -38 40.5 -97q0 -102 -79.5 -149.5t-211.5 -63.5v-14q0 -53 18.5 -76.5t53.5 -23.5q29 0 54.5 11t58.5 35l44 -74q-81 -68 -174 -68q-83 0 -130 51.5t-47 146.5q0 92 28 174.5t87 134t145 51.5q72 0 112.5 -38zM282 318q40 32 40 87q0 51 -46 51
q-48 0 -77 -51.5t-41 -128.5q84 10 124 42zM420 794l43 -50l-133 -124h-74l-98 124l48 50l94 -85z" />
    <glyph glyph-name="uni0229" unicode="&#x229;" horiz-adv-x="450" 
d="M400.5 505q40.5 -38 40.5 -97q0 -102 -79.5 -149.5t-211.5 -63.5v-14q0 -53 18.5 -76.5t53.5 -23.5q29 0 54.5 11t58.5 35l44 -74q-69 -58 -144 -66l-7 -43q36 -4 54 -24.5t18 -54.5q0 -45 -32.5 -80t-98.5 -35q-54 0 -86 28l36 56q24 -13 48 -13q20 0 32.5 10t12.5 29
t-15 26.5t-54 7.5l22 94q-65 12 -101 62.5t-36 132.5q0 92 28 174.5t87 134t145 51.5q72 0 112.5 -38zM282 318q40 32 40 87q0 51 -46 51q-48 0 -77 -51.5t-41 -128.5q84 10 124 42z" />
    <glyph glyph-name="ecircumflex" unicode="&#xea;" horiz-adv-x="450" 
d="M400.5 505q40.5 -38 40.5 -97q0 -102 -79.5 -149.5t-211.5 -63.5v-14q0 -53 18.5 -76.5t53.5 -23.5q29 0 54.5 11t58.5 35l44 -74q-81 -68 -174 -68q-83 0 -130 51.5t-47 146.5q0 92 28 174.5t87 134t145 51.5q72 0 112.5 -38zM282 318q40 32 40 87q0 51 -46 51
q-48 0 -77 -51.5t-41 -128.5q84 10 124 42zM193 630l-44 51l134 125h74l100 -130l-53 -46l-93 87z" />
    <glyph glyph-name="uni1EBF" unicode="&#x1ebf;" horiz-adv-x="450" 
d="M575 859l-147 -139l-43 39l129 162zM270 760h74l100 -128l-49 -45l-97 83l-116 -83l-46 51zM400.5 505q40.5 -38 40.5 -97q0 -102 -79.5 -149.5t-211.5 -63.5v-14q0 -53 18.5 -76.5t53.5 -23.5q29 0 54.5 11t58.5 35l44 -74q-81 -68 -174 -68q-83 0 -130 51.5t-47 146.5
q0 92 28 174.5t87 134t145 51.5q72 0 112.5 -38zM282 318q40 32 40 87q0 51 -46 51q-48 0 -77 -51.5t-41 -128.5q84 10 124 42z" />
    <glyph glyph-name="uni1EC7" unicode="&#x1ec7;" horiz-adv-x="450" 
d="M400.5 505q40.5 -38 40.5 -97q0 -102 -79.5 -149.5t-211.5 -63.5v-14q0 -53 18.5 -76.5t53.5 -23.5q29 0 54.5 11t58.5 35l44 -74q-81 -68 -174 -68q-83 0 -130 51.5t-47 146.5q0 92 28 174.5t87 134t145 51.5q72 0 112.5 -38zM282 318q40 32 40 87q0 51 -46 51
q-48 0 -77 -51.5t-41 -128.5q84 10 124 42zM193 630l-44 51l134 125h74l100 -130l-53 -46l-93 87zM240.5 -85.5q17.5 -17.5 17.5 -47.5q0 -38 -23.5 -61t-58.5 -23q-31 0 -48.5 17.5t-17.5 47.5q0 37 24 60.5t58 23.5q31 0 48.5 -17.5z" />
    <glyph glyph-name="uni1EC1" unicode="&#x1ec1;" horiz-adv-x="450" 
d="M226 755l-52 -35l-109 143l77 56zM180 587l-46 51l134 122h74l100 -128l-49 -45l-97 83zM400.5 505q40.5 -38 40.5 -97q0 -102 -79.5 -149.5t-211.5 -63.5v-14q0 -53 18.5 -76.5t53.5 -23.5q29 0 54.5 11t58.5 35l44 -74q-81 -68 -174 -68q-83 0 -130 51.5t-47 146.5
q0 92 28 174.5t87 134t145 51.5q72 0 112.5 -38zM282 318q40 32 40 87q0 51 -46 51q-48 0 -77 -51.5t-41 -128.5q84 10 124 42z" />
    <glyph glyph-name="uni1EC3" unicode="&#x1ec3;" horiz-adv-x="450" 
d="M400.5 505q40.5 -38 40.5 -97q0 -102 -79.5 -149.5t-211.5 -63.5v-14q0 -53 18.5 -76.5t53.5 -23.5q29 0 54.5 11t58.5 35l44 -74q-81 -68 -174 -68q-83 0 -130 51.5t-47 146.5q0 92 28 174.5t87 134t145 51.5q72 0 112.5 -38zM282 318q40 32 40 87q0 51 -46 51
q-48 0 -77 -51.5t-41 -128.5q84 10 124 42zM181 587l-46 51l134 122h74l100 -128l-49 -45l-97 83zM410 828q33 4 48.5 14.5t15.5 33.5q0 27 -27 27q-22 0 -48 -13l-16 59q20 11 39.5 17t44.5 6q43 0 68 -24.5t25 -63.5q0 -81 -81 -97l-9 -54h-73z" />
    <glyph glyph-name="uni1EC5" unicode="&#x1ec5;" horiz-adv-x="450" 
d="M251.5 817q-10.5 -10 -24.5 -32l-56 33q22 43 50.5 69.5t59.5 26.5q18 0 31.5 -7t28.5 -20q2 -2 9 -7.5t13.5 -8t12.5 -2.5q11 0 22 9.5t25 31.5l55 -32q-22 -45 -50.5 -70t-58.5 -25q-17 0 -29.5 6.5t-29.5 19.5q-22 18 -35 18t-23.5 -10zM271 753h74l100 -128l-49 -45
l-97 83l-116 -83l-46 51zM400.5 505q40.5 -38 40.5 -97q0 -102 -79.5 -149.5t-211.5 -63.5v-14q0 -53 18.5 -76.5t53.5 -23.5q29 0 54.5 11t58.5 35l44 -74q-81 -68 -174 -68q-83 0 -130 51.5t-47 146.5q0 92 28 174.5t87 134t145 51.5q72 0 112.5 -38zM282 318q40 32 40 87
q0 51 -46 51q-48 0 -77 -51.5t-41 -128.5q84 10 124 42z" />
    <glyph glyph-name="uni0205" unicode="&#x205;" horiz-adv-x="450" 
d="M400.5 505q40.5 -38 40.5 -97q0 -102 -79.5 -149.5t-211.5 -63.5v-14q0 -53 18.5 -76.5t53.5 -23.5q29 0 54.5 11t58.5 35l44 -74q-81 -68 -174 -68q-83 0 -130 51.5t-47 146.5q0 92 28 174.5t87 134t145 51.5q72 0 112.5 -38zM282 318q40 32 40 87q0 51 -46 51
q-48 0 -77 -51.5t-41 -128.5q84 10 124 42zM218 845l55 -188l-72 -27l-78 176zM357 844l47 -184l-71 -25l-72 172z" />
    <glyph glyph-name="edieresis" unicode="&#xeb;" horiz-adv-x="450" 
d="M400.5 505q40.5 -38 40.5 -97q0 -102 -79.5 -149.5t-211.5 -63.5v-14q0 -53 18.5 -76.5t53.5 -23.5q29 0 54.5 11t58.5 35l44 -74q-81 -68 -174 -68q-83 0 -130 51.5t-47 146.5q0 92 28 174.5t87 134t145 51.5q72 0 112.5 -38zM282 318q40 32 40 87q0 51 -46 51
q-48 0 -77 -51.5t-41 -128.5q84 10 124 42zM164.5 665q-15.5 16 -15.5 41q0 32 21 53.5t51 21.5q27 0 42.5 -16t15.5 -41q0 -32 -21.5 -53.5t-51.5 -21.5q-26 0 -41.5 16zM351 665q-16 16 -16 41q0 32 21.5 53.5t50.5 21.5q27 0 42.5 -16t15.5 -41q0 -33 -21 -54t-51 -21
q-26 0 -42 16z" />
    <glyph glyph-name="edotaccent" unicode="&#x117;" horiz-adv-x="450" 
d="M400.5 505q40.5 -38 40.5 -97q0 -102 -79.5 -149.5t-211.5 -63.5v-14q0 -53 18.5 -76.5t53.5 -23.5q29 0 54.5 11t58.5 35l44 -74q-81 -68 -174 -68q-83 0 -130 51.5t-47 146.5q0 92 28 174.5t87 134t145 51.5q72 0 112.5 -38zM282 318q40 32 40 87q0 51 -46 51
q-48 0 -77 -51.5t-41 -128.5q84 10 124 42zM249.5 661.5q-17.5 17.5 -17.5 47.5q0 38 23.5 61t58.5 23q31 0 48.5 -17.5t17.5 -47.5q0 -37 -24 -60.5t-58 -23.5q-31 0 -48.5 17.5z" />
    <glyph glyph-name="uni1EB9" unicode="&#x1eb9;" horiz-adv-x="450" 
d="M400.5 505q40.5 -38 40.5 -97q0 -102 -79.5 -149.5t-211.5 -63.5v-14q0 -53 18.5 -76.5t53.5 -23.5q29 0 54.5 11t58.5 35l44 -74q-81 -68 -174 -68q-83 0 -130 51.5t-47 146.5q0 92 28 174.5t87 134t145 51.5q72 0 112.5 -38zM282 318q40 32 40 87q0 51 -46 51
q-48 0 -77 -51.5t-41 -128.5q84 10 124 42zM240.5 -85.5q17.5 -17.5 17.5 -47.5q0 -38 -23.5 -61t-58.5 -23q-31 0 -48.5 17.5t-17.5 47.5q0 37 24 60.5t58 23.5q31 0 48.5 -17.5z" />
    <glyph glyph-name="egrave" unicode="&#xe8;" horiz-adv-x="450" 
d="M400.5 505q40.5 -38 40.5 -97q0 -102 -79.5 -149.5t-211.5 -63.5v-14q0 -53 18.5 -76.5t53.5 -23.5q29 0 54.5 11t58.5 35l44 -74q-81 -68 -174 -68q-83 0 -130 51.5t-47 146.5q0 92 28 174.5t87 134t145 51.5q72 0 112.5 -38zM282 318q40 32 40 87q0 51 -46 51
q-48 0 -77 -51.5t-41 -128.5q84 10 124 42zM265 810l159 -122l-37 -56l-179 89z" />
    <glyph glyph-name="uni1EBB" unicode="&#x1ebb;" horiz-adv-x="450" 
d="M400.5 505q40.5 -38 40.5 -97q0 -102 -79.5 -149.5t-211.5 -63.5v-14q0 -53 18.5 -76.5t53.5 -23.5q29 0 54.5 11t58.5 35l44 -74q-81 -68 -174 -68q-83 0 -130 51.5t-47 146.5q0 92 28 174.5t87 134t145 51.5q72 0 112.5 -38zM282 318q40 32 40 87q0 51 -46 51
q-48 0 -77 -51.5t-41 -128.5q84 10 124 42zM267 704q33 4 48.5 14.5t15.5 33.5q0 27 -27 27q-22 0 -48 -13l-16 59q20 11 39.5 17t44.5 6q43 0 68 -24.5t25 -63.5q0 -81 -81 -97l-9 -54h-73z" />
    <glyph glyph-name="uni0207" unicode="&#x207;" horiz-adv-x="450" 
d="M400.5 505q40.5 -38 40.5 -97q0 -102 -79.5 -149.5t-211.5 -63.5v-14q0 -53 18.5 -76.5t53.5 -23.5q29 0 54.5 11t58.5 35l44 -74q-81 -68 -174 -68q-83 0 -130 51.5t-47 146.5q0 92 28 174.5t87 134t145 51.5q72 0 112.5 -38zM282 318q40 32 40 87q0 51 -46 51
q-48 0 -77 -51.5t-41 -128.5q84 10 124 42zM156 624q17 69 58 109t100 40q61 0 91.5 -42t26.5 -111l-69 -10q-5 75 -58 75q-57 0 -82 -79z" />
    <glyph glyph-name="emacron" unicode="&#x113;" horiz-adv-x="450" 
d="M400.5 505q40.5 -38 40.5 -97q0 -102 -79.5 -149.5t-211.5 -63.5v-14q0 -53 18.5 -76.5t53.5 -23.5q29 0 54.5 11t58.5 35l44 -74q-81 -68 -174 -68q-83 0 -130 51.5t-47 146.5q0 92 28 174.5t87 134t145 51.5q72 0 112.5 -38zM282 318q40 32 40 87q0 51 -46 51
q-48 0 -77 -51.5t-41 -128.5q84 10 124 42zM421 661h-242l13 88h243z" />
    <glyph glyph-name="eogonek" unicode="&#x119;" horiz-adv-x="450" 
d="M400.5 505q40.5 -38 40.5 -97q0 -102 -79.5 -149.5t-211.5 -63.5v-14q0 -53 18.5 -76.5t53.5 -23.5q29 0 54.5 11t58.5 35l44 -74q-43 -35 -88 -52q-51 -27 -71.5 -53.5t-20.5 -53.5q0 -41 40 -41q24 0 51 7l-17 -82q-29 -8 -57 -8q-49 0 -78.5 26.5t-29.5 70.5
q0 37 20 67t56 52q-74 6 -115 57t-41 140q0 92 28 174.5t87 134t145 51.5q72 0 112.5 -38zM282 318q40 32 40 87q0 51 -46 51q-48 0 -77 -51.5t-41 -128.5q84 10 124 42z" />
    <glyph glyph-name="uni025B" unicode="&#x25b;" horiz-adv-x="410" 
d="M64.5 27q-47.5 41 -47.5 109q0 58 36.5 98t108.5 49q-92 22 -92 104q0 42 22 77.5t63.5 57t97.5 21.5q46 0 85.5 -15.5t67.5 -44.5l-57 -62q-22 17 -42 25t-45 8q-35 0 -54 -20.5t-19 -52.5q0 -65 69 -65h41l-26 -85h-36q-49 0 -72 -23.5t-23 -63.5q0 -32 16.5 -49.5
t49.5 -17.5q28 0 53 10.5t55 31.5l46 -69q-34 -30 -79 -47t-95 -17q-76 0 -123.5 41z" />
    <glyph glyph-name="uni029A" unicode="&#x29a;" horiz-adv-x="480" 
d="M64.5 26q-47.5 40 -47.5 105q0 60 37 101.5t109 50.5q-84 23 -84 98q0 43 23 80t66 59.5t100 22.5q88 0 135 -55.5t47 -151.5q0 -162 -68 -256t-194 -94q-76 0 -123.5 40zM300 152.5q32 75.5 32 187.5q0 59 -17 86.5t-50 27.5t-50.5 -21.5t-17.5 -57.5q0 -59 57 -59h20
l-26 -85h-18q-47 0 -68 -25.5t-21 -66.5q0 -30 15 -46t43 -16q69 0 101 75.5z" />
    <glyph glyph-name="uni025C" unicode="&#x25c;" horiz-adv-x="414" 
d="M346.5 508.5q41.5 -34.5 41.5 -92.5q0 -52 -32.5 -87.5t-97.5 -47.5q110 -17 110 -111q0 -47 -23.5 -89t-71.5 -68.5t-120 -26.5q-102 0 -165 65l63 70q25 -23 49 -33.5t52 -10.5q45 0 67.5 27t22.5 68q0 33 -19 46t-55 13h-59l23 85h38q45 0 69.5 24.5t24.5 60.5
q0 53 -51 53q-27 0 -50.5 -9t-53.5 -28l-44 67q80 59 174 59q66 0 107.5 -34.5z" />
    <glyph glyph-name="uni025E" unicode="&#x25e;" horiz-adv-x="469" 
d="M74.5 38.5q-46.5 52.5 -46.5 146.5q0 107 32.5 188t92.5 125.5t139 44.5q67 0 110 -34.5t43 -92.5q0 -51 -31.5 -86t-93.5 -48q104 -16 104 -111q0 -47 -22.5 -89t-71.5 -69t-122 -27q-87 0 -133.5 52.5zM280.5 104.5q21.5 27.5 21.5 68.5q0 32 -17.5 45t-52.5 13h-26
l26 85h14q36 0 56.5 23.5t20.5 61.5q0 53 -47 53q-63 0 -96.5 -81t-33.5 -193q0 -54 16.5 -78.5t52.5 -24.5q44 0 65.5 27.5z" />
    <glyph glyph-name="uni025D" unicode="&#x25d;" horiz-adv-x="613" 
d="M643 346q-48 -35 -103 -35t-84 31.5t-27 81.5v18l-41 -26q0 -52 -32.5 -87.5t-97.5 -47.5q110 -17 110 -111q0 -47 -23.5 -89t-71.5 -68.5t-120 -26.5q-102 0 -165 65l63 70q25 -23 49 -33.5t52 -10.5q45 0 67.5 27t22.5 68q0 33 -19 46t-55 13h-59l23 85h38
q45 0 69.5 24.5t24.5 60.5q0 53 -51 53q-27 0 -50.5 -9t-53.5 -28l-44 67q80 59 174 59q43 0 76 -15t52 -42l70 43h101l-12 -85q-3 -23 6.5 -34.5t28.5 -11.5q14 0 26 4t28 11z" />
    <glyph glyph-name="uni0258" unicode="&#x258;" horiz-adv-x="452" 
d="M378 485q44 -58 44 -152q0 -103 -31.5 -181.5t-90.5 -122t-138 -43.5q-100 0 -158 70l62 65q24 -21 46 -30.5t53 -9.5q44 0 73.5 30t45.5 83q-115 8 -176 46t-61 118q0 53 24.5 95t69 66t101.5 24q92 0 136 -58zM200 300q29 -21 99 -25q3 33 3 67q0 114 -65 114
q-30 0 -48 -25t-18 -68q0 -42 29 -63z" />
    <glyph glyph-name="uni0283" unicode="&#x283;" horiz-adv-x="233" 
d="M373 715l-49 -72q-23 17 -50 17q-41 0 -50 -61l-10 -70l-74 -529l-8 -60q-11 -78 -57.5 -117.5t-116.5 -39.5q-37 0 -62 11.5t-46 30.5l52 70q16 -10 27 -14.5t27 -4.5q22 0 36 15t18 43l9 66l74 529l10 69q10 73 52.5 114.5t112.5 41.5q60 0 105 -39z" />
    <glyph glyph-name="uni0286" unicode="&#x286;" horiz-adv-x="282" 
d="M422 715l-49 -72q-23 17 -50 17q-41 0 -50 -61l-10 -70l-76 -541q42 -12 76 -36l-30 -53q-34 17 -58 25q-19 -67 -62 -103.5t-111 -36.5q-52 0 -81.5 28t-29.5 78q0 58 37 91t94 33q34 0 47 -4l73 519l10 69q10 73 52.5 114.5t112.5 41.5q60 0 105 -39zM39 -122.5
q15 22.5 21 65.5l1 5q-16 4 -39 4q-27 0 -42 -16t-15 -43q0 -38 34 -38q25 0 40 22.5z" />
    <glyph glyph-name="uni01AA" unicode="&#x1aa;" horiz-adv-x="329" 
d="M356 -178q-49 -39 -117 -39q-63 0 -98.5 35t-35.5 98q0 9 2 31l7 53l64 461q-26 -13 -54 -13q-45 0 -74.5 36t-29.5 94q0 79 45.5 127.5t119.5 48.5q61 0 97 -36.5t36 -101.5q0 -22 -2 -34l-81 -582l-8 -68q-1 -6 -1 -16q0 -40 40 -40q15 0 26.5 4.5t27.5 13.5zM189 543
l10 70q2 14 2 19q0 33 -27 33q-24 0 -36 -25t-12 -63q0 -40 32 -40q15 0 31 6z" />
    <glyph glyph-name="uni0285" unicode="&#x285;" horiz-adv-x="396" 
d="M370 25q-49 -39 -117 -39q-63 0 -98.5 35t-35.5 98q0 9 2 31l7 53h1l17 123h1l8 68q1 6 1 16q0 40 -40 40q-15 0 -26.5 -4.5t-27.5 -13.5l-36 72q49 39 117 39q63 0 98.5 -35t35.5 -98q0 -9 -2 -31l-7 -53h-1l-17 -124h-1l-8 -67q-1 -6 -1 -16q0 -40 40 -40
q15 0 26.5 4.5t27.5 13.5z" />
    <glyph glyph-name="uni0247" unicode="&#x247;" horiz-adv-x="450" 
d="M415 489q26 -35 26 -80q0 -87 -58.5 -134t-159.5 -67l-43 -118q18 -9 42 -9q29 0 54.5 11t58.5 35l44 -74q-81 -68 -174 -68q-30 0 -60 8l-23 -65l-41 12l25 70q-37 23 -57.5 67t-20.5 105q0 93 28 175t87 134t145 52h10l20 55l41 -13l-18 -49q48 -12 74 -47zM191 402
q-29 -53 -41 -130q30 3 54 9l64 179q-48 -5 -77 -58zM311 339q18 27 18 66q0 34 -18 46l-56 -155q38 16 56 43zM174 199q-20 -2 -31 -4v-14q0 -30 6 -51z" />
    <glyph glyph-name="uni1EBD" unicode="&#x1ebd;" horiz-adv-x="450" 
d="M400.5 505q40.5 -38 40.5 -97q0 -102 -79.5 -149.5t-211.5 -63.5v-14q0 -53 18.5 -76.5t53.5 -23.5q29 0 54.5 11t58.5 35l44 -74q-81 -68 -174 -68q-83 0 -130 51.5t-47 146.5q0 92 28 174.5t87 134t145 51.5q72 0 112.5 -38zM282 318q40 32 40 87q0 51 -46 51
q-48 0 -77 -51.5t-41 -128.5q84 10 124 42zM323 653q-13 7 -29 20q-12 10 -20.5 14.5t-16.5 4.5q-13 0 -23.5 -10.5t-24.5 -33.5l-56 34q23 45 51 72.5t59 27.5q18 0 31 -7t30 -21q12 -10 19 -14.5t16 -4.5q11 0 21.5 10t25.5 33l56 -33q-22 -47 -50.5 -73t-59.5 -26
q-16 0 -29 7z" />
    <glyph glyph-name="uni01DD" unicode="&#x1dd;" horiz-adv-x="450" 
d="M375 492.5q47 -51.5 47 -146.5q0 -92 -28 -174.5t-87 -134t-145 -51.5q-72 0 -112.5 38t-40.5 97q0 102 79.5 149.5t211.5 63.5v14q0 53 -18.5 76.5t-53.5 23.5q-29 0 -54.5 -11t-58.5 -35l-44 74q81 68 174 68q83 0 130 -51.5zM251 124.5q29 51.5 41 128.5
q-84 -10 -124 -42t-40 -87q0 -51 46 -51q48 0 77 51.5z" />
    <glyph glyph-name="uni0259" unicode="&#x259;" horiz-adv-x="450" 
d="M375 492.5q47 -51.5 47 -146.5q0 -92 -28 -174.5t-87 -134t-145 -51.5q-72 0 -112.5 38t-40.5 97q0 102 79.5 149.5t211.5 63.5v14q0 53 -18.5 76.5t-53.5 23.5q-29 0 -54.5 -11t-58.5 -35l-44 74q81 68 174 68q83 0 130 -51.5zM251 124.5q29 51.5 41 128.5
q-84 -10 -124 -42t-40 -87q0 -51 46 -51q48 0 77 51.5z" />
    <glyph glyph-name="uni025A" unicode="&#x25a;" horiz-adv-x="658" 
d="M688 346q-48 -35 -103 -35t-84 31.5t-27 81.5v18l-58 -37q6 -28 6 -62q-1 -92 -29 -173.5t-86.5 -132.5t-144.5 -51q-72 0 -112.5 38t-40.5 97q0 102 79.5 149.5t211.5 63.5v14q0 53 -18.5 76.5t-53.5 23.5q-29 0 -54.5 -11t-58.5 -35l-44 74q81 68 174 68
q49 0 86.5 -18.5t59.5 -53.5l91 57h101l-12 -85q-3 -23 6.5 -34.5t28.5 -11.5q14 0 26 4t28 11zM251 124.5q29 51.5 41 128.5q-84 -10 -124 -42t-40 -87q0 -51 46 -51q48 0 77 51.5z" />
    <glyph glyph-name="uni0292" unicode="&#x292;" horiz-adv-x="411" 
d="M392 441l-191 -236q80 -4 120 -46t40 -116q0 -77 -32 -136.5t-88 -91.5t-125 -32q-62 0 -105 24.5t-72 72.5l74 59q25 -33 48.5 -46.5t56.5 -13.5q54 0 86.5 45t32.5 117q0 49 -22.5 69t-69.5 20h-74l1 1l11 77l181 226h-218l13 95h346z" />
    <glyph glyph-name="uni01EF" unicode="&#x1ef;" horiz-adv-x="411" 
d="M392 441l-191 -236q80 -4 120 -46t40 -116q0 -77 -32 -136.5t-88 -91.5t-125 -32q-62 0 -105 24.5t-72 72.5l74 59q25 -33 48.5 -46.5t56.5 -13.5q54 0 86.5 45t32.5 117q0 49 -22.5 69t-69.5 20h-74l1 1l11 77l181 226h-218l13 95h346zM371 794l43 -50l-133 -124h-74
l-98 124l48 50l94 -85z" />
    <glyph glyph-name="uni0293" unicode="&#x293;" horiz-adv-x="407" 
d="M390 441l-189 -231q78 -4 117.5 -46t39.5 -118q0 -90 -45.5 -154.5t-123.5 -91.5l16 -62l-67 -22l-16 69q-24 -2 -39 -2q-72 0 -112.5 33.5t-40.5 93.5q0 57 34 92.5t82 35.5t74.5 -31.5t42.5 -109.5q36 19 53.5 57t17.5 90q0 48 -22.5 68.5t-71.5 20.5h-71l11 75
l182 226h-219l14 95h345zM32 -109q16 -11 53 -11h15q-11 52 -22 70t-30 18q-15 0 -23.5 -12t-8.5 -31q0 -23 16 -34z" />
    <glyph glyph-name="uni01B9" unicode="&#x1b9;" horiz-adv-x="413" 
d="M410 434h-224l126 -228l-12 -76l-2 1l1 -1h-70q-60 0 -92.5 -40t-32.5 -110q0 -50 20.5 -75t58.5 -25q34 0 62.5 14.5t62.5 46.5l57 -64q-80 -94 -197 -94q-89 0 -139.5 52t-50.5 140q0 102 60 165.5t163 68.5l-134 232l12 88h345z" />
    <glyph glyph-name="uni01BA" unicode="&#x1ba;" horiz-adv-x="400" 
d="M-0.5 -161q-28.5 32 -28.5 72q0 58 37.5 88t120.5 53q64 17 89.5 37t25.5 60q0 26 -13.5 37t-43.5 11h-110l11 76l157 164h-207l13 92h345l-13 -85l-167 -169h18q64 0 99.5 -31.5t35.5 -90.5q0 -77 -48.5 -120t-135.5 -65q-44 -11 -66 -20.5t-29.5 -19t-7.5 -23.5
t8.5 -26t26.5 -25l-39 -71q-50 24 -78.5 56z" />
    <glyph glyph-name="f" unicode="f" horiz-adv-x="285" 
d="M261 642.5q-16 -18.5 -21 -58.5l-8 -55h104l-27 -89h-89l-56 -403q-11 -79 -38 -127t-65 -74t-100 -53l-29 90q35 16 56 34t35 49t21 84l55 400h-66l13 89h65l9 62q10 74 56 119t121 45q67 0 120 -41l-44 -73q-34 20 -66 20q-30 0 -46 -18.5z" />
    <glyph glyph-name="uni1E1F" unicode="&#x1e1f;" horiz-adv-x="285" 
d="M261 642.5q-16 -18.5 -21 -58.5l-8 -55h104l-27 -89h-89l-56 -403q-11 -79 -38 -127t-65 -74t-100 -53l-29 90q35 16 56 34t35 49t21 84l55 400h-66l13 89h65l9 62q10 74 56 119t121 45q67 0 120 -41l-44 -73q-34 20 -66 20q-30 0 -46 -18.5zM250.5 837.5
q-17.5 17.5 -17.5 47.5q0 38 23.5 61t58.5 23q31 0 48.5 -17.5t17.5 -47.5q0 -37 -24 -60.5t-58 -23.5q-31 0 -48.5 17.5z" />
    <glyph glyph-name="uni02A9" unicode="&#x2a9;" horiz-adv-x="720" 
d="M660.5 511q28.5 -33 28.5 -90q0 -17 -3 -35l-55 -386l-8 -60q-11 -78 -57.5 -117.5t-116.5 -39.5q-37 0 -62 11.5t-46 30.5l52 70q16 -10 27 -14.5t27 -4.5q22 0 36 15t18 43l9 66l52 372q2 16 2 22q0 43 -30 43q-42 0 -103 -123l-43 -314h-121l62 440h-109l-56 -403
q-11 -79 -38 -127t-65 -74t-100 -53l-29 90q35 16 56 34t35 49t21 84l55 400h-66l13 89h65l9 62q10 74 56 119t121 45q67 0 120 -41l-44 -73q-34 20 -66 20q-30 0 -46 -18.5t-21 -58.5l-8 -55h214l-5 -88q32 49 66.5 76t77.5 27q47 0 75.5 -33z" />
    <glyph glyph-name="g" unicode="g" horiz-adv-x="480" 
d="M461 499l-68 -486q-18 -121 -74 -176.5t-154 -55.5q-44 0 -86 14t-76 39l45 82q60 -37 114 -37q44 0 73 26t39 96l9 68q-26 -34 -53 -51.5t-66 -17.5q-64 0 -100 49t-36 132q0 91 28 173.5t88.5 135.5t153.5 53q83 0 163 -44zM212.5 412.5q-31.5 -40.5 -47 -103.5
t-15.5 -130q0 -45 13 -65.5t39 -20.5q24 0 46 20t46 56l38 276q-19 8 -41 8q-47 0 -78.5 -40.5z" />
    <glyph glyph-name="uni01F5" unicode="&#x1f5;" horiz-adv-x="480" 
d="M461 499l-68 -486q-18 -121 -74 -176.5t-154 -55.5q-44 0 -86 14t-76 39l45 82q60 -37 114 -37q44 0 73 26t39 96l9 68q-26 -34 -53 -51.5t-66 -17.5q-64 0 -100 49t-36 132q0 91 28 173.5t88.5 135.5t153.5 53q83 0 163 -44zM212.5 412.5q-31.5 -40.5 -47 -103.5
t-15.5 -130q0 -45 13 -65.5t39 -20.5q24 0 46 20t46 56l38 276q-19 8 -41 8q-47 0 -78.5 -40.5zM387 812l45 -91l-200 -90l-32 59z" />
    <glyph glyph-name="uni0263" unicode="&#x263;" horiz-adv-x="421" 
d="M246 71q17 -47 25 -82.5t8 -69.5q0 -66 -34 -101t-96 -35q-48 0 -75 26.5t-27 69.5q0 41 20.5 85.5t61.5 109.5l1 1l-91 454h128l33 -376l130 376h127zM177 0q-16 -29 -27.5 -60t-11.5 -50q0 -25 20 -25q15 0 23 14t8 38q0 33 -12 83z" />
    <glyph glyph-name="gbreve" unicode="&#x11f;" horiz-adv-x="480" 
d="M461 499l-68 -486q-18 -121 -74 -176.5t-154 -55.5q-44 0 -86 14t-76 39l45 82q60 -37 114 -37q44 0 73 26t39 96l9 68q-26 -34 -53 -51.5t-66 -17.5q-64 0 -100 49t-36 132q0 91 28 173.5t88.5 135.5t153.5 53q83 0 163 -44zM212.5 412.5q-31.5 -40.5 -47 -103.5
t-15.5 -130q0 -45 13 -65.5t39 -20.5q24 0 46 20t46 56l38 276q-19 8 -41 8q-47 0 -78.5 -40.5zM216 680.5q-32 42.5 -27 111.5l68 10q5 -75 57 -75q27 0 48.5 20.5t33.5 57.5l65 -18q-14 -68 -53.5 -108.5t-97.5 -40.5q-62 0 -94 42.5z" />
    <glyph glyph-name="gcaron" unicode="&#x1e7;" horiz-adv-x="480" 
d="M461 499l-68 -486q-18 -121 -74 -176.5t-154 -55.5q-44 0 -86 14t-76 39l45 82q60 -37 114 -37q44 0 73 26t39 96l9 68q-26 -34 -53 -51.5t-66 -17.5q-64 0 -100 49t-36 132q0 91 28 173.5t88.5 135.5t153.5 53q83 0 163 -44zM212.5 412.5q-31.5 -40.5 -47 -103.5
t-15.5 -130q0 -45 13 -65.5t39 -20.5q24 0 46 20t46 56l38 276q-19 8 -41 8q-47 0 -78.5 -40.5zM431 794l43 -50l-133 -124h-74l-98 124l48 50l94 -85z" />
    <glyph glyph-name="gcircumflex" unicode="&#x11d;" horiz-adv-x="480" 
d="M461 499l-68 -486q-18 -121 -74 -176.5t-154 -55.5q-44 0 -86 14t-76 39l45 82q60 -37 114 -37q44 0 73 26t39 96l9 68q-26 -34 -53 -51.5t-66 -17.5q-64 0 -100 49t-36 132q0 91 28 173.5t88.5 135.5t153.5 53q83 0 163 -44zM212.5 412.5q-31.5 -40.5 -47 -103.5
t-15.5 -130q0 -45 13 -65.5t39 -20.5q24 0 46 20t46 56l38 276q-19 8 -41 8q-47 0 -78.5 -40.5zM204 630l-44 51l134 125h74l100 -130l-53 -46l-93 87z" />
    <glyph glyph-name="gcommaaccent" unicode="&#x123;" horiz-adv-x="480" 
d="M461 499l-68 -486q-18 -121 -74 -176.5t-154 -55.5q-44 0 -86 14t-76 39l45 82q60 -37 114 -37q44 0 73 26t39 96l9 68q-26 -34 -53 -51.5t-66 -17.5q-64 0 -100 49t-36 132q0 91 28 173.5t88.5 135.5t153.5 53q83 0 163 -44zM212.5 412.5q-31.5 -40.5 -47 -103.5
t-15.5 -130q0 -45 13 -65.5t39 -20.5q24 0 46 20t46 56l38 276q-19 8 -41 8q-47 0 -78.5 -40.5zM262 601.5q-16 16.5 -16 40.5q0 20 7 37.5t28 54.5l49 87h61l-40 -117q22 -19 22 -46q0 -32 -19.5 -52.5t-48.5 -20.5q-27 0 -43 16.5z" />
    <glyph glyph-name="gdotaccent" unicode="&#x121;" horiz-adv-x="480" 
d="M461 499l-68 -486q-18 -121 -74 -176.5t-154 -55.5q-44 0 -86 14t-76 39l45 82q60 -37 114 -37q44 0 73 26t39 96l9 68q-26 -34 -53 -51.5t-66 -17.5q-64 0 -100 49t-36 132q0 91 28 173.5t88.5 135.5t153.5 53q83 0 163 -44zM212.5 412.5q-31.5 -40.5 -47 -103.5
t-15.5 -130q0 -45 13 -65.5t39 -20.5q24 0 46 20t46 56l38 276q-19 8 -41 8q-47 0 -78.5 -40.5zM260.5 661.5q-17.5 17.5 -17.5 47.5q0 38 23.5 61t58.5 23q31 0 48.5 -17.5t17.5 -47.5q0 -37 -24 -60.5t-58 -23.5q-31 0 -48.5 17.5z" />
    <glyph glyph-name="uni0260" unicode="&#x260;" horiz-adv-x="484" 
d="M625 715l-49 -72q-23 17 -50 17q-41 0 -50 -61l-10 -70l-73 -516q-17 -121 -73.5 -176.5t-154.5 -55.5q-44 0 -86 14t-76 39l45 82q60 -37 114 -37q44 0 73 26t39 96l9 68q-26 -34 -53 -51.5t-66 -17.5q-64 0 -100 49t-36 132q0 90 28 173t86.5 136t146.5 53q30 0 57 -9
l9 64q10 73 52.5 114.5t112.5 41.5q60 0 105 -39zM333 446q-17 7 -42 7q-47 0 -78.5 -40.5t-47 -103.5t-15.5 -130q0 -45 13 -65.5t39 -20.5q24 0 46 20t46 56z" />
    <glyph glyph-name="uni01BE" unicode="&#x1be;" horiz-adv-x="419" 
d="M381 259q0 -79 -30 -141t-83 -97t-120 -35q-54 0 -95.5 23t-74.5 67l69 58q24 -28 46 -41t51 -13q53 0 82.5 48.5t29.5 127.5q0 52 -19 80t-60 41l-45 14l21 147h-53l12 80h52l17 122l122 12l-19 -134h90l-12 -80h-89l-15 -104l22 -9q101 -39 101 -166z" />
    <glyph glyph-name="uni0294" unicode="&#x294;" horiz-adv-x="390" 
d="M119 351l37 15q67 27 96 72t29 123q0 48 -18 73.5t-54 25.5q-29 0 -54.5 -13.5t-56.5 -42.5l-53 64q44 44 87.5 65t96.5 21q82 0 131.5 -52t49.5 -137q0 -102 -38.5 -159t-118.5 -92l-20 -8l-42 -306h-121z" />
    <glyph glyph-name="uni0296" unicode="&#x296;" horiz-adv-x="419" 
d="M303 752l-45 -318l22 -9q101 -39 101 -166q0 -79 -30 -141t-83 -97t-120 -35q-54 0 -95.5 23t-74.5 67l69 58q24 -28 46 -41t51 -13q53 0 82.5 48.5t29.5 127.5q0 52 -19 80t-60 41l-45 14l49 349z" />
    <glyph glyph-name="uni0295" unicode="&#x295;" horiz-adv-x="386" 
d="M122 0l42 305l-15 8q-47 25 -72.5 61.5t-25.5 105.5q0 77 30.5 139.5t84.5 98.5t121 36q54 0 93.5 -22.5t72.5 -67.5l-67 -58q-24 28 -45.5 41t-50.5 13q-53 0 -84 -49.5t-31 -128.5q0 -50 20 -78t61 -44l34 -12l-47 -348h-121z" />
    <glyph glyph-name="uni0242" unicode="&#x242;" horiz-adv-x="373" 
d="M85 199l45 16q56 20 82 55.5t26 93.5q0 39 -16 61.5t-45 22.5q-27 0 -49 -12.5t-49 -38.5l-51 69q75 77 170 77q74 0 119 -48t45 -124q0 -156 -136 -208l-27 -10l-21 -153h-121z" />
    <glyph glyph-name="uni02A1" unicode="&#x2a1;" horiz-adv-x="390" 
d="M233 306l-12 -88h83l-12 -80h-82l-19 -138h-121l19 138h-55l12 80h54l19 133l37 15q67 27 96 72t29 123q0 48 -18 73.5t-54 25.5q-29 0 -54.5 -13.5t-56.5 -42.5l-53 64q44 44 87.5 65t96.5 21q82 0 131.5 -52t49.5 -137q0 -102 -38.5 -159t-118.5 -92z" />
    <glyph glyph-name="uni02A2" unicode="&#x2a2;" horiz-adv-x="386" 
d="M380.5 731.5q39.5 -22.5 72.5 -67.5l-67 -58q-24 28 -45.5 41t-50.5 13q-53 0 -84 -49.5t-31 -128.5q0 -50 20 -78t61 -44l34 -12l-18 -130h57l-12 -80h-55l-19 -138h-121l19 138h-83l12 80h82l12 87l-15 8q-47 25 -72.5 61.5t-25.5 105.5q0 77 30.5 139.5t84.5 98.5
t121 36q54 0 93.5 -22.5z" />
    <glyph glyph-name="uni0261" unicode="&#x261;" horiz-adv-x="480" 
d="M461 499l-68 -486q-18 -121 -74 -176.5t-154 -55.5q-44 0 -86 14t-76 39l45 82q60 -37 114 -37q44 0 73 26t39 96l9 68q-26 -34 -53 -51.5t-66 -17.5q-64 0 -100 49t-36 132q0 91 28 173.5t88.5 135.5t153.5 53q83 0 163 -44zM212.5 412.5q-31.5 -40.5 -47 -103.5
t-15.5 -130q0 -45 13 -65.5t39 -20.5q24 0 46 20t46 56l38 276q-19 8 -41 8q-47 0 -78.5 -40.5z" />
    <glyph glyph-name="uni01E5" unicode="&#x1e5;" horiz-adv-x="479" 
d="M387 -14h48l-8 -62h-56q-27 -74 -78 -108.5t-129 -34.5q-44 0 -86 14t-76 39l44 78q59 -36 115 -36q63 0 90 48h-93l8 62h105v2l13 98q-25 -33 -52 -51t-66 -18q-64 0 -100.5 49.5t-36.5 134.5q0 82 27.5 160.5t88 130t152.5 51.5q83 0 163 -44l-68 -486q-1 -9 -5 -27z
M250 130q22 20 46 56l35 259q-19 8 -41 8q-46 0 -77.5 -39t-46 -97.5t-14.5 -116.5q0 -48 13 -69t39 -21q24 0 46 20z" />
    <glyph glyph-name="uni021D" unicode="&#x21d;" horiz-adv-x="406" 
d="M331 506.5q42 -36.5 42 -99.5q0 -55 -31.5 -87t-90.5 -48q55 -1 82.5 -25.5t27.5 -69.5q0 -105 -93 -175.5t-254 -106.5l-1 85q115 40 169 84.5t54 109.5q0 26 -15 36.5t-46 10.5h-68l20 85h33q40 0 64.5 23.5t24.5 67.5q0 57 -53 57q-26 0 -49 -9.5t-52 -27.5l-46 68
q40 30 81.5 44t89.5 14q69 0 111 -36.5z" />
    <glyph glyph-name="h" unicode="h" horiz-adv-x="472" 
d="M411.5 511q28.5 -33 28.5 -90q0 -17 -3 -35l-55 -386h-121l52 372q2 16 2 22q0 43 -30 43q-42 0 -103 -123l-42 -314h-121l104 740l122 12l-43 -305q57 97 134 97q47 0 75.5 -33z" />
    <glyph glyph-name="hbar" unicode="&#x127;" horiz-adv-x="479" 
d="M419.5 511q28.5 -33 28.5 -90q0 -17 -3 -35l-55 -386h-121l52 372q2 16 2 22q0 43 -30 43q-42 0 -103 -123l-42 -314h-121l85 602h-52l11 79h52l8 59l122 12l-10 -71h115l-22 -79h-104l-22 -155q57 97 134 97q47 0 75.5 -33z" />
    <glyph glyph-name="uni021F" unicode="&#x21f;" horiz-adv-x="472" 
d="M411.5 511q28.5 -33 28.5 -90q0 -17 -3 -35l-55 -386h-121l52 372q2 16 2 22q0 43 -30 43q-42 0 -103 -123l-42 -314h-121l104 740l122 12l-43 -305q57 97 134 97q47 0 75.5 -33zM436 975l46 -51l-134 -122h-74l-100 128l49 45l97 -84z" />
    <glyph glyph-name="hcircumflex" unicode="&#x125;" horiz-adv-x="472" 
d="M411.5 511q28.5 -33 28.5 -90q0 -17 -3 -35l-55 -386h-121l52 372q2 16 2 22q0 43 -30 43q-42 0 -103 -123l-42 -314h-121l104 740l122 12l-43 -305q57 97 134 97q47 0 75.5 -33zM205 808l-46 51l134 122h74l100 -128l-49 -45l-97 83z" />
    <glyph glyph-name="uni1E25" unicode="&#x1e25;" horiz-adv-x="472" 
d="M411.5 511q28.5 -33 28.5 -90q0 -17 -3 -35l-55 -386h-121l52 372q2 16 2 22q0 43 -30 43q-42 0 -103 -123l-42 -314h-121l104 740l122 12l-43 -305q57 97 134 97q47 0 75.5 -33zM238.5 -85.5q17.5 -17.5 17.5 -47.5q0 -38 -23.5 -61t-58.5 -23q-31 0 -48.5 17.5
t-17.5 47.5q0 37 24 60.5t58 23.5q31 0 48.5 -17.5z" />
    <glyph glyph-name="uni0267" unicode="&#x267;" horiz-adv-x="473" 
d="M412.5 511q28.5 -33 28.5 -90q0 -17 -3 -35l-55 -386l-8 -60q-11 -78 -57.5 -117.5t-116.5 -39.5q-37 0 -62 11.5t-46 30.5l52 70q16 -10 27 -14.5t27 -4.5q22 0 36 15t18 43l9 66l52 372q2 16 2 22q0 43 -30 43q-42 0 -103 -123l-43 -314h-121l74 528h-1l11 77
q10 68 55.5 108.5t121.5 40.5q61 0 116 -31l-45 -79q-33 16 -65 16q-29 0 -44 -17.5t-20 -53.5l-8 -61l-10 -80q56 96 133 96q47 0 75.5 -33z" />
    <glyph glyph-name="uni0266" unicode="&#x266;" horiz-adv-x="473" 
d="M412.5 511q28.5 -33 28.5 -90q0 -17 -3 -35l-55 -386h-121l52 372q2 16 2 22q0 43 -30 43q-42 0 -103 -123l-43 -314h-121l74 528h-1l11 77q10 68 55.5 108.5t121.5 40.5q61 0 116 -31l-45 -79q-33 16 -65 16q-29 0 -44 -17.5t-20 -53.5l-8 -61l-10 -80q56 96 133 96
q47 0 75.5 -33z" />
    <glyph glyph-name="uni0265" unicode="&#x265;" horiz-adv-x="468" 
d="M269 73q-28 -42 -57.5 -65t-74.5 -23q-48 0 -76.5 32.5t-28.5 87.5q0 20 2 31l55 393h121l-54 -386q-1 -6 -1 -17q0 -38 28 -38q25 0 49 26.5t53 71.5l47 343h121l-103 -734l-122 -14z" />
    <glyph glyph-name="uni02AE" unicode="&#x2ae;" horiz-adv-x="566" 
d="M551 529l-103 -734l-122 -14l42 292q-29 -42 -58.5 -65t-73.5 -23q-49 0 -77.5 33t-28.5 90q0 8 2 28l24 190l8 68q1 6 1 16q0 40 -40 40q-15 0 -26.5 -4.5t-27.5 -13.5l-36 72q49 39 117 39q63 0 98.5 -35t35.5 -98q0 -9 -2 -31l-7 -53l-23 -183q-1 -6 -1 -16
q0 -39 29 -39q25 0 49.5 27.5t51.5 70.5l47 343h121z" />
    <glyph glyph-name="uni02AF" unicode="&#x2af;" horiz-adv-x="567" 
d="M598 -178q-49 -39 -117 -39q-63 0 -98.5 35t-35.5 98q0 9 2 31l7 53h1l10 71q-28 -40 -57.5 -63t-73.5 -23q-49 0 -77.5 33t-28.5 90q0 8 2 28l24 190l8 68q1 6 1 16q0 40 -40 40q-15 0 -26.5 -4.5t-27.5 -13.5l-36 72q49 39 117 39q63 0 98.5 -35t35.5 -98q0 -9 -2 -31
l-7 -53l-23 -183q-1 -6 -1 -16q0 -39 29 -39q25 0 49.5 27.5t51.5 70.5l47 343h121l-73 -529h-1l-8 -68q-1 -6 -1 -16q0 -40 40 -40q15 0 26.5 4.5t27.5 13.5z" />
    <glyph glyph-name="uni0195" unicode="&#x195;" horiz-adv-x="713" 
d="M319 27.5q-38 41.5 -38 101.5q0 10 2 26l30 217q2 16 2 22q0 43 -30 43q-42 0 -103 -123l-42 -314h-121l104 740l122 12l-43 -305q57 97 134 97q47 0 75.5 -33t28.5 -90q0 -17 -3 -35l-33 -235q-1 -7 -1 -21q0 -51 42 -51q69 0 94.5 110.5t25.5 241.5q0 62 -4 98h115
q6 -48 6 -97q0 -204 -55 -325t-194 -121q-76 0 -114 41.5z" />
    <glyph glyph-name="i" unicode="i" horiz-adv-x="233" 
d="M214 529l-74 -529h-121l74 529h121zM120.5 661.5q-17.5 17.5 -17.5 47.5q0 38 23.5 61t58.5 23q31 0 48.5 -17.5t17.5 -47.5q0 -37 -24 -60.5t-58 -23.5q-31 0 -48.5 17.5z" />
    <glyph glyph-name="dotlessi" unicode="&#x131;" horiz-adv-x="233" 
d="M214 529l-74 -529h-121l74 529h121z" />
    <glyph glyph-name="iacute" unicode="&#xed;" horiz-adv-x="233" 
d="M214 529l-74 -529h-121l74 529h121zM247 812l45 -91l-200 -90l-32 59z" />
    <glyph glyph-name="ibreve" unicode="&#x12d;" horiz-adv-x="233" 
d="M214 529l-74 -529h-121l74 529h121zM76 680.5q-32 42.5 -27 111.5l68 10q5 -75 57 -75q27 0 48.5 20.5t33.5 57.5l65 -18q-14 -68 -53.5 -108.5t-97.5 -40.5q-62 0 -94 42.5z" />
    <glyph glyph-name="uni01D0" unicode="&#x1d0;" horiz-adv-x="233" 
d="M214 529l-74 -529h-121l74 529h121zM291 794l43 -50l-133 -124h-74l-98 124l48 50l94 -85z" />
    <glyph glyph-name="icircumflex" unicode="&#xee;" horiz-adv-x="233" 
d="M214 529l-74 -529h-121l74 529h121zM64 630l-44 51l134 125h74l100 -130l-53 -46l-93 87z" />
    <glyph glyph-name="uni0209" unicode="&#x209;" horiz-adv-x="233" 
d="M214 529l-74 -529h-121l74 529h121zM89 845l55 -188l-72 -27l-78 176zM228 844l47 -184l-71 -25l-72 172z" />
    <glyph glyph-name="idieresis" unicode="&#xef;" horiz-adv-x="233" 
d="M214 529l-74 -529h-121l74 529h121zM35.5 665q-15.5 16 -15.5 41q0 32 21 53.5t51 21.5q27 0 42.5 -16t15.5 -41q0 -32 -21.5 -53.5t-51.5 -21.5q-26 0 -41.5 16zM222 665q-16 16 -16 41q0 32 21.5 53.5t50.5 21.5q27 0 42.5 -16t15.5 -41q0 -33 -21 -54t-51 -21
q-26 0 -42 16z" />
    <glyph glyph-name="uni1E2F" unicode="&#x1e2f;" horiz-adv-x="233" 
d="M214 529l-74 -529h-121l74 529h121zM257 919l61 -62l-147 -139l-43 39zM20.5 629.5q-15.5 15.5 -15.5 41.5q0 32 21 53.5t51 21.5q27 0 42.5 -16t15.5 -41q0 -32 -21 -53.5t-52 -21.5q-26 0 -41.5 15.5zM212.5 629.5q-15.5 15.5 -15.5 41.5q0 32 21.5 53.5t51.5 21.5
q26 0 41.5 -16t15.5 -41q0 -32 -21 -53.5t-51 -21.5q-27 0 -42.5 15.5z" />
    <glyph glyph-name="i.loclTRK" horiz-adv-x="233" 
d="M214 529l-74 -529h-121l74 529h121zM120.5 661.5q-17.5 17.5 -17.5 47.5q0 38 23.5 61t58.5 23q31 0 48.5 -17.5t17.5 -47.5q0 -37 -24 -60.5t-58 -23.5q-31 0 -48.5 17.5z" />
    <glyph glyph-name="uni1ECB" unicode="&#x1ecb;" horiz-adv-x="233" 
d="M214 529l-74 -529h-121l74 529h121zM120.5 661.5q-17.5 17.5 -17.5 47.5q0 38 23.5 61t58.5 23q31 0 48.5 -17.5t17.5 -47.5q0 -37 -24 -60.5t-58 -23.5q-31 0 -48.5 17.5zM115.5 -85.5q17.5 -17.5 17.5 -47.5q0 -38 -23.5 -61t-58.5 -23q-31 0 -48.5 17.5t-17.5 47.5
q0 37 24 60.5t58 23.5q31 0 48.5 -17.5z" />
    <glyph glyph-name="igrave" unicode="&#xec;" horiz-adv-x="233" 
d="M214 529l-74 -529h-121l74 529h121zM136 810l159 -122l-37 -56l-179 89z" />
    <glyph glyph-name="uni1EC9" unicode="&#x1ec9;" horiz-adv-x="233" 
d="M214 529l-74 -529h-121l74 529h121zM138 704q33 4 48.5 14.5t15.5 33.5q0 27 -27 27q-22 0 -48 -13l-16 59q20 11 39.5 17t44.5 6q43 0 68 -24.5t25 -63.5q0 -81 -81 -97l-9 -54h-73z" />
    <glyph glyph-name="uni020B" unicode="&#x20b;" horiz-adv-x="233" 
d="M214 529l-74 -529h-121l74 529h121zM27 624q17 69 58 109t100 40q61 0 91.5 -42t26.5 -111l-69 -10q-5 75 -58 75q-57 0 -82 -79z" />
    <glyph glyph-name="ij" unicode="&#x133;" horiz-adv-x="467" 
d="M214 529l-74 -529h-121l74 529h121zM120.5 661.5q-17.5 17.5 -17.5 47.5q0 38 23.5 61t58.5 23q31 0 48.5 -17.5t17.5 -47.5q0 -37 -24 -60.5t-58 -23.5q-31 0 -48.5 17.5zM148 -127q35 16 55.5 33.5t34.5 49t22 84.5l68 489h121l-69 -492q-11 -79 -38.5 -127t-65 -74
t-100.5 -53zM356.5 661.5q-17.5 17.5 -17.5 47.5q0 38 23.5 61t58.5 23q31 0 48.5 -17.5t17.5 -47.5q0 -37 -24 -60.5t-58 -23.5q-31 0 -48.5 17.5z" />
    <glyph glyph-name="imacron" unicode="&#x12b;" horiz-adv-x="233" 
d="M214 529l-74 -529h-121l74 529h121zM292 661h-242l13 88h243z" />
    <glyph glyph-name="iogonek" unicode="&#x12f;" horiz-adv-x="233" 
d="M233.5 775.5q17.5 -17.5 17.5 -47.5q0 -37 -24 -60.5t-58 -23.5q-31 0 -48.5 17.5t-17.5 47.5q0 38 23.5 61t58.5 23q31 0 48.5 -17.5zM93 529h121l-74 -529h-31q-66 -32 -89.5 -61.5t-23.5 -59.5q0 -34 38 -34q20 0 48 5l-18 -80q-24 -7 -56 -7q-46 0 -74.5 27.5
t-28.5 73.5q0 45 27.5 82t88.5 68z" />
    <glyph glyph-name="uni0269" unicode="&#x269;" horiz-adv-x="245" 
d="M88 529h120l-57 -412q-1 -4 -1 -10q0 -22 19 -22q11 0 22 4l13 -85q-34 -18 -78 -18q-46 0 -71.5 27t-25.5 74q0 9 2 27z" />
    <glyph glyph-name="uni0268" unicode="&#x268;" horiz-adv-x="269" 
d="M138.5 661.5q-17.5 17.5 -17.5 47.5q0 38 23.5 61t58.5 23q31 0 48.5 -17.5t17.5 -47.5q0 -37 -24 -60.5t-58 -23.5q-31 0 -48.5 17.5zM270 326l-13 -88h-66l-33 -238h-121l33 238h-67l13 88h67l28 203h121l-28 -203h66z" />
    <glyph glyph-name="itilde" unicode="&#x129;" horiz-adv-x="233" 
d="M214 529l-74 -529h-121l74 529h121zM194 653q-13 7 -29 20q-12 10 -20.5 14.5t-16.5 4.5q-13 0 -23.5 -10.5t-24.5 -33.5l-56 34q23 45 51 72.5t59 27.5q18 0 31 -7t30 -21q12 -10 19 -14.5t16 -4.5q11 0 21.5 10t25.5 33l56 -33q-22 -47 -50.5 -73t-59.5 -26
q-16 0 -29 7z" />
    <glyph glyph-name="j" unicode="j" horiz-adv-x="234" 
d="M-85 -127q35 16 55.5 33.5t34.5 49t22 84.5l68 489h121l-69 -492q-11 -79 -38.5 -127t-65 -74t-100.5 -53zM123.5 661.5q-17.5 17.5 -17.5 47.5q0 38 23.5 61t58.5 23q31 0 48.5 -17.5t17.5 -47.5q0 -37 -24 -60.5t-58 -23.5q-31 0 -48.5 17.5z" />
    <glyph glyph-name="uni0237" unicode="&#x237;" horiz-adv-x="234" 
d="M-85 -127q35 16 55.5 33.5t34.5 49t22 84.5l68 489h121l-69 -492q-11 -79 -38.5 -127t-65 -74t-100.5 -53z" />
    <glyph glyph-name="uni01F0" unicode="&#x1f0;" horiz-adv-x="234" 
d="M-85 -127q35 16 55.5 33.5t34.5 49t22 84.5l68 489h121l-69 -492q-11 -79 -38.5 -127t-65 -74t-100.5 -53zM294 794l43 -50l-133 -124h-74l-98 124l48 50l94 -85z" />
    <glyph glyph-name="jcircumflex" unicode="&#x135;" horiz-adv-x="234" 
d="M-85 -127q35 16 55.5 33.5t34.5 49t22 84.5l68 489h121l-69 -492q-11 -79 -38.5 -127t-65 -74t-100.5 -53zM67 630l-44 51l134 125h74l100 -130l-53 -46l-93 87z" />
    <glyph glyph-name="uni029D" unicode="&#x29d;" horiz-adv-x="322" 
d="M283.5 775.5q17.5 -17.5 17.5 -47.5q0 -37 -24 -60.5t-58 -23.5q-31 0 -48.5 17.5t-17.5 47.5q0 38 23.5 61t58.5 23q31 0 48.5 -17.5zM263 529l-76 -541q42 -12 76 -36l-30 -53q-34 17 -58 25q-19 -67 -62 -103.5t-111 -36.5q-52 0 -81.5 28t-29.5 78q0 58 37 91t94 33
q34 0 47 -4l73 519h121zM39 -122.5q15 22.5 21 65.5l1 5q-16 4 -39 4q-27 0 -42 -16t-15 -43q0 -38 34 -38q25 0 40 22.5z" />
    <glyph glyph-name="uni025F" unicode="&#x25f;" horiz-adv-x="271" 
d="M256 207h-65l-24 -170q-11 -79 -38.5 -127t-65 -74t-100.5 -53l-28 90q35 16 55.5 33.5t34.5 49t22 84.5l23 167h-68l12 89h69l32 233h121l-33 -233h66z" />
    <glyph glyph-name="uni0284" unicode="&#x284;" horiz-adv-x="325" 
d="M403 715l-49 -72q-23 17 -50 17q-41 0 -50 -61l-10 -70h1l-63 -440h66l-12 -89h-67q-14 -65 -41 -105.5t-63 -64t-93 -47.5l-29 90q45 21 68.5 47t36.5 80h-67l13 89h68l61 440l10 69q10 73 52.5 114.5t112.5 41.5q60 0 105 -39z" />
    <glyph glyph-name="uni0249" unicode="&#x249;" horiz-adv-x="271" 
d="M256 207h-65l-24 -170q-11 -79 -38.5 -127t-65 -74t-100.5 -53l-28 90q35 16 55.5 33.5t34.5 49t22 84.5l23 167h-68l12 89h69l32 233h121l-33 -233h66zM143.5 661.5q-17.5 17.5 -17.5 47.5q0 38 23.5 61t58.5 23q31 0 48.5 -17.5t17.5 -47.5q0 -37 -24 -60.5t-58 -23.5
q-31 0 -48.5 17.5z" />
    <glyph glyph-name="k" unicode="k" horiz-adv-x="471" 
d="M203 452q32 46 67.5 68.5t79.5 22.5q53 0 85 -32t32 -85q0 -60 -32.5 -105.5t-100.5 -81.5l80 -239h-127l-77 257q73 26 103.5 62t30.5 88q0 47 -38 47q-28 0 -59.5 -32.5t-62.5 -96.5l-44 -325h-121l104 741l122 13z" />
    <glyph glyph-name="uni01E9" unicode="&#x1e9;" horiz-adv-x="471" 
d="M203 452q32 46 67.5 68.5t79.5 22.5q53 0 85 -32t32 -85q0 -60 -32.5 -105.5t-100.5 -81.5l80 -239h-127l-77 257q73 26 103.5 62t30.5 88q0 47 -38 47q-28 0 -59.5 -32.5t-62.5 -96.5l-44 -325h-121l104 741l122 13zM461 975l46 -51l-134 -122h-74l-100 128l49 45
l97 -84z" />
    <glyph glyph-name="kcommaaccent" unicode="&#x137;" horiz-adv-x="471" 
d="M203 452q32 46 67.5 68.5t79.5 22.5q53 0 85 -32t32 -85q0 -60 -32.5 -105.5t-100.5 -81.5l80 -239h-127l-77 257q73 26 103.5 62t30.5 88q0 47 -38 47q-28 0 -59.5 -32.5t-62.5 -96.5l-44 -325h-121l104 741l122 13zM241 -89.5q16 -16.5 16 -40.5q0 -20 -7 -37.5
t-28 -54.5l-49 -87h-61l40 117q-22 19 -22 46q0 32 19.5 52.5t48.5 20.5q27 0 43 -16.5z" />
    <glyph glyph-name="kgreenlandic" unicode="&#x138;" horiz-adv-x="447" 
d="M214 529l-74 -529h-121l74 529h121zM476 529l-170 -249l107 -280h-130l-101 279l167 250h127z" />
    <glyph glyph-name="uni0199" unicode="&#x199;" horiz-adv-x="472" 
d="M435.5 320.5q-32.5 -45.5 -100.5 -81.5l80 -239h-127l-78 257q74 26 104 62t30 88q0 47 -38 47q-28 0 -59.5 -33t-61.5 -96l-45 -325h-121l74 528h-1l11 77q10 68 55.5 108.5t121.5 40.5q61 0 116 -31l-45 -79q-33 16 -65 16q-29 0 -44 -17.5t-20 -53.5l-8 -61l-10 -78
q32 47 67.5 70t78.5 23q53 0 85.5 -32.5t32.5 -84.5q0 -60 -32.5 -105.5z" />
    <glyph glyph-name="uni029E" unicode="&#x29e;" horiz-adv-x="441" 
d="M-32 0l174 248l-108 281h130l98 -289l-162 -240h-132zM202 -219l104 748h121l-104 -734z" />
    <glyph glyph-name="l" unicode="l" horiz-adv-x="245" 
d="M151 117q-1 -4 -1 -10q0 -22 19 -22q11 0 22 4l13 -85q-34 -18 -78 -18q-47 0 -72.5 26.5t-25.5 74.5q0 9 2 27l88 627l121 13z" />
    <glyph glyph-name="lacute" unicode="&#x13a;" horiz-adv-x="245" 
d="M151 117q-1 -4 -1 -10q0 -22 19 -22q11 0 22 4l13 -85q-34 -18 -78 -18q-47 0 -72.5 26.5t-25.5 74.5q0 9 2 27l88 627l121 13zM271 973l45 -92l-201 -80l-30 59z" />
    <glyph glyph-name="uni019B" unicode="&#x19b;" horiz-adv-x="420" 
d="M355.5 182q15.5 -87 49.5 -156l-114 -39q-30 77 -43 166t-13 243l-140 -410l-120 29l208 483l47 -9q-2 61 -11 95l-52 -56l-60 43l73 76q-22 17 -69 28l23 80q40 -11 68 -23t49 -30l72 70l42 -60l-69 -71q30 -66 36 -198q8 -174 23.5 -261z" />
    <glyph glyph-name="uni019A" unicode="&#x19a;" horiz-adv-x="272" 
d="M174 117q-1 -4 -1 -10q0 -22 19 -22q11 0 22 4l13 -85q-34 -18 -78 -18q-47 0 -72.5 26.5t-25.5 74.5q0 9 2 27l30 214h-67l13 88h66l46 325l121 13l-47 -338h68l-13 -88h-67z" />
    <glyph glyph-name="uni026C" unicode="&#x26c;" horiz-adv-x="345" 
d="M269 89l13 -85q-34 -18 -78 -18q-47 0 -72.5 26.5t-25.5 74.5q0 9 2 27l19 134h-1q-57 3 -86 30.5t-29 74.5q0 53 33 85.5t83 32.5q17 0 30 -5l39 275l121 13l-60 -432h1q23 1 56 8l5 -67q-33 -10 -71 -13h-1l-18 -133q-1 -4 -1 -10q0 -22 19 -22q11 0 22 4zM148 402
q-9 3 -19 3q-17 0 -27 -12.5t-10 -34.5q0 -37 45 -37z" />
    <glyph glyph-name="lcaron" unicode="&#x13e;" horiz-adv-x="279" 
d="M151 117q-1 -4 -1 -10q0 -22 19 -22q11 0 22 4l13 -85q-34 -18 -78 -18q-47 0 -72.5 26.5t-25.5 74.5q0 9 2 27l88 627l121 13zM282 752l91 -12l-67 -198l-63 8z" />
    <glyph glyph-name="uni1E3D" unicode="&#x1e3d;" horiz-adv-x="245" 
d="M151 117q-1 -4 -1 -10q0 -22 19 -22q11 0 22 4l13 -85q-34 -18 -78 -18q-47 0 -72.5 26.5t-25.5 74.5q0 9 2 27l88 627l121 13zM-16 -242l-45 51l134 125h74l100 -130l-52 -46l-93 87z" />
    <glyph glyph-name="lcommaaccent" unicode="&#x13c;" horiz-adv-x="245" 
d="M151 117q-1 -4 -1 -10q0 -22 19 -22q11 0 22 4l13 -85q-34 -18 -78 -18q-47 0 -72.5 26.5t-25.5 74.5q0 9 2 27l88 627l121 13zM146 -89.5q16 -16.5 16 -40.5q0 -20 -7 -37.5t-28 -54.5l-49 -87h-61l40 117q-22 19 -22 46q0 32 19.5 52.5t48.5 20.5q27 0 43 -16.5z" />
    <glyph glyph-name="uni0234" unicode="&#x234;" horiz-adv-x="374" 
d="M340 206q24 -25 24 -70q0 -72 -48 -111t-122 -39q-23 0 -43 3l-35 -68l-56 28l34 60q-30 18 -45.5 48t-15.5 68q0 10 2 30l83 586l121 13l-86 -622l-1 -8q27 58 55.5 82.5t69.5 24.5q39 0 63 -25zM263 94q17 15 17 41q0 24 -21 24q-15 0 -28.5 -16.5t-34.5 -62.5
q7 -1 23 -1q27 0 44 15z" />
    <glyph glyph-name="ldot" unicode="&#x140;" horiz-adv-x="341" 
d="M151 117q-1 -4 -1 -10q0 -22 19 -22q11 0 22 4l13 -85q-34 -18 -78 -18q-47 0 -72.5 26.5t-25.5 74.5q0 9 2 27l88 627l121 13zM240.5 319.5q-17.5 17.5 -17.5 47.5q0 38 23.5 61t58.5 23q31 0 48.5 -17.5t17.5 -47.5q0 -37 -24 -60.5t-58 -23.5q-31 0 -48.5 17.5z" />
    <glyph glyph-name="uni1E37" unicode="&#x1e37;" horiz-adv-x="245" 
d="M151 117q-1 -4 -1 -10q0 -22 19 -22q11 0 22 4l13 -85q-34 -18 -78 -18q-47 0 -72.5 26.5t-25.5 74.5q0 9 2 27l88 627l121 13zM155.5 -85.5q17.5 -17.5 17.5 -47.5q0 -38 -23.5 -61t-58.5 -23q-31 0 -48.5 17.5t-17.5 47.5q0 37 24 60.5t58 23.5q31 0 48.5 -17.5z" />
    <glyph glyph-name="uni026E" unicode="&#x26e;" horiz-adv-x="577" 
d="M558 441l-192 -236q81 -4 121 -45.5t40 -116.5q0 -77 -32 -136.5t-88 -91.5t-126 -32q-118 0 -177 97l74 59q25 -33 48.5 -46.5t56.5 -13.5q54 0 86.5 45t32.5 117q0 49 -22 69t-69 20h-75l1 1l11 77l181 226h-234l-44 -317q-1 -4 -1 -10q0 -22 19 -22q11 0 22 4l13 -85
q-34 -18 -78 -18q-47 0 -72.5 26.5t-25.5 74.5q0 9 2 27l88 627l121 13l-31 -225h362z" />
    <glyph glyph-name="uni026D" unicode="&#x26d;" horiz-adv-x="232" 
d="M260 -178q-49 -39 -117 -39q-63 0 -98.5 35t-35.5 98q0 9 2 31l7 53h1l104 741l122 13l-105 -754h-1l-8 -68q-1 -6 -1 -16q0 -40 40 -40q15 0 26.5 4.5t27.5 13.5z" />
    <glyph glyph-name="uni01C9" unicode="&#x1c9;" horiz-adv-x="479" 
d="M151 117q-1 -4 -1 -10q0 -22 19 -22q11 0 22 4l13 -85q-34 -18 -78 -18q-47 0 -72.5 26.5t-25.5 74.5q0 9 2 27l88 627l121 13zM160 -127q35 16 55.5 33.5t34.5 49t22 84.5l68 489h121l-69 -492q-11 -79 -38.5 -127t-65 -74t-100.5 -53zM368.5 661.5
q-17.5 17.5 -17.5 47.5q0 38 23.5 61t58.5 23q31 0 48.5 -17.5t17.5 -47.5q0 -37 -24 -60.5t-58 -23.5q-31 0 -48.5 17.5z" />
    <glyph glyph-name="uni026B" unicode="&#x26b;" horiz-adv-x="357" 
d="M211 117q-1 -4 -1 -10q0 -22 19 -22q11 0 22 4l13 -85q-34 -18 -78 -18q-47 0 -72.5 26.5t-25.5 74.5q0 9 2 27l33 234q-4 1 -11 1q-19 0 -33 -12.5t-34 -38.5l-59 36q32 49 64.5 78.5t74.5 29.5q7 0 11 -1l42 300l121 13l-51 -372h4q20 0 35.5 12.5t30.5 34.5l60 -36
q-30 -47 -62.5 -76t-75.5 -29h-5z" />
    <glyph glyph-name="uni02AA" unicode="&#x2aa;" horiz-adv-x="566" 
d="M94 27.5q-56 41.5 -56 127.5q0 14 4 46l76 540l123 13l-79 -557q-2 -22 -2 -31q0 -48 26.5 -67.5t84.5 -19.5q136 0 136 84q0 26 -16.5 43t-61.5 37q-55 25 -78.5 55.5t-23.5 81.5q0 44 23 81.5t63.5 59.5t91.5 22q93 0 155 -65l-54 -67q-25 21 -47 31t-48 10
q-31 0 -49 -17t-18 -47q0 -25 16.5 -40.5t58.5 -34.5q54 -24 80.5 -57t26.5 -85q0 -92 -72.5 -138.5t-198.5 -46.5q-105 0 -161 41.5z" />
    <glyph glyph-name="lslash" unicode="&#x142;" horiz-adv-x="275" 
d="M209 89l13 -85q-34 -18 -78 -18q-47 0 -72.5 26.5t-25.5 74.5q0 9 2 27l24 170l-36 -23l-26 71l75 48l51 361l121 13l-40 -290l58 37l26 -72l-97 -62l-35 -250q-1 -4 -1 -10q0 -22 19 -22q11 0 22 4z" />
    <glyph glyph-name="uni02AB" unicode="&#x2ab;" horiz-adv-x="574" 
d="M577 440l-245 -343h203l-26 -97h-317q-34 -14 -66 -14q-47 0 -72.5 26.5t-25.5 74.5q0 9 2 27l88 627l121 13l-88 -637q-1 -4 -1 -10q0 -22 19 -22q11 0 22 4l244 343h-180l15 97h320z" />
    <glyph glyph-name="m" unicode="m" horiz-adv-x="690" 
d="M631.5 511q27.5 -33 27.5 -90q0 -17 -3 -35l-56 -386h-121l52 372q2 18 2 25q0 42 -25 42q-21 0 -42.5 -31t-50.5 -91l-46 -317h-121l52 372q2 18 2 25q0 42 -25 42q-21 0 -43.5 -32t-50.5 -92l-43 -315h-121l74 529h105l-5 -86q29 48 61.5 74.5t73.5 26.5q39 0 65 -25.5
t32 -72.5q31 48 62.5 73t71.5 25q45 0 72.5 -33z" />
    <glyph glyph-name="uni1E3F" unicode="&#x1e3f;" horiz-adv-x="690" 
d="M631.5 511q27.5 -33 27.5 -90q0 -17 -3 -35l-56 -386h-121l52 372q2 18 2 25q0 42 -25 42q-21 0 -42.5 -31t-50.5 -91l-46 -317h-121l52 372q2 18 2 25q0 42 -25 42q-21 0 -43.5 -32t-50.5 -92l-43 -315h-121l74 529h105l-5 -86q29 48 61.5 74.5t73.5 26.5q39 0 65 -25.5
t32 -72.5q31 48 62.5 73t71.5 25q45 0 72.5 -33zM483 812l45 -91l-200 -90l-32 59z" />
    <glyph glyph-name="uni1E41" unicode="&#x1e41;" horiz-adv-x="690" 
d="M631.5 511q27.5 -33 27.5 -90q0 -17 -3 -35l-56 -386h-121l52 372q2 18 2 25q0 42 -25 42q-21 0 -42.5 -31t-50.5 -91l-46 -317h-121l52 372q2 18 2 25q0 42 -25 42q-21 0 -43.5 -32t-50.5 -92l-43 -315h-121l74 529h105l-5 -86q29 48 61.5 74.5t73.5 26.5q39 0 65 -25.5
t32 -72.5q31 48 62.5 73t71.5 25q45 0 72.5 -33zM356.5 661.5q-17.5 17.5 -17.5 47.5q0 38 23.5 61t58.5 23q31 0 48.5 -17.5t17.5 -47.5q0 -37 -24 -60.5t-58 -23.5q-31 0 -48.5 17.5z" />
    <glyph glyph-name="uni0271" unicode="&#x271;" horiz-adv-x="690" 
d="M631.5 511q27.5 -33 27.5 -90q0 -17 -3 -35l-56 -386l-8 -60q-11 -78 -57.5 -117.5t-116.5 -39.5q-37 0 -62 11.5t-46 30.5l52 70q16 -10 27 -14.5t27 -4.5q22 0 36 15t18 43l9 66l52 372q2 18 2 25q0 42 -25 42q-21 0 -42.5 -31t-50.5 -91l-46 -317h-121l52 372
q2 18 2 25q0 42 -25 42q-21 0 -43.5 -32t-50.5 -92l-43 -315h-121l74 529h105l-5 -86q29 48 61.5 74.5t73.5 26.5q39 0 65 -25.5t32 -72.5q31 48 62.5 73t71.5 25q45 0 72.5 -33z" />
    <glyph glyph-name="uni0270" unicode="&#x270;" horiz-adv-x="686" 
d="M671 529l-103 -734l-123 -14l42 296q-51 -92 -124 -92q-40 0 -66 26t-32 73q-31 -49 -62.5 -74t-70.5 -25q-45 0 -72.5 33t-27.5 89q0 17 3 36l55 386h121l-52 -372q-2 -18 -2 -25q0 -41 25 -41q40 0 92 112l47 326h121l-52 -372q-2 -18 -2 -25q0 -41 25 -41q40 0 92 113
l45 325h121z" />
    <glyph glyph-name="uni026F" unicode="&#x26f;" horiz-adv-x="690" 
d="M671 529l-74 -529h-105l5 86q-29 -48 -61.5 -74.5t-73.5 -26.5q-39 0 -65 25.5t-32 72.5q-31 -48 -62.5 -73t-71.5 -25q-45 0 -72.5 33t-27.5 90q0 17 3 35l56 386h121l-52 -372q-2 -18 -2 -25q0 -42 25 -42q21 0 42.5 31t50.5 91l46 317h121l-52 -372q-2 -18 -2 -25
q0 -42 25 -42q21 0 43.5 32t50.5 92l43 315h121z" />
    <glyph glyph-name="n" unicode="n" horiz-adv-x="473" 
d="M412.5 511q28.5 -33 28.5 -90q0 -17 -3 -35l-55 -386h-121l52 372q2 16 2 22q0 43 -30 43q-42 0 -103 -123l-43 -314h-121l74 529h105l-5 -88q32 49 66.5 76t77.5 27q47 0 75.5 -33z" />
    <glyph glyph-name="nacute" unicode="&#x144;" horiz-adv-x="473" 
d="M412.5 511q28.5 -33 28.5 -90q0 -17 -3 -35l-55 -386h-121l52 372q2 16 2 22q0 43 -30 43q-42 0 -103 -123l-43 -314h-121l74 529h105l-5 -88q32 49 66.5 76t77.5 27q47 0 75.5 -33zM370 812l45 -91l-200 -90l-32 59z" />
    <glyph glyph-name="napostrophe" unicode="&#x149;" horiz-adv-x="575" 
d="M195.5 740.5q14.5 -15.5 14.5 -37.5q0 -19 -6.5 -35t-25.5 -51l-46 -81h-56l39 110q-21 16 -21 43q0 29 18 48t45 19q24 0 38.5 -15.5zM514.5 511q28.5 -33 28.5 -90q0 -17 -3 -35l-55 -386h-121l52 372q2 16 2 22q0 43 -30 43q-42 0 -103 -123l-43 -314h-121l74 529h105
l-5 -88q32 49 66.5 76t77.5 27q47 0 75.5 -33z" />
    <glyph glyph-name="ncaron" unicode="&#x148;" horiz-adv-x="473" 
d="M412.5 511q28.5 -33 28.5 -90q0 -17 -3 -35l-55 -386h-121l52 372q2 16 2 22q0 43 -30 43q-42 0 -103 -123l-43 -314h-121l74 529h105l-5 -88q32 49 66.5 76t77.5 27q47 0 75.5 -33zM414 794l43 -50l-133 -124h-74l-98 124l48 50l94 -85z" />
    <glyph glyph-name="uni1E4B" unicode="&#x1e4b;" horiz-adv-x="473" 
d="M412.5 511q28.5 -33 28.5 -90q0 -17 -3 -35l-55 -386h-121l52 372q2 16 2 22q0 43 -30 43q-42 0 -103 -123l-43 -314h-121l74 529h105l-5 -88q32 49 66.5 76t77.5 27q47 0 75.5 -33zM67 -242l-45 51l134 125h74l100 -130l-52 -46l-93 87z" />
    <glyph glyph-name="ncommaaccent" unicode="&#x146;" horiz-adv-x="473" 
d="M412.5 511q28.5 -33 28.5 -90q0 -17 -3 -35l-55 -386h-121l52 372q2 16 2 22q0 43 -30 43q-42 0 -103 -123l-43 -314h-121l74 529h105l-5 -88q32 49 66.5 76t77.5 27q47 0 75.5 -33zM229 -89.5q16 -16.5 16 -40.5q0 -20 -7 -37.5t-28 -54.5l-49 -87h-61l40 117
q-22 19 -22 46q0 32 19.5 52.5t48.5 20.5q27 0 43 -16.5z" />
    <glyph glyph-name="uni0235" unicode="&#x235;" horiz-adv-x="625" 
d="M591 207.5q24 -25.5 24 -68.5q0 -73 -48 -113t-122 -40q-27 0 -46 4l-35 -69l-54 28l34 61q-59 37 -59 119q0 10 2 32l26 204q2 11 2 29q0 43 -29 43q-25 0 -50 -33.5t-54 -95.5l-42 -308h-121l74 529h105l-6 -96q66 110 150 110q46 0 72 -32t26 -90q0 -19 -3 -42
l-32 -233q-2 -20 -2 -26q27 58 57 85.5t69 27.5q38 0 62 -25.5zM514 94q17 15 17 41q0 24 -20 24q-15 0 -28.5 -17t-34.5 -62q7 -1 22 -1q27 0 44 15z" />
    <glyph glyph-name="uni1E45" unicode="&#x1e45;" horiz-adv-x="473" 
d="M412.5 511q28.5 -33 28.5 -90q0 -17 -3 -35l-55 -386h-121l52 372q2 16 2 22q0 43 -30 43q-42 0 -103 -123l-43 -314h-121l74 529h105l-5 -88q32 49 66.5 76t77.5 27q47 0 75.5 -33zM243.5 661.5q-17.5 17.5 -17.5 47.5q0 38 23.5 61t58.5 23q31 0 48.5 -17.5t17.5 -47.5
q0 -37 -24 -60.5t-58 -23.5q-31 0 -48.5 17.5z" />
    <glyph glyph-name="uni1E47" unicode="&#x1e47;" horiz-adv-x="473" 
d="M412.5 511q28.5 -33 28.5 -90q0 -17 -3 -35l-55 -386h-121l52 372q2 16 2 22q0 43 -30 43q-42 0 -103 -123l-43 -314h-121l74 529h105l-5 -88q32 49 66.5 76t77.5 27q47 0 75.5 -33zM238.5 -85.5q17.5 -17.5 17.5 -47.5q0 -38 -23.5 -61t-58.5 -23q-31 0 -48.5 17.5
t-17.5 47.5q0 37 24 60.5t58 23.5q31 0 48.5 -17.5z" />
    <glyph glyph-name="uni01F9" unicode="&#x1f9;" horiz-adv-x="473" 
d="M412.5 511q28.5 -33 28.5 -90q0 -17 -3 -35l-55 -386h-121l52 372q2 16 2 22q0 43 -30 43q-42 0 -103 -123l-43 -314h-121l74 529h105l-5 -88q32 49 66.5 76t77.5 27q47 0 75.5 -33zM259 810l159 -122l-37 -56l-179 89z" />
    <glyph glyph-name="eng" unicode="&#x14b;" horiz-adv-x="473" 
d="M412.5 511q28.5 -33 28.5 -90q0 -17 -3 -35l-55 -386l-8 -60q-11 -78 -57.5 -117.5t-116.5 -39.5q-37 0 -62 11.5t-46 30.5l52 70q16 -10 27 -14.5t27 -4.5q22 0 36 15t18 43l9 66l52 372q2 16 2 22q0 43 -30 43q-42 0 -103 -123l-43 -314h-121l74 529h105l-5 -88
q32 49 66.5 76t77.5 27q47 0 75.5 -33z" />
    <glyph glyph-name="uni0272" unicode="&#x272;" horiz-adv-x="473" 
d="M412.5 511q28.5 -33 28.5 -90q0 -17 -3 -35l-55 -386h-121l52 372q2 16 2 22q0 43 -30 43q-42 0 -103 -123l-43 -314l-8 -60q-11 -78 -57.5 -117.5t-116.5 -39.5q-37 0 -62 11.5t-46 30.5l52 70q16 -10 27 -14.5t27 -4.5q22 0 36 15t18 43l9 66l74 529h105l-5 -88
q32 49 66.5 76t77.5 27q47 0 75.5 -33z" />
    <glyph glyph-name="uni0273" unicode="&#x273;" horiz-adv-x="473" 
d="M504 -178q-49 -39 -117 -39q-63 0 -98.5 35t-35.5 98q0 9 2 31l7 53l52 372q2 16 2 22q0 43 -30 43q-42 0 -103 -123l-43 -314h-121l74 529h105l-5 -88q32 49 66.5 76t77.5 27q47 0 75.5 -33t28.5 -90q0 -17 -3 -35l-55 -386l-8 -68q-1 -6 -1 -16q0 -40 40 -40
q15 0 26.5 4.5t27.5 13.5z" />
    <glyph glyph-name="uni01CC" unicode="&#x1cc;" horiz-adv-x="707" 
d="M412.5 511q28.5 -33 28.5 -90q0 -17 -3 -35l-55 -386h-121l52 372q2 16 2 22q0 43 -30 43q-42 0 -103 -123l-43 -314h-121l74 529h105l-5 -88q32 49 66.5 76t77.5 27q47 0 75.5 -33zM388 -127q35 16 55.5 33.5t34.5 49t22 84.5l68 489h121l-69 -492q-11 -79 -38.5 -127
t-65 -74t-100.5 -53zM596.5 661.5q-17.5 17.5 -17.5 47.5q0 38 23.5 61t58.5 23q31 0 48.5 -17.5t17.5 -47.5q0 -37 -24 -60.5t-58 -23.5q-31 0 -48.5 17.5z" />
    <glyph glyph-name="uni019E" unicode="&#x19e;" horiz-adv-x="473" 
d="M412.5 511q28.5 -33 28.5 -90q0 -17 -3 -35l-84 -591l-124 -14l84 591q2 18 2 23q0 42 -30 42q-42 0 -103 -123l-43 -314h-121l74 529h105l-5 -88q32 49 66.5 76t77.5 27q47 0 75.5 -33z" />
    <glyph glyph-name="ntilde" unicode="&#xf1;" horiz-adv-x="473" 
d="M412.5 511q28.5 -33 28.5 -90q0 -17 -3 -35l-55 -386h-121l52 372q2 16 2 22q0 43 -30 43q-42 0 -103 -123l-43 -314h-121l74 529h105l-5 -88q32 49 66.5 76t77.5 27q47 0 75.5 -33zM317 653q-13 7 -29 20q-12 10 -20.5 14.5t-16.5 4.5q-13 0 -23.5 -10.5t-24.5 -33.5
l-56 34q23 45 51 72.5t59 27.5q18 0 31 -7t30 -21q12 -10 19 -14.5t16 -4.5q11 0 21.5 10t25.5 33l56 -33q-22 -47 -50.5 -73t-59.5 -26q-16 0 -29 7z" />
    <glyph glyph-name="o" unicode="o" horiz-adv-x="485" 
d="M74 38.5q-46 53.5 -46 149.5q0 88 27.5 169t85 133.5t142.5 52.5q83 0 128.5 -52.5t45.5 -149.5q0 -87 -27 -168.5t-84.5 -134.5t-142.5 -53q-83 0 -129 53.5zM282.5 124.5q27.5 45.5 39.5 109t12 122.5q0 94 -59 94q-44 0 -71.5 -45t-39.5 -109t-12 -123q0 -94 59 -94
q44 0 71.5 45.5z" />
    <glyph glyph-name="oacute" unicode="&#xf3;" horiz-adv-x="485" 
d="M74 38.5q-46 53.5 -46 149.5q0 88 27.5 169t85 133.5t142.5 52.5q83 0 128.5 -52.5t45.5 -149.5q0 -87 -27 -168.5t-84.5 -134.5t-142.5 -53q-83 0 -129 53.5zM282.5 124.5q27.5 45.5 39.5 109t12 122.5q0 94 -59 94q-44 0 -71.5 -45t-39.5 -109t-12 -123q0 -94 59 -94
q44 0 71.5 45.5zM375 812l45 -91l-200 -90l-32 59z" />
    <glyph glyph-name="uni0275" unicode="&#x275;" horiz-adv-x="485" 
d="M411.5 490.5q45.5 -52.5 45.5 -149.5q0 -87 -27 -168.5t-84.5 -134.5t-142.5 -53q-83 0 -129 53.5t-46 149.5q0 88 27.5 169t85 133.5t142.5 52.5q83 0 128.5 -52.5zM203.5 412q-28.5 -40 -43.5 -104h178q2 34 2 47q0 97 -63 97q-45 0 -73.5 -40zM284 120q29 43 43 110
h-178q-3 -30 -3 -56q0 -50 15.5 -73.5t47.5 -23.5q46 0 75 43z" />
    <glyph glyph-name="obreve" unicode="&#x14f;" horiz-adv-x="485" 
d="M74 38.5q-46 53.5 -46 149.5q0 88 27.5 169t85 133.5t142.5 52.5q83 0 128.5 -52.5t45.5 -149.5q0 -87 -27 -168.5t-84.5 -134.5t-142.5 -53q-83 0 -129 53.5zM282.5 124.5q27.5 45.5 39.5 109t12 122.5q0 94 -59 94q-44 0 -71.5 -45t-39.5 -109t-12 -123q0 -94 59 -94
q44 0 71.5 45.5zM204 680.5q-32 42.5 -27 111.5l68 10q5 -75 57 -75q27 0 48.5 20.5t33.5 57.5l65 -18q-14 -68 -53.5 -108.5t-97.5 -40.5q-62 0 -94 42.5z" />
    <glyph glyph-name="uni01D2" unicode="&#x1d2;" horiz-adv-x="485" 
d="M74 38.5q-46 53.5 -46 149.5q0 88 27.5 169t85 133.5t142.5 52.5q83 0 128.5 -52.5t45.5 -149.5q0 -87 -27 -168.5t-84.5 -134.5t-142.5 -53q-83 0 -129 53.5zM282.5 124.5q27.5 45.5 39.5 109t12 122.5q0 94 -59 94q-44 0 -71.5 -45t-39.5 -109t-12 -123q0 -94 59 -94
q44 0 71.5 45.5zM419 794l43 -50l-133 -124h-74l-98 124l48 50l94 -85z" />
    <glyph glyph-name="ocircumflex" unicode="&#xf4;" horiz-adv-x="485" 
d="M74 38.5q-46 53.5 -46 149.5q0 88 27.5 169t85 133.5t142.5 52.5q83 0 128.5 -52.5t45.5 -149.5q0 -87 -27 -168.5t-84.5 -134.5t-142.5 -53q-83 0 -129 53.5zM282.5 124.5q27.5 45.5 39.5 109t12 122.5q0 94 -59 94q-44 0 -71.5 -45t-39.5 -109t-12 -123q0 -94 59 -94
q44 0 71.5 45.5zM192 630l-44 51l134 125h74l100 -130l-53 -46l-93 87z" />
    <glyph glyph-name="uni1ED1" unicode="&#x1ed1;" horiz-adv-x="485" 
d="M513 921l61 -62l-147 -139l-43 39zM181 587l-46 51l134 122h74l100 -128l-49 -45l-97 83zM74 38.5q-46 53.5 -46 149.5q0 88 27.5 169t85 133.5t142.5 52.5q83 0 128.5 -52.5t45.5 -149.5q0 -87 -27 -168.5t-84.5 -134.5t-142.5 -53q-83 0 -129 53.5zM282.5 124.5
q27.5 45.5 39.5 109t12 122.5q0 94 -59 94q-44 0 -71.5 -45t-39.5 -109t-12 -123q0 -94 59 -94q44 0 71.5 45.5z" />
    <glyph glyph-name="uni1ED9" unicode="&#x1ed9;" horiz-adv-x="485" 
d="M74 38.5q-46 53.5 -46 149.5q0 88 27.5 169t85 133.5t142.5 52.5q83 0 128.5 -52.5t45.5 -149.5q0 -87 -27 -168.5t-84.5 -134.5t-142.5 -53q-83 0 -129 53.5zM282.5 124.5q27.5 45.5 39.5 109t12 122.5q0 94 -59 94q-44 0 -71.5 -45t-39.5 -109t-12 -123q0 -94 59 -94
q44 0 71.5 45.5zM192 630l-44 51l134 125h74l100 -130l-53 -46l-93 87zM239.5 -85.5q17.5 -17.5 17.5 -47.5q0 -38 -23.5 -61t-58.5 -23q-31 0 -48.5 17.5t-17.5 47.5q0 37 24 60.5t58 23.5q31 0 48.5 -17.5z" />
    </font>
</defs>
</svg>
