<?xml version="1.0" standalone="no"?>
<!DOCTYPE svg PUBLIC "-//W3C//DTD SVG 1.1//EN" "http://www.w3.org/Graphics/SVG/1.1/DTD/svg11.dtd" >
<svg>
<metadata>
Created by FontForge 20120731 at Fri May  5 11:04:34 2017
 By www-data
Digitized data copyright 2012-2016, The Mozilla Foundation and Telefonica S.A.
</metadata>
<defs>
<font id="FiraSansExtraCondensed-ExtraBold" horiz-adv-x="460" >
  <font-face 
    font-family="Fira Sans Extra Condensed ExtraBold"
    font-weight="800"
    font-stretch="ultra-condensed"
    units-per-em="1000"
    panose-1="2 11 9 3 5 0 0 2 0 4"
    ascent="800"
    descent="-200"
    x-height="533"
    cap-height="695"
    bbox="-665 -355 1360 1204"
    underline-thickness="50"
    underline-position="-50"
    unicode-range="U+000D-FEFF"
  />
<missing-glyph horiz-adv-x="666" 
d="M543 1050v-1400h-420v1400h420zM489 998h-311v-1296h311v1296zM409.5 419q25.5 -32 25.5 -83q0 -53 -22.5 -82t-72.5 -36v-45q0 -11 -7.5 -17.5t-17.5 -6.5t-17.5 6.5t-7.5 17.5v84q53 3 72 19.5t19 57.5q0 33 -13 51t-48 18q-29 0 -52 -11q-8 -3 -13 -3q-11 0 -17.5 6.5
t-6.5 16.5q0 19 29.5 29t63.5 10q60 0 85.5 -32zM340 110q10 -10 10 -25q0 -16 -10 -26.5t-25 -10.5t-25 10.5t-10 26.5q0 15 10 25t25 10t25 -10z" />
    <glyph glyph-name="fi" unicode="fi" horiz-adv-x="515" 
d="M363 749.5q43 -11.5 72 -29.5l-43 -106q-50 23 -96 23q-32 0 -45 -13.5t-13 -46.5v-44h241v-533h-170v415h-71v-415h-170v415h-66v118h66v52q0 76 50 126t153 50q49 0 92 -11.5z" />
    <glyph glyph-name="fl" unicode="fl" horiz-adv-x="552" 
d="M561 1q-40 -19 -90 -19q-69 0 -107 39.5t-38 108.5v504q-18 6 -39 6q-28 0 -38.5 -13.5t-10.5 -46.5v-47h65l-19 -118h-46v-415h-170v415h-66v118h66v52q0 76 48.5 126t139.5 50q41 0 96 -17l144 14v-620q0 -22 19 -22q7 0 17 2z" />
    <glyph glyph-name=".notdef" horiz-adv-x="666" 
d="M543 1050v-1400h-420v1400h420zM489 998h-311v-1296h311v1296zM409.5 419q25.5 -32 25.5 -83q0 -53 -22.5 -82t-72.5 -36v-45q0 -11 -7.5 -17.5t-17.5 -6.5t-17.5 6.5t-7.5 17.5v84q53 3 72 19.5t19 57.5q0 33 -13 51t-48 18q-29 0 -52 -11q-8 -3 -13 -3q-11 0 -17.5 6.5
t-6.5 16.5q0 19 29.5 29t63.5 10q60 0 85.5 -32zM340 110q10 -10 10 -25q0 -16 -10 -26.5t-25 -10.5t-25 10.5t-10 26.5q0 15 10 25t25 10t25 -10z" />
    <glyph glyph-name="nonmarkingreturn" unicode="&#xd;" horiz-adv-x="177" 
 />
    <glyph glyph-name="space" unicode=" " horiz-adv-x="177" 
 />
    <glyph glyph-name="A" unicode="A" horiz-adv-x="511" 
d="M347 0l-24 145h-138l-23 -145h-177l166 695h210l165 -695h-179zM206 271h97l-49 297z" />
    <glyph glyph-name="Aacute" unicode="&#xc1;" horiz-adv-x="511" 
d="M347 0l-24 145h-138l-23 -145h-177l166 695h210l165 -695h-179zM206 271h97l-49 297zM318 956l63 -120l-209 -86l-43 82z" />
    <glyph glyph-name="Abreve" unicode="&#x102;" horiz-adv-x="511" 
d="M347 0l-24 145h-138l-23 -145h-177l166 695h210l165 -695h-179zM206 271h97l-49 297zM146 795.5q-38 46.5 -44 122.5l87 17q14 -69 67 -69t66 69l88 -17q-6 -76 -44 -122.5t-110 -46.5t-110 46.5z" />
    <glyph glyph-name="uni1EAE" unicode="&#x1eae;" horiz-adv-x="511" 
d="M347 0l-24 145h-138l-23 -145h-177l166 695h210l165 -695h-179zM206 271h97l-49 297zM147 782.5q-38 46.5 -44 122.5l87 17q14 -69 67 -69t66 69l88 -17q-6 -76 -44 -122.5t-110 -46.5t-110 46.5zM322 1142l98 -84l-152 -148l-65 53z" />
    <glyph glyph-name="uni1EB6" unicode="&#x1eb6;" horiz-adv-x="511" 
d="M347 0l-24 145h-138l-23 -145h-177l166 695h210l165 -695h-179zM206 271h97l-49 297zM146 795.5q-38 46.5 -44 122.5l87 17q14 -69 67 -69t66 69l88 -17q-6 -76 -44 -122.5t-110 -46.5t-110 46.5zM188.5 -220q-26.5 27 -26.5 67q0 41 26.5 68t68.5 27t68 -27t26 -68
q0 -40 -26.5 -67t-67.5 -27q-42 0 -68.5 27z" />
    <glyph glyph-name="uni1EB0" unicode="&#x1eb0;" horiz-adv-x="511" 
d="M347 0l-24 145h-138l-23 -145h-177l166 695h210l165 -695h-179zM206 271h97l-49 297zM147 782.5q-38 46.5 -44 122.5l87 17q14 -69 67 -69t66 69l88 -17q-6 -76 -44 -122.5t-110 -46.5t-110 46.5zM201 1142l120 -179l-65 -53l-152 148z" />
    <glyph glyph-name="uni1EB2" unicode="&#x1eb2;" horiz-adv-x="511" 
d="M347 0l-24 145h-138l-23 -145h-177l166 695h210l165 -695h-179zM206 271h97l-49 297zM146 782.5q-38 46.5 -44 122.5l87 17q14 -69 67 -69t66 69l88 -17q-6 -76 -44 -122.5t-110 -46.5t-110 46.5zM210 1002q32 2 45 10t13 28q0 14 -8 21.5t-21 7.5q-15 0 -25 -2.5
t-27 -9.5l-24 68q41 26 98 26q54 0 83 -28t29 -75q0 -39 -18 -63t-53 -31v-42h-92v90z" />
    <glyph glyph-name="uni1EB4" unicode="&#x1eb4;" horiz-adv-x="511" 
d="M347 0l-24 145h-138l-23 -145h-177l166 695h210l165 -695h-179zM206 271h97l-49 297zM145 782.5q-38 46.5 -44 122.5l87 17q14 -69 67 -69t66 69l88 -17q-6 -76 -44 -122.5t-110 -46.5t-110 46.5zM272 958.5q-14 5.5 -31 16.5q-19 14 -33 14t-23 -8.5t-20 -27.5l-77 32
q16 49 47 79.5t70 30.5q19 0 32.5 -5.5t32.5 -16.5q2 -1 13 -7.5t21 -6.5q13 0 21.5 8t19.5 27l77 -32q-16 -50 -46.5 -79.5t-69.5 -29.5q-20 0 -34 5.5z" />
    <glyph glyph-name="uni01CD" unicode="&#x1cd;" horiz-adv-x="511" 
d="M347 0l-24 145h-138l-23 -145h-177l166 695h210l165 -695h-179zM206 271h97l-49 297zM369 945l56 -59l-120 -137h-100l-119 137l57 59l113 -84z" />
    <glyph glyph-name="Acircumflex" unicode="&#xc2;" horiz-adv-x="511" 
d="M347 0l-24 145h-138l-23 -145h-177l166 695h210l165 -695h-179zM206 271h97l-49 297zM143 759l-57 59l120 137h100l119 -137l-56 -59l-113 84z" />
    <glyph glyph-name="uni1EA4" unicode="&#x1ea4;" horiz-adv-x="511" 
d="M347 0l-24 145h-138l-23 -145h-177l166 695h210l165 -695h-179zM206 271h97l-49 297zM144 727l-57 59l120 137h100l119 -137l-56 -59l-113 84zM464 1105l98 -84l-152 -148l-65 53z" />
    <glyph glyph-name="uni1EAC" unicode="&#x1eac;" horiz-adv-x="511" 
d="M347 0l-24 145h-138l-23 -145h-177l166 695h210l165 -695h-179zM206 271h97l-49 297zM143 759l-57 59l120 137h100l119 -137l-56 -59l-113 84zM188.5 -220q-26.5 27 -26.5 67q0 41 26.5 68t68.5 27t68 -27t26 -68q0 -40 -26.5 -67t-67.5 -27q-42 0 -68.5 27z" />
    <glyph glyph-name="uni1EA6" unicode="&#x1ea6;" horiz-adv-x="511" 
d="M347 0l-24 145h-138l-23 -145h-177l166 695h210l165 -695h-179zM206 271h97l-49 297zM142 727l-57 59l120 137h100l119 -137l-56 -59l-113 84zM49 1105l120 -179l-65 -53l-152 148z" />
    <glyph glyph-name="uni1EA8" unicode="&#x1ea8;" horiz-adv-x="511" 
d="M347 0l-24 145h-138l-23 -145h-177l166 695h210l165 -695h-179zM206 271h97l-49 297zM143 727l-57 59l120 137h100l119 -137l-56 -59l-113 84zM365 953q32 2 45 10t13 28q0 14 -8 21.5t-21 7.5q-15 0 -25 -2.5t-27 -9.5l-24 68q41 26 98 26q54 0 83 -28t29 -75
q0 -39 -18 -63t-53 -31v-42h-92v90z" />
    <glyph glyph-name="uni1EAA" unicode="&#x1eaa;" horiz-adv-x="511" 
d="M347 0l-24 145h-138l-23 -145h-177l166 695h210l165 -695h-179zM206 271h97l-49 297zM142 727l-57 59l120 137h100l119 -137l-56 -59l-113 84zM272 961.5q-14 5.5 -31 16.5q-19 14 -33 14t-23 -8.5t-20 -27.5l-77 32q16 49 47 79.5t70 30.5q19 0 32.5 -5.5t32.5 -16.5
q2 -1 13 -7.5t21 -6.5q13 0 21.5 8t19.5 27l77 -32q-16 -50 -46.5 -79.5t-69.5 -29.5q-20 0 -34 5.5z" />
    <glyph glyph-name="uni0200" unicode="&#x200;" horiz-adv-x="511" 
d="M347 0l-24 145h-138l-23 -145h-177l166 695h210l165 -695h-179zM206 271h97l-49 297zM142 989l84 -201l-77 -38l-109 185zM300 989l79 -202l-80 -33l-103 185z" />
    <glyph glyph-name="Adieresis" unicode="&#xc4;" horiz-adv-x="511" 
d="M347 0l-24 145h-138l-23 -145h-177l166 695h210l165 -695h-179zM206 271h97l-49 297zM215.5 906.5q22.5 -23.5 22.5 -58.5q0 -36 -22 -59.5t-58 -23.5q-34 0 -57.5 24t-23.5 59t23.5 58.5t57.5 23.5q35 0 57.5 -23.5zM419.5 906.5q22.5 -23.5 22.5 -58.5
q0 -36 -22.5 -59.5t-58.5 -23.5q-34 0 -57.5 24t-23.5 59t23.5 58.5t57.5 23.5q36 0 58.5 -23.5z" />
    <glyph glyph-name="uni01DE" unicode="&#x1de;" horiz-adv-x="511" 
d="M347 0l-24 145h-138l-23 -145h-177l166 695h210l165 -695h-179zM206 271h97l-49 297zM212.5 886.5q22.5 -23.5 22.5 -58.5q0 -36 -22 -59.5t-58 -23.5q-34 0 -57.5 24t-23.5 59t23.5 58.5t57.5 23.5q35 0 57.5 -23.5zM416.5 886.5q22.5 -23.5 22.5 -58.5
q0 -36 -22.5 -59.5t-58.5 -23.5q-34 0 -57.5 24t-23.5 59t23.5 58.5t57.5 23.5q36 0 58.5 -23.5zM392 955h-270v113h270v-113z" />
    <glyph glyph-name="uni0226" unicode="&#x226;" horiz-adv-x="511" 
d="M347 0l-24 145h-138l-23 -145h-177l166 695h210l165 -695h-179zM206 271h97l-49 297zM323.5 915q26.5 -27 26.5 -67q0 -41 -26.5 -68t-68.5 -27t-68 27t-26 68q0 40 26.5 67t67.5 27q42 0 68.5 -27z" />
    <glyph glyph-name="uni1EA0" unicode="&#x1ea0;" horiz-adv-x="511" 
d="M347 0l-24 145h-138l-23 -145h-177l166 695h210l165 -695h-179zM206 271h97l-49 297zM188.5 -220q-26.5 27 -26.5 67q0 41 26.5 68t68.5 27t68 -27t26 -68q0 -40 -26.5 -67t-67.5 -27q-42 0 -68.5 27z" />
    <glyph glyph-name="uni01E0" unicode="&#x1e0;" horiz-adv-x="511" 
d="M347 0l-24 145h-138l-23 -145h-177l166 695h210l165 -695h-179zM206 271h97l-49 297zM323.5 897q26.5 -27 26.5 -67q0 -41 -26.5 -68t-68.5 -27t-68 27t-26 68q0 40 26.5 67t67.5 27q42 0 68.5 -27zM391 955h-270v113h270v-113z" />
    <glyph glyph-name="Agrave" unicode="&#xc0;" horiz-adv-x="511" 
d="M347 0l-24 145h-138l-23 -145h-177l166 695h210l165 -695h-179zM206 271h97l-49 297zM193 955l189 -124l-43 -82l-209 87z" />
    <glyph glyph-name="uni1EA2" unicode="&#x1ea2;" horiz-adv-x="511" 
d="M347 0l-24 145h-138l-23 -145h-177l166 695h210l165 -695h-179zM206 271h97l-49 297zM210 854q32 2 45 10t13 28q0 14 -8 21.5t-21 7.5q-15 0 -25 -2.5t-27 -9.5l-24 68q41 26 98 26q54 0 83 -28t29 -75q0 -39 -18 -63t-53 -31v-42h-92v90z" />
    <glyph glyph-name="uni0202" unicode="&#x202;" horiz-adv-x="511" 
d="M347 0l-24 145h-138l-23 -145h-177l166 695h210l165 -695h-179zM206 271h97l-49 297zM366.5 909q37.5 -48 43.5 -132l-88 -16q-13 81 -66 81t-67 -81l-87 16q6 84 43.5 132t110.5 48t110.5 -48z" />
    <glyph glyph-name="uni2C6D" unicode="&#x2c6d;" horiz-adv-x="572" 
d="M543 127.5q7 -13.5 26 -21.5l-48 -124q-48 8 -78.5 23.5t-49.5 41.5q-25 -32 -59.5 -48.5t-81.5 -16.5q-107 0 -168.5 90.5t-61.5 264.5q0 122 28.5 206.5t79 127t115.5 42.5q79 0 132 -60l9 42h150v-529q0 -25 7 -38.5zM359 138v413q-16 17 -32.5 25.5t-38.5 8.5
q-29 0 -46.5 -22t-26.5 -76t-9 -150q0 -92 9 -142.5t26.5 -69.5t45.5 -19q40 0 72 32z" />
    <glyph glyph-name="Amacron" unicode="&#x100;" horiz-adv-x="511" 
d="M347 0l-24 145h-138l-23 -145h-177l166 695h210l165 -695h-179zM206 271h97l-49 297zM391 781h-270v113h270v-113z" />
    <glyph glyph-name="Aogonek" unicode="&#x104;" horiz-adv-x="511" 
d="M357.5 -48.5q-19.5 -24.5 -19.5 -51.5q0 -23 11 -34.5t31 -11.5t49 8l-10 -102q-29 -8 -60 -8q-61 0 -99.5 31t-38.5 87q0 54 32 91.5t90 65.5l-20 118h-138l-23 -145h-177l166 695h210l165 -695h-95q-54 -24 -73.5 -48.5zM206 271h97l-49 297z" />
    <glyph glyph-name="Aring" unicode="&#xc5;" horiz-adv-x="511" 
d="M347 0l-24 145h-138l-23 -145h-177l166 695h210l165 -695h-179zM206 271h97l-49 297zM350.5 961.5q34.5 -37.5 34.5 -98.5q0 -60 -34.5 -98t-94.5 -38t-94.5 38t-34.5 98q0 61 34.5 98.5t94.5 37.5t94.5 -37.5zM231 903q-8 -12 -8 -40q0 -52 33 -52q34 0 34 52
q0 28 -8.5 40t-25.5 12t-25 -12z" />
    <glyph glyph-name="Aringacute" unicode="&#x1fa;" horiz-adv-x="511" 
d="M347 0l-24 145h-138l-23 -145h-177l166 695h210l165 -695h-179zM206 271h97l-49 297zM348.5 952.5q34.5 -37.5 34.5 -98.5q0 -60 -34.5 -98t-94.5 -38t-94.5 38t-34.5 98q0 61 34.5 98.5t94.5 37.5t94.5 -37.5zM229 894q-8 -12 -8 -40q0 -52 33 -52q34 0 34 52
q0 28 -8.5 40t-25.5 12t-25 -12zM317 1204l63 -120l-209 -86l-43 82z" />
    <glyph glyph-name="uni023A" unicode="&#x23a;" horiz-adv-x="511" 
d="M372 0l-29 145h-89l-48 -220l-53 12l45 208h-32l-29 -145h-152l166 695h167l13 61l53 -11l-17 -77l159 -668h-154zM189 262h35l50 232l-20 100zM279 262h41l-20 98z" />
    <glyph glyph-name="Atilde" unicode="&#xc3;" horiz-adv-x="511" 
d="M347 0l-24 145h-138l-23 -145h-177l166 695h210l165 -695h-179zM206 271h97l-49 297zM273 768.5q-14 6.5 -31 17.5q-21 15 -33 15q-14 0 -23 -9t-20 -30l-77 35q17 53 47.5 86.5t69.5 33.5q19 0 33 -6t32 -18q11 -8 18.5 -12t15.5 -4q13 0 21.5 9t19.5 30l77 -35
q-16 -54 -46.5 -86.5t-69.5 -32.5q-20 0 -34 6.5z" />
    <glyph glyph-name="AE" unicode="&#xc6;" horiz-adv-x="712" 
d="M508 126h192v-126h-341l-14 146h-144l-35 -146h-189l222 695h473l-18 -125h-199l19 -158h190v-122h-176zM231 271h101l-29 296z" />
    <glyph glyph-name="AEacute" unicode="&#x1fc;" horiz-adv-x="712" 
d="M508 126h192v-126h-341l-14 146h-144l-35 -146h-189l222 695h473l-18 -125h-199l19 -158h190v-122h-176zM231 271h101l-29 296zM466 956l63 -120l-209 -86l-43 82z" />
    <glyph glyph-name="uni01E2" unicode="&#x1e2;" horiz-adv-x="712" 
d="M508 126h192v-126h-341l-14 146h-144l-35 -146h-189l222 695h473l-18 -125h-199l19 -158h190v-122h-176zM231 271h101l-29 296zM539 781h-270v113h270v-113z" />
    <glyph glyph-name="B" unicode="B" horiz-adv-x="517" 
d="M507 203q0 -105 -72 -154t-195 -49h-203v695h180q126 0 196 -45t70 -134q0 -59 -32 -96t-82 -52q138 -34 138 -165zM214 571v-152h21q39 0 55 20t16 59q0 35 -16.5 54t-55.5 19h-20zM305 147.5q22 20.5 22 66.5t-19 68t-63 22h-31v-177h27q42 0 64 20.5z" />
    <glyph glyph-name="uni1E02" unicode="&#x1e02;" horiz-adv-x="517" 
d="M507 203q0 -105 -72 -154t-195 -49h-203v695h180q126 0 196 -45t70 -134q0 -59 -32 -96t-82 -52q138 -34 138 -165zM214 571v-152h21q39 0 55 20t16 59q0 35 -16.5 54t-55.5 19h-20zM305 147.5q22 20.5 22 66.5t-19 68t-63 22h-31v-177h27q42 0 64 20.5zM311.5 915
q26.5 -27 26.5 -67q0 -41 -26.5 -68t-68.5 -27t-68 27t-26 68q0 40 26.5 67t67.5 27q42 0 68.5 -27z" />
    <glyph glyph-name="uni1E04" unicode="&#x1e04;" horiz-adv-x="517" 
d="M507 203q0 -105 -72 -154t-195 -49h-203v695h180q126 0 196 -45t70 -134q0 -59 -32 -96t-82 -52q138 -34 138 -165zM214 571v-152h21q39 0 55 20t16 59q0 35 -16.5 54t-55.5 19h-20zM305 147.5q22 20.5 22 66.5t-19 68t-63 22h-31v-177h27q42 0 64 20.5zM193.5 -220
q-26.5 27 -26.5 67q0 41 26.5 68t68.5 27t68 -27t26 -68q0 -40 -26.5 -67t-67.5 -27q-42 0 -68.5 27z" />
    <glyph glyph-name="uniA7B4" unicode="&#xa7b4;" horiz-adv-x="517" 
d="M507 204q0 -70 -32.5 -116t-83.5 -67t-109 -21q-31 0 -68 5v-217h-177v907h184q126 0 194 -45t68 -135q0 -59 -31.5 -95.5t-82.5 -51.5q138 -34 138 -164zM327 220q0 45 -15.5 64.5t-50.5 19.5h-14l8 115h6q45 0 45 75q0 39 -16 58t-53 19h-23v-442q20 -2 32 -2
q81 0 81 93z" />
    <glyph glyph-name="uni0181" unicode="&#x181;" horiz-adv-x="664" 
d="M654 203q0 -105 -72 -154t-195 -49h-203v570h-18q-17 0 -25.5 -10.5t-8.5 -28.5q0 -31 17 -68l-107 -45q-20 31 -30.5 61.5t-10.5 69.5q0 67 46 106.5t128 39.5h189q126 0 196 -45t70 -134q0 -59 -32 -96t-82 -52q138 -34 138 -165zM361 571v-152h21q39 0 55 20t16 59
q0 35 -16.5 54t-55.5 19h-20zM452 147.5q22 20.5 22 66.5t-19 68t-63 22h-31v-177h27q42 0 64 20.5z" />
    <glyph glyph-name="uni0181.ss02" horiz-adv-x="508" 
d="M437.5 394q61.5 -55 61.5 -163q0 -115 -64 -173t-181 -58h-217v695h391l-17 -133h-197v-113h46q116 0 177.5 -55zM298.5 151.5q16.5 24.5 16.5 77.5q0 50 -17 74.5t-59 24.5h-25v-201h29q39 0 55.5 24.5z" />
    <glyph glyph-name="uni0243" unicode="&#x243;" horiz-adv-x="528" 
d="M518 203q0 -105 -72 -154t-195 -49h-203v178h-36v79h36v438h180q126 0 196 -45t70 -134q0 -59 -32 -96t-82 -52q138 -34 138 -165zM225 571v-152h21q39 0 55 20t16 59q0 35 -16.5 54t-55.5 19h-20zM316 147.5q22 20.5 22 66.5t-19 68t-63 22h-31v-47h64v-79h-64v-51h27
q42 0 64 20.5z" />
    <glyph glyph-name="uni0182" unicode="&#x182;" horiz-adv-x="508" 
d="M437.5 394q61.5 -55 61.5 -163q0 -115 -64 -173t-181 -58h-217v695h391l-17 -133h-197v-113h46q116 0 177.5 -55zM298.5 151.5q16.5 24.5 16.5 77.5q0 50 -17 74.5t-59 24.5h-25v-201h29q39 0 55.5 24.5z" />
    <glyph glyph-name="C" unicode="C" horiz-adv-x="489" 
d="M485 635l-81 -96q-25 22 -47.5 33t-47.5 11q-52 0 -77.5 -54t-25.5 -180q0 -124 26 -178.5t77 -54.5q28 0 49.5 12t54.5 39l78 -94q-37 -40 -87.5 -65.5t-111.5 -25.5q-124 0 -197 92.5t-73 274.5q0 119 34.5 200.5t96 122.5t142.5 41q107 0 190 -78z" />
    <glyph glyph-name="Cacute" unicode="&#x106;" horiz-adv-x="489" 
d="M485 635l-81 -96q-25 22 -47.5 33t-47.5 11q-52 0 -77.5 -54t-25.5 -180q0 -124 26 -178.5t77 -54.5q28 0 49.5 12t54.5 39l78 -94q-37 -40 -87.5 -65.5t-111.5 -25.5q-124 0 -197 92.5t-73 274.5q0 119 34.5 200.5t96 122.5t142.5 41q107 0 190 -78zM365 956l63 -120
l-209 -86l-43 82z" />
    <glyph glyph-name="Cacute.loclPLK" horiz-adv-x="489" 
d="M485 635l-81 -96q-25 22 -47.5 33t-47.5 11q-52 0 -77.5 -54t-25.5 -180q0 -124 26 -178.5t77 -54.5q28 0 49.5 12t54.5 39l78 -94q-37 -40 -87.5 -65.5t-111.5 -25.5q-124 0 -197 92.5t-73 274.5q0 119 34.5 200.5t96 122.5t142.5 41q107 0 190 -78zM306 972l124 -69
l-124 -159l-74 43z" />
    <glyph glyph-name="Ccaron" unicode="&#x10c;" horiz-adv-x="489" 
d="M485 635l-81 -96q-25 22 -47.5 33t-47.5 11q-52 0 -77.5 -54t-25.5 -180q0 -124 26 -178.5t77 -54.5q28 0 49.5 12t54.5 39l78 -94q-37 -40 -87.5 -65.5t-111.5 -25.5q-124 0 -197 92.5t-73 274.5q0 119 34.5 200.5t96 122.5t142.5 41q107 0 190 -78zM416 945l56 -59
l-120 -137h-100l-119 137l57 59l113 -84z" />
    <glyph glyph-name="Ccedilla" unicode="&#xc7;" horiz-adv-x="489" 
d="M328 -16v-35q91 -16 91 -98q0 -52 -36 -84.5t-101 -32.5q-59 0 -105 32l36 71q28 -13 56 -13q33 0 33 29q0 17 -18.5 25t-58.5 8l12 101q-100 19 -157.5 110t-57.5 252q0 119 34.5 200.5t96 122.5t142.5 41q107 0 190 -78l-81 -96q-25 22 -47.5 33t-47.5 11
q-52 0 -77.5 -54t-25.5 -180q0 -124 26 -178.5t77 -54.5q28 0 49.5 12t54.5 39l78 -94q-70 -76 -163 -89z" />
    <glyph glyph-name="Ccircumflex" unicode="&#x108;" horiz-adv-x="489" 
d="M485 635l-81 -96q-25 22 -47.5 33t-47.5 11q-52 0 -77.5 -54t-25.5 -180q0 -124 26 -178.5t77 -54.5q28 0 49.5 12t54.5 39l78 -94q-37 -40 -87.5 -65.5t-111.5 -25.5q-124 0 -197 92.5t-73 274.5q0 119 34.5 200.5t96 122.5t142.5 41q107 0 190 -78zM190 759l-57 59
l120 137h100l119 -137l-56 -59l-113 84z" />
    <glyph glyph-name="Cdotaccent" unicode="&#x10a;" horiz-adv-x="489" 
d="M485 635l-81 -96q-25 22 -47.5 33t-47.5 11q-52 0 -77.5 -54t-25.5 -180q0 -124 26 -178.5t77 -54.5q28 0 49.5 12t54.5 39l78 -94q-37 -40 -87.5 -65.5t-111.5 -25.5q-124 0 -197 92.5t-73 274.5q0 119 34.5 200.5t96 122.5t142.5 41q107 0 190 -78zM370.5 915
q26.5 -27 26.5 -67q0 -41 -26.5 -68t-68.5 -27t-68 27t-26 68q0 40 26.5 67t67.5 27q42 0 68.5 -27z" />
    <glyph glyph-name="uniA7B3" unicode="&#xa7b3;" horiz-adv-x="494" 
d="M349 292l154 -459h-187l-74 341l-68 -341h-183l146 453l-136 409h185l58 -299l66 299h181z" />
    <glyph glyph-name="uni0187" unicode="&#x187;" horiz-adv-x="489" 
d="M615 820l-45 -102q-27 15 -49 15q-19 0 -27.5 -11t-8.5 -37v-50l-77 -91q-53 39 -99 39q-52 0 -77.5 -54t-25.5 -180q0 -124 26 -178.5t77 -54.5q28 0 49.5 12t54.5 39l78 -94q-37 -40 -87.5 -65.5t-111.5 -25.5q-124 0 -197 92.5t-73 274.5q0 117 34 199.5t91.5 123.5
t126.5 41q36 0 67 -14v5q0 73 40.5 113t109.5 40t124 -37z" />
    <glyph glyph-name="uni023B" unicode="&#x23b;" horiz-adv-x="489" 
d="M491 73q-37 -40 -87.5 -65.5t-111.5 -25.5q-26 0 -56 5l-13 -62l-56 12l15 68q-76 34 -118 120.5t-42 223.5q0 119 34.5 200.5t96 122.5t142.5 41q21 0 39 -3l10 46l56 -11l-10 -49q52 -19 95 -61l-81 -96q-21 18 -42 30l-95 -441q18 -12 42 -12q28 0 49.5 12t54.5 39z
M223 195l84 388q-51 -1 -76 -55.5t-25 -178.5q0 -97 17 -154z" />
    <glyph glyph-name="D" unicode="D" horiz-adv-x="553" 
d="M383 668.5q66 -26.5 107 -102.5t41 -216q0 -194 -79.5 -272t-216.5 -78h-198v695h189q91 0 157 -26.5zM214 569v-442h31q37 0 59.5 19.5t34 68t11.5 135.5t-11.5 135t-34 66t-57.5 18h-33z" />
    <glyph glyph-name="uni01F1" unicode="&#x1f1;" horiz-adv-x="985" 
d="M383 668.5q66 -26.5 107 -102.5t41 -216q0 -194 -79.5 -272t-216.5 -78h-198v695h189q91 0 157 -26.5zM214 569v-442h31q37 0 59.5 19.5t34 68t11.5 135.5t-11.5 135t-34 66t-57.5 18h-33zM970 695v-133l-241 -422h248l-17 -140h-425v131l240 428h-218v136h413z" />
    <glyph glyph-name="uni01C4" unicode="&#x1c4;" horiz-adv-x="985" 
d="M383 668.5q66 -26.5 107 -102.5t41 -216q0 -194 -79.5 -272t-216.5 -78h-198v695h189q91 0 157 -26.5zM214 569v-442h31q37 0 59.5 19.5t34 68t11.5 135.5t-11.5 135t-34 66t-57.5 18h-33zM970 695v-133l-241 -422h248l-17 -140h-425v131l240 428h-218v136h413zM870 945
l56 -59l-120 -137h-100l-119 137l57 59l113 -84z" />
    <glyph glyph-name="uni0189" unicode="&#x189;" horiz-adv-x="572" 
d="M401 668.5q66 -26.5 107 -102.5t41 -216q0 -194 -79.5 -272t-216.5 -78h-198v301h-43v104h43v290h189q91 0 157 -26.5zM322.5 146.5q22.5 19.5 34 68t11.5 135.5t-11.5 135t-34 66t-57.5 18h-33v-164h76v-104h-76v-174h31q37 0 59.5 19.5z" />
    <glyph glyph-name="Eth" unicode="&#xd0;" horiz-adv-x="572" 
d="M401 668.5q66 -26.5 107 -102.5t41 -216q0 -194 -79.5 -272t-216.5 -78h-198v301h-43v104h43v290h189q91 0 157 -26.5zM322.5 146.5q22.5 19.5 34 68t11.5 135.5t-11.5 135t-34 66t-57.5 18h-33v-164h76v-104h-76v-174h31q37 0 59.5 19.5z" />
    <glyph glyph-name="Dcaron" unicode="&#x10e;" horiz-adv-x="553" 
d="M383 668.5q66 -26.5 107 -102.5t41 -216q0 -194 -79.5 -272t-216.5 -78h-198v695h189q91 0 157 -26.5zM214 569v-442h31q37 0 59.5 19.5t34 68t11.5 135.5t-11.5 135t-34 66t-57.5 18h-33zM357 945l56 -59l-120 -137h-100l-119 137l57 59l113 -84z" />
    <glyph glyph-name="uni1E12" unicode="&#x1e12;" horiz-adv-x="553" 
d="M383 668.5q66 -26.5 107 -102.5t41 -216q0 -194 -79.5 -272t-216.5 -78h-198v695h189q91 0 157 -26.5zM214 569v-442h31q37 0 59.5 19.5t34 68t11.5 135.5t-11.5 135t-34 66t-57.5 18h-33zM145 -267l-57 59l120 146h100l119 -146l-56 -59l-113 93z" />
    <glyph glyph-name="Dcroat" unicode="&#x110;" horiz-adv-x="572" 
d="M401 668.5q66 -26.5 107 -102.5t41 -216q0 -194 -79.5 -272t-216.5 -78h-198v301h-43v104h43v290h189q91 0 157 -26.5zM322.5 146.5q22.5 19.5 34 68t11.5 135.5t-11.5 135t-34 66t-57.5 18h-33v-164h76v-104h-76v-174h31q37 0 59.5 19.5z" />
    <glyph glyph-name="uni1E0A" unicode="&#x1e0a;" horiz-adv-x="553" 
d="M383 668.5q66 -26.5 107 -102.5t41 -216q0 -194 -79.5 -272t-216.5 -78h-198v695h189q91 0 157 -26.5zM214 569v-442h31q37 0 59.5 19.5t34 68t11.5 135.5t-11.5 135t-34 66t-57.5 18h-33zM311.5 915q26.5 -27 26.5 -67q0 -41 -26.5 -68t-68.5 -27t-68 27t-26 68
q0 40 26.5 67t67.5 27q42 0 68.5 -27z" />
    <glyph glyph-name="uni1E0C" unicode="&#x1e0c;" horiz-adv-x="553" 
d="M383 668.5q66 -26.5 107 -102.5t41 -216q0 -194 -79.5 -272t-216.5 -78h-198v695h189q91 0 157 -26.5zM214 569v-442h31q37 0 59.5 19.5t34 68t11.5 135.5t-11.5 135t-34 66t-57.5 18h-33zM193.5 -220q-26.5 27 -26.5 67q0 41 26.5 68t68.5 27t68 -27t26 -68
q0 -40 -26.5 -67t-67.5 -27q-42 0 -68.5 27z" />
    <glyph glyph-name="uni018A" unicode="&#x18a;" horiz-adv-x="700" 
d="M530 668.5q66 -26.5 107 -102.5t41 -216q0 -194 -79.5 -272t-216.5 -78h-198v570h-18q-17 0 -25.5 -10.5t-8.5 -28.5q0 -31 17 -68l-107 -45q-20 31 -30.5 61.5t-10.5 69.5q0 67 46 106.5t128 39.5h198q91 0 157 -26.5zM451.5 146.5q22.5 19.5 34 68t11.5 135.5
t-11.5 135t-34 66t-57.5 18h-33v-442h31q37 0 59.5 19.5z" />
    <glyph glyph-name="uni1E0E" unicode="&#x1e0e;" horiz-adv-x="553" 
d="M383 668.5q66 -26.5 107 -102.5t41 -216q0 -194 -79.5 -272t-216.5 -78h-198v695h189q91 0 157 -26.5zM214 569v-442h31q37 0 59.5 19.5t34 68t11.5 135.5t-11.5 135t-34 66t-57.5 18h-33zM397 -192h-270v113h270v-113z" />
    <glyph glyph-name="uni018B" unicode="&#x18b;" horiz-adv-x="508" 
d="M470 0h-209q-252 0 -252 226q0 108 62.5 165.5t181.5 57.5h40v113h-207v133h384v-695zM293 127v201h-20q-45 0 -62.5 -24t-17.5 -78q0 -53 17 -76t58 -23h25z" />
    <glyph glyph-name="uni01F2" unicode="&#x1f2;" horiz-adv-x="936" 
d="M383 668.5q66 -26.5 107 -102.5t41 -216q0 -194 -79.5 -272t-216.5 -78h-198v695h189q91 0 157 -26.5zM214 569v-442h31q37 0 59.5 19.5t34 68t11.5 135.5t-11.5 135t-34 66t-57.5 18h-33zM924 533v-119l-190 -286h195l-14 -128h-366v120l189 286h-172v127h358z" />
    <glyph glyph-name="uni01C5" unicode="&#x1c5;" horiz-adv-x="936" 
d="M383 668.5q66 -26.5 107 -102.5t41 -216q0 -194 -79.5 -272t-216.5 -78h-198v695h189q91 0 157 -26.5zM214 569v-442h31q37 0 59.5 19.5t34 68t11.5 135.5t-11.5 135t-34 66t-57.5 18h-33zM924 533v-119l-190 -286h195l-14 -128h-366v120l189 286h-172v127h358zM858 815
l56 -61l-119 -145h-101l-119 145l57 61l113 -94z" />
    <glyph glyph-name="E" unicode="E" horiz-adv-x="431" 
d="M419 695l-19 -125h-186v-156h164v-123h-164v-165h199v-126h-376v695h382z" />
    <glyph glyph-name="Eacute" unicode="&#xc9;" horiz-adv-x="431" 
d="M419 695l-19 -125h-186v-156h164v-123h-164v-165h199v-126h-376v695h382zM290 956l63 -120l-209 -86l-43 82z" />
    <glyph glyph-name="Ebreve" unicode="&#x114;" horiz-adv-x="431" 
d="M419 695l-19 -125h-186v-156h164v-123h-164v-165h199v-126h-376v695h382zM118 795.5q-38 46.5 -44 122.5l87 17q14 -69 67 -69t66 69l88 -17q-6 -76 -44 -122.5t-110 -46.5t-110 46.5z" />
    <glyph glyph-name="Ecaron" unicode="&#x11a;" horiz-adv-x="431" 
d="M419 695l-19 -125h-186v-156h164v-123h-164v-165h199v-126h-376v695h382zM341 945l56 -59l-120 -137h-100l-119 137l57 59l113 -84z" />
    <glyph glyph-name="uni0228" unicode="&#x228;" horiz-adv-x="431" 
d="M214 126h199v-126h-147v-51q91 -16 91 -98q0 -52 -36 -84.5t-101 -32.5q-59 0 -105 32l36 71q28 -13 56 -13q33 0 33 29q0 17 -18.5 25t-58.5 8l13 114h-139v695h382l-19 -125h-186v-156h164v-123h-164v-165z" />
    <glyph glyph-name="Ecircumflex" unicode="&#xca;" horiz-adv-x="431" 
d="M419 695l-19 -125h-186v-156h164v-123h-164v-165h199v-126h-376v695h382zM115 759l-57 59l120 137h100l119 -137l-56 -59l-113 84z" />
    <glyph glyph-name="uni1EBE" unicode="&#x1ebe;" horiz-adv-x="431" 
d="M419 695l-19 -125h-186v-156h164v-123h-164v-165h199v-126h-376v695h382zM116 727l-57 59l120 137h100l119 -137l-56 -59l-113 84zM436 1105l98 -84l-152 -148l-65 53z" />
    <glyph glyph-name="uni1EC6" unicode="&#x1ec6;" horiz-adv-x="431" 
d="M419 695l-19 -125h-186v-156h164v-123h-164v-165h199v-126h-376v695h382zM115 759l-57 59l120 137h100l119 -137l-56 -59l-113 84zM157.5 -220q-26.5 27 -26.5 67q0 41 26.5 68t68.5 27t68 -27t26 -68q0 -40 -26.5 -67t-67.5 -27q-42 0 -68.5 27z" />
    <glyph glyph-name="uni1EC0" unicode="&#x1ec0;" horiz-adv-x="431" 
d="M419 695l-19 -125h-186v-156h164v-123h-164v-165h199v-126h-376v695h382zM114 727l-57 59l120 137h100l119 -137l-56 -59l-113 84zM21 1105l120 -179l-65 -53l-152 148z" />
    <glyph glyph-name="uni1EC2" unicode="&#x1ec2;" horiz-adv-x="431" 
d="M419 695l-19 -125h-186v-156h164v-123h-164v-165h199v-126h-376v695h382zM115 727l-57 59l120 137h100l119 -137l-56 -59l-113 84zM337 953q32 2 45 10t13 28q0 14 -8 21.5t-21 7.5q-15 0 -25 -2.5t-27 -9.5l-24 68q41 26 98 26q54 0 83 -28t29 -75q0 -39 -18 -63
t-53 -31v-42h-92v90z" />
    <glyph glyph-name="uni1EC4" unicode="&#x1ec4;" horiz-adv-x="431" 
d="M419 695l-19 -125h-186v-156h164v-123h-164v-165h199v-126h-376v695h382zM114 727l-57 59l120 137h100l119 -137l-56 -59l-113 84zM244 961.5q-14 5.5 -31 16.5q-19 14 -33 14t-23 -8.5t-20 -27.5l-77 32q16 49 47 79.5t70 30.5q19 0 32.5 -5.5t32.5 -16.5q2 -1 13 -7.5
t21 -6.5q13 0 21.5 8t19.5 27l77 -32q-16 -50 -46.5 -79.5t-69.5 -29.5q-20 0 -34 5.5z" />
    <glyph glyph-name="uni0204" unicode="&#x204;" horiz-adv-x="431" 
d="M419 695l-19 -125h-186v-156h164v-123h-164v-165h199v-126h-376v695h382zM114 989l84 -201l-77 -38l-109 185zM272 989l79 -202l-80 -33l-103 185z" />
    <glyph glyph-name="Edieresis" unicode="&#xcb;" horiz-adv-x="431" 
d="M419 695l-19 -125h-186v-156h164v-123h-164v-165h199v-126h-376v695h382zM187.5 906.5q22.5 -23.5 22.5 -58.5q0 -36 -22 -59.5t-58 -23.5q-34 0 -57.5 24t-23.5 59t23.5 58.5t57.5 23.5q35 0 57.5 -23.5zM391.5 906.5q22.5 -23.5 22.5 -58.5q0 -36 -22.5 -59.5
t-58.5 -23.5q-34 0 -57.5 24t-23.5 59t23.5 58.5t57.5 23.5q36 0 58.5 -23.5z" />
    <glyph glyph-name="Edotaccent" unicode="&#x116;" horiz-adv-x="431" 
d="M419 695l-19 -125h-186v-156h164v-123h-164v-165h199v-126h-376v695h382zM295.5 915q26.5 -27 26.5 -67q0 -41 -26.5 -68t-68.5 -27t-68 27t-26 68q0 40 26.5 67t67.5 27q42 0 68.5 -27z" />
    <glyph glyph-name="uni1EB8" unicode="&#x1eb8;" horiz-adv-x="431" 
d="M419 695l-19 -125h-186v-156h164v-123h-164v-165h199v-126h-376v695h382zM157.5 -220q-26.5 27 -26.5 67q0 41 26.5 68t68.5 27t68 -27t26 -68q0 -40 -26.5 -67t-67.5 -27q-42 0 -68.5 27z" />
    <glyph glyph-name="Egrave" unicode="&#xc8;" horiz-adv-x="431" 
d="M419 695l-19 -125h-186v-156h164v-123h-164v-165h199v-126h-376v695h382zM165 955l189 -124l-43 -82l-209 87z" />
    <glyph glyph-name="uni1EBA" unicode="&#x1eba;" horiz-adv-x="431" 
d="M419 695l-19 -125h-186v-156h164v-123h-164v-165h199v-126h-376v695h382zM182 854q32 2 45 10t13 28q0 14 -8 21.5t-21 7.5q-15 0 -25 -2.5t-27 -9.5l-24 68q41 26 98 26q54 0 83 -28t29 -75q0 -39 -18 -63t-53 -31v-42h-92v90z" />
    <glyph glyph-name="uni0206" unicode="&#x206;" horiz-adv-x="431" 
d="M419 695l-19 -125h-186v-156h164v-123h-164v-165h199v-126h-376v695h382zM338.5 909q37.5 -48 43.5 -132l-88 -16q-13 81 -66 81t-67 -81l-87 16q6 84 43.5 132t110.5 48t110.5 -48z" />
    <glyph glyph-name="Emacron" unicode="&#x112;" horiz-adv-x="431" 
d="M419 695l-19 -125h-186v-156h164v-123h-164v-165h199v-126h-376v695h382zM363 781h-270v113h270v-113z" />
    <glyph glyph-name="Eogonek" unicode="&#x118;" horiz-adv-x="431" 
d="M214 126h199v-126h-32q-54 -24 -73.5 -48.5t-19.5 -51.5q0 -23 11 -34.5t31 -11.5t49 8l-10 -102q-29 -8 -60 -8q-61 0 -99.5 31t-38.5 87q0 77 75 130h-209v695h382l-19 -125h-186v-156h164v-123h-164v-165z" />
    <glyph glyph-name="uni0190" unicode="&#x190;" horiz-adv-x="456" 
d="M355.5 690q48.5 -23 89.5 -70l-78 -85q-27 26 -51 39t-47 13q-33 0 -48 -21.5t-15 -56.5q0 -81 77 -81h59l-20 -125h-44q-84 0 -84 -97q0 -48 20 -71.5t56 -23.5q28 0 52 13t53 41l90 -85q-39 -48 -91.5 -73t-124.5 -25q-70 0 -124 25.5t-84.5 73.5t-30.5 113
q0 155 154 173q-138 32 -138 162q0 52 28.5 94t78.5 66t112 24t110.5 -23z" />
    <glyph glyph-name="uni018E" unicode="&#x18e;" horiz-adv-x="431" 
d="M22 695h372v-695h-376v126h199v165h-164v123h164v156h-195v125z" />
    <glyph glyph-name="uni01A9" unicode="&#x1a9;" horiz-adv-x="412" 
d="M407 695v-127h-225l135 -193v-66l-140 -179h230v-130h-401v126l160 214l-160 228v127h401z" />
    <glyph glyph-name="uni0246" unicode="&#x246;" horiz-adv-x="431" 
d="M306 291l-33 -165h140v-126h-164l-15 -75l-55 12l12 63h-154v695h291l12 61l55 -10l-10 -51h34l-19 -125h-40l-30 -156h48v-123h-72zM214 570v-156h59l30 156h-89zM214 126h2l33 165h-35v-165z" />
    <glyph glyph-name="uni1EBC" unicode="&#x1ebc;" horiz-adv-x="431" 
d="M419 695l-19 -125h-186v-156h164v-123h-164v-165h199v-126h-376v695h382zM245 768.5q-14 6.5 -31 17.5q-21 15 -33 15q-14 0 -23 -9t-20 -30l-77 35q17 53 47.5 86.5t69.5 33.5q19 0 33 -6t32 -18q11 -8 18.5 -12t15.5 -4q13 0 21.5 9t19.5 30l77 -35
q-16 -54 -46.5 -86.5t-69.5 -32.5q-20 0 -34 6.5z" />
    <glyph glyph-name="uni01B7" unicode="&#x1b7;" horiz-adv-x="464" 
d="M410 346q46 -50 46 -139q0 -64 -28.5 -115t-83.5 -80.5t-131 -29.5q-73 0 -125 27t-89 78l91 79q28 -29 52 -42t55 -13q37 0 57 26.5t20 76.5q0 48 -22 69t-69 21h-79v96l139 168h-206v127h383v-123l-145 -169q89 -7 135 -57z" />
    <glyph glyph-name="uni01EE" unicode="&#x1ee;" horiz-adv-x="464" 
d="M410 346q46 -50 46 -139q0 -64 -28.5 -115t-83.5 -80.5t-131 -29.5q-73 0 -125 27t-89 78l91 79q28 -29 52 -42t55 -13q37 0 57 26.5t20 76.5q0 48 -22 69t-69 21h-79v96l139 168h-206v127h383v-123l-145 -169q89 -7 135 -57zM341 945l56 -59l-120 -137h-100l-119 137
l57 59l113 -84z" />
    <glyph glyph-name="uni01B8" unicode="&#x1b8;" horiz-adv-x="464" 
d="M465 87q-78 -105 -215 -105q-76 0 -130.5 29t-83 79t-28.5 114q0 182 182 198l-146 170v123h383v-127h-207l140 -168v-96h-80q-46 0 -68 -22.5t-22 -72.5q0 -48 19.5 -73t56.5 -25q31 0 55 13t53 42z" />
    <glyph glyph-name="F" unicode="F" horiz-adv-x="404" 
d="M37 0v695h368l-18 -125h-173v-175h152v-125h-152v-270h-177z" />
    <glyph glyph-name="uni1E1E" unicode="&#x1e1e;" horiz-adv-x="404" 
d="M37 0v695h368l-18 -125h-173v-175h152v-125h-152v-270h-177zM296.5 915q26.5 -27 26.5 -67q0 -41 -26.5 -68t-68.5 -27t-68 27t-26 68q0 40 26.5 67t67.5 27q42 0 68.5 -27z" />
    <glyph glyph-name="uni0191" unicode="&#x191;" horiz-adv-x="404" 
d="M214 570v-175h152v-125h-152v-269h1v-40q0 -92 -52 -138t-140 -46q-79 0 -135 43l56 99q15 -8 26.5 -11.5t27.5 -3.5q40 0 40 46v50h-1v695h368l-18 -125h-173z" />
    <glyph glyph-name="G" unicode="G" horiz-adv-x="551" 
d="M428.5 689.5q51.5 -23.5 90.5 -63.5l-82 -87q-31 25 -56.5 36.5t-56.5 11.5q-41 0 -67 -21.5t-39 -74t-13 -144.5q0 -96 9 -147t28 -70.5t51 -19.5t60 18v152h-57l-17 122h240v-345q-47 -35 -106.5 -55t-115.5 -20q-143 0 -209 88.5t-66 277.5q0 122 38 204t103.5 121.5
t151.5 39.5q62 0 113.5 -23.5z" />
    <glyph glyph-name="uni01F4" unicode="&#x1f4;" horiz-adv-x="551" 
d="M428.5 689.5q51.5 -23.5 90.5 -63.5l-82 -87q-31 25 -56.5 36.5t-56.5 11.5q-41 0 -67 -21.5t-39 -74t-13 -144.5q0 -96 9 -147t28 -70.5t51 -19.5t60 18v152h-57l-17 122h240v-345q-47 -35 -106.5 -55t-115.5 -20q-143 0 -209 88.5t-66 277.5q0 122 38 204t103.5 121.5
t151.5 39.5q62 0 113.5 -23.5zM357 956l63 -120l-209 -86l-43 82z" />
    <glyph glyph-name="uni0194" unicode="&#x194;" horiz-adv-x="493" 
d="M335 96q30 -55 43.5 -99.5t13.5 -91.5q0 -62 -33.5 -95t-108.5 -33q-74 0 -109 33.5t-35 94.5q0 41 13.5 83.5t45.5 107.5l-180 599h178l86 -488l86 488h172zM268 -52.5q-4 16.5 -10 34t-8 24.5q-22 -57 -22 -92q0 -29 22 -29t22 30q0 16 -4 32.5z" />
    <glyph glyph-name="Gbreve" unicode="&#x11e;" horiz-adv-x="551" 
d="M428.5 689.5q51.5 -23.5 90.5 -63.5l-82 -87q-31 25 -56.5 36.5t-56.5 11.5q-41 0 -67 -21.5t-39 -74t-13 -144.5q0 -96 9 -147t28 -70.5t51 -19.5t60 18v152h-57l-17 122h240v-345q-47 -35 -106.5 -55t-115.5 -20q-143 0 -209 88.5t-66 277.5q0 122 38 204t103.5 121.5
t151.5 39.5q62 0 113.5 -23.5zM185 795.5q-38 46.5 -44 122.5l87 17q14 -69 67 -69t66 69l88 -17q-6 -76 -44 -122.5t-110 -46.5t-110 46.5z" />
    <glyph glyph-name="Gcaron" unicode="&#x1e6;" horiz-adv-x="551" 
d="M428.5 689.5q51.5 -23.5 90.5 -63.5l-82 -87q-31 25 -56.5 36.5t-56.5 11.5q-41 0 -67 -21.5t-39 -74t-13 -144.5q0 -96 9 -147t28 -70.5t51 -19.5t60 18v152h-57l-17 122h240v-345q-47 -35 -106.5 -55t-115.5 -20q-143 0 -209 88.5t-66 277.5q0 122 38 204t103.5 121.5
t151.5 39.5q62 0 113.5 -23.5zM408 945l56 -59l-120 -137h-100l-119 137l57 59l113 -84z" />
    <glyph glyph-name="Gcircumflex" unicode="&#x11c;" horiz-adv-x="551" 
d="M428.5 689.5q51.5 -23.5 90.5 -63.5l-82 -87q-31 25 -56.5 36.5t-56.5 11.5q-41 0 -67 -21.5t-39 -74t-13 -144.5q0 -96 9 -147t28 -70.5t51 -19.5t60 18v152h-57l-17 122h240v-345q-47 -35 -106.5 -55t-115.5 -20q-143 0 -209 88.5t-66 277.5q0 122 38 204t103.5 121.5
t151.5 39.5q62 0 113.5 -23.5zM182 759l-57 59l120 137h100l119 -137l-56 -59l-113 84z" />
    <glyph glyph-name="Gcommaaccent" unicode="&#x122;" horiz-adv-x="551" 
d="M428.5 689.5q51.5 -23.5 90.5 -63.5l-82 -87q-31 25 -56.5 36.5t-56.5 11.5q-41 0 -67 -21.5t-39 -74t-13 -144.5q0 -96 9 -147t28 -70.5t51 -19.5t60 18v152h-57l-17 122h240v-345q-47 -35 -106.5 -55t-115.5 -20q-143 0 -209 88.5t-66 277.5q0 122 38 204t103.5 121.5
t151.5 39.5q62 0 113.5 -23.5zM352.5 -89q21.5 -23 21.5 -58q0 -19 -5 -36.5t-18 -48.5l-40 -98h-81l25 115q-38 24 -38 68q0 34 22 57.5t57 23.5t56.5 -23z" />
    <glyph glyph-name="Gdotaccent" unicode="&#x120;" horiz-adv-x="551" 
d="M428.5 689.5q51.5 -23.5 90.5 -63.5l-82 -87q-31 25 -56.5 36.5t-56.5 11.5q-41 0 -67 -21.5t-39 -74t-13 -144.5q0 -96 9 -147t28 -70.5t51 -19.5t60 18v152h-57l-17 122h240v-345q-47 -35 -106.5 -55t-115.5 -20q-143 0 -209 88.5t-66 277.5q0 122 38 204t103.5 121.5
t151.5 39.5q62 0 113.5 -23.5zM362.5 915q26.5 -27 26.5 -67q0 -41 -26.5 -68t-68.5 -27t-68 27t-26 68q0 40 26.5 67t67.5 27q42 0 68.5 -27z" />
    <glyph glyph-name="uni0193" unicode="&#x193;" horiz-adv-x="524" 
d="M650 820l-45 -102q-27 15 -50 15q-19 0 -27.5 -11t-8.5 -37v-59l-76 -81q-32 22 -59.5 32t-59.5 10q-41 0 -67 -21.5t-39 -74t-13 -144.5q0 -96 9 -147t28 -70.5t51 -19.5t60 18v152h-57l-17 122h240v-345q-47 -35 -106.5 -55t-115.5 -20q-143 0 -209 88.5t-66 277.5
q0 122 37 204t99.5 121.5t139.5 39.5q41 0 78 -15v6q0 73 40.5 113t109.5 40q68 0 124 -37z" />
    <glyph glyph-name="uni0241" unicode="&#x241;" horiz-adv-x="436" 
d="M117 332l35 14q50 19 70.5 50t20.5 89q0 47 -17.5 74.5t-48.5 27.5q-24 0 -46 -12t-52 -38l-82 82q82 94 205 94q103 0 163 -61t60 -163q0 -82 -26 -124.5t-83 -68.5l-23 -11v-285h-177z" />
    <glyph glyph-name="uni01E4" unicode="&#x1e4;" horiz-adv-x="569" 
d="M577 176h-58v-119q-48 -36 -106.5 -55.5t-117.5 -19.5q-142 0 -207.5 89t-65.5 277q0 120 37.5 201.5t103 122t151.5 40.5q121 0 205 -87l-85 -89q-30 26 -54.5 38t-54.5 12q-61 0 -90.5 -54.5t-29.5 -184.5q0 -95 9.5 -146t29 -71t53.5 -20q37 0 73 21v45h-76v90h76v51
h-77l-14 103h240v-154h58v-90z" />
    <glyph glyph-name="uni021C" unicode="&#x21c;" horiz-adv-x="436" 
d="M309.5 689q48.5 -24 75 -66.5t26.5 -97.5q0 -66 -35 -108.5t-114 -59.5q85 -9 124.5 -47.5t39.5 -114.5q0 -107 -88.5 -188t-279.5 -122l-13 128q79 28 122 55.5t60 59t17 75.5q0 46 -22.5 68t-70.5 22h-56l19 125h40q40 0 58.5 21.5t18.5 64.5q0 38 -14 60.5t-45 22.5
q-23 0 -48 -13t-56 -39l-77 85q82 93 207 93q63 0 111.5 -24z" />
    <glyph glyph-name="H" unicode="H" horiz-adv-x="550" 
d="M335 0v292h-121v-292h-177v695h177v-266h121v266h177v-695h-177z" />
    <glyph glyph-name="Hbar" unicode="&#x126;" horiz-adv-x="562" 
d="M557 594v-95h-39v-499h-177v292h-121v-292h-177v499h-38v95h38v101h177v-101h121v101h177v-101h39zM341 429v70h-121v-70h121z" />
    <glyph glyph-name="uni021E" unicode="&#x21e;" horiz-adv-x="550" 
d="M335 0v292h-121v-292h-177v695h177v-266h121v266h177v-695h-177zM389 945l56 -59l-120 -137h-100l-119 137l57 59l113 -84z" />
    <glyph glyph-name="Hcircumflex" unicode="&#x124;" horiz-adv-x="550" 
d="M335 0v292h-121v-292h-177v695h177v-266h121v266h177v-695h-177zM163 759l-57 59l120 137h100l119 -137l-56 -59l-113 84z" />
    <glyph glyph-name="uni1E24" unicode="&#x1e24;" horiz-adv-x="550" 
d="M335 0v292h-121v-292h-177v695h177v-266h121v266h177v-695h-177zM208.5 -220q-26.5 27 -26.5 67q0 41 26.5 68t68.5 27t68 -27t26 -68q0 -40 -26.5 -67t-67.5 -27q-42 0 -68.5 27z" />
    <glyph glyph-name="uniA7AA" unicode="&#xa7aa;" horiz-adv-x="697" 
d="M659 695v-695h-177v292h-121v-292h-177v570h-18q-17 0 -25.5 -10.5t-8.5 -28.5q0 -31 17 -68l-107 -45q-20 31 -30.5 61.5t-10.5 69.5q0 67 46 106.5t128 39.5h186v-266h121v266h177z" />
    <glyph glyph-name="uniA78D" unicode="&#xa78d;" horiz-adv-x="522" 
d="M484 695v-695h-177v250q-25 -25 -54 -37t-67 -12q-79 0 -127.5 54.5t-48.5 152.5v287h174v-271q0 -53 14 -73.5t44 -20.5q39 0 65 31v334h177z" />
    <glyph glyph-name="uniA78D.ss02" horiz-adv-x="499" 
d="M285 0v241l-273 -1v455h177v-317h96v317h177v-695h-177z" />
    <glyph glyph-name="uni01F6" unicode="&#x1f6;" horiz-adv-x="782" 
d="M752.5 389.5q6.5 -66.5 6.5 -136.5q0 -146 -65 -208.5t-165 -62.5q-86 0 -140 46.5t-54 135.5v128h-121v-292h-177v695h177v-266h121v266h177v-538q0 -29 7.5 -40t22.5 -11q24 0 35.5 32.5t11.5 121.5q0 106 -20 273h165q12 -77 18.5 -143.5z" />
    <glyph glyph-name="I" unicode="I" horiz-adv-x="252" 
d="M214 695v-695h-177v695h177z" />
    <glyph glyph-name="IJ" unicode="&#x132;" horiz-adv-x="524" 
d="M214 695v-695h-177v695h177zM488 107q0 -84 -29.5 -139.5t-74.5 -87t-105 -55.5l-47 124q35 17 52 37.5t22 48.5t5 78v582h177v-588z" />
    <glyph glyph-name="Iacute" unicode="&#xcd;" horiz-adv-x="252" 
d="M214 695v-695h-177v695h177zM188 956l63 -120l-209 -86l-43 82z" />
    <glyph glyph-name="Ibreve" unicode="&#x12c;" horiz-adv-x="252" 
d="M214 695v-695h-177v695h177zM16 795.5q-38 46.5 -44 122.5l87 17q14 -69 67 -69t66 69l88 -17q-6 -76 -44 -122.5t-110 -46.5t-110 46.5z" />
    <glyph glyph-name="uni01CF" unicode="&#x1cf;" horiz-adv-x="252" 
d="M214 695v-695h-177v695h177zM239 945l56 -59l-120 -137h-100l-119 137l57 59l113 -84z" />
    <glyph glyph-name="Icircumflex" unicode="&#xce;" horiz-adv-x="252" 
d="M214 695v-695h-177v695h177zM13 759l-57 59l120 137h100l119 -137l-56 -59l-113 84z" />
    <glyph glyph-name="uni0208" unicode="&#x208;" horiz-adv-x="252" 
d="M214 695v-695h-177v695h177zM12 989l84 -201l-77 -38l-109 185zM170 989l79 -202l-80 -33l-103 185z" />
    <glyph glyph-name="Idieresis" unicode="&#xcf;" horiz-adv-x="252" 
d="M214 695v-695h-177v695h177zM85.5 906.5q22.5 -23.5 22.5 -58.5q0 -36 -22 -59.5t-58 -23.5q-34 0 -57.5 24t-23.5 59t23.5 58.5t57.5 23.5q35 0 57.5 -23.5zM289.5 906.5q22.5 -23.5 22.5 -58.5q0 -36 -22.5 -59.5t-58.5 -23.5q-34 0 -57.5 24t-23.5 59t23.5 58.5
t57.5 23.5q36 0 58.5 -23.5z" />
    <glyph glyph-name="uni1E2E" unicode="&#x1e2e;" horiz-adv-x="252" 
d="M214 695v-695h-177v695h177zM186 1111l98 -84l-152 -148l-65 53zM72.5 890.5q22.5 -23.5 22.5 -58.5q0 -36 -22 -60t-58 -24q-35 0 -58 24t-23 60q0 34 23.5 58t57.5 24q35 0 57.5 -23.5zM293.5 890.5q22.5 -23.5 22.5 -58.5q0 -36 -22 -60t-58 -24q-35 0 -58 24t-23 60
q0 34 23.5 58t57.5 24q35 0 57.5 -23.5z" />
    <glyph glyph-name="Idotaccent" unicode="&#x130;" horiz-adv-x="252" 
d="M214 695v-695h-177v695h177zM193.5 915q26.5 -27 26.5 -67q0 -41 -26.5 -68t-68.5 -27t-68 27t-26 68q0 40 26.5 67t67.5 27q42 0 68.5 -27z" />
    <glyph glyph-name="uni1ECA" unicode="&#x1eca;" horiz-adv-x="252" 
d="M214 695v-695h-177v695h177zM58.5 -220q-26.5 27 -26.5 67q0 41 26.5 68t68.5 27t68 -27t26 -68q0 -40 -26.5 -67t-67.5 -27q-42 0 -68.5 27z" />
    <glyph glyph-name="Igrave" unicode="&#xcc;" horiz-adv-x="252" 
d="M214 695v-695h-177v695h177zM63 955l189 -124l-43 -82l-209 87z" />
    <glyph glyph-name="uni1EC8" unicode="&#x1ec8;" horiz-adv-x="252" 
d="M214 695v-695h-177v695h177zM80 854q32 2 45 10t13 28q0 14 -8 21.5t-21 7.5q-15 0 -25 -2.5t-27 -9.5l-24 68q41 26 98 26q54 0 83 -28t29 -75q0 -39 -18 -63t-53 -31v-42h-92v90z" />
    <glyph glyph-name="uni020A" unicode="&#x20a;" horiz-adv-x="252" 
d="M214 695v-695h-177v695h177zM236.5 909q37.5 -48 43.5 -132l-88 -16q-13 81 -66 81t-67 -81l-87 16q6 84 43.5 132t110.5 48t110.5 -48z" />
    <glyph glyph-name="Imacron" unicode="&#x12a;" horiz-adv-x="252" 
d="M214 695v-695h-177v695h177zM261 781h-270v113h270v-113z" />
    <glyph glyph-name="Iogonek" unicode="&#x12e;" horiz-adv-x="252" 
d="M214 695v-695h-43q-54 -24 -73.5 -48.5t-19.5 -51.5q0 -23 11 -34.5t31 -11.5t49 8l-10 -102q-29 -8 -60 -8q-61 0 -99.5 31t-38.5 87q0 78 76 131v694h177z" />
    <glyph glyph-name="uni0196" unicode="&#x196;" horiz-adv-x="343" 
d="M354 26q-56 -43 -135 -43q-88 0 -140 46t-52 138v528h177v-539q0 -46 40 -46q16 0 27.5 3.5t26.5 11.5z" />
    <glyph glyph-name="uni0197" unicode="&#x197;" horiz-adv-x="287" 
d="M285 424v-128h-53v-296h-177v296h-53v128h53v271h177v-271h53z" />
    <glyph glyph-name="Itilde" unicode="&#x128;" horiz-adv-x="252" 
d="M214 695v-695h-177v695h177zM143 768.5q-14 6.5 -31 17.5q-21 15 -33 15q-14 0 -23 -9t-20 -30l-77 35q17 53 47.5 86.5t69.5 33.5q19 0 33 -6t32 -18q11 -8 18.5 -12t15.5 -4q13 0 21.5 9t19.5 30l77 -35q-16 -54 -46.5 -86.5t-69.5 -32.5q-20 0 -34 6.5z" />
    <glyph glyph-name="J" unicode="J" horiz-adv-x="272" 
d="M236 107q0 -84 -29.5 -139.5t-74.5 -87t-105 -55.5l-47 124q35 17 52 37.5t22 48.5t5 78v582h177v-588z" />
    <glyph glyph-name="Jcircumflex" unicode="&#x134;" horiz-adv-x="272" 
d="M236 107q0 -84 -29.5 -139.5t-74.5 -87t-105 -55.5l-47 124q35 17 52 37.5t22 48.5t5 78v582h177v-588zM35 759l-57 59l120 137h100l119 -137l-56 -59l-113 84z" />
    <glyph glyph-name="uniA7B2" unicode="&#xa7b2;" horiz-adv-x="318" 
d="M331 -110q-31 18 -62 30q-38 -144 -203 -144q-65 0 -100.5 32t-35.5 88q0 60 38 93t108 33l26 -1v674h177v-684v-11q49 -17 86 -43zM91 -122.5q11 16.5 11 52.5v17q-6 1 -27 1q-27 0 -39.5 -11.5t-12.5 -34.5q0 -41 32 -41q25 0 36 16.5z" />
    <glyph glyph-name="uni0248" unicode="&#x248;" horiz-adv-x="291" 
d="M289 278h-53v-171q0 -84 -29.5 -139.5t-74.5 -87t-105 -55.5l-47 124q35 17 52 37.5t22 48.5t5 78v165h-53v130h53v287h177v-287h53v-130z" />
    <glyph glyph-name="K" unicode="K" horiz-adv-x="553" 
d="M214 695v-695h-177v695h177zM555 695l-161 -311l176 -384h-192l-159 370l163 325h173z" />
    <glyph glyph-name="uni01E8" unicode="&#x1e8;" horiz-adv-x="553" 
d="M214 695v-695h-177v695h177zM555 695l-161 -311l176 -384h-192l-159 370l163 325h173zM390 945l56 -59l-120 -137h-100l-119 137l57 59l113 -84z" />
    <glyph glyph-name="Kcommaaccent" unicode="&#x136;" horiz-adv-x="553" 
d="M214 695v-695h-177v695h177zM555 695l-161 -311l176 -384h-192l-159 370l163 325h173zM334.5 -89q21.5 -23 21.5 -58q0 -19 -5 -36.5t-18 -48.5l-40 -98h-81l25 115q-38 24 -38 68q0 34 22 57.5t57 23.5t56.5 -23z" />
    <glyph glyph-name="uni0198" unicode="&#x198;" horiz-adv-x="561" 
d="M219 370l80 201q30 76 65 109t101 33q60 0 112 -35l-43 -99q-20 10 -35 10q-16 0 -25.5 -9.5t-19.5 -33.5l-65 -163l181 -383h-192zM214 695v-695h-177v695h177z" />
    <glyph glyph-name="L" unicode="L" horiz-adv-x="432" 
d="M214 695v-557h214l-18 -138h-373v695h177z" />
    <glyph glyph-name="uni01C7" unicode="&#x1c7;" horiz-adv-x="680" 
d="M214 695v-557h214l-18 -138h-373v695h177zM644 107q0 -84 -29.5 -139.5t-74.5 -87t-105 -55.5l-47 124q35 17 52 37.5t22 48.5t5 78v582h177v-588z" />
    <glyph glyph-name="Lacute" unicode="&#x139;" horiz-adv-x="432" 
d="M214 695v-557h214l-18 -138h-373v695h177zM188 956l63 -120l-209 -86l-43 82z" />
    <glyph glyph-name="uni023D" unicode="&#x23d;" horiz-adv-x="449" 
d="M232 138h214l-18 -138h-373v298h-53v130h53v267h177v-267h53v-130h-53v-160z" />
    <glyph glyph-name="uniA7AD" unicode="&#xa7ad;" horiz-adv-x="542" 
d="M539 138l-18 -138h-373v251q-75 2 -111 37.5t-36 95.5q0 56 31.5 87.5t81.5 31.5q16 0 34 -4v196h177v-346q34 2 94 14l15 -91q-50 -12 -109 -17v-117h214zM148 346v69q-14 2 -18 2q-25 0 -25 -31q0 -40 43 -40z" />
    <glyph glyph-name="Lcaron" unicode="&#x13d;" horiz-adv-x="432" 
d="M214 695v-557h214l-18 -138h-373v695h177zM334 472l48 222l-120 18l-21 -225z" />
    <glyph glyph-name="uni1E3C" unicode="&#x1e3c;" horiz-adv-x="432" 
d="M214 695v-557h214l-18 -138h-373v695h177zM108 -267l-57 59l120 146h100l119 -146l-56 -59l-113 93z" />
    <glyph glyph-name="Lcommaaccent" unicode="&#x13b;" horiz-adv-x="432" 
d="M214 695v-557h214l-18 -138h-373v695h177zM280.5 -89q21.5 -23 21.5 -58q0 -19 -5 -36.5t-18 -48.5l-40 -98h-81l25 115q-38 24 -38 68q0 34 22 57.5t57 23.5t56.5 -23z" />
    <glyph glyph-name="Ldot" unicode="&#x13f;" horiz-adv-x="432" 
d="M214 695v-557h214l-18 -138h-373v695h177zM405.5 469q26.5 -27 26.5 -67q0 -41 -26.5 -68t-68.5 -27t-68 27t-26 68q0 40 26.5 67t67.5 27q42 0 68.5 -27z" />
    <glyph glyph-name="uni1E36" unicode="&#x1e36;" horiz-adv-x="432" 
d="M214 695v-557h214l-18 -138h-373v695h177zM156.5 -220q-26.5 27 -26.5 67q0 41 26.5 68t68.5 27t68 -27t26 -68q0 -40 -26.5 -67t-67.5 -27q-42 0 -68.5 27z" />
    <glyph glyph-name="uni01C8" unicode="&#x1c8;" horiz-adv-x="659" 
d="M214 695v-557h214l-18 -138h-373v695h177zM623 46q0 -109 -54 -169.5t-150 -99.5l-58 123q32 19 51 36t30 43t11 65v489h170v-487zM605.5 789q26.5 -27 26.5 -67q0 -41 -26.5 -68t-68.5 -27t-68 27t-26 68q0 40 26.5 67t67.5 27q42 0 68.5 -27z" />
    <glyph glyph-name="Lslash" unicode="&#x141;" horiz-adv-x="479" 
d="M261 138h214l-18 -138h-373v218l-33 -24l-53 92l80 59l6 4v346h177v-221l79 56l54 -91l-133 -95v-206z" />
    <glyph glyph-name="M" unicode="M" horiz-adv-x="670" 
d="M651 0h-167l-3 264l-1 139q0 46 2 138l-65 -469h-166l-68 469q4 -109 4 -213v-65l-3 -263h-165l40 695h216l62 -465l54 465h219z" />
    <glyph glyph-name="uni1E3E" unicode="&#x1e3e;" horiz-adv-x="670" 
d="M651 0h-167l-3 264l-1 139q0 46 2 138l-65 -469h-166l-68 469q4 -109 4 -213v-65l-3 -263h-165l40 695h216l62 -465l54 465h219zM396 956l63 -120l-209 -86l-43 82z" />
    <glyph glyph-name="uni1E40" unicode="&#x1e40;" horiz-adv-x="670" 
d="M651 0h-167l-3 264l-1 139q0 46 2 138l-65 -469h-166l-68 469q4 -109 4 -213v-65l-3 -263h-165l40 695h216l62 -465l54 465h219zM401.5 915q26.5 -27 26.5 -67q0 -41 -26.5 -68t-68.5 -27t-68 27t-26 68q0 40 26.5 67t67.5 27q42 0 68.5 -27z" />
    <glyph glyph-name="uni019C" unicode="&#x19c;" horiz-adv-x="750" 
d="M712 695v-695h-155l-11 55q-30 -38 -60 -55.5t-67 -17.5q-41 0 -72 23t-48 62q-31 -45 -62.5 -65t-71.5 -20q-63 0 -100.5 49.5t-37.5 122.5v541h177v-531q0 -26 7.5 -39t21.5 -13q13 0 24.5 12.5t24.5 36.5v534h176v-531q0 -25 7 -38.5t20 -13.5q14 0 26 12.5t24 40.5
v530h177z" />
    <glyph glyph-name="N" unicode="N" horiz-adv-x="544" 
d="M507 0h-216l-126 537l3 -24q9 -69 14.5 -131.5t5.5 -137.5v-244h-151v695h215l127 -539q-11 72 -17 134.5t-6 140.5v264h151v-695z" />
    <glyph glyph-name="uni01CA" unicode="&#x1ca;" horiz-adv-x="816" 
d="M507 0h-216l-126 537l3 -24q9 -69 14.5 -131.5t5.5 -137.5v-244h-151v695h215l127 -539q-11 72 -17 134.5t-6 140.5v264h151v-695zM780 107q0 -84 -29.5 -139.5t-74.5 -87t-105 -55.5l-47 124q35 17 52 37.5t22 48.5t5 78v582h177v-588z" />
    <glyph glyph-name="Nacute" unicode="&#x143;" horiz-adv-x="544" 
d="M507 0h-216l-126 537l3 -24q9 -69 14.5 -131.5t5.5 -137.5v-244h-151v695h215l127 -539q-11 72 -17 134.5t-6 140.5v264h151v-695zM334 956l63 -120l-209 -86l-43 82z" />
    <glyph glyph-name="Nacute.loclPLK" horiz-adv-x="544" 
d="M507 0h-216l-126 537l3 -24q9 -69 14.5 -131.5t5.5 -137.5v-244h-151v695h215l127 -539q-11 72 -17 134.5t-6 140.5v264h151v-695zM275 972l124 -69l-124 -159l-74 43z" />
    <glyph glyph-name="Ncaron" unicode="&#x147;" horiz-adv-x="544" 
d="M507 0h-216l-126 537l3 -24q9 -69 14.5 -131.5t5.5 -137.5v-244h-151v695h215l127 -539q-11 72 -17 134.5t-6 140.5v264h151v-695zM385 945l56 -59l-120 -137h-100l-119 137l57 59l113 -84z" />
    <glyph glyph-name="uni1E4A" unicode="&#x1e4a;" horiz-adv-x="544" 
d="M507 0h-216l-126 537l3 -24q9 -69 14.5 -131.5t5.5 -137.5v-244h-151v695h215l127 -539q-11 72 -17 134.5t-6 140.5v264h151v-695zM156 -267l-57 59l120 146h100l119 -146l-56 -59l-113 93z" />
    <glyph glyph-name="Ncommaaccent" unicode="&#x145;" horiz-adv-x="544" 
d="M507 0h-216l-126 537l3 -24q9 -69 14.5 -131.5t5.5 -137.5v-244h-151v695h215l127 -539q-11 72 -17 134.5t-6 140.5v264h151v-695zM328.5 -89q21.5 -23 21.5 -58q0 -19 -5 -36.5t-18 -48.5l-40 -98h-81l25 115q-38 24 -38 68q0 34 22 57.5t57 23.5t56.5 -23z" />
    <glyph glyph-name="uni1E44" unicode="&#x1e44;" horiz-adv-x="544" 
d="M507 0h-216l-126 537l3 -24q9 -69 14.5 -131.5t5.5 -137.5v-244h-151v695h215l127 -539q-11 72 -17 134.5t-6 140.5v264h151v-695zM339.5 915q26.5 -27 26.5 -67q0 -41 -26.5 -68t-68.5 -27t-68 27t-26 68q0 40 26.5 67t67.5 27q42 0 68.5 -27z" />
    <glyph glyph-name="uni1E46" unicode="&#x1e46;" horiz-adv-x="544" 
d="M507 0h-216l-126 537l3 -24q9 -69 14.5 -131.5t5.5 -137.5v-244h-151v695h215l127 -539q-11 72 -17 134.5t-6 140.5v264h151v-695zM204.5 -220q-26.5 27 -26.5 67q0 41 26.5 68t68.5 27t68 -27t26 -68q0 -40 -26.5 -67t-67.5 -27q-42 0 -68.5 27z" />
    <glyph glyph-name="uni01F8" unicode="&#x1f8;" horiz-adv-x="544" 
d="M507 0h-216l-126 537l3 -24q9 -69 14.5 -131.5t5.5 -137.5v-244h-151v695h215l127 -539q-11 72 -17 134.5t-6 140.5v264h151v-695zM209 955l189 -124l-43 -82l-209 87z" />
    <glyph glyph-name="Eng" unicode="&#x14a;" horiz-adv-x="544" 
d="M507 695v-734q0 -92 -52 -138t-140 -46q-79 0 -135 43l56 99q15 -8 26.5 -11.5t27.5 -3.5q40 0 40 46v50h-39l-126 537l3 -24q9 -69 14.5 -131.5t5.5 -137.5v-244h-151v695h215l127 -539q-11 72 -17 134.5t-6 140.5v264h151z" />
    <glyph glyph-name="Eng.ss01" horiz-adv-x="537" 
d="M505 0h-1v-39q0 -92 -52 -138t-140 -46q-79 0 -135 43l56 99q15 -8 26.5 -11.5t27.5 -3.5q40 0 40 46v51h1v512q0 38 -8.5 54t-28.5 16t-37.5 -13.5t-39.5 -40.5v-529h-177v695h156l11 -56q35 38 72 56t83 18q72 0 109 -46.5t37 -126.5v-540z" />
    <glyph glyph-name="uni019D" unicode="&#x19d;" horiz-adv-x="544" 
d="M507 695v-695h-216l-126 537l3 -24q9 -69 14.5 -131.5t5.5 -137.5v-283q0 -89 -48 -136.5t-126 -47.5q-74 0 -128 43l57 89q19 -9 28.5 -12.5t25.5 -3.5q40 0 40 55v747h215l127 -539q-11 72 -17 134.5t-6 140.5v264h151z" />
    <glyph glyph-name="uni019D.ss01" horiz-adv-x="537" 
d="M468 666.5q37 -46.5 37 -126.5v-540h-177v513q0 38 -8.5 54t-28.5 16t-37.5 -13.5t-39.5 -40.5v-528h1v-40q0 -92 -52 -138t-140 -46q-79 0 -135 43l56 99q15 -8 26.5 -11.5t27.5 -3.5q40 0 40 46v50h-1v695h156l11 -56q35 38 72 56t83 18q72 0 109 -46.5z" />
    <glyph glyph-name="uni01CB" unicode="&#x1cb;" horiz-adv-x="786" 
d="M507 0h-216l-126 537l3 -24q9 -69 14.5 -131.5t5.5 -137.5v-244h-151v695h215l127 -539q-11 72 -17 134.5t-6 140.5v264h151v-695zM750 46q0 -109 -54 -169.5t-150 -99.5l-58 123q32 19 51 36t30 43t11 65v489h170v-487zM732.5 789q26.5 -27 26.5 -67q0 -41 -26.5 -68
t-68.5 -27t-68 27t-26 68q0 40 26.5 67t67.5 27q42 0 68.5 -27z" />
    <glyph glyph-name="uni0220" unicode="&#x220;" horiz-adv-x="537" 
d="M468 666.5q37 -46.5 37 -126.5v-752h-177v725q0 38 -8.5 54t-28.5 16t-37.5 -13.5t-39.5 -40.5v-529h-177v695h156l11 -56q35 38 72 56t83 18q72 0 109 -46.5z" />
    <glyph glyph-name="Ntilde" unicode="&#xd1;" horiz-adv-x="544" 
d="M507 0h-216l-126 537l3 -24q9 -69 14.5 -131.5t5.5 -137.5v-244h-151v695h215l127 -539q-11 72 -17 134.5t-6 140.5v264h151v-695zM289 768.5q-14 6.5 -31 17.5q-21 15 -33 15q-14 0 -23 -9t-20 -30l-77 35q17 53 47.5 86.5t69.5 33.5q19 0 33 -6t32 -18q11 -8 18.5 -12
t15.5 -4q13 0 21.5 9t19.5 30l77 -35q-16 -54 -46.5 -86.5t-69.5 -32.5q-20 0 -34 6.5z" />
    <glyph glyph-name="O" unicode="O" horiz-adv-x="583" 
d="M492 622q69 -91 69 -274q0 -181 -69 -273.5t-201 -92.5t-200.5 91.5t-68.5 274.5q0 180 69 272.5t200 92.5q132 0 201 -91zM241.5 562.5q-18.5 -22.5 -27 -74t-8.5 -140.5q0 -91 8.5 -143t27 -74t49.5 -22q33 0 51.5 22t26.5 73.5t8 143.5q0 89 -8.5 140.5t-27 74
t-50.5 22.5q-31 0 -49.5 -22.5z" />
    <glyph glyph-name="uni0222" unicode="&#x222;" horiz-adv-x="550" 
d="M527 219q0 -68 -30.5 -121.5t-88 -84.5t-133.5 -31q-77 0 -134 30t-88 83.5t-31 123.5q0 66 28.5 111.5t81.5 69.5q-38 20 -58.5 51t-20.5 71v173h177v-190q0 -24 9.5 -37.5t35.5 -13.5q44 0 44 51v190h178v-173q0 -38 -21 -69.5t-59 -51.5q110 -46 110 -182zM327 136
q17 26 17 86q0 110 -69 110q-34 0 -51.5 -26.5t-17.5 -84.5q0 -59 17.5 -85t51.5 -26q35 0 52 26z" />
    <glyph glyph-name="Oacute" unicode="&#xd3;" horiz-adv-x="583" 
d="M492 622q69 -91 69 -274q0 -181 -69 -273.5t-201 -92.5t-200.5 91.5t-68.5 274.5q0 180 69 272.5t200 92.5q132 0 201 -91zM241.5 562.5q-18.5 -22.5 -27 -74t-8.5 -140.5q0 -91 8.5 -143t27 -74t49.5 -22q33 0 51.5 22t26.5 73.5t8 143.5q0 89 -8.5 140.5t-27 74
t-50.5 22.5q-31 0 -49.5 -22.5zM353 956l63 -120l-209 -86l-43 82z" />
    <glyph glyph-name="Oacute.loclPLK" horiz-adv-x="583" 
d="M492 622q69 -91 69 -274q0 -181 -69 -273.5t-201 -92.5t-200.5 91.5t-68.5 274.5q0 180 69 272.5t200 92.5q132 0 201 -91zM241.5 562.5q-18.5 -22.5 -27 -74t-8.5 -140.5q0 -91 8.5 -143t27 -74t49.5 -22q33 0 51.5 22t26.5 73.5t8 143.5q0 89 -8.5 140.5t-27 74
t-50.5 22.5q-31 0 -49.5 -22.5zM294 972l124 -69l-124 -159l-74 43z" />
    <glyph glyph-name="Obreve" unicode="&#x14e;" horiz-adv-x="583" 
d="M492 622q69 -91 69 -274q0 -181 -69 -273.5t-201 -92.5t-200.5 91.5t-68.5 274.5q0 180 69 272.5t200 92.5q132 0 201 -91zM241.5 562.5q-18.5 -22.5 -27 -74t-8.5 -140.5q0 -91 8.5 -143t27 -74t49.5 -22q33 0 51.5 22t26.5 73.5t8 143.5q0 89 -8.5 140.5t-27 74
t-50.5 22.5q-31 0 -49.5 -22.5zM181 795.5q-38 46.5 -44 122.5l87 17q14 -69 67 -69t66 69l88 -17q-6 -76 -44 -122.5t-110 -46.5t-110 46.5z" />
    <glyph glyph-name="uni01D1" unicode="&#x1d1;" horiz-adv-x="583" 
d="M492 622q69 -91 69 -274q0 -181 -69 -273.5t-201 -92.5t-200.5 91.5t-68.5 274.5q0 180 69 272.5t200 92.5q132 0 201 -91zM241.5 562.5q-18.5 -22.5 -27 -74t-8.5 -140.5q0 -91 8.5 -143t27 -74t49.5 -22q33 0 51.5 22t26.5 73.5t8 143.5q0 89 -8.5 140.5t-27 74
t-50.5 22.5q-31 0 -49.5 -22.5zM404 945l56 -59l-120 -137h-100l-119 137l57 59l113 -84z" />
    <glyph glyph-name="uni019F" unicode="&#x19f;" horiz-adv-x="583" 
d="M492 622q69 -91 69 -274q0 -181 -69 -273.5t-201 -92.5t-200.5 91.5t-68.5 274.5q0 180 69 272.5t200 92.5q132 0 201 -91zM225 543q-21 -42 -25 -144h183q-4 102 -25.5 144t-66.5 42t-66 -42zM342.5 127q19.5 18 29 60t11.5 116h-183q3 -108 24 -151t67 -43
q32 0 51.5 18z" />
    <glyph glyph-name="Ocircumflex" unicode="&#xd4;" horiz-adv-x="583" 
d="M492 622q69 -91 69 -274q0 -181 -69 -273.5t-201 -92.5t-200.5 91.5t-68.5 274.5q0 180 69 272.5t200 92.5q132 0 201 -91zM241.5 562.5q-18.5 -22.5 -27 -74t-8.5 -140.5q0 -91 8.5 -143t27 -74t49.5 -22q33 0 51.5 22t26.5 73.5t8 143.5q0 89 -8.5 140.5t-27 74
t-50.5 22.5q-31 0 -49.5 -22.5zM178 759l-57 59l120 137h100l119 -137l-56 -59l-113 84z" />
    <glyph glyph-name="uni1ED0" unicode="&#x1ed0;" horiz-adv-x="583" 
d="M492 622q69 -91 69 -274q0 -181 -69 -273.5t-201 -92.5t-200.5 91.5t-68.5 274.5q0 180 69 272.5t200 92.5q132 0 201 -91zM241.5 562.5q-18.5 -22.5 -27 -74t-8.5 -140.5q0 -91 8.5 -143t27 -74t49.5 -22q33 0 51.5 22t26.5 73.5t8 143.5q0 89 -8.5 140.5t-27 74
t-50.5 22.5q-31 0 -49.5 -22.5zM179 727l-57 59l120 137h100l119 -137l-56 -59l-113 84zM499 1105l98 -84l-152 -148l-65 53z" />
    <glyph glyph-name="uni1ED8" unicode="&#x1ed8;" horiz-adv-x="583" 
d="M492 622q69 -91 69 -274q0 -181 -69 -273.5t-201 -92.5t-200.5 91.5t-68.5 274.5q0 180 69 272.5t200 92.5q132 0 201 -91zM241.5 562.5q-18.5 -22.5 -27 -74t-8.5 -140.5q0 -91 8.5 -143t27 -74t49.5 -22q33 0 51.5 22t26.5 73.5t8 143.5q0 89 -8.5 140.5t-27 74
t-50.5 22.5q-31 0 -49.5 -22.5zM178 759l-57 59l120 137h100l119 -137l-56 -59l-113 84zM223.5 -220q-26.5 27 -26.5 67q0 41 26.5 68t68.5 27t68 -27t26 -68q0 -40 -26.5 -67t-67.5 -27q-42 0 -68.5 27z" />
    <glyph glyph-name="uni1ED2" unicode="&#x1ed2;" horiz-adv-x="583" 
d="M492 622q69 -91 69 -274q0 -181 -69 -273.5t-201 -92.5t-200.5 91.5t-68.5 274.5q0 180 69 272.5t200 92.5q132 0 201 -91zM241.5 562.5q-18.5 -22.5 -27 -74t-8.5 -140.5q0 -91 8.5 -143t27 -74t49.5 -22q33 0 51.5 22t26.5 73.5t8 143.5q0 89 -8.5 140.5t-27 74
t-50.5 22.5q-31 0 -49.5 -22.5zM177 727l-57 59l120 137h100l119 -137l-56 -59l-113 84zM84 1105l120 -179l-65 -53l-152 148z" />
    <glyph glyph-name="uni1ED4" unicode="&#x1ed4;" horiz-adv-x="583" 
d="M492 622q69 -91 69 -274q0 -181 -69 -273.5t-201 -92.5t-200.5 91.5t-68.5 274.5q0 180 69 272.5t200 92.5q132 0 201 -91zM241.5 562.5q-18.5 -22.5 -27 -74t-8.5 -140.5q0 -91 8.5 -143t27 -74t49.5 -22q33 0 51.5 22t26.5 73.5t8 143.5q0 89 -8.5 140.5t-27 74
t-50.5 22.5q-31 0 -49.5 -22.5zM178 727l-57 59l120 137h100l119 -137l-56 -59l-113 84zM400 953q32 2 45 10t13 28q0 14 -8 21.5t-21 7.5q-15 0 -25 -2.5t-27 -9.5l-24 68q41 26 98 26q54 0 83 -28t29 -75q0 -39 -18 -63t-53 -31v-42h-92v90z" />
    <glyph glyph-name="uni1ED6" unicode="&#x1ed6;" horiz-adv-x="583" 
d="M492 622q69 -91 69 -274q0 -181 -69 -273.5t-201 -92.5t-200.5 91.5t-68.5 274.5q0 180 69 272.5t200 92.5q132 0 201 -91zM241.5 562.5q-18.5 -22.5 -27 -74t-8.5 -140.5q0 -91 8.5 -143t27 -74t49.5 -22q33 0 51.5 22t26.5 73.5t8 143.5q0 89 -8.5 140.5t-27 74
t-50.5 22.5q-31 0 -49.5 -22.5zM177 727l-57 59l120 137h100l119 -137l-56 -59l-113 84zM307 961.5q-14 5.5 -31 16.5q-19 14 -33 14t-23 -8.5t-20 -27.5l-77 32q16 49 47 79.5t70 30.5q19 0 32.5 -5.5t32.5 -16.5q2 -1 13 -7.5t21 -6.5q13 0 21.5 8t19.5 27l77 -32
q-16 -50 -46.5 -79.5t-69.5 -29.5q-20 0 -34 5.5z" />
    <glyph glyph-name="uni020C" unicode="&#x20c;" horiz-adv-x="583" 
d="M492 622q69 -91 69 -274q0 -181 -69 -273.5t-201 -92.5t-200.5 91.5t-68.5 274.5q0 180 69 272.5t200 92.5q132 0 201 -91zM241.5 562.5q-18.5 -22.5 -27 -74t-8.5 -140.5q0 -91 8.5 -143t27 -74t49.5 -22q33 0 51.5 22t26.5 73.5t8 143.5q0 89 -8.5 140.5t-27 74
t-50.5 22.5q-31 0 -49.5 -22.5zM177 989l84 -201l-77 -38l-109 185zM335 989l79 -202l-80 -33l-103 185z" />
    <glyph glyph-name="Odieresis" unicode="&#xd6;" horiz-adv-x="583" 
d="M492 622q69 -91 69 -274q0 -181 -69 -273.5t-201 -92.5t-200.5 91.5t-68.5 274.5q0 180 69 272.5t200 92.5q132 0 201 -91zM241.5 562.5q-18.5 -22.5 -27 -74t-8.5 -140.5q0 -91 8.5 -143t27 -74t49.5 -22q33 0 51.5 22t26.5 73.5t8 143.5q0 89 -8.5 140.5t-27 74
t-50.5 22.5q-31 0 -49.5 -22.5zM250.5 906.5q22.5 -23.5 22.5 -58.5q0 -36 -22 -59.5t-58 -23.5q-34 0 -57.5 24t-23.5 59t23.5 58.5t57.5 23.5q35 0 57.5 -23.5zM454.5 906.5q22.5 -23.5 22.5 -58.5q0 -36 -22.5 -59.5t-58.5 -23.5q-34 0 -57.5 24t-23.5 59t23.5 58.5
t57.5 23.5q36 0 58.5 -23.5z" />
    <glyph glyph-name="uni022A" unicode="&#x22a;" horiz-adv-x="583" 
d="M492 622q69 -91 69 -274q0 -181 -69 -273.5t-201 -92.5t-200.5 91.5t-68.5 274.5q0 180 69 272.5t200 92.5q132 0 201 -91zM241.5 562.5q-18.5 -22.5 -27 -74t-8.5 -140.5q0 -91 8.5 -143t27 -74t49.5 -22q33 0 51.5 22t26.5 73.5t8 143.5q0 89 -8.5 140.5t-27 74
t-50.5 22.5q-31 0 -49.5 -22.5zM247.5 886.5q22.5 -23.5 22.5 -58.5q0 -36 -22 -59.5t-58 -23.5q-34 0 -57.5 24t-23.5 59t23.5 58.5t57.5 23.5q35 0 57.5 -23.5zM451.5 886.5q22.5 -23.5 22.5 -58.5q0 -36 -22.5 -59.5t-58.5 -23.5q-34 0 -57.5 24t-23.5 59t23.5 58.5
t57.5 23.5q36 0 58.5 -23.5zM427 955h-270v113h270v-113z" />
    <glyph glyph-name="uni022E" unicode="&#x22e;" horiz-adv-x="583" 
d="M492 622q69 -91 69 -274q0 -181 -69 -273.5t-201 -92.5t-200.5 91.5t-68.5 274.5q0 180 69 272.5t200 92.5q132 0 201 -91zM241.5 562.5q-18.5 -22.5 -27 -74t-8.5 -140.5q0 -91 8.5 -143t27 -74t49.5 -22q33 0 51.5 22t26.5 73.5t8 143.5q0 89 -8.5 140.5t-27 74
t-50.5 22.5q-31 0 -49.5 -22.5zM358.5 915q26.5 -27 26.5 -67q0 -41 -26.5 -68t-68.5 -27t-68 27t-26 68q0 40 26.5 67t67.5 27q42 0 68.5 -27z" />
    <glyph glyph-name="uni0230" unicode="&#x230;" horiz-adv-x="583" 
d="M492 622q69 -91 69 -274q0 -181 -69 -273.5t-201 -92.5t-200.5 91.5t-68.5 274.5q0 180 69 272.5t200 92.5q132 0 201 -91zM241.5 562.5q-18.5 -22.5 -27 -74t-8.5 -140.5q0 -91 8.5 -143t27 -74t49.5 -22q33 0 51.5 22t26.5 73.5t8 143.5q0 89 -8.5 140.5t-27 74
t-50.5 22.5q-31 0 -49.5 -22.5zM358.5 897q26.5 -27 26.5 -67q0 -41 -26.5 -68t-68.5 -27t-68 27t-26 68q0 40 26.5 67t67.5 27q42 0 68.5 -27zM426 955h-270v113h270v-113z" />
    <glyph glyph-name="uni1ECC" unicode="&#x1ecc;" horiz-adv-x="583" 
d="M492 622q69 -91 69 -274q0 -181 -69 -273.5t-201 -92.5t-200.5 91.5t-68.5 274.5q0 180 69 272.5t200 92.5q132 0 201 -91zM241.5 562.5q-18.5 -22.5 -27 -74t-8.5 -140.5q0 -91 8.5 -143t27 -74t49.5 -22q33 0 51.5 22t26.5 73.5t8 143.5q0 89 -8.5 140.5t-27 74
t-50.5 22.5q-31 0 -49.5 -22.5zM223.5 -220q-26.5 27 -26.5 67q0 41 26.5 68t68.5 27t68 -27t26 -68q0 -40 -26.5 -67t-67.5 -27q-42 0 -68.5 27z" />
    <glyph glyph-name="Ograve" unicode="&#xd2;" horiz-adv-x="583" 
d="M492 622q69 -91 69 -274q0 -181 -69 -273.5t-201 -92.5t-200.5 91.5t-68.5 274.5q0 180 69 272.5t200 92.5q132 0 201 -91zM241.5 562.5q-18.5 -22.5 -27 -74t-8.5 -140.5q0 -91 8.5 -143t27 -74t49.5 -22q33 0 51.5 22t26.5 73.5t8 143.5q0 89 -8.5 140.5t-27 74
t-50.5 22.5q-31 0 -49.5 -22.5zM228 955l189 -124l-43 -82l-209 87z" />
    <glyph glyph-name="uni1ECE" unicode="&#x1ece;" horiz-adv-x="583" 
d="M492 622q69 -91 69 -274q0 -181 -69 -273.5t-201 -92.5t-200.5 91.5t-68.5 274.5q0 180 69 272.5t200 92.5q132 0 201 -91zM241.5 562.5q-18.5 -22.5 -27 -74t-8.5 -140.5q0 -91 8.5 -143t27 -74t49.5 -22q33 0 51.5 22t26.5 73.5t8 143.5q0 89 -8.5 140.5t-27 74
t-50.5 22.5q-31 0 -49.5 -22.5zM245 854q32 2 45 10t13 28q0 14 -8 21.5t-21 7.5q-15 0 -25 -2.5t-27 -9.5l-24 68q41 26 98 26q54 0 83 -28t29 -75q0 -39 -18 -63t-53 -31v-42h-92v90z" />
    <glyph glyph-name="Ohorn" unicode="&#x1a0;" horiz-adv-x="624" 
d="M599 598.5q-25 -31.5 -71 -41.5q33 -82 33 -209q0 -181 -69 -273.5t-201 -92.5t-200.5 91.5t-68.5 274.5q0 180 69 272.5t200 92.5q124 0 192 -80q19 3 26.5 14.5t7.5 35.5q0 25 -2.5 39.5t-7.5 35.5l102 15q15 -41 15 -90q0 -53 -25 -84.5zM342.5 131q18.5 22 26.5 73.5
t8 143.5q0 89 -8.5 140.5t-27 74t-50.5 22.5q-31 0 -49.5 -22.5t-27 -74t-8.5 -140.5q0 -91 8.5 -143t27 -74t49.5 -22q33 0 51.5 22z" />
    <glyph glyph-name="uni1EDA" unicode="&#x1eda;" horiz-adv-x="624" 
d="M416 836l-209 -86l-43 82l189 124zM599 598.5q-25 -31.5 -71 -41.5q33 -82 33 -209q0 -181 -69 -273.5t-201 -92.5t-200.5 91.5t-68.5 274.5q0 180 69 272.5t200 92.5q124 0 192 -80q19 3 26.5 14.5t7.5 35.5q0 25 -2.5 39.5t-7.5 35.5l102 15q15 -41 15 -90
q0 -53 -25 -84.5zM342.5 131q18.5 22 26.5 73.5t8 143.5q0 89 -8.5 140.5t-27 74t-50.5 22.5q-31 0 -49.5 -22.5t-27 -74t-8.5 -140.5q0 -91 8.5 -143t27 -74t49.5 -22q33 0 51.5 22z" />
    <glyph glyph-name="uni1EE2" unicode="&#x1ee2;" horiz-adv-x="624" 
d="M599 598.5q-25 -31.5 -71 -41.5q33 -82 33 -209q0 -181 -69 -273.5t-201 -92.5t-200.5 91.5t-68.5 274.5q0 180 69 272.5t200 92.5q124 0 192 -80q19 3 26.5 14.5t7.5 35.5q0 25 -2.5 39.5t-7.5 35.5l102 15q15 -41 15 -90q0 -53 -25 -84.5zM342.5 131q18.5 22 26.5 73.5
t8 143.5q0 89 -8.5 140.5t-27 74t-50.5 22.5q-31 0 -49.5 -22.5t-27 -74t-8.5 -140.5q0 -91 8.5 -143t27 -74t49.5 -22q33 0 51.5 22zM360 -85q26 -27 26 -68q0 -40 -26.5 -67t-67.5 -27q-42 0 -68.5 27t-26.5 67q0 41 26.5 68t68.5 27t68 -27z" />
    <glyph glyph-name="uni1EDC" unicode="&#x1edc;" horiz-adv-x="624" 
d="M417 831l-43 -82l-209 87l63 119zM599 598.5q-25 -31.5 -71 -41.5q33 -82 33 -209q0 -181 -69 -273.5t-201 -92.5t-200.5 91.5t-68.5 274.5q0 180 69 272.5t200 92.5q124 0 192 -80q19 3 26.5 14.5t7.5 35.5q0 25 -2.5 39.5t-7.5 35.5l102 15q15 -41 15 -90
q0 -53 -25 -84.5zM342.5 131q18.5 22 26.5 73.5t8 143.5q0 89 -8.5 140.5t-27 74t-50.5 22.5q-31 0 -49.5 -22.5t-27 -74t-8.5 -140.5q0 -91 8.5 -143t27 -74t49.5 -22q33 0 51.5 22z" />
    <glyph glyph-name="uni1EDE" unicode="&#x1ede;" horiz-adv-x="624" 
d="M249 918.5q-10 -2.5 -27 -9.5l-24 68q41 26 98 26q54 0 83 -28t29 -75q0 -39 -18 -63t-53 -31v-42h-92v90q32 2 45 10t13 28q0 14 -8 21.5t-21 7.5q-15 0 -25 -2.5zM599 598.5q-25 -31.5 -71 -41.5q33 -82 33 -209q0 -181 -69 -273.5t-201 -92.5t-200.5 91.5t-68.5 274.5
q0 180 69 272.5t200 92.5q124 0 192 -80q19 3 26.5 14.5t7.5 35.5q0 25 -2.5 39.5t-7.5 35.5l102 15q15 -41 15 -90q0 -53 -25 -84.5zM342.5 131q18.5 22 26.5 73.5t8 143.5q0 89 -8.5 140.5t-27 74t-50.5 22.5q-31 0 -49.5 -22.5t-27 -74t-8.5 -140.5q0 -91 8.5 -143
t27 -74t49.5 -22q33 0 51.5 22z" />
    <glyph glyph-name="uni1EE0" unicode="&#x1ee0;" horiz-adv-x="624" 
d="M221 792q-9 -9 -20 -30l-77 35q17 53 47.5 86.5t69.5 33.5q19 0 33 -6t32 -18q11 -8 18.5 -12t15.5 -4q13 0 21.5 9t19.5 30l77 -35q-16 -54 -46.5 -86.5t-69.5 -32.5q-20 0 -34 6.5t-31 17.5q-21 15 -33 15q-14 0 -23 -9zM599 598.5q-25 -31.5 -71 -41.5q33 -82 33 -209
q0 -181 -69 -273.5t-201 -92.5t-200.5 91.5t-68.5 274.5q0 180 69 272.5t200 92.5q124 0 192 -80q19 3 26.5 14.5t7.5 35.5q0 25 -2.5 39.5t-7.5 35.5l102 15q15 -41 15 -90q0 -53 -25 -84.5zM342.5 131q18.5 22 26.5 73.5t8 143.5q0 89 -8.5 140.5t-27 74t-50.5 22.5
q-31 0 -49.5 -22.5t-27 -74t-8.5 -140.5q0 -91 8.5 -143t27 -74t49.5 -22q33 0 51.5 22z" />
    <glyph glyph-name="Ohungarumlaut" unicode="&#x150;" horiz-adv-x="583" 
d="M492 622q69 -91 69 -274q0 -181 -69 -273.5t-201 -92.5t-200.5 91.5t-68.5 274.5q0 180 69 272.5t200 92.5q132 0 201 -91zM241.5 562.5q-18.5 -22.5 -27 -74t-8.5 -140.5q0 -91 8.5 -143t27 -74t49.5 -22q33 0 51.5 22t26.5 73.5t8 143.5q0 89 -8.5 140.5t-27 74
t-50.5 22.5q-31 0 -49.5 -22.5zM252 989l104 -50l-102 -185l-80 33zM411 989l102 -54l-110 -185l-77 38z" />
    <glyph glyph-name="uni01A2" unicode="&#x1a2;" horiz-adv-x="814" 
d="M725 662.5q52 -49.5 52 -137.5v-736h-177v746q0 55 -40 55q-23 0 -42 -10q43 -89 43 -232q0 -181 -69 -273.5t-201 -92.5t-200.5 91.5t-68.5 274.5q0 180 69 272.5t200 92.5q94 0 156 -46q61 45 143 45q83 0 135 -49.5zM342.5 131q18.5 22 26.5 73.5t8 143.5
q0 89 -8.5 140.5t-27 74t-50.5 22.5q-31 0 -49.5 -22.5t-27 -74t-8.5 -140.5q0 -91 8.5 -143t27 -74t49.5 -22q33 0 51.5 22z" />
    <glyph glyph-name="uni020E" unicode="&#x20e;" horiz-adv-x="583" 
d="M492 622q69 -91 69 -274q0 -181 -69 -273.5t-201 -92.5t-200.5 91.5t-68.5 274.5q0 180 69 272.5t200 92.5q132 0 201 -91zM241.5 562.5q-18.5 -22.5 -27 -74t-8.5 -140.5q0 -91 8.5 -143t27 -74t49.5 -22q33 0 51.5 22t26.5 73.5t8 143.5q0 89 -8.5 140.5t-27 74
t-50.5 22.5q-31 0 -49.5 -22.5zM401.5 909q37.5 -48 43.5 -132l-88 -16q-13 81 -66 81t-67 -81l-87 16q6 84 43.5 132t110.5 48t110.5 -48z" />
    <glyph glyph-name="Omacron" unicode="&#x14c;" horiz-adv-x="583" 
d="M492 622q69 -91 69 -274q0 -181 -69 -273.5t-201 -92.5t-200.5 91.5t-68.5 274.5q0 180 69 272.5t200 92.5q132 0 201 -91zM241.5 562.5q-18.5 -22.5 -27 -74t-8.5 -140.5q0 -91 8.5 -143t27 -74t49.5 -22q33 0 51.5 22t26.5 73.5t8 143.5q0 89 -8.5 140.5t-27 74
t-50.5 22.5q-31 0 -49.5 -22.5zM426 781h-270v113h270v-113z" />
    <glyph glyph-name="uni1E52" unicode="&#x1e52;" horiz-adv-x="583" 
d="M492 622q69 -91 69 -274q0 -181 -69 -273.5t-201 -92.5t-200.5 91.5t-68.5 274.5q0 180 69 272.5t200 92.5q132 0 201 -91zM241.5 562.5q-18.5 -22.5 -27 -74t-8.5 -140.5q0 -91 8.5 -143t27 -74t49.5 -22q33 0 51.5 22t26.5 73.5t8 143.5q0 89 -8.5 140.5t-27 74
t-50.5 22.5q-31 0 -49.5 -22.5zM426 763h-270v113h270v-113zM348 1114l63 -120l-209 -86l-43 82z" />
    <glyph glyph-name="uni1E50" unicode="&#x1e50;" horiz-adv-x="583" 
d="M228 1114l189 -124l-43 -82l-209 87zM426 763h-270v113h270v-113zM492 622q69 -91 69 -274q0 -181 -69 -273.5t-201 -92.5t-200.5 91.5t-68.5 274.5q0 180 69 272.5t200 92.5q132 0 201 -91zM241.5 562.5q-18.5 -22.5 -27 -74t-8.5 -140.5q0 -91 8.5 -143t27 -74
t49.5 -22q33 0 51.5 22t26.5 73.5t8 143.5q0 89 -8.5 140.5t-27 74t-50.5 22.5q-31 0 -49.5 -22.5z" />
    <glyph glyph-name="uniA7B6" unicode="&#xa7b6;" horiz-adv-x="762" 
d="M711 515.5q17 -93.5 17 -212.5q0 -169 -48 -245t-141 -76q-65 0 -102.5 29t-54.5 91q-14 -61 -52 -90.5t-96 -29.5q-103 0 -151.5 74.5t-48.5 246.5q0 119 17 212.5t48 179.5h162q-2 -12 -8 -36q-21 -101 -31.5 -176.5t-10.5 -170.5q0 -80 5 -123.5t15.5 -61t29.5 -17.5
q35 0 35 50v239h175v-239q0 -26 8.5 -38.5t26.5 -12.5t27.5 16.5t13.5 59.5t4 127q0 108 -15 193t-43 190h170q31 -86 48 -179.5z" />
    <glyph glyph-name="uni01EA" unicode="&#x1ea;" horiz-adv-x="583" 
d="M519 119.5q-42 -87.5 -123 -119.5q-54 -24 -73.5 -48.5t-19.5 -51.5q0 -23 11 -34.5t31 -11.5t49 8l-10 -102q-29 -8 -60 -8q-61 0 -99.5 31t-38.5 87q0 67 56 115q-220 34 -220 363q0 180 69 272.5t200 92.5q132 0 201 -91t69 -274q0 -141 -42 -228.5zM241.5 562.5
q-18.5 -22.5 -27 -74t-8.5 -140.5q0 -91 8.5 -143t27 -74t49.5 -22q33 0 51.5 22t26.5 73.5t8 143.5q0 89 -8.5 140.5t-27 74t-50.5 22.5q-31 0 -49.5 -22.5z" />
    <glyph glyph-name="uni01EC" unicode="&#x1ec;" horiz-adv-x="583" 
d="M426 894v-113h-270v113h270zM519 119.5q-42 -87.5 -123 -119.5q-54 -24 -73.5 -48.5t-19.5 -51.5q0 -23 11 -34.5t31 -11.5t49 8l-10 -102q-29 -8 -60 -8q-61 0 -99.5 31t-38.5 87q0 67 56 115q-220 34 -220 363q0 180 69 272.5t200 92.5q132 0 201 -91t69 -274
q0 -141 -42 -228.5zM241.5 562.5q-18.5 -22.5 -27 -74t-8.5 -140.5q0 -91 8.5 -143t27 -74t49.5 -22q33 0 51.5 22t26.5 73.5t8 143.5q0 89 -8.5 140.5t-27 74t-50.5 22.5q-31 0 -49.5 -22.5z" />
    <glyph glyph-name="uni0186" unicode="&#x186;" horiz-adv-x="489" 
d="M395 622q72 -91 72 -273t-72.5 -274.5t-200.5 -92.5q-59 0 -109 26t-86 66l78 93q31 -26 54 -38t53 -12q49 0 74 52t25 180q0 131 -22.5 182.5t-71.5 51.5q-29 0 -51.5 -11t-48.5 -33l-83 96q40 38 87 58t107 20q123 0 195 -91z" />
    <glyph glyph-name="Oslash" unicode="&#xd8;" horiz-adv-x="583" 
d="M561 348q0 -181 -69 -273.5t-201 -92.5q-16 0 -24 1l-30 -119l-129 35l34 125q-120 82 -120 324q0 180 69 272t200 92q17 0 25 -1l30 118l129 -35l-34 -124q120 -83 120 -322zM233.5 565.5q-20.5 -22.5 -29.5 -74.5t-9 -143q0 -140 18 -190l93 429q-5 1 -15 1
q-37 0 -57.5 -22.5zM370 526l-91 -420h12q38 0 58.5 22t29 73.5t8.5 146.5q0 127 -17 178z" />
    <glyph glyph-name="Oslashacute" unicode="&#x1fe;" horiz-adv-x="583" 
d="M561 348q0 -181 -69 -273.5t-201 -92.5q-16 0 -24 1l-30 -119l-129 35l34 125q-120 82 -120 324q0 180 69 272t200 92q17 0 25 -1l30 118l129 -35l-34 -124q120 -83 120 -322zM233.5 565.5q-20.5 -22.5 -29.5 -74.5t-9 -143q0 -140 18 -190l93 429q-5 1 -15 1
q-37 0 -57.5 -22.5zM370 526l-91 -420h12q38 0 58.5 22t29 73.5t8.5 146.5q0 127 -17 178zM354 992l63 -120l-209 -86l-43 82z" />
    <glyph glyph-name="Otilde" unicode="&#xd5;" horiz-adv-x="583" 
d="M492 622q69 -91 69 -274q0 -181 -69 -273.5t-201 -92.5t-200.5 91.5t-68.5 274.5q0 180 69 272.5t200 92.5q132 0 201 -91zM241.5 562.5q-18.5 -22.5 -27 -74t-8.5 -140.5q0 -91 8.5 -143t27 -74t49.5 -22q33 0 51.5 22t26.5 73.5t8 143.5q0 89 -8.5 140.5t-27 74
t-50.5 22.5q-31 0 -49.5 -22.5zM308 768.5q-14 6.5 -31 17.5q-21 15 -33 15q-14 0 -23 -9t-20 -30l-77 35q17 53 47.5 86.5t69.5 33.5q19 0 33 -6t32 -18q11 -8 18.5 -12t15.5 -4q13 0 21.5 9t19.5 30l77 -35q-16 -54 -46.5 -86.5t-69.5 -32.5q-20 0 -34 6.5z" />
    <glyph glyph-name="uni1E4C" unicode="&#x1e4c;" horiz-adv-x="583" 
d="M492 622q69 -91 69 -274q0 -181 -69 -273.5t-201 -92.5t-200.5 91.5t-68.5 274.5q0 180 69 272.5t200 92.5q132 0 201 -91zM241.5 562.5q-18.5 -22.5 -27 -74t-8.5 -140.5q0 -91 8.5 -143t27 -74t49.5 -22q33 0 51.5 22t26.5 73.5t8 143.5q0 89 -8.5 140.5t-27 74
t-50.5 22.5q-31 0 -49.5 -22.5zM308 766.5q-14 6.5 -31 17.5q-21 15 -33 15q-14 0 -23 -9t-20 -30l-77 35q17 53 47.5 86.5t69.5 33.5q19 0 33 -6t32 -18q11 -8 18.5 -12t15.5 -4q13 0 21.5 9t19.5 30l77 -35q-16 -54 -46.5 -86.5t-69.5 -32.5q-20 0 -34 6.5zM353 1137
l63 -120l-209 -86l-43 82z" />
    <glyph glyph-name="uni022C" unicode="&#x22c;" horiz-adv-x="583" 
d="M492 622q69 -91 69 -274q0 -181 -69 -273.5t-201 -92.5t-200.5 91.5t-68.5 274.5q0 180 69 272.5t200 92.5q132 0 201 -91zM241.5 562.5q-18.5 -22.5 -27 -74t-8.5 -140.5q0 -91 8.5 -143t27 -74t49.5 -22q33 0 51.5 22t26.5 73.5t8 143.5q0 89 -8.5 140.5t-27 74
t-50.5 22.5q-31 0 -49.5 -22.5zM308 766.5q-14 6.5 -31 17.5q-21 15 -33 15q-14 0 -23 -9t-20 -30l-77 35q17 53 47.5 86.5t69.5 33.5q19 0 33 -6t32 -18q11 -8 18.5 -12t15.5 -4q13 0 21.5 9t19.5 30l77 -35q-16 -54 -46.5 -86.5t-69.5 -32.5q-20 0 -34 6.5zM428 955h-270
v113h270v-113z" />
    <glyph glyph-name="OE" unicode="&#x152;" horiz-adv-x="755" 
d="M489 126h248v-126h-370q-39 -18 -91 -18q-120 0 -187 94.5t-67 271.5q0 176 67 270.5t187 94.5q52 0 91 -18h375l-18 -125h-236q39 -63 50 -156h164v-123h-163q-9 -97 -50 -165zM327.5 131.5q16.5 22.5 24.5 74t8 142.5q0 89 -8 141t-25 74t-44 22t-44 -22t-25 -74
t-8 -141q0 -133 18 -186t59 -53q28 0 44.5 22.5z" />
    <glyph glyph-name="P" unicode="P" horiz-adv-x="507" 
d="M429.5 636.5q69.5 -58.5 69.5 -170.5q0 -118 -65.5 -178.5t-185.5 -60.5h-34v-227h-177v695h191q132 0 201.5 -58.5zM298.5 378.5q19.5 25.5 19.5 86.5q0 54 -18.5 79.5t-65.5 25.5h-20v-217h17q48 0 67.5 25.5z" />
    <glyph glyph-name="uni1E54" unicode="&#x1e54;" horiz-adv-x="507" 
d="M429.5 636.5q69.5 -58.5 69.5 -170.5q0 -118 -65.5 -178.5t-185.5 -60.5h-34v-227h-177v695h191q132 0 201.5 -58.5zM298.5 378.5q19.5 25.5 19.5 86.5q0 54 -18.5 79.5t-65.5 25.5h-20v-217h17q48 0 67.5 25.5zM320 956l63 -120l-209 -86l-43 82z" />
    <glyph glyph-name="uni1E56" unicode="&#x1e56;" horiz-adv-x="507" 
d="M429.5 636.5q69.5 -58.5 69.5 -170.5q0 -118 -65.5 -178.5t-185.5 -60.5h-34v-227h-177v695h191q132 0 201.5 -58.5zM298.5 378.5q19.5 25.5 19.5 86.5q0 54 -18.5 79.5t-65.5 25.5h-20v-217h17q48 0 67.5 25.5zM325.5 915q26.5 -27 26.5 -67q0 -41 -26.5 -68t-68.5 -27
t-68 27t-26 68q0 40 26.5 67t67.5 27q42 0 68.5 -27z" />
    <glyph glyph-name="uni01A4" unicode="&#x1a4;" horiz-adv-x="654" 
d="M576.5 636.5q69.5 -58.5 69.5 -170.5q0 -118 -65.5 -178.5t-185.5 -60.5h-34v-227h-177v570h-18q-17 0 -25.5 -10.5t-8.5 -28.5q0 -31 17 -68l-107 -45q-20 31 -30.5 61.5t-10.5 69.5q0 67 46 106.5t128 39.5h200q132 0 201.5 -58.5zM445.5 378.5q19.5 25.5 19.5 86.5
q0 54 -18.5 79.5t-65.5 25.5h-20v-217h17q48 0 67.5 25.5z" />
    <glyph glyph-name="Thorn" unicode="&#xde;" horiz-adv-x="507" 
d="M432 529q67 -58 67 -172q0 -122 -64 -183.5t-178 -61.5h-43v-112h-177v695h177v-108h30q121 0 188 -58zM302 265q20 28 20 92q0 57 -21 82t-63 25h-24v-227h25q43 0 63 28z" />
    <glyph glyph-name="Q" unicode="Q" horiz-adv-x="583" 
d="M523.5 29q42.5 -16 80.5 -52l-104 -132q-87 140 -222 140q-122 0 -189 93t-67 270q0 178 69 271.5t200 93.5t200.5 -92.5t69.5 -272.5q0 -121 -39.5 -190t-104.5 -113q64 0 106.5 -16zM214.5 205.5q8.5 -51.5 27 -73.5t49.5 -22q33 0 51.5 22t26.5 73t8 143
q0 91 -8.5 142t-27 73t-50.5 22q-31 0 -49.5 -22t-27 -73t-8.5 -142t8.5 -142.5z" />
    <glyph glyph-name="uni024A" unicode="&#x24a;" horiz-adv-x="568" 
d="M681 -180q-56 -43 -135 -43q-88 0 -140 46t-52 138v60q-49 -39 -110 -39q-64 0 -114 40t-79 120t-29 195q0 122 28.5 206.5t79 127t115.5 42.5q75 0 123 -50l5 32h158v-745q0 -46 40 -46q16 0 27.5 3.5t26.5 11.5zM354 133v423q-14 14 -29.5 21.5t-36.5 7.5
q-29 0 -46.5 -22t-26.5 -76t-9 -150q0 -92 9 -142.5t26.5 -69.5t45.5 -19q37 0 67 27z" />
    <glyph glyph-name="R" unicode="R" horiz-adv-x="522" 
d="M245 259h-31v-259h-177v695h199q264 0 264 -215q0 -60 -24 -109.5t-76 -78.5l139 -292h-187zM214 380h25q44 0 62.5 23.5t18.5 76.5q0 47 -20.5 69.5t-63.5 22.5h-22v-192z" />
    <glyph glyph-name="Racute" unicode="&#x154;" horiz-adv-x="522" 
d="M245 259h-31v-259h-177v695h199q264 0 264 -215q0 -60 -24 -109.5t-76 -78.5l139 -292h-187zM214 380h25q44 0 62.5 23.5t18.5 76.5q0 47 -20.5 69.5t-63.5 22.5h-22v-192zM317 956l63 -120l-209 -86l-43 82z" />
    <glyph glyph-name="Rcaron" unicode="&#x158;" horiz-adv-x="522" 
d="M245 259h-31v-259h-177v695h199q264 0 264 -215q0 -60 -24 -109.5t-76 -78.5l139 -292h-187zM214 380h25q44 0 62.5 23.5t18.5 76.5q0 47 -20.5 69.5t-63.5 22.5h-22v-192zM368 945l56 -59l-120 -137h-100l-119 137l57 59l113 -84z" />
    <glyph glyph-name="Rcommaaccent" unicode="&#x156;" horiz-adv-x="522" 
d="M245 259h-31v-259h-177v695h199q264 0 264 -215q0 -60 -24 -109.5t-76 -78.5l139 -292h-187zM214 380h25q44 0 62.5 23.5t18.5 76.5q0 47 -20.5 69.5t-63.5 22.5h-22v-192zM318.5 -89q21.5 -23 21.5 -58q0 -19 -5 -36.5t-18 -48.5l-40 -98h-81l25 115q-38 24 -38 68
q0 34 22 57.5t57 23.5t56.5 -23z" />
    <glyph glyph-name="uni0210" unicode="&#x210;" horiz-adv-x="522" 
d="M245 259h-31v-259h-177v695h199q264 0 264 -215q0 -60 -24 -109.5t-76 -78.5l139 -292h-187zM214 380h25q44 0 62.5 23.5t18.5 76.5q0 47 -20.5 69.5t-63.5 22.5h-22v-192zM141 989l84 -201l-77 -38l-109 185zM299 989l79 -202l-80 -33l-103 185z" />
    <glyph glyph-name="uni1E5A" unicode="&#x1e5a;" horiz-adv-x="522" 
d="M245 259h-31v-259h-177v695h199q264 0 264 -215q0 -60 -24 -109.5t-76 -78.5l139 -292h-187zM214 380h25q44 0 62.5 23.5t18.5 76.5q0 47 -20.5 69.5t-63.5 22.5h-22v-192zM194.5 -220q-26.5 27 -26.5 67q0 41 26.5 68t68.5 27t68 -27t26 -68q0 -40 -26.5 -67t-67.5 -27
q-42 0 -68.5 27z" />
    <glyph glyph-name="uni0212" unicode="&#x212;" horiz-adv-x="522" 
d="M245 259h-31v-259h-177v695h199q264 0 264 -215q0 -60 -24 -109.5t-76 -78.5l139 -292h-187zM214 380h25q44 0 62.5 23.5t18.5 76.5q0 47 -20.5 69.5t-63.5 22.5h-22v-192zM365.5 909q37.5 -48 43.5 -132l-88 -16q-13 81 -66 81t-67 -81l-87 16q6 84 43.5 132t110.5 48
t110.5 -48z" />
    <glyph glyph-name="uni024C" unicode="&#x24c;" horiz-adv-x="533" 
d="M256 259h-31v-259h-177v259h-36v121h36v315h199q264 0 264 -215q0 -60 -24 -109.5t-76 -78.5l139 -292h-187zM225 380h25q44 0 62.5 23.5t18.5 76.5q0 47 -20.5 69.5t-63.5 22.5h-22v-192z" />
    <glyph glyph-name="uni2C64" unicode="&#x2c64;" horiz-adv-x="522" 
d="M281.5 -92.5q11.5 3.5 26.5 11.5l56 -99q-56 -43 -135 -43q-88 0 -140 46t-52 138v734h199q264 0 264 -215q0 -60 -24 -109.5t-76 -78.5l139 -292h-187l-107 259h-31v-309q0 -46 40 -46q16 0 27.5 3.5zM214 572v-192h25q44 0 62.5 23.5t18.5 76.5q0 47 -20.5 69.5
t-63.5 22.5h-22z" />
    <glyph glyph-name="uni2C64.ss01" horiz-adv-x="379" 
d="M281.5 -92.5q11.5 3.5 26.5 11.5l56 -99q-56 -43 -135 -43q-88 0 -140 46t-52 138v734h156l12 -86q18 47 51.5 74t76.5 27q31 0 55 -9l-25 -167q-28 7 -52 7q-42 0 -64 -28.5t-33 -81.5v-481q0 -46 40 -46q16 0 27.5 3.5z" />
    <glyph glyph-name="S" unicode="S" horiz-adv-x="485" 
d="M365.5 690q51.5 -23 93.5 -68l-75 -91q-60 54 -117 54q-31 0 -47.5 -17.5t-16.5 -46.5q0 -28 20.5 -47t80.5 -45q60 -27 96 -55t54.5 -68.5t18.5 -100.5q0 -65 -29.5 -115.5t-84.5 -79t-129 -28.5q-78 0 -134 27t-99 73l83 93q36 -32 68 -48.5t68 -16.5q38 0 55.5 22
t17.5 58q0 34 -20 57t-70 45q-98 42 -138.5 91t-40.5 123q0 62 29.5 109t81 72.5t115.5 25.5q68 0 119.5 -23z" />
    <glyph glyph-name="Sacute" unicode="&#x15a;" horiz-adv-x="485" 
d="M365.5 690q51.5 -23 93.5 -68l-75 -91q-60 54 -117 54q-31 0 -47.5 -17.5t-16.5 -46.5q0 -28 20.5 -47t80.5 -45q60 -27 96 -55t54.5 -68.5t18.5 -100.5q0 -65 -29.5 -115.5t-84.5 -79t-129 -28.5q-78 0 -134 27t-99 73l83 93q36 -32 68 -48.5t68 -16.5q38 0 55.5 22
t17.5 58q0 34 -20 57t-70 45q-98 42 -138.5 91t-40.5 123q0 62 29.5 109t81 72.5t115.5 25.5q68 0 119.5 -23zM314 956l63 -120l-209 -86l-43 82z" />
    <glyph glyph-name="Sacute.loclPLK" horiz-adv-x="485" 
d="M365.5 690q51.5 -23 93.5 -68l-75 -91q-60 54 -117 54q-31 0 -47.5 -17.5t-16.5 -46.5q0 -28 20.5 -47t80.5 -45q60 -27 96 -55t54.5 -68.5t18.5 -100.5q0 -65 -29.5 -115.5t-84.5 -79t-129 -28.5q-78 0 -134 27t-99 73l83 93q36 -32 68 -48.5t68 -16.5q38 0 55.5 22
t17.5 58q0 34 -20 57t-70 45q-98 42 -138.5 91t-40.5 123q0 62 29.5 109t81 72.5t115.5 25.5q68 0 119.5 -23zM255 972l124 -69l-124 -159l-74 43z" />
    <glyph glyph-name="uniA78B" unicode="&#xa78b;" horiz-adv-x="235" 
d="M56 332l-17 363h157l-18 -363h-122z" />
    <glyph glyph-name="Scaron" unicode="&#x160;" horiz-adv-x="485" 
d="M365.5 690q51.5 -23 93.5 -68l-75 -91q-60 54 -117 54q-31 0 -47.5 -17.5t-16.5 -46.5q0 -28 20.5 -47t80.5 -45q60 -27 96 -55t54.5 -68.5t18.5 -100.5q0 -65 -29.5 -115.5t-84.5 -79t-129 -28.5q-78 0 -134 27t-99 73l83 93q36 -32 68 -48.5t68 -16.5q38 0 55.5 22
t17.5 58q0 34 -20 57t-70 45q-98 42 -138.5 91t-40.5 123q0 62 29.5 109t81 72.5t115.5 25.5q68 0 119.5 -23zM365 945l56 -59l-120 -137h-100l-119 137l57 59l113 -84z" />
    <glyph glyph-name="Scedilla" unicode="&#x15e;" horiz-adv-x="485" 
d="M422 59.5q-51 -59.5 -139 -73.5v-37q91 -16 91 -98q0 -52 -36 -84.5t-101 -32.5q-59 0 -105 32l36 71q28 -13 56 -13q33 0 33 29q0 17 -18.5 25t-58.5 8l11 98q-63 6 -109.5 32t-84.5 66l83 93q36 -32 68 -48.5t68 -16.5q38 0 55.5 22t17.5 58q0 34 -20 57t-70 45
q-98 42 -138.5 91t-40.5 123q0 62 29.5 109t81 72.5t115.5 25.5q68 0 119.5 -23t93.5 -68l-75 -91q-60 54 -117 54q-31 0 -47.5 -17.5t-16.5 -46.5q0 -28 20.5 -47t80.5 -45q60 -27 96 -55t54.5 -68.5t18.5 -100.5q0 -86 -51 -145.5z" />
    <glyph glyph-name="Scircumflex" unicode="&#x15c;" horiz-adv-x="485" 
d="M365.5 690q51.5 -23 93.5 -68l-75 -91q-60 54 -117 54q-31 0 -47.5 -17.5t-16.5 -46.5q0 -28 20.5 -47t80.5 -45q60 -27 96 -55t54.5 -68.5t18.5 -100.5q0 -65 -29.5 -115.5t-84.5 -79t-129 -28.5q-78 0 -134 27t-99 73l83 93q36 -32 68 -48.5t68 -16.5q38 0 55.5 22
t17.5 58q0 34 -20 57t-70 45q-98 42 -138.5 91t-40.5 123q0 62 29.5 109t81 72.5t115.5 25.5q68 0 119.5 -23zM139 759l-57 59l120 137h100l119 -137l-56 -59l-113 84z" />
    <glyph glyph-name="Scommaaccent" unicode="&#x218;" horiz-adv-x="485" 
d="M365.5 690q51.5 -23 93.5 -68l-75 -91q-60 54 -117 54q-31 0 -47.5 -17.5t-16.5 -46.5q0 -28 20.5 -47t80.5 -45q60 -27 96 -55t54.5 -68.5t18.5 -100.5q0 -65 -29.5 -115.5t-84.5 -79t-129 -28.5q-78 0 -134 27t-99 73l83 93q36 -32 68 -48.5t68 -16.5q38 0 55.5 22
t17.5 58q0 34 -20 57t-70 45q-98 42 -138.5 91t-40.5 123q0 62 29.5 109t81 72.5t115.5 25.5q68 0 119.5 -23zM297.5 -89q21.5 -23 21.5 -58q0 -19 -5 -36.5t-18 -48.5l-40 -98h-81l25 115q-38 24 -38 68q0 34 22 57.5t57 23.5t56.5 -23z" />
    <glyph glyph-name="uni1E60" unicode="&#x1e60;" horiz-adv-x="485" 
d="M365.5 690q51.5 -23 93.5 -68l-75 -91q-60 54 -117 54q-31 0 -47.5 -17.5t-16.5 -46.5q0 -28 20.5 -47t80.5 -45q60 -27 96 -55t54.5 -68.5t18.5 -100.5q0 -65 -29.5 -115.5t-84.5 -79t-129 -28.5q-78 0 -134 27t-99 73l83 93q36 -32 68 -48.5t68 -16.5q38 0 55.5 22
t17.5 58q0 34 -20 57t-70 45q-98 42 -138.5 91t-40.5 123q0 62 29.5 109t81 72.5t115.5 25.5q68 0 119.5 -23zM319.5 915q26.5 -27 26.5 -67q0 -41 -26.5 -68t-68.5 -27t-68 27t-26 68q0 40 26.5 67t67.5 27q42 0 68.5 -27z" />
    <glyph glyph-name="uni1E62" unicode="&#x1e62;" horiz-adv-x="485" 
d="M365.5 690q51.5 -23 93.5 -68l-75 -91q-60 54 -117 54q-31 0 -47.5 -17.5t-16.5 -46.5q0 -28 20.5 -47t80.5 -45q60 -27 96 -55t54.5 -68.5t18.5 -100.5q0 -65 -29.5 -115.5t-84.5 -79t-129 -28.5q-78 0 -134 27t-99 73l83 93q36 -32 68 -48.5t68 -16.5q38 0 55.5 22
t17.5 58q0 34 -20 57t-70 45q-98 42 -138.5 91t-40.5 123q0 62 29.5 109t81 72.5t115.5 25.5q68 0 119.5 -23zM173.5 -220q-26.5 27 -26.5 67q0 41 26.5 68t68.5 27t68 -27t26 -68q0 -40 -26.5 -67t-67.5 -27q-42 0 -68.5 27z" />
    <glyph glyph-name="uni1E9E" unicode="&#x1e9e;" horiz-adv-x="562" 
d="M387 695q59 -18 128 -51v-78l-111 -172q148 -37 148 -197q0 -70 -28.5 -118.5t-75.5 -72.5t-104 -24q-69 0 -113 27l50 111q16 -7 35 -7q53 0 53 86q0 52 -24 79t-84 35v88l108 169q-50 15 -92 15q-34 0 -48.5 -18.5t-14.5 -56.5v-510h-177v505q0 94 56.5 151t162.5 57
q72 0 131 -18z" />
    <glyph glyph-name="uni018F" unicode="&#x18f;" horiz-adv-x="534" 
d="M447 625.5q65 -87.5 65 -274.5q0 -369 -252 -369q-130 0 -189 89.5t-59 267.5q0 29 6 69h316q-1 98 -25 137.5t-71 39.5q-36 0 -63 -13.5t-54 -37.5l-77 89q46 46 97 68t115 22q126 0 191 -87.5zM300.5 124.5q15.5 15.5 24 54t9.5 110.5h-153q0 -103 19.5 -141.5
t58.5 -38.5q26 0 41.5 15.5z" />
    <glyph glyph-name="T" unicode="T" horiz-adv-x="456" 
d="M461 695l-18 -133h-127v-562h-177v562h-136v133h458z" />
    <glyph glyph-name="Tbar" unicode="&#x166;" horiz-adv-x="456" 
d="M443 562h-127v-172h89v-97h-89v-293h-177v293h-89v97h89v172h-136v133h458z" />
    <glyph glyph-name="Tcaron" unicode="&#x164;" horiz-adv-x="456" 
d="M461 695l-18 -133h-127v-562h-177v562h-136v133h458zM341 945l56 -59l-120 -137h-100l-119 137l57 59l113 -84z" />
    <glyph glyph-name="uni0162" unicode="&#x162;" horiz-adv-x="456" 
d="M316 562v-546h1v-63q45 -6 68 -32.5t23 -68.5q0 -53 -36 -85.5t-101 -32.5q-31 0 -58.5 9t-46.5 23l37 76q26 -18 51 -18q19 0 28 7t9 23q0 17 -18.5 24.5t-58.5 7.5l13 114h-88v562h-136v133h458l-18 -133h-127z" />
    <glyph glyph-name="uni1E70" unicode="&#x1e70;" horiz-adv-x="456" 
d="M461 695l-18 -133h-127v-562h-177v562h-136v133h458zM112 -267l-57 59l120 146h100l119 -146l-56 -59l-113 93z" />
    <glyph glyph-name="uni021A" unicode="&#x21a;" horiz-adv-x="456" 
d="M461 695l-18 -133h-127v-562h-177v562h-136v133h458zM284.5 -89q21.5 -23 21.5 -58q0 -19 -5 -36.5t-18 -48.5l-40 -98h-81l25 115q-38 24 -38 68q0 34 22 57.5t57 23.5t56.5 -23z" />
    <glyph glyph-name="uni023E" unicode="&#x23e;" horiz-adv-x="459" 
d="M443 568h-61l-79 -180v-388h-151v42l-51 -117l-46 20l97 222v401h-149v127h380l28 63l45 -20l-19 -43h24zM303 511l25 57h-25v-57z" />
    <glyph glyph-name="uni1E6A" unicode="&#x1e6a;" horiz-adv-x="456" 
d="M461 695l-18 -133h-127v-562h-177v562h-136v133h458zM295.5 915q26.5 -27 26.5 -67q0 -41 -26.5 -68t-68.5 -27t-68 27t-26 68q0 40 26.5 67t67.5 27q42 0 68.5 -27z" />
    <glyph glyph-name="uni1E6C" unicode="&#x1e6c;" horiz-adv-x="456" 
d="M461 695l-18 -133h-127v-562h-177v562h-136v133h458zM160.5 -220q-26.5 27 -26.5 67q0 41 26.5 68t68.5 27t68 -27t26 -68q0 -40 -26.5 -67t-67.5 -27q-42 0 -68.5 27z" />
    <glyph glyph-name="uni01AC" unicode="&#x1ac;" horiz-adv-x="514" 
d="M501 561h-127v-561h-177v561h-25q-40 0 -40 -39q0 -27 12 -56l-109 -48q-34 58 -34 122q0 72 48 113t131 42h339z" />
    <glyph glyph-name="uni1E6E" unicode="&#x1e6e;" horiz-adv-x="456" 
d="M461 695l-18 -133h-127v-562h-177v562h-136v133h458zM364 -192h-270v113h270v-113z" />
    <glyph glyph-name="uni01BC" unicode="&#x1bc;" horiz-adv-x="468" 
d="M398 574h-199v-142q24 14 43.5 20t41.5 6q72 0 117 -58t45 -170q0 -75 -29.5 -131t-84 -86.5t-127.5 -30.5q-67 0 -115.5 27.5t-85.5 77.5l91 81q25 -30 48 -45t54 -15q78 0 78 120q0 65 -16 89.5t-47 24.5q-16 0 -30 -5.5t-31 -18.5h-110v377h376z" />
    <glyph glyph-name="uni0184" unicode="&#x184;" horiz-adv-x="531" 
d="M461.5 405q61.5 -56 61.5 -168q0 -119 -63.5 -178t-180.5 -59h-217v485l-65 53q54 60 97 157h145v-234h43q118 0 179.5 -56zM322.5 152.5q16.5 25.5 16.5 82.5q0 54 -17 79t-60 25h-23v-212h29q38 0 54.5 25.5z" />
    <glyph glyph-name="uni01A7" unicode="&#x1a7;" horiz-adv-x="477" 
d="M409 658q60 -55 60 -147q0 -75 -41 -123t-141 -87q-53 -20 -72 -45t-19 -66q0 -37 18.5 -56.5t53.5 -19.5q32 0 62 15.5t65 45.5l85 -92q-41 -46 -98.5 -73.5t-131.5 -27.5q-72 0 -125.5 27t-82.5 77t-29 116q0 84 38.5 132t130.5 85q60 23 82.5 45.5t22.5 58.5
q0 62 -58 62q-63 0 -121 -52l-77 89q43 44 98 67.5t119 23.5q101 0 161 -55z" />
    <glyph glyph-name="uni01AE" unicode="&#x1ae;" horiz-adv-x="465" 
d="M466 -180q-56 -43 -135 -43q-88 0 -140 46t-52 138v601h-136v133h458l-18 -133h-127v-612q0 -46 40 -46q16 0 27.5 3.5t26.5 11.5z" />
    <glyph glyph-name="U" unicode="U" horiz-adv-x="536" 
d="M508 205q0 -63 -26.5 -113.5t-80.5 -80t-133 -29.5q-119 0 -180 60.5t-61 162.5v490h177v-484q0 -51 14.5 -75t49.5 -24q34 0 48.5 23.5t14.5 75.5v484h177v-490z" />
    <glyph glyph-name="Uacute" unicode="&#xda;" horiz-adv-x="536" 
d="M508 205q0 -63 -26.5 -113.5t-80.5 -80t-133 -29.5q-119 0 -180 60.5t-61 162.5v490h177v-484q0 -51 14.5 -75t49.5 -24q34 0 48.5 23.5t14.5 75.5v484h177v-490zM329 956l63 -120l-209 -86l-43 82z" />
    <glyph glyph-name="uni0244" unicode="&#x244;" horiz-adv-x="568" 
d="M563 499h-39v-294q0 -63 -26.5 -113.5t-80.5 -80t-133 -29.5q-119 0 -180 60.5t-61 162.5v294h-38v95h38v101h177v-101h127v101h177v-101h39v-95zM347 499h-127v-288q0 -51 14.5 -75t49.5 -24q34 0 48.5 23.5t14.5 75.5v288z" />
    <glyph glyph-name="Ubreve" unicode="&#x16c;" horiz-adv-x="536" 
d="M508 205q0 -63 -26.5 -113.5t-80.5 -80t-133 -29.5q-119 0 -180 60.5t-61 162.5v490h177v-484q0 -51 14.5 -75t49.5 -24q34 0 48.5 23.5t14.5 75.5v484h177v-490zM157 795.5q-38 46.5 -44 122.5l87 17q14 -69 67 -69t66 69l88 -17q-6 -76 -44 -122.5t-110 -46.5
t-110 46.5z" />
    <glyph glyph-name="uni01D3" unicode="&#x1d3;" horiz-adv-x="536" 
d="M508 205q0 -63 -26.5 -113.5t-80.5 -80t-133 -29.5q-119 0 -180 60.5t-61 162.5v490h177v-484q0 -51 14.5 -75t49.5 -24q34 0 48.5 23.5t14.5 75.5v484h177v-490zM380 945l56 -59l-120 -137h-100l-119 137l57 59l113 -84z" />
    <glyph glyph-name="Ucircumflex" unicode="&#xdb;" horiz-adv-x="536" 
d="M508 205q0 -63 -26.5 -113.5t-80.5 -80t-133 -29.5q-119 0 -180 60.5t-61 162.5v490h177v-484q0 -51 14.5 -75t49.5 -24q34 0 48.5 23.5t14.5 75.5v484h177v-490zM154 759l-57 59l120 137h100l119 -137l-56 -59l-113 84z" />
    <glyph glyph-name="uni0214" unicode="&#x214;" horiz-adv-x="536" 
d="M508 205q0 -63 -26.5 -113.5t-80.5 -80t-133 -29.5q-119 0 -180 60.5t-61 162.5v490h177v-484q0 -51 14.5 -75t49.5 -24q34 0 48.5 23.5t14.5 75.5v484h177v-490zM153 989l84 -201l-77 -38l-109 185zM311 989l79 -202l-80 -33l-103 185z" />
    <glyph glyph-name="Udieresis" unicode="&#xdc;" horiz-adv-x="536" 
d="M508 205q0 -63 -26.5 -113.5t-80.5 -80t-133 -29.5q-119 0 -180 60.5t-61 162.5v490h177v-484q0 -51 14.5 -75t49.5 -24q34 0 48.5 23.5t14.5 75.5v484h177v-490zM226.5 906.5q22.5 -23.5 22.5 -58.5q0 -36 -22 -59.5t-58 -23.5q-34 0 -57.5 24t-23.5 59t23.5 58.5
t57.5 23.5q35 0 57.5 -23.5zM430.5 906.5q22.5 -23.5 22.5 -58.5q0 -36 -22.5 -59.5t-58.5 -23.5q-34 0 -57.5 24t-23.5 59t23.5 58.5t57.5 23.5q36 0 58.5 -23.5z" />
    <glyph glyph-name="uni01D7" unicode="&#x1d7;" horiz-adv-x="536" 
d="M508 205q0 -63 -26.5 -113.5t-80.5 -80t-133 -29.5q-119 0 -180 60.5t-61 162.5v490h177v-484q0 -51 14.5 -75t49.5 -24q34 0 48.5 23.5t14.5 75.5v484h177v-490zM327 1111l98 -84l-152 -148l-65 53zM213.5 890.5q22.5 -23.5 22.5 -58.5q0 -36 -22 -60t-58 -24
q-35 0 -58 24t-23 60q0 34 23.5 58t57.5 24q35 0 57.5 -23.5zM434.5 890.5q22.5 -23.5 22.5 -58.5q0 -36 -22 -60t-58 -24q-35 0 -58 24t-23 60q0 34 23.5 58t57.5 24q35 0 57.5 -23.5z" />
    <glyph glyph-name="uni01D9" unicode="&#x1d9;" horiz-adv-x="536" 
d="M508 205q0 -63 -26.5 -113.5t-80.5 -80t-133 -29.5q-119 0 -180 60.5t-61 162.5v490h177v-484q0 -51 14.5 -75t49.5 -24q34 0 48.5 23.5t14.5 75.5v484h177v-490zM384 1108l56 -59l-120 -137h-100l-119 137l57 59l113 -84zM214 890q23 -24 23 -58q0 -36 -22.5 -60
t-58.5 -24q-35 0 -58 24t-23 60q0 34 23.5 58t57.5 24q35 0 58 -24zM434.5 890.5q22.5 -23.5 22.5 -58.5q0 -36 -22 -60t-58 -24q-35 0 -58 24t-23 60q0 34 23.5 58t57.5 24q35 0 57.5 -23.5z" />
    <glyph glyph-name="uni01DB" unicode="&#x1db;" horiz-adv-x="536" 
d="M508 205q0 -63 -26.5 -113.5t-80.5 -80t-133 -29.5q-119 0 -180 60.5t-61 162.5v490h177v-484q0 -51 14.5 -75t49.5 -24q34 0 48.5 23.5t14.5 75.5v484h177v-490zM213 1111l120 -179l-65 -53l-152 148zM213.5 890.5q22.5 -23.5 22.5 -58.5q0 -36 -22 -60t-58 -24
q-35 0 -58 24t-23 60q0 34 23.5 58t57.5 24q35 0 57.5 -23.5zM434.5 890.5q22.5 -23.5 22.5 -58.5q0 -36 -22 -60t-58 -24q-35 0 -58 24t-23 60q0 34 23.5 58t57.5 24q35 0 57.5 -23.5z" />
    <glyph glyph-name="uni01D5" unicode="&#x1d5;" horiz-adv-x="536" 
d="M508 205q0 -63 -26.5 -113.5t-80.5 -80t-133 -29.5q-119 0 -180 60.5t-61 162.5v490h177v-484q0 -51 14.5 -75t49.5 -24q34 0 48.5 23.5t14.5 75.5v484h177v-490zM223.5 886.5q22.5 -23.5 22.5 -58.5q0 -36 -22 -59.5t-58 -23.5q-34 0 -57.5 24t-23.5 59t23.5 58.5
t57.5 23.5q35 0 57.5 -23.5zM427.5 886.5q22.5 -23.5 22.5 -58.5q0 -36 -22.5 -59.5t-58.5 -23.5q-34 0 -57.5 24t-23.5 59t23.5 58.5t57.5 23.5q36 0 58.5 -23.5zM403 955h-270v113h270v-113z" />
    <glyph glyph-name="uni1EE4" unicode="&#x1ee4;" horiz-adv-x="536" 
d="M508 205q0 -63 -26.5 -113.5t-80.5 -80t-133 -29.5q-119 0 -180 60.5t-61 162.5v490h177v-484q0 -51 14.5 -75t49.5 -24q34 0 48.5 23.5t14.5 75.5v484h177v-490zM199.5 -220q-26.5 27 -26.5 67q0 41 26.5 68t68.5 27t68 -27t26 -68q0 -40 -26.5 -67t-67.5 -27
q-42 0 -68.5 27z" />
    <glyph glyph-name="Ugrave" unicode="&#xd9;" horiz-adv-x="536" 
d="M508 205q0 -63 -26.5 -113.5t-80.5 -80t-133 -29.5q-119 0 -180 60.5t-61 162.5v490h177v-484q0 -51 14.5 -75t49.5 -24q34 0 48.5 23.5t14.5 75.5v484h177v-490zM204 955l189 -124l-43 -82l-209 87z" />
    <glyph glyph-name="uni1EE6" unicode="&#x1ee6;" horiz-adv-x="536" 
d="M508 205q0 -63 -26.5 -113.5t-80.5 -80t-133 -29.5q-119 0 -180 60.5t-61 162.5v490h177v-484q0 -51 14.5 -75t49.5 -24q34 0 48.5 23.5t14.5 75.5v484h177v-490zM221 854q32 2 45 10t13 28q0 14 -8 21.5t-21 7.5q-15 0 -25 -2.5t-27 -9.5l-24 68q41 26 98 26
q54 0 83 -28t29 -75q0 -39 -18 -63t-53 -31v-42h-92v90z" />
    <glyph glyph-name="Uhorn" unicode="&#x1af;" horiz-adv-x="635" 
d="M607.5 586.5q-36.5 -32.5 -99.5 -33.5v-348q0 -63 -26.5 -113.5t-80.5 -80t-133 -29.5q-119 0 -180 60.5t-61 162.5v490h177v-484q0 -51 14.5 -75t49.5 -24q34 0 48.5 23.5t14.5 75.5v484h177v-61q16 4 22.5 15.5t6.5 33.5q0 25 -2.5 39.5t-7.5 35.5l102 15
q15 -41 15 -90q0 -64 -36.5 -96.5z" />
    <glyph glyph-name="uni1EE8" unicode="&#x1ee8;" horiz-adv-x="635" 
d="M392 836l-209 -86l-43 82l189 124zM607.5 586.5q-36.5 -32.5 -99.5 -33.5v-348q0 -63 -26.5 -113.5t-80.5 -80t-133 -29.5q-119 0 -180 60.5t-61 162.5v490h177v-484q0 -51 14.5 -75t49.5 -24q34 0 48.5 23.5t14.5 75.5v484h177v-61q16 4 22.5 15.5t6.5 33.5
q0 25 -2.5 39.5t-7.5 35.5l102 15q15 -41 15 -90q0 -64 -36.5 -96.5z" />
    <glyph glyph-name="uni1EF0" unicode="&#x1ef0;" horiz-adv-x="635" 
d="M607.5 586.5q-36.5 -32.5 -99.5 -33.5v-348q0 -63 -26.5 -113.5t-80.5 -80t-133 -29.5q-119 0 -180 60.5t-61 162.5v490h177v-484q0 -51 14.5 -75t49.5 -24q34 0 48.5 23.5t14.5 75.5v484h177v-61q16 4 22.5 15.5t6.5 33.5q0 25 -2.5 39.5t-7.5 35.5l102 15
q15 -41 15 -90q0 -64 -36.5 -96.5zM336 -85q26 -27 26 -68q0 -40 -26.5 -67t-67.5 -27q-42 0 -68.5 27t-26.5 67q0 41 26.5 68t68.5 27t68 -27z" />
    <glyph glyph-name="uni1EEA" unicode="&#x1eea;" horiz-adv-x="635" 
d="M393 831l-43 -82l-209 87l63 119zM607.5 586.5q-36.5 -32.5 -99.5 -33.5v-348q0 -63 -26.5 -113.5t-80.5 -80t-133 -29.5q-119 0 -180 60.5t-61 162.5v490h177v-484q0 -51 14.5 -75t49.5 -24q34 0 48.5 23.5t14.5 75.5v484h177v-61q16 4 22.5 15.5t6.5 33.5
q0 25 -2.5 39.5t-7.5 35.5l102 15q15 -41 15 -90q0 -64 -36.5 -96.5z" />
    <glyph glyph-name="uni1EEC" unicode="&#x1eec;" horiz-adv-x="635" 
d="M225 918.5q-10 -2.5 -27 -9.5l-24 68q41 26 98 26q54 0 83 -28t29 -75q0 -39 -18 -63t-53 -31v-42h-92v90q32 2 45 10t13 28q0 14 -8 21.5t-21 7.5q-15 0 -25 -2.5zM607.5 586.5q-36.5 -32.5 -99.5 -33.5v-348q0 -63 -26.5 -113.5t-80.5 -80t-133 -29.5q-119 0 -180 60.5
t-61 162.5v490h177v-484q0 -51 14.5 -75t49.5 -24q34 0 48.5 23.5t14.5 75.5v484h177v-61q16 4 22.5 15.5t6.5 33.5q0 25 -2.5 39.5t-7.5 35.5l102 15q15 -41 15 -90q0 -64 -36.5 -96.5z" />
    <glyph glyph-name="uni1EEE" unicode="&#x1eee;" horiz-adv-x="635" 
d="M197 792q-9 -9 -20 -30l-77 35q17 53 47.5 86.5t69.5 33.5q19 0 33 -6t32 -18q11 -8 18.5 -12t15.5 -4q13 0 21.5 9t19.5 30l77 -35q-16 -54 -46.5 -86.5t-69.5 -32.5q-20 0 -34 6.5t-31 17.5q-21 15 -33 15q-14 0 -23 -9zM607.5 586.5q-36.5 -32.5 -99.5 -33.5v-348
q0 -63 -26.5 -113.5t-80.5 -80t-133 -29.5q-119 0 -180 60.5t-61 162.5v490h177v-484q0 -51 14.5 -75t49.5 -24q34 0 48.5 23.5t14.5 75.5v484h177v-61q16 4 22.5 15.5t6.5 33.5q0 25 -2.5 39.5t-7.5 35.5l102 15q15 -41 15 -90q0 -64 -36.5 -96.5z" />
    <glyph glyph-name="Uhungarumlaut" unicode="&#x170;" horiz-adv-x="536" 
d="M508 205q0 -63 -26.5 -113.5t-80.5 -80t-133 -29.5q-119 0 -180 60.5t-61 162.5v490h177v-484q0 -51 14.5 -75t49.5 -24q34 0 48.5 23.5t14.5 75.5v484h177v-490zM228 989l104 -50l-102 -185l-80 33zM387 989l102 -54l-110 -185l-77 38z" />
    <glyph glyph-name="uni0216" unicode="&#x216;" horiz-adv-x="536" 
d="M508 205q0 -63 -26.5 -113.5t-80.5 -80t-133 -29.5q-119 0 -180 60.5t-61 162.5v490h177v-484q0 -51 14.5 -75t49.5 -24q34 0 48.5 23.5t14.5 75.5v484h177v-490zM377.5 909q37.5 -48 43.5 -132l-88 -16q-13 81 -66 81t-67 -81l-87 16q6 84 43.5 132t110.5 48t110.5 -48z
" />
    <glyph glyph-name="Umacron" unicode="&#x16a;" horiz-adv-x="536" 
d="M508 205q0 -63 -26.5 -113.5t-80.5 -80t-133 -29.5q-119 0 -180 60.5t-61 162.5v490h177v-484q0 -51 14.5 -75t49.5 -24q34 0 48.5 23.5t14.5 75.5v484h177v-490zM402 781h-270v113h270v-113z" />
    <glyph glyph-name="Uogonek" unicode="&#x172;" horiz-adv-x="536" 
d="M508 695v-490q0 -72 -33.5 -126t-98.5 -79q-94 -42 -94 -100q0 -22 11.5 -33.5t30.5 -11.5q25 0 50 7l-10 -102q-30 -8 -62 -8q-57 0 -95 32.5t-38 87.5q0 70 73 111q-106 7 -160.5 66.5t-54.5 155.5v490h177v-484q0 -51 14.5 -75t49.5 -24q34 0 48.5 23.5t14.5 75.5v484
h177z" />
    <glyph glyph-name="uni01B1" unicode="&#x1b1;" horiz-adv-x="565" 
d="M83.5 66q-69.5 84 -69.5 232q0 98 28 164t81 108h-92v125h214v-117q-25 -52 -36.5 -113t-11.5 -167q0 -105 19.5 -146.5t65.5 -41.5q32 0 50.5 17.5t27 58.5t8.5 112q0 107 -11 168.5t-36 111.5v117h214v-125h-93q54 -41 82 -106.5t28 -165.5q0 -147 -70 -231.5
t-200 -84.5q-129 0 -198.5 84z" />
    <glyph glyph-name="Uring" unicode="&#x16e;" horiz-adv-x="536" 
d="M508 205q0 -63 -26.5 -113.5t-80.5 -80t-133 -29.5q-119 0 -180 60.5t-61 162.5v490h177v-484q0 -51 14.5 -75t49.5 -24q34 0 48.5 23.5t14.5 75.5v484h177v-490zM361.5 961.5q34.5 -37.5 34.5 -98.5q0 -60 -34.5 -98t-94.5 -38t-94.5 38t-34.5 98q0 61 34.5 98.5
t94.5 37.5t94.5 -37.5zM242 903q-8 -12 -8 -40q0 -52 33 -52q34 0 34 52q0 28 -8.5 40t-25.5 12t-25 -12z" />
    <glyph glyph-name="Utilde" unicode="&#x168;" horiz-adv-x="536" 
d="M508 205q0 -63 -26.5 -113.5t-80.5 -80t-133 -29.5q-119 0 -180 60.5t-61 162.5v490h177v-484q0 -51 14.5 -75t49.5 -24q34 0 48.5 23.5t14.5 75.5v484h177v-490zM284 768.5q-14 6.5 -31 17.5q-21 15 -33 15q-14 0 -23 -9t-20 -30l-77 35q17 53 47.5 86.5t69.5 33.5
q19 0 33 -6t32 -18q11 -8 18.5 -12t15.5 -4q13 0 21.5 9t19.5 30l77 -35q-16 -54 -46.5 -86.5t-69.5 -32.5q-20 0 -34 6.5z" />
    <glyph glyph-name="uni1E78" unicode="&#x1e78;" horiz-adv-x="536" 
d="M508 205q0 -63 -26.5 -113.5t-80.5 -80t-133 -29.5q-119 0 -180 60.5t-61 162.5v490h177v-484q0 -51 14.5 -75t49.5 -24q34 0 48.5 23.5t14.5 75.5v484h177v-490zM284 766.5q-14 6.5 -31 17.5q-21 15 -33 15q-14 0 -23 -9t-20 -30l-77 35q17 53 47.5 86.5t69.5 33.5
q19 0 33 -6t32 -18q11 -8 18.5 -12t15.5 -4q13 0 21.5 9t19.5 30l77 -35q-16 -54 -46.5 -86.5t-69.5 -32.5q-20 0 -34 6.5zM329 1137l63 -120l-209 -86l-43 82z" />
    <glyph glyph-name="V" unicode="V" horiz-adv-x="493" 
d="M507 695l-141 -695h-230l-151 695h178l90 -563l82 563h172z" />
    <glyph glyph-name="uni01B2" unicode="&#x1b2;" horiz-adv-x="536" 
d="M470 673q38 -40 38 -115v-290q0 -90 -32.5 -154.5t-90.5 -98t-135 -33.5q-69 0 -119.5 27t-77 75t-26.5 109v502h177v-511q0 -35 13 -53.5t38 -18.5q33 0 54.5 36t21.5 107v304q0 13 -5 20t-14 7t-17 -3l-23 113q42 17 91 17q69 0 107 -40z" />
    <glyph glyph-name="uni0245" unicode="&#x245;" horiz-adv-x="511" 
d="M361 695l165 -695h-183l-89 568l-88 -568h-181l166 695h210z" />
    <glyph glyph-name="W" unicode="W" horiz-adv-x="719" 
d="M715 695l-81 -695h-230l-46 525l-52 -525h-226l-76 695h169l39 -564l58 564h181l52 -564l49 564h163z" />
    <glyph glyph-name="Wacute" unicode="&#x1e82;" horiz-adv-x="719" 
d="M715 695l-81 -695h-230l-46 525l-52 -525h-226l-76 695h169l39 -564l58 564h181l52 -564l49 564h163zM424 956l63 -120l-209 -86l-43 82z" />
    <glyph glyph-name="Wcircumflex" unicode="&#x174;" horiz-adv-x="719" 
d="M715 695l-81 -695h-230l-46 525l-52 -525h-226l-76 695h169l39 -564l58 564h181l52 -564l49 564h163zM249 759l-57 59l120 137h100l119 -137l-56 -59l-113 84z" />
    <glyph glyph-name="Wdieresis" unicode="&#x1e84;" horiz-adv-x="719" 
d="M715 695l-81 -695h-230l-46 525l-52 -525h-226l-76 695h169l39 -564l58 564h181l52 -564l49 564h163zM321.5 906.5q22.5 -23.5 22.5 -58.5q0 -36 -22 -59.5t-58 -23.5q-34 0 -57.5 24t-23.5 59t23.5 58.5t57.5 23.5q35 0 57.5 -23.5zM525.5 906.5q22.5 -23.5 22.5 -58.5
q0 -36 -22.5 -59.5t-58.5 -23.5q-34 0 -57.5 24t-23.5 59t23.5 58.5t57.5 23.5q36 0 58.5 -23.5z" />
    <glyph glyph-name="Wgrave" unicode="&#x1e80;" horiz-adv-x="719" 
d="M715 695l-81 -695h-230l-46 525l-52 -525h-226l-76 695h169l39 -564l58 564h181l52 -564l49 564h163zM299 955l189 -124l-43 -82l-209 87z" />
    <glyph glyph-name="uni2C72" unicode="&#x2c72;" horiz-adv-x="777" 
d="M80 0h226l52 525l46 -525h230l48 538q3 29 11.5 40t27.5 11t39 -10l42 99q-52 35 -112 35q-69 0 -108.5 -39t-45.5 -131l-33 -412l-52 564h-181l-58 -564l-39 564h-169z" />
    <glyph glyph-name="uni01F7" unicode="&#x1f7;" horiz-adv-x="507" 
d="M420.5 689q36.5 -24 57.5 -68t21 -102q0 -79 -29.5 -132.5t-78 -89t-122.5 -69.5l-55 -25v-203h-177v695h177v-37q51 55 125 55q45 0 81.5 -24zM296.5 406.5q21.5 39.5 21.5 101.5q0 43 -12 61t-35 18q-32 0 -57 -30v-232l11 7q50 35 71.5 74.5z" />
    <glyph glyph-name="X" unicode="X" horiz-adv-x="501" 
d="M353 374l158 -374h-185l-80 257l-73 -257h-182l151 369l-141 326h184l63 -217l71 217h181z" />
    <glyph glyph-name="Y" unicode="Y" horiz-adv-x="513" 
d="M527 695l-182 -436v-259h-177v258l-182 437h185l88 -300l89 300h179z" />
    <glyph glyph-name="Yacute" unicode="&#xdd;" horiz-adv-x="513" 
d="M527 695l-182 -436v-259h-177v258l-182 437h185l88 -300l89 300h179zM318 956l63 -120l-209 -86l-43 82z" />
    <glyph glyph-name="Ycircumflex" unicode="&#x176;" horiz-adv-x="513" 
d="M527 695l-182 -436v-259h-177v258l-182 437h185l88 -300l89 300h179zM143 759l-57 59l120 137h100l119 -137l-56 -59l-113 84z" />
    <glyph glyph-name="Ydieresis" unicode="&#x178;" horiz-adv-x="513" 
d="M527 695l-182 -436v-259h-177v258l-182 437h185l88 -300l89 300h179zM215.5 906.5q22.5 -23.5 22.5 -58.5q0 -36 -22 -59.5t-58 -23.5q-34 0 -57.5 24t-23.5 59t23.5 58.5t57.5 23.5q35 0 57.5 -23.5zM419.5 906.5q22.5 -23.5 22.5 -58.5q0 -36 -22.5 -59.5t-58.5 -23.5
q-34 0 -57.5 24t-23.5 59t23.5 58.5t57.5 23.5q36 0 58.5 -23.5z" />
    <glyph glyph-name="uni1EF4" unicode="&#x1ef4;" horiz-adv-x="513" 
d="M527 695l-182 -436v-259h-177v258l-182 437h185l88 -300l89 300h179zM189.5 -220q-26.5 27 -26.5 67q0 41 26.5 68t68.5 27t68 -27t26 -68q0 -40 -26.5 -67t-67.5 -27q-42 0 -68.5 27z" />
    <glyph glyph-name="Ygrave" unicode="&#x1ef2;" horiz-adv-x="513" 
d="M527 695l-182 -436v-259h-177v258l-182 437h185l88 -300l89 300h179zM193 955l189 -124l-43 -82l-209 87z" />
    <glyph glyph-name="uni01B3" unicode="&#x1b3;" horiz-adv-x="544" 
d="M168 258l-182 437h185l88 -299l45 167q21 81 55.5 115.5t97.5 34.5q60 0 112 -35l-42 -99q-20 10 -40 10q-18 0 -27.5 -10.5t-19.5 -40.5l-95 -279v-259h-177v258z" />
    <glyph glyph-name="uni1EF6" unicode="&#x1ef6;" horiz-adv-x="513" 
d="M527 695l-182 -436v-259h-177v258l-182 437h185l88 -300l89 300h179zM210 854q32 2 45 10t13 28q0 14 -8 21.5t-21 7.5q-15 0 -25 -2.5t-27 -9.5l-24 68q41 26 98 26q54 0 83 -28t29 -75q0 -39 -18 -63t-53 -31v-42h-92v90z" />
    <glyph glyph-name="uni0232" unicode="&#x232;" horiz-adv-x="513" 
d="M527 695l-182 -436v-259h-177v258l-182 437h185l88 -300l89 300h179zM391 781h-270v113h270v-113z" />
    <glyph glyph-name="uni01A6" unicode="&#x1a6;" horiz-adv-x="529" 
d="M252 145h-38v-145h-177v695h177v-115h29q263 0 263 -214q0 -61 -24 -110t-76 -78l139 -292h-186zM214 266h32q44 0 62.5 23.5t18.5 76.5q0 47 -20.5 69t-64.5 23h-28v-192z" />
    <glyph glyph-name="uni024E" unicode="&#x24e;" horiz-adv-x="513" 
d="M494 617h33v-96h-73l-109 -262v-259h-177v258l-110 263h-71v96h31l-32 78h177l24 -78h144l25 78h171zM259 387l42 134h-84z" />
    <glyph glyph-name="uni1EF8" unicode="&#x1ef8;" horiz-adv-x="513" 
d="M527 695l-182 -436v-259h-177v258l-182 437h185l88 -300l89 300h179zM273 768.5q-14 6.5 -31 17.5q-21 15 -33 15q-14 0 -23 -9t-20 -30l-77 35q17 53 47.5 86.5t69.5 33.5q19 0 33 -6t32 -18q11 -8 18.5 -12t15.5 -4q13 0 21.5 9t19.5 30l77 -35q-16 -54 -46.5 -86.5
t-69.5 -32.5q-20 0 -34 6.5z" />
    <glyph glyph-name="Z" unicode="Z" horiz-adv-x="457" 
d="M442 695v-133l-241 -422h248l-17 -140h-425v131l240 428h-218v136h413z" />
    <glyph glyph-name="Zacute" unicode="&#x179;" horiz-adv-x="457" 
d="M442 695v-133l-241 -422h248l-17 -140h-425v131l240 428h-218v136h413zM291 956l63 -120l-209 -86l-43 82z" />
    <glyph glyph-name="Zacute.loclPLK" horiz-adv-x="457" 
d="M442 695v-133l-241 -422h248l-17 -140h-425v131l240 428h-218v136h413zM232 972l124 -69l-124 -159l-74 43z" />
    <glyph glyph-name="Zcaron" unicode="&#x17d;" horiz-adv-x="457" 
d="M442 695v-133l-241 -422h248l-17 -140h-425v131l240 428h-218v136h413zM342 945l56 -59l-120 -137h-100l-119 137l57 59l113 -84z" />
    <glyph glyph-name="Zdotaccent" unicode="&#x17b;" horiz-adv-x="457" 
d="M442 695v-133l-241 -422h248l-17 -140h-425v131l240 428h-218v136h413zM296.5 915q26.5 -27 26.5 -67q0 -41 -26.5 -68t-68.5 -27t-68 27t-26 68q0 40 26.5 67t67.5 27q42 0 68.5 -27z" />
    <glyph glyph-name="uni1E92" unicode="&#x1e92;" horiz-adv-x="457" 
d="M442 695v-133l-241 -422h248l-17 -140h-425v131l240 428h-218v136h413zM152.5 -220q-26.5 27 -26.5 67q0 41 26.5 68t68.5 27t68 -27t26 -68q0 -40 -26.5 -67t-67.5 -27q-42 0 -68.5 27z" />
    <glyph glyph-name="uni0224" unicode="&#x224;" horiz-adv-x="450" 
d="M442 562l-241 -422h240v-179q0 -91 -51 -137.5t-137 -46.5q-45 0 -78 11.5t-60 31.5l56 99q15 -8 27.5 -11.5t30.5 -3.5q44 0 44 46v51l-266 -1v131l240 428h-218v136h413v-133z" />
    <glyph glyph-name="uni01B5" unicode="&#x1b5;" horiz-adv-x="457" 
d="M185 140h264l-17 -140h-425v123l98 167h-63v108h126l95 161h-234v136h413v-125l-103 -172h65v-108h-129z" />
    <glyph glyph-name="uni0299" unicode="&#x299;" horiz-adv-x="466" 
d="M446 162q0 -82 -56 -122t-157 -40h-197v529q108 22 195 22q92 0 145 -39.5t53 -105.5q0 -43 -26.5 -72.5t-78.5 -41.5q122 -15 122 -130zM206 445v-120h20q20 0 30.5 12t10.5 48q0 37 -9 49.5t-29 12.5q-5 0 -23 -2zM265.5 120.5q10.5 13.5 10.5 54.5q0 38 -10.5 51.5
t-34.5 13.5h-25v-133h26q23 0 33.5 13.5z" />
    <glyph glyph-name="uni0262" unicode="&#x262;" horiz-adv-x="480" 
d="M367 531.5q45 -19.5 80 -54.5l-76 -85q-27 20 -49.5 29.5t-47.5 9.5q-30 0 -47.5 -15t-25 -50t-7.5 -98q0 -70 7 -105.5t20 -47.5t34 -12q22 0 47 11v90h-44l-15 110h211v-265q-90 -65 -204 -65q-120 0 -175 67t-55 218q0 137 66 209.5t175 72.5q61 0 106 -19.5z" />
    <glyph glyph-name="uni029B" unicode="&#x29b;" horiz-adv-x="479" 
d="M577 723l-44 -101q-30 14 -50 14q-19 0 -27.5 -11t-8.5 -37v-111l-70 -81q-53 35 -101 35q-31 0 -48.5 -15t-25.5 -50t-8 -98q0 -70 7 -105.5t20 -47.5t34 -12q23 0 47 11v90h-44l-15 110h211v-265q-90 -65 -204 -65q-120 0 -175 67t-55 218q0 91 29.5 154.5t80.5 95.5
t114 32q32 0 60 -10v67q0 72 40.5 112t109.5 40q67 0 123 -37z" />
    <glyph glyph-name="uni029C" unicode="&#x29c;" horiz-adv-x="487" 
d="M281 0v208h-75v-208h-170v533h170v-202h75v202h170v-533h-170z" />
    <glyph glyph-name="uni026A" unicode="&#x26a;" horiz-adv-x="281" 
d="M273 415h-48v-295h48v-120h-265v120h47v295h-47v118h265v-118z" />
    <glyph glyph-name="uni029F" unicode="&#x29f;" horiz-adv-x="382" 
d="M206 533v-403h174l-17 -130h-327v533h170z" />
    <glyph glyph-name="uni0274" unicode="&#x274;" horiz-adv-x="488" 
d="M452 0h-199l-96 387q9 -62 14 -118t5 -129v-140h-140v533h197l98 -387q-10 74 -14.5 122.5t-4.5 114.5v150h140v-533z" />
    <glyph glyph-name="uni0276" unicode="&#x276;" horiz-adv-x="646" 
d="M430 115h200v-115h-294q-40 -18 -90 -18q-105 0 -165.5 72t-60.5 213q0 137 61 210.5t166 73.5q50 0 86 -18h304l-17 -115h-190q25 -44 33 -93h138v-110h-137q-9 -58 -34 -100zM281 120q11 14 15.5 48t4.5 99q0 90 -12 125t-40 35q-30 0 -42.5 -34.5t-12.5 -125.5
q0 -64 5.5 -99t17.5 -48.5t32 -13.5q21 0 32 14z" />
    <glyph glyph-name="uni0280" unicode="&#x280;" horiz-adv-x="451" 
d="M219 180h-22v-180h-161v533h180q105 0 159.5 -45.5t54.5 -133.5q0 -103 -72 -146l100 -208h-169zM197 280h18q25 0 36 16.5t11 59.5q0 40 -11 55t-35 15h-19v-146z" />
    <glyph glyph-name="uni0281" unicode="&#x281;" horiz-adv-x="451" 
d="M430 179q0 -88 -54.5 -133.5t-159.5 -45.5h-180v533h161v-180h22l70 180h169l-100 -208q72 -43 72 -146zM251 122q11 15 11 54q0 43 -11 60t-36 17h-18v-146h19q24 0 35 15z" />
    <glyph glyph-name="uni028F" unicode="&#x28f;" horiz-adv-x="432" 
d="M450 533l-149 -341v-192h-170v191l-149 342h174l62 -238l62 238h170z" />
    <glyph glyph-name="a" unicode="a" horiz-adv-x="458" 
d="M425 114q5 -11 20 -18l-35 -111q-45 4 -74 20t-45 51q-48 -74 -133 -74q-67 0 -106.5 45.5t-39.5 121.5q0 87 55.5 134t160.5 47h26v21q0 46 -13 63t-48 17q-42 0 -112 -26l-38 105q42 19 91 30t93 11q98 0 145.5 -46.5t47.5 -143.5v-211q0 -25 5 -36zM236 111.5
q11 10.5 18 29.5v97h-12q-34 0 -49.5 -17.5t-15.5 -55.5q0 -31 9.5 -47.5t25.5 -16.5q13 0 24 10.5z" />
    <glyph glyph-name="a.ss04" horiz-adv-x="504" 
d="M471 129q7 -14 26 -26l-48 -121q-50 8 -80.5 25t-48.5 48q-50 -73 -128 -73q-85 0 -128.5 72t-43.5 213q0 88 23 152.5t63.5 98t91.5 33.5q68 0 109 -57l8 39h149v-362q0 -28 7 -42zM294 150v249q-10 15 -21 22t-25 7q-25 0 -39.5 -34.5t-14.5 -126.5q0 -97 12.5 -129.5
t35.5 -32.5q29 0 52 45z" />
    <glyph glyph-name="aacute" unicode="&#xe1;" horiz-adv-x="458" 
d="M425 114q5 -11 20 -18l-35 -111q-45 4 -74 20t-45 51q-48 -74 -133 -74q-67 0 -106.5 45.5t-39.5 121.5q0 87 55.5 134t160.5 47h26v21q0 46 -13 63t-48 17q-42 0 -112 -26l-38 105q42 19 91 30t93 11q98 0 145.5 -46.5t47.5 -143.5v-211q0 -25 5 -36zM236 111.5
q11 10.5 18 29.5v97h-12q-34 0 -49.5 -17.5t-15.5 -55.5q0 -31 9.5 -47.5t25.5 -16.5q13 0 24 10.5zM281 834l66 -119l-209 -95l-45 81z" />
    <glyph glyph-name="abreve" unicode="&#x103;" horiz-adv-x="458" 
d="M425 114q5 -11 20 -18l-35 -111q-45 4 -74 20t-45 51q-48 -74 -133 -74q-67 0 -106.5 45.5t-39.5 121.5q0 87 55.5 134t160.5 47h26v21q0 46 -13 63t-48 17q-42 0 -112 -26l-38 105q42 19 91 30t93 11q98 0 145.5 -46.5t47.5 -143.5v-211q0 -25 5 -36zM236 111.5
q11 10.5 18 29.5v97h-12q-34 0 -49.5 -17.5t-15.5 -55.5q0 -31 9.5 -47.5t25.5 -16.5q13 0 24 10.5zM118.5 678q-37.5 48 -43.5 132l87 16q14 -81 67 -81t66 81l88 -16q-6 -84 -43.5 -132t-110.5 -48t-110.5 48z" />
    <glyph glyph-name="uni1EAF" unicode="&#x1eaf;" horiz-adv-x="458" 
d="M425 114q5 -11 20 -18l-35 -111q-45 4 -74 20t-45 51q-48 -74 -133 -74q-67 0 -106.5 45.5t-39.5 121.5q0 87 55.5 134t160.5 47h26v21q0 46 -13 63t-48 17q-42 0 -112 -26l-38 105q42 19 91 30t93 11q98 0 145.5 -46.5t47.5 -143.5v-211q0 -25 5 -36zM236 111.5
q11 10.5 18 29.5v97h-12q-34 0 -49.5 -17.5t-15.5 -55.5q0 -31 9.5 -47.5t25.5 -16.5q13 0 24 10.5zM120 648.5q-38 46.5 -44 122.5l87 17q14 -69 67 -69t66 69l88 -17q-6 -76 -44 -122.5t-110 -46.5t-110 46.5zM295 1008l98 -84l-152 -148l-65 53z" />
    <glyph glyph-name="uni1EB7" unicode="&#x1eb7;" horiz-adv-x="458" 
d="M425 114q5 -11 20 -18l-35 -111q-45 4 -74 20t-45 51q-48 -74 -133 -74q-67 0 -106.5 45.5t-39.5 121.5q0 87 55.5 134t160.5 47h26v21q0 46 -13 63t-48 17q-42 0 -112 -26l-38 105q42 19 91 30t93 11q98 0 145.5 -46.5t47.5 -143.5v-211q0 -25 5 -36zM236 111.5
q11 10.5 18 29.5v97h-12q-34 0 -49.5 -17.5t-15.5 -55.5q0 -31 9.5 -47.5t25.5 -16.5q13 0 24 10.5zM118.5 678q-37.5 48 -43.5 132l87 16q14 -81 67 -81t66 81l88 -16q-6 -84 -43.5 -132t-110.5 -48t-110.5 48zM163.5 -220q-26.5 27 -26.5 67q0 41 26.5 68t68.5 27t68 -27
t26 -68q0 -40 -26.5 -67t-67.5 -27q-42 0 -68.5 27z" />
    <glyph glyph-name="uni1EB1" unicode="&#x1eb1;" horiz-adv-x="458" 
d="M425 114q5 -11 20 -18l-35 -111q-45 4 -74 20t-45 51q-48 -74 -133 -74q-67 0 -106.5 45.5t-39.5 121.5q0 87 55.5 134t160.5 47h26v21q0 46 -13 63t-48 17q-42 0 -112 -26l-38 105q42 19 91 30t93 11q98 0 145.5 -46.5t47.5 -143.5v-211q0 -25 5 -36zM236 111.5
q11 10.5 18 29.5v97h-12q-34 0 -49.5 -17.5t-15.5 -55.5q0 -31 9.5 -47.5t25.5 -16.5q13 0 24 10.5zM125 648.5q-38 46.5 -44 122.5l87 17q14 -69 67 -69t66 69l88 -17q-6 -76 -44 -122.5t-110 -46.5t-110 46.5zM175 1008l120 -179l-65 -53l-152 148z" />
    <glyph glyph-name="uni1EB3" unicode="&#x1eb3;" horiz-adv-x="458" 
d="M425 114q5 -11 20 -18l-35 -111q-45 4 -74 20t-45 51q-48 -74 -133 -74q-67 0 -106.5 45.5t-39.5 121.5q0 87 55.5 134t160.5 47h26v21q0 46 -13 63t-48 17q-42 0 -112 -26l-38 105q42 19 91 30t93 11q98 0 145.5 -46.5t47.5 -143.5v-211q0 -25 5 -36zM236 111.5
q11 10.5 18 29.5v97h-12q-34 0 -49.5 -17.5t-15.5 -55.5q0 -31 9.5 -47.5t25.5 -16.5q13 0 24 10.5zM124 648.5q-38 46.5 -44 122.5l87 17q14 -69 67 -69t66 69l88 -17q-6 -76 -44 -122.5t-110 -46.5t-110 46.5zM187 879q32 2 45 10t13 27q0 15 -8 23t-21 8q-15 0 -25.5 -3
t-26.5 -10l-24 68q41 26 98 26q54 0 83 -28t29 -75q0 -39 -18 -63t-53 -32v-51h-92v100z" />
    <glyph glyph-name="uni1EB5" unicode="&#x1eb5;" horiz-adv-x="458" 
d="M425 114q5 -11 20 -18l-35 -111q-45 4 -74 20t-45 51q-48 -74 -133 -74q-67 0 -106.5 45.5t-39.5 121.5q0 87 55.5 134t160.5 47h26v21q0 46 -13 63t-48 17q-42 0 -112 -26l-38 105q42 19 91 30t93 11q98 0 145.5 -46.5t47.5 -143.5v-211q0 -25 5 -36zM236 111.5
q11 10.5 18 29.5v97h-12q-34 0 -49.5 -17.5t-15.5 -55.5q0 -31 9.5 -47.5t25.5 -16.5q13 0 24 10.5zM119 648.5q-38 46.5 -44 122.5l87 17q14 -69 67 -69t66 69l88 -17q-6 -76 -44 -122.5t-110 -46.5t-110 46.5zM246 824.5q-14 5.5 -31 16.5q-19 14 -33 14t-23 -8.5
t-20 -27.5l-77 32q16 49 47 79.5t70 30.5q19 0 32.5 -5.5t32.5 -16.5q2 -1 13 -7.5t21 -6.5q13 0 21.5 8t19.5 27l77 -32q-16 -50 -46.5 -79.5t-69.5 -29.5q-20 0 -34 5.5z" />
    <glyph glyph-name="uni01CE" unicode="&#x1ce;" horiz-adv-x="458" 
d="M425 114q5 -11 20 -18l-35 -111q-45 4 -74 20t-45 51q-48 -74 -133 -74q-67 0 -106.5 45.5t-39.5 121.5q0 87 55.5 134t160.5 47h26v21q0 46 -13 63t-48 17q-42 0 -112 -26l-38 105q42 19 91 30t93 11q98 0 145.5 -46.5t47.5 -143.5v-211q0 -25 5 -36zM236 111.5
q11 10.5 18 29.5v97h-12q-34 0 -49.5 -17.5t-15.5 -55.5q0 -31 9.5 -47.5t25.5 -16.5q13 0 24 10.5zM342 815l56 -61l-119 -145h-101l-119 145l57 61l113 -94z" />
    <glyph glyph-name="acircumflex" unicode="&#xe2;" horiz-adv-x="458" 
d="M425 114q5 -11 20 -18l-35 -111q-45 4 -74 20t-45 51q-48 -74 -133 -74q-67 0 -106.5 45.5t-39.5 121.5q0 87 55.5 134t160.5 47h26v21q0 46 -13 63t-48 17q-42 0 -112 -26l-38 105q42 19 91 30t93 11q98 0 145.5 -46.5t47.5 -143.5v-211q0 -25 5 -36zM236 111.5
q11 10.5 18 29.5v97h-12q-34 0 -49.5 -17.5t-15.5 -55.5q0 -31 9.5 -47.5t25.5 -16.5q13 0 24 10.5zM116 623l-57 58l120 146h100l119 -146l-56 -58l-113 92z" />
    <glyph glyph-name="uni1EA5" unicode="&#x1ea5;" horiz-adv-x="458" 
d="M425 114q5 -11 20 -18l-35 -111q-45 4 -74 20t-45 51q-48 -74 -133 -74q-67 0 -106.5 45.5t-39.5 121.5q0 87 55.5 134t160.5 47h26v21q0 46 -13 63t-48 17q-42 0 -112 -26l-38 105q42 19 91 30t93 11q98 0 145.5 -46.5t47.5 -143.5v-211q0 -25 5 -36zM236 111.5
q11 10.5 18 29.5v97h-12q-34 0 -49.5 -17.5t-15.5 -55.5q0 -31 9.5 -47.5t25.5 -16.5q13 0 24 10.5zM116 589l-57 59l120 137h100l119 -137l-56 -59l-113 84zM436 967l98 -84l-152 -148l-65 53z" />
    <glyph glyph-name="uni1EAD" unicode="&#x1ead;" horiz-adv-x="458" 
d="M425 114q5 -11 20 -18l-35 -111q-45 4 -74 20t-45 51q-48 -74 -133 -74q-67 0 -106.5 45.5t-39.5 121.5q0 87 55.5 134t160.5 47h26v21q0 46 -13 63t-48 17q-42 0 -112 -26l-38 105q42 19 91 30t93 11q98 0 145.5 -46.5t47.5 -143.5v-211q0 -25 5 -36zM236 111.5
q11 10.5 18 29.5v97h-12q-34 0 -49.5 -17.5t-15.5 -55.5q0 -31 9.5 -47.5t25.5 -16.5q13 0 24 10.5zM116 623l-57 58l120 146h100l119 -146l-56 -58l-113 92zM163.5 -220q-26.5 27 -26.5 67q0 41 26.5 68t68.5 27t68 -27t26 -68q0 -40 -26.5 -67t-67.5 -27q-42 0 -68.5 27z
" />
    <glyph glyph-name="uni1EA7" unicode="&#x1ea7;" horiz-adv-x="458" 
d="M425 114q5 -11 20 -18l-35 -111q-45 4 -74 20t-45 51q-48 -74 -133 -74q-67 0 -106.5 45.5t-39.5 121.5q0 87 55.5 134t160.5 47h26v21q0 46 -13 63t-48 17q-42 0 -112 -26l-38 105q42 19 91 30t93 11q98 0 145.5 -46.5t47.5 -143.5v-211q0 -25 5 -36zM236 111.5
q11 10.5 18 29.5v97h-12q-34 0 -49.5 -17.5t-15.5 -55.5q0 -31 9.5 -47.5t25.5 -16.5q13 0 24 10.5zM113 589l-57 59l120 137h100l119 -137l-56 -59l-113 84zM20 967l120 -179l-65 -53l-152 148z" />
    <glyph glyph-name="uni1EA9" unicode="&#x1ea9;" horiz-adv-x="458" 
d="M425 114q5 -11 20 -18l-35 -111q-45 4 -74 20t-45 51q-48 -74 -133 -74q-67 0 -106.5 45.5t-39.5 121.5q0 87 55.5 134t160.5 47h26v21q0 46 -13 63t-48 17q-42 0 -112 -26l-38 105q42 19 91 30t93 11q98 0 145.5 -46.5t47.5 -143.5v-211q0 -25 5 -36zM236 111.5
q11 10.5 18 29.5v97h-12q-34 0 -49.5 -17.5t-15.5 -55.5q0 -31 9.5 -47.5t25.5 -16.5q13 0 24 10.5zM116 589l-57 59l120 137h100l119 -137l-56 -59l-113 84zM317 860q32 2 45 10t13 27q0 15 -8 23t-21 8q-15 0 -25.5 -3t-26.5 -10l-24 68q41 26 98 26q54 0 83 -28t29 -75
q0 -39 -18 -63t-53 -32v-51h-92v100z" />
    <glyph glyph-name="uni1EAB" unicode="&#x1eab;" horiz-adv-x="458" 
d="M425 114q5 -11 20 -18l-35 -111q-45 4 -74 20t-45 51q-48 -74 -133 -74q-67 0 -106.5 45.5t-39.5 121.5q0 87 55.5 134t160.5 47h26v21q0 46 -13 63t-48 17q-42 0 -112 -26l-38 105q42 19 91 30t93 11q98 0 145.5 -46.5t47.5 -143.5v-211q0 -25 5 -36zM236 111.5
q11 10.5 18 29.5v97h-12q-34 0 -49.5 -17.5t-15.5 -55.5q0 -31 9.5 -47.5t25.5 -16.5q13 0 24 10.5zM115 586l-57 59l120 137h100l119 -137l-56 -59l-113 84zM245 820.5q-14 5.5 -31 16.5q-19 14 -33 14t-23 -8.5t-20 -27.5l-77 32q16 49 47 79.5t70 30.5q19 0 32.5 -5.5
t32.5 -16.5q2 -1 13 -7.5t21 -6.5q13 0 21.5 8t19.5 27l77 -32q-16 -50 -46.5 -79.5t-69.5 -29.5q-20 0 -34 5.5z" />
    <glyph glyph-name="uni0201" unicode="&#x201;" horiz-adv-x="458" 
d="M425 114q5 -11 20 -18l-35 -111q-45 4 -74 20t-45 51q-48 -74 -133 -74q-67 0 -106.5 45.5t-39.5 121.5q0 87 55.5 134t160.5 47h26v21q0 46 -13 63t-48 17q-42 0 -112 -26l-38 105q42 19 91 30t93 11q98 0 145.5 -46.5t47.5 -143.5v-211q0 -25 5 -36zM236 111.5
q11 10.5 18 29.5v97h-12q-34 0 -49.5 -17.5t-15.5 -55.5q0 -31 9.5 -47.5t25.5 -16.5q13 0 24 10.5zM125 863l84 -201l-77 -38l-109 185zM283 863l79 -202l-80 -33l-103 185z" />
    <glyph glyph-name="adieresis" unicode="&#xe4;" horiz-adv-x="458" 
d="M425 114q5 -11 20 -18l-35 -111q-45 4 -74 20t-45 51q-48 -74 -133 -74q-67 0 -106.5 45.5t-39.5 121.5q0 87 55.5 134t160.5 47h26v21q0 46 -13 63t-48 17q-42 0 -112 -26l-38 105q42 19 91 30t93 11q98 0 145.5 -46.5t47.5 -143.5v-211q0 -25 5 -36zM236 111.5
q11 10.5 18 29.5v97h-12q-34 0 -49.5 -17.5t-15.5 -55.5q0 -31 9.5 -47.5t25.5 -16.5q13 0 24 10.5zM184.5 780.5q22.5 -23.5 22.5 -58.5q0 -36 -22 -59.5t-58 -23.5q-34 0 -57.5 24t-23.5 59t23.5 58.5t57.5 23.5q35 0 57.5 -23.5zM388.5 780.5q22.5 -23.5 22.5 -58.5
q0 -36 -22.5 -59.5t-58.5 -23.5q-34 0 -57.5 24t-23.5 59t23.5 58.5t57.5 23.5q36 0 58.5 -23.5z" />
    <glyph glyph-name="uni01DF" unicode="&#x1df;" horiz-adv-x="458" 
d="M425 114q5 -11 20 -18l-35 -111q-45 4 -74 20t-45 51q-48 -74 -133 -74q-67 0 -106.5 45.5t-39.5 121.5q0 87 55.5 134t160.5 47h26v21q0 46 -13 63t-48 17q-42 0 -112 -26l-38 105q42 19 91 30t93 11q98 0 145.5 -46.5t47.5 -143.5v-211q0 -25 5 -36zM236 111.5
q11 10.5 18 29.5v97h-12q-34 0 -49.5 -17.5t-15.5 -55.5q0 -31 9.5 -47.5t25.5 -16.5q13 0 24 10.5zM185.5 739.5q22.5 -23.5 22.5 -58.5q0 -36 -22 -59.5t-58 -23.5q-34 0 -57.5 24t-23.5 59t23.5 58.5t57.5 23.5q35 0 57.5 -23.5zM389.5 739.5q22.5 -23.5 22.5 -58.5
q0 -36 -22.5 -59.5t-58.5 -23.5q-34 0 -57.5 24t-23.5 59t23.5 58.5t57.5 23.5q36 0 58.5 -23.5zM365 807h-270v113h270v-113z" />
    <glyph glyph-name="uni0227" unicode="&#x227;" horiz-adv-x="458" 
d="M425 114q5 -11 20 -18l-35 -111q-45 4 -74 20t-45 51q-48 -74 -133 -74q-67 0 -106.5 45.5t-39.5 121.5q0 87 55.5 134t160.5 47h26v21q0 46 -13 63t-48 17q-42 0 -112 -26l-38 105q42 19 91 30t93 11q98 0 145.5 -46.5t47.5 -143.5v-211q0 -25 5 -36zM236 111.5
q11 10.5 18 29.5v97h-12q-34 0 -49.5 -17.5t-15.5 -55.5q0 -31 9.5 -47.5t25.5 -16.5q13 0 24 10.5zM296.5 789q26.5 -27 26.5 -67q0 -41 -26.5 -68t-68.5 -27t-68 27t-26 68q0 40 26.5 67t67.5 27q42 0 68.5 -27z" />
    <glyph glyph-name="uni1EA1" unicode="&#x1ea1;" horiz-adv-x="458" 
d="M425 114q5 -11 20 -18l-35 -111q-45 4 -74 20t-45 51q-48 -74 -133 -74q-67 0 -106.5 45.5t-39.5 121.5q0 87 55.5 134t160.5 47h26v21q0 46 -13 63t-48 17q-42 0 -112 -26l-38 105q42 19 91 30t93 11q98 0 145.5 -46.5t47.5 -143.5v-211q0 -25 5 -36zM236 111.5
q11 10.5 18 29.5v97h-12q-34 0 -49.5 -17.5t-15.5 -55.5q0 -31 9.5 -47.5t25.5 -16.5q13 0 24 10.5zM163.5 -220q-26.5 27 -26.5 67q0 41 26.5 68t68.5 27t68 -27t26 -68q0 -40 -26.5 -67t-67.5 -27q-42 0 -68.5 27z" />
    <glyph glyph-name="uni01E1" unicode="&#x1e1;" horiz-adv-x="458" 
d="M425 114q5 -11 20 -18l-35 -111q-45 4 -74 20t-45 51q-48 -74 -133 -74q-67 0 -106.5 45.5t-39.5 121.5q0 87 55.5 134t160.5 47h26v21q0 46 -13 63t-48 17q-42 0 -112 -26l-38 105q42 19 91 30t93 11q98 0 145.5 -46.5t47.5 -143.5v-211q0 -25 5 -36zM236 111.5
q11 10.5 18 29.5v97h-12q-34 0 -49.5 -17.5t-15.5 -55.5q0 -31 9.5 -47.5t25.5 -16.5q13 0 24 10.5zM295.5 753q26.5 -27 26.5 -67q0 -41 -26.5 -68t-68.5 -27t-68 27t-26 68q0 40 26.5 67t67.5 27q42 0 68.5 -27zM364 817h-270v113h270v-113z" />
    <glyph glyph-name="agrave" unicode="&#xe0;" horiz-adv-x="458" 
d="M425 114q5 -11 20 -18l-35 -111q-45 4 -74 20t-45 51q-48 -74 -133 -74q-67 0 -106.5 45.5t-39.5 121.5q0 87 55.5 134t160.5 47h26v21q0 46 -13 63t-48 17q-42 0 -112 -26l-38 105q42 19 91 30t93 11q98 0 145.5 -46.5t47.5 -143.5v-211q0 -25 5 -36zM236 111.5
q11 10.5 18 29.5v97h-12q-34 0 -49.5 -17.5t-15.5 -55.5q0 -31 9.5 -47.5t25.5 -16.5q13 0 24 10.5zM176 834l188 -133l-45 -81l-209 95z" />
    <glyph glyph-name="uni1EA3" unicode="&#x1ea3;" horiz-adv-x="458" 
d="M425 114q5 -11 20 -18l-35 -111q-45 4 -74 20t-45 51q-48 -74 -133 -74q-67 0 -106.5 45.5t-39.5 121.5q0 87 55.5 134t160.5 47h26v21q0 46 -13 63t-48 17q-42 0 -112 -26l-38 105q42 19 91 30t93 11q98 0 145.5 -46.5t47.5 -143.5v-211q0 -25 5 -36zM236 111.5
q11 10.5 18 29.5v97h-12q-34 0 -49.5 -17.5t-15.5 -55.5q0 -31 9.5 -47.5t25.5 -16.5q13 0 24 10.5zM184 704q32 2 45 10t13 27q0 15 -8 23t-21 8q-15 0 -25.5 -3t-26.5 -10l-24 68q41 26 98 26q54 0 83 -28t29 -75q0 -39 -18 -63t-53 -32v-51h-92v100z" />
    <glyph glyph-name="uni0203" unicode="&#x203;" horiz-adv-x="458" 
d="M425 114q5 -11 20 -18l-35 -111q-45 4 -74 20t-45 51q-48 -74 -133 -74q-67 0 -106.5 45.5t-39.5 121.5q0 87 55.5 134t160.5 47h26v21q0 46 -13 63t-48 17q-42 0 -112 -26l-38 105q42 19 91 30t93 11q98 0 145.5 -46.5t47.5 -143.5v-211q0 -25 5 -36zM236 111.5
q11 10.5 18 29.5v97h-12q-34 0 -49.5 -17.5t-15.5 -55.5q0 -31 9.5 -47.5t25.5 -16.5q13 0 24 10.5zM339.5 747q37.5 -48 43.5 -132l-88 -16q-13 81 -66 81t-67 -81l-87 16q6 84 43.5 132t110.5 48t110.5 -48z" />
    <glyph glyph-name="uni0251" unicode="&#x251;" horiz-adv-x="504" 
d="M471 129q7 -14 26 -26l-48 -121q-50 8 -80.5 25t-48.5 48q-50 -73 -128 -73q-85 0 -128.5 72t-43.5 213q0 88 23 152.5t63.5 98t91.5 33.5q68 0 109 -57l8 39h149v-362q0 -28 7 -42zM294 150v249q-10 15 -21 22t-25 7q-25 0 -39.5 -34.5t-14.5 -126.5q0 -97 12.5 -129.5
t35.5 -32.5q29 0 52 45z" />
    <glyph glyph-name="uni0252" unicode="&#x252;" horiz-adv-x="504" 
d="M440.5 479q43.5 -72 43.5 -213q0 -88 -23 -152.5t-63.5 -98t-91.5 -33.5q-68 0 -109 57l-8 -39h-149v362q0 28 -7 42t-26 26l48 121q50 -8 80.5 -25t48.5 -48q50 73 128 73q85 0 128.5 -72zM295.5 139.5q14.5 34.5 14.5 126.5q0 97 -12.5 129.5t-35.5 32.5q-29 0 -52 -45
v-249q10 -15 21 -22t25 -7q25 0 39.5 34.5z" />
    <glyph glyph-name="amacron" unicode="&#x101;" horiz-adv-x="458" 
d="M425 114q5 -11 20 -18l-35 -111q-45 4 -74 20t-45 51q-48 -74 -133 -74q-67 0 -106.5 45.5t-39.5 121.5q0 87 55.5 134t160.5 47h26v21q0 46 -13 63t-48 17q-42 0 -112 -26l-38 105q42 19 91 30t93 11q98 0 145.5 -46.5t47.5 -143.5v-211q0 -25 5 -36zM236 111.5
q11 10.5 18 29.5v97h-12q-34 0 -49.5 -17.5t-15.5 -55.5q0 -31 9.5 -47.5t25.5 -16.5q13 0 24 10.5zM364 655h-270v113h270v-113z" />
    <glyph glyph-name="aogonek" unicode="&#x105;" horiz-adv-x="458" 
d="M336.5 -63.5q-19.5 -24.5 -19.5 -51.5q0 -23 11 -34.5t31 -11.5t49 8l-10 -102q-29 -8 -60 -8q-61 0 -99.5 31t-38.5 87q0 54 33 92t91 66q-21 17 -33 43q-48 -74 -133 -74q-67 0 -106.5 45.5t-39.5 121.5q0 87 55.5 134t160.5 47h26v21q0 46 -13 63t-48 17
q-42 0 -112 -26l-38 105q42 19 91 30t93 11q98 0 145.5 -46.5t47.5 -143.5v-211q0 -25 5 -36t20 -18l-35 -111q-54 -24 -73.5 -48.5zM236 111.5q11 10.5 18 29.5v97h-12q-34 0 -49.5 -17.5t-15.5 -55.5q0 -31 9.5 -47.5t25.5 -16.5q13 0 24 10.5z" />
    <glyph glyph-name="aring" unicode="&#xe5;" horiz-adv-x="458" 
d="M425 114q5 -11 20 -18l-35 -111q-45 4 -74 20t-45 51q-48 -74 -133 -74q-67 0 -106.5 45.5t-39.5 121.5q0 87 55.5 134t160.5 47h26v21q0 46 -13 63t-48 17q-42 0 -112 -26l-38 105q42 19 91 30t93 11q98 0 145.5 -46.5t47.5 -143.5v-211q0 -25 5 -36zM236 111.5
q11 10.5 18 29.5v97h-12q-34 0 -49.5 -17.5t-15.5 -55.5q0 -31 9.5 -47.5t25.5 -16.5q13 0 24 10.5zM323.5 835.5q34.5 -37.5 34.5 -98.5q0 -60 -34.5 -98t-94.5 -38t-94.5 38t-34.5 98q0 61 34.5 98.5t94.5 37.5t94.5 -37.5zM204 777q-8 -12 -8 -40q0 -52 33 -52
q34 0 34 52q0 28 -8.5 40t-25.5 12t-25 -12z" />
    <glyph glyph-name="aringacute" unicode="&#x1fb;" horiz-adv-x="458" 
d="M356 942l-209 -86l-43 82l189 124zM135.5 613q-34.5 38 -34.5 98q0 61 34.5 98.5t94.5 37.5t94.5 -37.5t34.5 -98.5q0 -60 -34.5 -98t-94.5 -38t-94.5 38zM205 751q-8 -12 -8 -40q0 -52 33 -52q34 0 34 52q0 28 -8.5 40t-25.5 12t-25 -12zM425 114q5 -11 20 -18l-35 -111
q-45 4 -74 20t-45 51q-48 -74 -133 -74q-67 0 -106.5 45.5t-39.5 121.5q0 87 55.5 134t160.5 47h26v21q0 46 -13 63t-48 17q-42 0 -112 -26l-38 105q42 19 91 30t93 11q98 0 145.5 -46.5t47.5 -143.5v-211q0 -25 5 -36zM236 111.5q11 10.5 18 29.5v97h-12q-34 0 -49.5 -17.5
t-15.5 -55.5q0 -31 9.5 -47.5t25.5 -16.5q13 0 24 10.5z" />
    <glyph glyph-name="uni2C65" unicode="&#x2c65;" horiz-adv-x="458" 
d="M425 114q5 -11 20 -18l-35 -111q-45 4 -74 20t-45 51q-37 -57 -97 -70l-12 -61l-50 11l9 47q-59 6 -94 51t-35 115q0 164 195 173l22 116q-6 1 -20 1q-34 0 -63 -6.5t-65 -19.5l-38 97q42 19 91 30t93 11q16 0 24 -1l10 51l49 -10l-9 -48q119 -30 119 -182v-211
q0 -25 5 -36zM273 401l-15 -79h20v29q0 34 -5 50zM278 143v95h-36l-27 -143q33 8 63 48zM165 106l24 124q-20 -9 -28 -25t-8 -43q0 -39 12 -56z" />
    <glyph glyph-name="atilde" unicode="&#xe3;" horiz-adv-x="458" 
d="M425 114q5 -11 20 -18l-35 -111q-45 4 -74 20t-45 51q-48 -74 -133 -74q-67 0 -106.5 45.5t-39.5 121.5q0 87 55.5 134t160.5 47h26v21q0 46 -13 63t-48 17q-42 0 -112 -26l-38 105q42 19 91 30t93 11q98 0 145.5 -46.5t47.5 -143.5v-211q0 -25 5 -36zM236 111.5
q11 10.5 18 29.5v97h-12q-34 0 -49.5 -17.5t-15.5 -55.5q0 -31 9.5 -47.5t25.5 -16.5q13 0 24 10.5zM246 642.5q-14 6.5 -31 17.5q-21 15 -33 15q-14 0 -23 -9t-20 -30l-77 35q17 53 47.5 86.5t69.5 33.5q19 0 33 -6t32 -18q11 -8 18.5 -12t15.5 -4q13 0 21.5 9t19.5 30
l77 -35q-16 -54 -46.5 -86.5t-69.5 -32.5q-20 0 -34 6.5z" />
    <glyph glyph-name="uni0250" unicode="&#x250;" horiz-adv-x="458" 
d="M377 128l38 -105q-42 -19 -91 -30t-93 -11q-98 0 -145.5 46.5t-47.5 143.5v211q0 25 -5 36t-20 18l35 111q45 -4 74 -20t45 -51q48 74 133 74q67 0 106.5 -45.5t39.5 -121.5q0 -87 -55.5 -134t-160.5 -47h-26v-21q0 -46 13 -63t48 -17q42 0 112 26zM222 421.5
q-11 -10.5 -18 -29.5v-97h12q34 0 49.5 17.5t15.5 55.5q0 31 -9.5 47.5t-25.5 16.5q-13 0 -24 -10.5z" />
    <glyph glyph-name="ae" unicode="&#xe6;" horiz-adv-x="716" 
d="M697 217h-265q5 -64 25.5 -88t59.5 -24q22 0 45 10t53 32l68 -90q-35 -35 -80.5 -55t-101.5 -20q-119 0 -182 86q-60 -86 -151 -86q-71 0 -113.5 46.5t-42.5 120.5q0 84 56.5 129t166.5 45h26v25q0 49 -12.5 66t-48.5 17q-19 0 -50 -7t-63 -20l-36 106q90 41 174 41
q51 0 82.5 -16t51.5 -47q57 63 141 63q91 0 146 -71t55 -205q0 -24 -4 -58zM539 323q0 59 -13 88t-40 29q-26 0 -39 -27t-16 -97h108v7zM277 156q-10 34 -12 75h-14q-34 0 -50.5 -17t-16.5 -53q0 -31 8.5 -45t26.5 -14q32 0 58 54z" />
    <glyph glyph-name="aeacute" unicode="&#x1fd;" horiz-adv-x="716" 
d="M697 217h-265q5 -64 25.5 -88t59.5 -24q22 0 45 10t53 32l68 -90q-35 -35 -80.5 -55t-101.5 -20q-119 0 -182 86q-60 -86 -151 -86q-71 0 -113.5 46.5t-42.5 120.5q0 84 56.5 129t166.5 45h26v25q0 49 -12.5 66t-48.5 17q-19 0 -50 -7t-63 -20l-36 106q90 41 174 41
q51 0 82.5 -16t51.5 -47q57 63 141 63q91 0 146 -71t55 -205q0 -24 -4 -58zM539 323q0 59 -13 88t-40 29q-26 0 -39 -27t-16 -97h108v7zM277 156q-10 34 -12 75h-14q-34 0 -50.5 -17t-16.5 -53q0 -31 8.5 -45t26.5 -14q32 0 58 54zM407 834l66 -119l-209 -95l-45 81z" />
    <glyph glyph-name="uni01E3" unicode="&#x1e3;" horiz-adv-x="716" 
d="M697 217h-265q5 -64 25.5 -88t59.5 -24q22 0 45 10t53 32l68 -90q-35 -35 -80.5 -55t-101.5 -20q-119 0 -182 86q-60 -86 -151 -86q-71 0 -113.5 46.5t-42.5 120.5q0 84 56.5 129t166.5 45h26v25q0 49 -12.5 66t-48.5 17q-19 0 -50 -7t-63 -20l-36 106q90 41 174 41
q51 0 82.5 -16t51.5 -47q57 63 141 63q91 0 146 -71t55 -205q0 -24 -4 -58zM539 323q0 59 -13 88t-40 29q-26 0 -39 -27t-16 -97h108v7zM277 156q-10 34 -12 75h-14q-34 0 -50.5 -17t-16.5 -53q0 -31 8.5 -45t26.5 -14q32 0 58 54zM490 655h-270v113h270v-113z" />
    <glyph glyph-name="b" unicode="b" horiz-adv-x="502" 
d="M442 479.5q40 -71.5 40 -213.5q0 -131 -47 -207.5t-129 -76.5q-35 0 -63.5 16.5t-48.5 47.5l-7 -46h-151v743l170 18v-274q20 30 50.5 47t66.5 17q79 0 119 -71.5zM294.5 138.5q13.5 34.5 13.5 127.5q0 97 -12 129t-34 32q-29 0 -56 -51v-232q20 -40 48 -40
q27 0 40.5 34.5z" />
    <glyph glyph-name="uni1E03" unicode="&#x1e03;" horiz-adv-x="502" 
d="M442 479.5q40 -71.5 40 -213.5q0 -131 -47 -207.5t-129 -76.5q-35 0 -63.5 16.5t-48.5 47.5l-7 -46h-151v743l170 18v-274q20 30 50.5 47t66.5 17q79 0 119 -71.5zM294.5 138.5q13.5 34.5 13.5 127.5q0 97 -12 129t-34 32q-29 0 -56 -51v-232q20 -40 48 -40
q27 0 40.5 34.5zM337.5 963q26.5 -27 26.5 -67q0 -41 -26.5 -68t-68.5 -27t-68 27t-26 68q0 40 26.5 67t67.5 27q42 0 68.5 -27z" />
    <glyph glyph-name="uni1E05" unicode="&#x1e05;" horiz-adv-x="502" 
d="M442 479.5q40 -71.5 40 -213.5q0 -131 -47 -207.5t-129 -76.5q-35 0 -63.5 16.5t-48.5 47.5l-7 -46h-151v743l170 18v-274q20 30 50.5 47t66.5 17q79 0 119 -71.5zM294.5 138.5q13.5 34.5 13.5 127.5q0 97 -12 129t-34 32q-29 0 -56 -51v-232q20 -40 48 -40
q27 0 40.5 34.5zM190.5 -220q-26.5 27 -26.5 67q0 41 26.5 68t68.5 27t68 -27t26 -68q0 -40 -26.5 -67t-67.5 -27q-42 0 -68.5 27z" />
    <glyph glyph-name="uniA7B5" unicode="&#xa7b5;" horiz-adv-x="513" 
d="M497 208q0 -70 -24 -121t-66.5 -78t-96.5 -27q-61 0 -112 33v-216l-162 -23v771q0 106 58.5 160t151.5 54q99 0 151 -51.5t52 -140.5q0 -70 -26.5 -109t-89.5 -54q164 -20 164 -198zM306.5 136q19.5 25 19.5 87q0 63 -22.5 90.5t-54.5 27.5h-22l8 114h10q19 0 29 23
t10 77q0 50 -10 69t-32 19q-23 0 -33.5 -20.5t-10.5 -74.5v-425q21 -12 55 -12t53.5 25z" />
    <glyph glyph-name="uni0253" unicode="&#x253;" horiz-adv-x="502" 
d="M442 479.5q40 -71.5 40 -213.5q0 -131 -47 -207.5t-129 -76.5q-35 0 -63.5 16.5t-48.5 47.5l-7 -46h-151v584q0 76 49 126t141 50q73 0 131 -34l-47 -105q-30 15 -58 15q-24 0 -35 -13.5t-11 -43.5v-92q20 30 50.5 47t66.5 17q79 0 119 -71.5zM294.5 138.5
q13.5 34.5 13.5 127.5q0 97 -12 129t-34 32q-29 0 -56 -51v-232q20 -40 48 -40q27 0 40.5 34.5z" />
    <glyph glyph-name="uni02AD" unicode="&#x2ad;" horiz-adv-x="325" 
d="M30 401v168h265v-168h-96v82h-73v-82h-96zM30 0v168h265v-168h-96v82h-73v-82h-96z" />
    <glyph glyph-name="uni0298" unicode="&#x298;" horiz-adv-x="675" 
d="M504 670q71 -43 110 -125t39 -197q0 -111 -39 -193.5t-110.5 -127.5t-165.5 -45q-95 0 -166.5 43t-110.5 125.5t-39 197.5q0 111 39.5 193.5t111 127t165.5 44.5q95 0 166 -43zM226.5 539.5q-38.5 -58.5 -38.5 -191.5t38.5 -192t112.5 -59q75 0 112 58.5t37 192.5
q0 130 -40.5 190t-108.5 60q-74 0 -112.5 -58.5zM396.5 395q22.5 -23 22.5 -56q0 -34 -22.5 -57t-57.5 -23t-57 23t-22 57t22 56.5t57 22.5t57.5 -23z" />
    <glyph glyph-name="uni02AC" unicode="&#x2ac;" horiz-adv-x="385" 
d="M360 668l-46 -268h-95l-23 195l-27 -195h-91l-53 268h66l35 -208l28 208h86l28 -209l29 209h63zM360 268l-46 -268h-95l-23 195l-27 -195h-91l-53 268h66l35 -208l28 208h86l28 -209l29 209h63z" />
    <glyph glyph-name="uni0180" unicode="&#x180;" horiz-adv-x="506" 
d="M447 479.5q40 -71.5 40 -213.5q0 -131 -47 -207.5t-129 -76.5q-35 0 -63.5 16.5t-48.5 47.5l-7 -46h-151v596h-41v96h41v51l170 18v-69h98v-96h-98v-109q20 30 50.5 47t66.5 17q79 0 119 -71.5zM299.5 138.5q13.5 34.5 13.5 127.5q0 97 -12 129t-34 32q-29 0 -56 -51
v-232q20 -40 48 -40q27 0 40.5 34.5z" />
    <glyph glyph-name="uni0183" unicode="&#x183;" horiz-adv-x="502" 
d="M442 479.5q40 -71.5 40 -213.5q0 -131 -47 -207.5t-129 -76.5q-35 0 -63.5 16.5t-48.5 47.5l-7 -46h-151v743h345l-17 -121h-158v-135q20 30 50.5 47t66.5 17q79 0 119 -71.5zM294.5 138.5q13.5 34.5 13.5 127.5q0 97 -12 129t-34 32q-29 0 -56 -51v-232q20 -40 48 -40
q27 0 40.5 34.5z" />
    <glyph glyph-name="c" unicode="c" horiz-adv-x="404" 
d="M413 484l-69 -93q-41 32 -75 32q-37 0 -54.5 -34t-17.5 -126q0 -86 18.5 -118t53.5 -32q18 0 34 6.5t37 22.5l73 -97q-66 -63 -156 -63q-113 0 -175 71.5t-62 208.5q0 89 29 154t82 100t124 35q91 0 158 -67z" />
    <glyph glyph-name="cacute" unicode="&#x107;" horiz-adv-x="404" 
d="M413 484l-69 -93q-41 32 -75 32q-37 0 -54.5 -34t-17.5 -126q0 -86 18.5 -118t53.5 -32q18 0 34 6.5t37 22.5l73 -97q-66 -63 -156 -63q-113 0 -175 71.5t-62 208.5q0 89 29 154t82 100t124 35q91 0 158 -67zM303 834l66 -119l-209 -95l-45 81z" />
    <glyph glyph-name="cacute.loclPLK" horiz-adv-x="404" 
d="M413 484l-69 -93q-41 32 -75 32q-37 0 -54.5 -34t-17.5 -126q0 -86 18.5 -118t53.5 -32q18 0 34 6.5t37 22.5l73 -97q-66 -63 -156 -63q-113 0 -175 71.5t-62 208.5q0 89 29 154t82 100t124 35q91 0 158 -67zM253 816l124 -70l-123 -163l-74 43z" />
    <glyph glyph-name="ccaron" unicode="&#x10d;" horiz-adv-x="404" 
d="M413 484l-69 -93q-41 32 -75 32q-37 0 -54.5 -34t-17.5 -126q0 -86 18.5 -118t53.5 -32q18 0 34 6.5t37 22.5l73 -97q-66 -63 -156 -63q-113 0 -175 71.5t-62 208.5q0 89 29 154t82 100t124 35q91 0 158 -67zM364 815l56 -61l-119 -145h-101l-119 145l57 61l113 -94z" />
    <glyph glyph-name="ccedilla" unicode="&#xe7;" horiz-adv-x="404" 
d="M285 -16v-35q91 -16 91 -98q0 -52 -36 -84.5t-101 -32.5q-59 0 -105 32l36 71q28 -13 56 -13q33 0 33 29q0 17 -18.5 25t-58.5 8l12 102q-84 19 -129 88t-45 186q0 89 29 154t82 100t124 35q91 0 158 -67l-69 -93q-41 32 -75 32q-37 0 -54.5 -34t-17.5 -126
q0 -86 18.5 -118t53.5 -32q18 0 34 6.5t37 22.5l73 -97q-56 -53 -128 -61z" />
    <glyph glyph-name="ccircumflex" unicode="&#x109;" horiz-adv-x="404" 
d="M413 484l-69 -93q-41 32 -75 32q-37 0 -54.5 -34t-17.5 -126q0 -86 18.5 -118t53.5 -32q18 0 34 6.5t37 22.5l73 -97q-66 -63 -156 -63q-113 0 -175 71.5t-62 208.5q0 89 29 154t82 100t124 35q91 0 158 -67zM138 623l-57 58l120 146h100l119 -146l-56 -58l-113 92z" />
    <glyph glyph-name="uni0255" unicode="&#x255;" horiz-adv-x="428" 
d="M402 225.5q32 -32.5 32 -89.5q0 -75 -46.5 -114.5t-117.5 -39.5q-34 0 -58 6l-28 -74l-75 31l30 72q-58 32 -88.5 95.5t-30.5 149.5q0 89 29 154t82 100t124 35q91 0 158 -67l-69 -93q-41 32 -75 32q-37 0 -54.5 -34t-17.5 -126q0 -57 9 -97q19 48 48 70t68 22
q48 0 80 -32.5zM326 141q0 29 -19 29q-29 0 -48 -64q15 -4 33 -4q34 0 34 39z" />
    <glyph glyph-name="cdotaccent" unicode="&#x10b;" horiz-adv-x="404" 
d="M413 484l-69 -93q-41 32 -75 32q-37 0 -54.5 -34t-17.5 -126q0 -86 18.5 -118t53.5 -32q18 0 34 6.5t37 22.5l73 -97q-66 -63 -156 -63q-113 0 -175 71.5t-62 208.5q0 89 29 154t82 100t124 35q91 0 158 -67zM318.5 789q26.5 -27 26.5 -67q0 -41 -26.5 -68t-68.5 -27
t-68 27t-26 68q0 40 26.5 67t67.5 27q42 0 68.5 -27z" />
    <glyph glyph-name="uni0188" unicode="&#x188;" horiz-adv-x="404" 
d="M543 723l-44 -101q-30 14 -50 14q-19 0 -27.5 -11t-8.5 -37v-104l-68 -93q-43 32 -76 32q-37 0 -54.5 -34t-17.5 -126q0 -86 18.5 -118t53.5 -32q18 0 34 6.5t37 22.5l73 -97q-66 -63 -156 -63q-113 0 -175 71.5t-62 208.5q0 88 27.5 153.5t75.5 100.5t108 35q16 0 39 -5
v62q0 72 40.5 112t109.5 40q68 0 123 -37z" />
    <glyph glyph-name="uni0297" unicode="&#x297;" horiz-adv-x="420" 
d="M429 484l-69 -97q-39 33 -78 33q-28 0 -45 -22.5t-25.5 -79t-8.5 -158.5q0 -101 9 -155t25.5 -74t42.5 -20q19 0 35.5 6.5t37.5 21.5l73 -98q-66 -64 -157 -64q-243 0 -243 383q0 193 64 292t181 99q93 0 158 -67z" />
    <glyph glyph-name="uni023C" unicode="&#x23c;" horiz-adv-x="404" 
d="M303 119.5q16 6.5 37 22.5l73 -97q-66 -63 -156 -63q-21 0 -31 1l-13 -58l-50 11l12 57q-75 23 -115 91t-40 178q0 89 29 154t82 100t124 35q24 0 41 -4l12 54l49 -10l-13 -58q37 -17 69 -49l-69 -93q-11 9 -26 18l-64 -295q5 -1 15 -1q18 0 34 6.5zM211 156l58 267
q-37 0 -54.5 -34t-17.5 -126q0 -71 14 -107z" />
    <glyph glyph-name="d" unicode="d" horiz-adv-x="503" 
d="M467 743v-743h-151l-5 54q-23 -34 -52 -53t-71 -19q-82 0 -125 73.5t-43 211.5q0 86 23.5 150.5t65 99t94.5 34.5q57 0 94 -45v254zM297 149v244q-11 18 -21 26.5t-23 8.5q-59 0 -59 -161q0 -94 14 -128t38 -34q29 0 51 44z" />
    <glyph glyph-name="eth" unicode="&#xf0;" horiz-adv-x="499" 
d="M435.5 504q37.5 -95 37.5 -224q0 -85 -26 -152.5t-77.5 -106.5t-125.5 -39q-64 0 -115 29.5t-80 86.5t-29 135q0 73 24.5 129.5t64 87t83.5 30.5q33 0 57.5 -10.5t47.5 -32.5q-14 47 -30 79.5t-46 62.5l-44 -54l-100 49l51 59q-41 13 -70 20l32 106q53 -10 122 -35l62 77
l88 -65l-51 -66q87 -71 124.5 -166zM289.5 135.5q12.5 30.5 12.5 104.5v89q-25 33 -55 33q-28 0 -42.5 -30.5t-14.5 -95.5q0 -74 14 -102.5t43 -28.5q30 0 42.5 30.5z" />
    <glyph glyph-name="uni0238" unicode="&#x238;" horiz-adv-x="730" 
d="M673.5 480.5q36.5 -69.5 36.5 -214.5q0 -135 -45 -209.5t-122 -74.5q-30 0 -57 18t-46 51l-8 -51h-132l-8 55q-43 -73 -113 -73q-78 0 -118.5 73.5t-40.5 211.5q0 90 21.5 153.5t58.5 96.5t84 33q61 0 97 -56v249l170 17v-277q19 31 48.5 49t65.5 18q72 0 108.5 -69.5z
M281 143v253q-17 31 -40 31q-22 0 -34.5 -33.5t-12.5 -126.5q0 -98 10.5 -130t30.5 -32q24 0 46 38zM524.5 137.5q11.5 32.5 11.5 128.5q0 68 -5 102.5t-13.5 46t-21.5 11.5q-25 0 -45 -39v-247q9 -17 18.5 -26t22.5 -9q21 0 32.5 32.5z" />
    <glyph glyph-name="dcaron" unicode="&#x10f;" horiz-adv-x="618" 
d="M467 743v-743h-151l-5 54q-23 -34 -52 -53t-71 -19q-82 0 -125 73.5t-43 211.5q0 86 23.5 150.5t65 99t94.5 34.5q57 0 94 -45v254zM297 149v244q-11 18 -21 26.5t-23 8.5q-59 0 -59 -161q0 -94 14 -128t38 -34q29 0 51 44zM588 520l48 222l-120 18l-21 -225z" />
    <glyph glyph-name="uni1E13" unicode="&#x1e13;" horiz-adv-x="503" 
d="M467 743v-743h-151l-5 54q-23 -34 -52 -53t-71 -19q-82 0 -125 73.5t-43 211.5q0 86 23.5 150.5t65 99t94.5 34.5q57 0 94 -45v254zM297 149v244q-11 18 -21 26.5t-23 8.5q-59 0 -59 -161q0 -94 14 -128t38 -34q29 0 51 44zM141 -267l-57 59l120 146h100l119 -146
l-56 -59l-113 93z" />
    <glyph glyph-name="dcroat" unicode="&#x111;" horiz-adv-x="507" 
d="M507 692v-96h-40v-596h-151l-5 54q-23 -34 -52 -53t-71 -19q-82 0 -125 73.5t-43 211.5q0 86 23.5 150.5t65 99t94.5 34.5q57 0 94 -45v90h-99v96h99v68l170 -17v-51h40zM297 149v244q-11 18 -21 26.5t-23 8.5q-59 0 -59 -161q0 -94 14 -128t38 -34q29 0 51 44z" />
    <glyph glyph-name="uni0221" unicode="&#x221;" horiz-adv-x="678" 
d="M652 216.5q29 -31.5 29 -86.5q0 -73 -48 -110.5t-122 -37.5q-12 0 -34 2l-28 -70l-72 30l24 60q-47 21 -74 62q-56 -84 -139 -84q-82 0 -125 73.5t-43 211.5q0 86 23.5 150.5t65 99t94.5 34.5q57 0 94 -45v254l170 -17v-562q0 -18 1 -25q23 50 48.5 71t62.5 21
q44 0 73 -31.5zM299 152q-2 20 -2 32v209q-11 18 -21 26.5t-23 8.5q-59 0 -59 -161q0 -94 14 -128t38 -34q30 0 53 47zM563 109.5q9 8.5 9 28.5q0 23 -15 23q-10 0 -17.5 -11.5t-20.5 -47.5q6 -1 17 -1q18 0 27 8.5z" />
    <glyph glyph-name="uni1E0B" unicode="&#x1e0b;" horiz-adv-x="503" 
d="M467 743v-743h-151l-5 54q-23 -34 -52 -53t-71 -19q-82 0 -125 73.5t-43 211.5q0 86 23.5 150.5t65 99t94.5 34.5q57 0 94 -45v254zM297 149v244q-11 18 -21 26.5t-23 8.5q-59 0 -59 -161q0 -94 14 -128t38 -34q29 0 51 44zM314.5 963q26.5 -27 26.5 -67q0 -41 -26.5 -68
t-68.5 -27t-68 27t-26 68q0 40 26.5 67t67.5 27q42 0 68.5 -27z" />
    <glyph glyph-name="uni1E0D" unicode="&#x1e0d;" horiz-adv-x="503" 
d="M467 743v-743h-151l-5 54q-23 -34 -52 -53t-71 -19q-82 0 -125 73.5t-43 211.5q0 86 23.5 150.5t65 99t94.5 34.5q57 0 94 -45v254zM297 149v244q-11 18 -21 26.5t-23 8.5q-59 0 -59 -161q0 -94 14 -128t38 -34q29 0 51 44zM189.5 -220q-26.5 27 -26.5 67q0 41 26.5 68
t68.5 27t68 -27t26 -68q0 -40 -26.5 -67t-67.5 -27q-42 0 -68.5 27z" />
    <glyph glyph-name="uni018D" unicode="&#x18d;" horiz-adv-x="490" 
d="M440 166q-30 -55 -98 -90q51 -31 67.5 -63.5t16.5 -78.5q0 -69 -48.5 -114t-147.5 -45q-50 0 -94.5 18t-73.5 44l70 83q44 -28 86 -28q49 0 49 44q0 16 -4.5 27t-19.5 22t-46 27q-66 34 -104 69t-55.5 82.5t-17.5 116.5q0 132 60.5 201t165.5 69q107 0 165.5 -63
t58.5 -190q0 -76 -30 -131zM206.5 180q12.5 -31 53.5 -58q25 30 31.5 66t7.5 104q0 79 -12 107t-41 28q-20 0 -31 -12t-16 -45t-5 -95q0 -64 12.5 -95z" />
    <glyph glyph-name="uni02A4" unicode="&#x2a4;" horiz-adv-x="881" 
d="M874 10q0 -67 -28 -120t-81.5 -83.5t-128.5 -30.5q-135 0 -209 105l88 82q31 -31 55 -44.5t54 -13.5q76 0 76 111q0 54 -22.5 77.5t-69.5 23.5h-76v96l132 194h-197v-407h-151l-5 54q-23 -34 -52 -53t-71 -19q-82 0 -125 73.5t-43 211.5q0 86 23.5 150.5t65 99t94.5 34.5
q57 0 94 -45v254l170 -17v-210h375v-116l-142 -204q174 -19 174 -203zM297 149v244q-11 18 -21 26.5t-23 8.5q-59 0 -59 -161q0 -94 14 -128t38 -34q29 0 51 44z" />
    <glyph glyph-name="uni0257" unicode="&#x257;" horiz-adv-x="503" 
d="M597 723l-44 -101q-30 14 -50 14q-19 0 -27.5 -11t-8.5 -37v-588h-151l-5 54q-23 -34 -52 -53t-70 -19q-84 0 -126.5 73t-42.5 212q0 86 23.5 150.5t65 99t94.5 34.5q57 0 94 -45v78q0 81 45.5 128.5t131.5 47.5q68 0 123 -37zM297 149v244q-11 18 -21 26.5t-23 8.5
q-59 0 -59 -161q0 -94 14 -128t38 -34q29 0 51 44z" />
    <glyph glyph-name="uni1E0F" unicode="&#x1e0f;" horiz-adv-x="503" 
d="M467 743v-743h-151l-5 54q-23 -34 -52 -53t-71 -19q-82 0 -125 73.5t-43 211.5q0 86 23.5 150.5t65 99t94.5 34.5q57 0 94 -45v254zM297 149v244q-11 18 -21 26.5t-23 8.5q-59 0 -59 -161q0 -94 14 -128t38 -34q29 0 51 44zM393 -192h-270v113h270v-113z" />
    <glyph glyph-name="uni0256" unicode="&#x256;" horiz-adv-x="503" 
d="M618 -180q-55 -43 -137 -43t-133 46t-51 133v79q-44 -53 -108 -53q-84 0 -126.5 73t-42.5 212q0 86 23.5 150.5t65 99t94.5 34.5q57 0 94 -45v254l170 -17v-797q0 -47 41 -47q15 0 26.5 3.5t26.5 12.5zM297 149v244q-11 18 -21 26.5t-23 8.5q-59 0 -59 -161
q0 -94 14 -128t38 -34q29 0 51 44z" />
    <glyph glyph-name="uni018C" unicode="&#x18c;" horiz-adv-x="503" 
d="M467 0h-151l-5 54q-23 -34 -52 -53t-70 -19q-84 0 -126.5 72t-42.5 205q0 83 23.5 145.5t65 96.5t94.5 34q57 0 94 -45v132h-166v121h336v-743zM297 149v228q-11 18 -21 26.5t-23 8.5q-59 0 -59 -153q0 -89 14 -121.5t38 -32.5q29 0 51 44z" />
    <glyph glyph-name="uni01F3" unicode="&#x1f3;" horiz-adv-x="896" 
d="M467 743v-743h-151l-5 54q-23 -34 -52 -53t-71 -19q-82 0 -125 73.5t-43 211.5q0 86 23.5 150.5t65 99t94.5 34.5q57 0 94 -45v254zM297 149v244q-11 18 -21 26.5t-23 8.5q-59 0 -59 -161q0 -94 14 -128t38 -34q29 0 51 44zM884 533v-119l-190 -286h195l-14 -128h-366
v120l189 286h-172v127h358z" />
    <glyph glyph-name="uni02A3" unicode="&#x2a3;" horiz-adv-x="846" 
d="M839 128l-14 -128h-509l-5 54q-23 -34 -52 -53t-71 -19q-82 0 -125 73.5t-43 211.5q0 86 23.5 150.5t65 99t94.5 34.5q57 0 94 -45v254l170 -17v-210h367v-119l-190 -286h195zM297 149v244q-11 18 -21 26.5t-23 8.5q-59 0 -59 -161q0 -94 14 -128t38 -34q29 0 51 44z
M467 406v-274l181 274h-181z" />
    <glyph glyph-name="uni01C6" unicode="&#x1c6;" horiz-adv-x="896" 
d="M467 743v-743h-151l-5 54q-23 -34 -52 -53t-71 -19q-82 0 -125 73.5t-43 211.5q0 86 23.5 150.5t65 99t94.5 34.5q57 0 94 -45v254zM297 149v244q-11 18 -21 26.5t-23 8.5q-59 0 -59 -161q0 -94 14 -128t38 -34q29 0 51 44zM884 533v-119l-190 -286h195l-14 -128h-366
v120l189 286h-172v127h358zM818 815l56 -61l-119 -145h-101l-119 145l57 61l113 -94z" />
    <glyph glyph-name="uni02A5" unicode="&#x2a5;" horiz-adv-x="958" 
d="M937.5 243.5q32.5 -32.5 32.5 -89.5q0 -155 -189 -154h-1q-4 -25 -4 -89v-40h-89q0 73 6 129h-377l-5 54q-23 -34 -52 -53t-71 -19q-82 0 -125 73.5t-43 211.5q0 86 23.5 150.5t65 99t94.5 34.5q57 0 94 -45v254l170 -17v-210h366v-112l-190 -293h68q21 79 56 113.5
t87 34.5q51 0 83.5 -32.5zM297 149v244q-11 18 -21 26.5t-23 8.5q-59 0 -59 -161q0 -94 14 -128t38 -34q29 0 51 44zM467 406v-272l180 272h-180zM850 135.5q11 7.5 11 27.5q0 26 -21 26q-31 0 -43 -61h19q23 0 34 7.5z" />
    <glyph glyph-name="e" unicode="e" horiz-adv-x="475" 
d="M456 217h-267q4 -65 24 -89t57 -24q27 0 51 10.5t54 32.5l68 -90q-35 -35 -81.5 -55t-104.5 -20q-117 0 -177 75t-60 207q0 131 57 209t165 78q101 0 159.5 -70t58.5 -206q0 -24 -4 -58zM294 323q0 63 -10.5 91t-39.5 28q-27 0 -40 -26.5t-16 -99.5h106v7z" />
    <glyph glyph-name="eacute" unicode="&#xe9;" horiz-adv-x="475" 
d="M456 217h-267q4 -65 24 -89t57 -24q27 0 51 10.5t54 32.5l68 -90q-35 -35 -81.5 -55t-104.5 -20q-117 0 -177 75t-60 207q0 131 57 209t165 78q101 0 159.5 -70t58.5 -206q0 -24 -4 -58zM294 323q0 63 -10.5 91t-39.5 28q-27 0 -40 -26.5t-16 -99.5h106v7zM295 834
l66 -119l-209 -95l-45 81z" />
    <glyph glyph-name="ebreve" unicode="&#x115;" horiz-adv-x="475" 
d="M456 217h-267q4 -65 24 -89t57 -24q27 0 51 10.5t54 32.5l68 -90q-35 -35 -81.5 -55t-104.5 -20q-117 0 -177 75t-60 207q0 131 57 209t165 78q101 0 159.5 -70t58.5 -206q0 -24 -4 -58zM294 323q0 63 -10.5 91t-39.5 28q-27 0 -40 -26.5t-16 -99.5h106v7zM132.5 678
q-37.5 48 -43.5 132l87 16q14 -81 67 -81t66 81l88 -16q-6 -84 -43.5 -132t-110.5 -48t-110.5 48z" />
    <glyph glyph-name="ecaron" unicode="&#x11b;" horiz-adv-x="475" 
d="M456 217h-267q4 -65 24 -89t57 -24q27 0 51 10.5t54 32.5l68 -90q-35 -35 -81.5 -55t-104.5 -20q-117 0 -177 75t-60 207q0 131 57 209t165 78q101 0 159.5 -70t58.5 -206q0 -24 -4 -58zM294 323q0 63 -10.5 91t-39.5 28q-27 0 -40 -26.5t-16 -99.5h106v7zM356 815
l56 -61l-119 -145h-101l-119 145l57 61l113 -94z" />
    <glyph glyph-name="uni0229" unicode="&#x229;" horiz-adv-x="475" 
d="M456 217h-267q4 -65 24 -89t57 -24q27 0 51 10.5t54 32.5l68 -90q-60 -60 -144 -72v-36q91 -16 91 -98q0 -52 -36 -84.5t-101 -32.5q-59 0 -105 32l36 71q28 -13 56 -13q33 0 33 29q0 17 -18.5 25t-58.5 8l12 100q-93 15 -140.5 88t-47.5 190q0 131 57 209t165 78
q101 0 159.5 -70t58.5 -206q0 -24 -4 -58zM294 323q0 63 -10.5 91t-39.5 28q-27 0 -40 -26.5t-16 -99.5h106v7z" />
    <glyph glyph-name="ecircumflex" unicode="&#xea;" horiz-adv-x="475" 
d="M456 217h-267q4 -65 24 -89t57 -24q27 0 51 10.5t54 32.5l68 -90q-35 -35 -81.5 -55t-104.5 -20q-117 0 -177 75t-60 207q0 131 57 209t165 78q101 0 159.5 -70t58.5 -206q0 -24 -4 -58zM294 323q0 63 -10.5 91t-39.5 28q-27 0 -40 -26.5t-16 -99.5h106v7zM130 623
l-57 58l120 146h100l119 -146l-56 -58l-113 92z" />
    <glyph glyph-name="uni1EBF" unicode="&#x1ebf;" horiz-adv-x="475" 
d="M456 217h-267q4 -65 24 -89t57 -24q27 0 51 10.5t54 32.5l68 -90q-35 -35 -81.5 -55t-104.5 -20q-117 0 -177 75t-60 207q0 131 57 209t165 78q101 0 159.5 -70t58.5 -206q0 -24 -4 -58zM294 323q0 63 -10.5 91t-39.5 28q-27 0 -40 -26.5t-16 -99.5h106v7zM130 589
l-57 59l120 137h100l119 -137l-56 -59l-113 84zM450 967l98 -84l-152 -148l-65 53z" />
    <glyph glyph-name="uni1EC7" unicode="&#x1ec7;" horiz-adv-x="475" 
d="M456 217h-267q4 -65 24 -89t57 -24q27 0 51 10.5t54 32.5l68 -90q-35 -35 -81.5 -55t-104.5 -20q-117 0 -177 75t-60 207q0 131 57 209t165 78q101 0 159.5 -70t58.5 -206q0 -24 -4 -58zM294 323q0 63 -10.5 91t-39.5 28q-27 0 -40 -26.5t-16 -99.5h106v7zM130 623
l-57 58l120 146h100l119 -146l-56 -58l-113 92zM182.5 -220q-26.5 27 -26.5 67q0 41 26.5 68t68.5 27t68 -27t26 -68q0 -40 -26.5 -67t-67.5 -27q-42 0 -68.5 27z" />
    <glyph glyph-name="uni1EC1" unicode="&#x1ec1;" horiz-adv-x="475" 
d="M456 217h-267q4 -65 24 -89t57 -24q27 0 51 10.5t54 32.5l68 -90q-35 -35 -81.5 -55t-104.5 -20q-117 0 -177 75t-60 207q0 131 57 209t165 78q101 0 159.5 -70t58.5 -206q0 -24 -4 -58zM294 323q0 63 -10.5 91t-39.5 28q-27 0 -40 -26.5t-16 -99.5h106v7zM127 589
l-57 59l120 137h100l119 -137l-56 -59l-113 84zM34 967l120 -179l-65 -53l-152 148z" />
    <glyph glyph-name="uni1EC3" unicode="&#x1ec3;" horiz-adv-x="475" 
d="M456 217h-267q4 -65 24 -89t57 -24q27 0 51 10.5t54 32.5l68 -90q-35 -35 -81.5 -55t-104.5 -20q-117 0 -177 75t-60 207q0 131 57 209t165 78q101 0 159.5 -70t58.5 -206q0 -24 -4 -58zM294 323q0 63 -10.5 91t-39.5 28q-27 0 -40 -26.5t-16 -99.5h106v7zM130 589
l-57 59l120 137h100l119 -137l-56 -59l-113 84zM331 860q32 2 45 10t13 27q0 15 -8 23t-21 8q-15 0 -25.5 -3t-26.5 -10l-24 68q41 26 98 26q54 0 83 -28t29 -75q0 -39 -18 -63t-53 -32v-51h-92v100z" />
    <glyph glyph-name="uni1EC5" unicode="&#x1ec5;" horiz-adv-x="475" 
d="M456 217h-267q4 -65 24 -89t57 -24q27 0 51 10.5t54 32.5l68 -90q-35 -35 -81.5 -55t-104.5 -20q-117 0 -177 75t-60 207q0 131 57 209t165 78q101 0 159.5 -70t58.5 -206q0 -24 -4 -58zM294 323q0 63 -10.5 91t-39.5 28q-27 0 -40 -26.5t-16 -99.5h106v7zM129 586
l-57 59l120 137h100l119 -137l-56 -59l-113 84zM259 820.5q-14 5.5 -31 16.5q-19 14 -33 14t-23 -8.5t-20 -27.5l-77 32q16 49 47 79.5t70 30.5q19 0 32.5 -5.5t32.5 -16.5q2 -1 13 -7.5t21 -6.5q13 0 21.5 8t19.5 27l77 -32q-16 -50 -46.5 -79.5t-69.5 -29.5q-20 0 -34 5.5
z" />
    <glyph glyph-name="uni0205" unicode="&#x205;" horiz-adv-x="475" 
d="M456 217h-267q4 -65 24 -89t57 -24q27 0 51 10.5t54 32.5l68 -90q-35 -35 -81.5 -55t-104.5 -20q-117 0 -177 75t-60 207q0 131 57 209t165 78q101 0 159.5 -70t58.5 -206q0 -24 -4 -58zM294 323q0 63 -10.5 91t-39.5 28q-27 0 -40 -26.5t-16 -99.5h106v7zM139 863
l84 -201l-77 -38l-109 185zM297 863l79 -202l-80 -33l-103 185z" />
    <glyph glyph-name="edieresis" unicode="&#xeb;" horiz-adv-x="475" 
d="M456 217h-267q4 -65 24 -89t57 -24q27 0 51 10.5t54 32.5l68 -90q-35 -35 -81.5 -55t-104.5 -20q-117 0 -177 75t-60 207q0 131 57 209t165 78q101 0 159.5 -70t58.5 -206q0 -24 -4 -58zM294 323q0 63 -10.5 91t-39.5 28q-27 0 -40 -26.5t-16 -99.5h106v7zM198.5 780.5
q22.5 -23.5 22.5 -58.5q0 -36 -22 -59.5t-58 -23.5q-34 0 -57.5 24t-23.5 59t23.5 58.5t57.5 23.5q35 0 57.5 -23.5zM402.5 780.5q22.5 -23.5 22.5 -58.5q0 -36 -22.5 -59.5t-58.5 -23.5q-34 0 -57.5 24t-23.5 59t23.5 58.5t57.5 23.5q36 0 58.5 -23.5z" />
    <glyph glyph-name="edotaccent" unicode="&#x117;" horiz-adv-x="475" 
d="M456 217h-267q4 -65 24 -89t57 -24q27 0 51 10.5t54 32.5l68 -90q-35 -35 -81.5 -55t-104.5 -20q-117 0 -177 75t-60 207q0 131 57 209t165 78q101 0 159.5 -70t58.5 -206q0 -24 -4 -58zM294 323q0 63 -10.5 91t-39.5 28q-27 0 -40 -26.5t-16 -99.5h106v7zM310.5 789
q26.5 -27 26.5 -67q0 -41 -26.5 -68t-68.5 -27t-68 27t-26 68q0 40 26.5 67t67.5 27q42 0 68.5 -27z" />
    <glyph glyph-name="uni1EB9" unicode="&#x1eb9;" horiz-adv-x="475" 
d="M456 217h-267q4 -65 24 -89t57 -24q27 0 51 10.5t54 32.5l68 -90q-35 -35 -81.5 -55t-104.5 -20q-117 0 -177 75t-60 207q0 131 57 209t165 78q101 0 159.5 -70t58.5 -206q0 -24 -4 -58zM294 323q0 63 -10.5 91t-39.5 28q-27 0 -40 -26.5t-16 -99.5h106v7zM182.5 -220
q-26.5 27 -26.5 67q0 41 26.5 68t68.5 27t68 -27t26 -68q0 -40 -26.5 -67t-67.5 -27q-42 0 -68.5 27z" />
    <glyph glyph-name="egrave" unicode="&#xe8;" horiz-adv-x="475" 
d="M456 217h-267q4 -65 24 -89t57 -24q27 0 51 10.5t54 32.5l68 -90q-35 -35 -81.5 -55t-104.5 -20q-117 0 -177 75t-60 207q0 131 57 209t165 78q101 0 159.5 -70t58.5 -206q0 -24 -4 -58zM294 323q0 63 -10.5 91t-39.5 28q-27 0 -40 -26.5t-16 -99.5h106v7zM190 834
l188 -133l-45 -81l-209 95z" />
    <glyph glyph-name="uni1EBB" unicode="&#x1ebb;" horiz-adv-x="475" 
d="M456 217h-267q4 -65 24 -89t57 -24q27 0 51 10.5t54 32.5l68 -90q-35 -35 -81.5 -55t-104.5 -20q-117 0 -177 75t-60 207q0 131 57 209t165 78q101 0 159.5 -70t58.5 -206q0 -24 -4 -58zM294 323q0 63 -10.5 91t-39.5 28q-27 0 -40 -26.5t-16 -99.5h106v7zM198 704
q32 2 45 10t13 27q0 15 -8 23t-21 8q-15 0 -25.5 -3t-26.5 -10l-24 68q41 26 98 26q54 0 83 -28t29 -75q0 -39 -18 -63t-53 -32v-51h-92v100z" />
    <glyph glyph-name="uni0207" unicode="&#x207;" horiz-adv-x="475" 
d="M456 217h-267q4 -65 24 -89t57 -24q27 0 51 10.5t54 32.5l68 -90q-35 -35 -81.5 -55t-104.5 -20q-117 0 -177 75t-60 207q0 131 57 209t165 78q101 0 159.5 -70t58.5 -206q0 -24 -4 -58zM294 323q0 63 -10.5 91t-39.5 28q-27 0 -40 -26.5t-16 -99.5h106v7zM353.5 747
q37.5 -48 43.5 -132l-88 -16q-13 81 -66 81t-67 -81l-87 16q6 84 43.5 132t110.5 48t110.5 -48z" />
    <glyph glyph-name="emacron" unicode="&#x113;" horiz-adv-x="475" 
d="M456 217h-267q4 -65 24 -89t57 -24q27 0 51 10.5t54 32.5l68 -90q-35 -35 -81.5 -55t-104.5 -20q-117 0 -177 75t-60 207q0 131 57 209t165 78q101 0 159.5 -70t58.5 -206q0 -24 -4 -58zM294 323q0 63 -10.5 91t-39.5 28q-27 0 -40 -26.5t-16 -99.5h106v7zM378 655h-270
v113h270v-113z" />
    <glyph glyph-name="eogonek" unicode="&#x119;" horiz-adv-x="475" 
d="M456 217h-267q4 -65 24 -89t57 -24q27 0 51 10.5t54 32.5l68 -90q-35 -35 -80 -54q-79 -40 -79 -93q0 -22 11.5 -33.5t30.5 -11.5q25 0 50 7l-10 -102q-30 -8 -62 -8q-57 0 -95 32.5t-38 87.5q0 63 58 101q-104 10 -156.5 83.5t-52.5 197.5q0 131 57 209t165 78
q101 0 159.5 -70t58.5 -206q0 -24 -4 -58zM294 323q0 63 -10.5 91t-39.5 28q-27 0 -40 -26.5t-16 -99.5h106v7z" />
    <glyph glyph-name="uni025B" unicode="&#x25b;" horiz-adv-x="412" 
d="M405 488l-63 -84q-47 30 -88 30q-22 0 -34.5 -14t-12.5 -40q0 -55 52 -55h50l-16 -105h-41q-31 0 -44.5 -15t-13.5 -44q0 -59 57 -59q21 0 43.5 8t52.5 27l69 -91q-78 -64 -195 -64q-88 0 -144.5 43t-56.5 119q0 58 32 92t101 47q-117 27 -117 120q0 67 52.5 107.5
t136.5 40.5q102 0 180 -63z" />
    <glyph glyph-name="uni029A" unicode="&#x29a;" horiz-adv-x="491" 
d="M79.5 27.5q-59.5 45.5 -59.5 125.5q0 58 30 89t96 42q-105 28 -105 117q0 43 24 77t68 53.5t101 19.5q114 0 175.5 -73.5t61.5 -210.5q0 -140 -60.5 -212.5t-170.5 -72.5q-101 0 -160.5 45.5zM280.5 116.5q13.5 14.5 18.5 49t5 101.5q0 94 -13.5 130.5t-45.5 36.5
q-38 0 -38 -52q0 -28 8.5 -42t28.5 -14h8l9 -107h-22q-26 0 -37.5 -12.5t-11.5 -42.5q0 -33 11 -47.5t39 -14.5q27 0 40.5 14.5z" />
    <glyph glyph-name="uni025C" unicode="&#x25c;" horiz-adv-x="416" 
d="M325 510q51 -41 51 -108q0 -90 -112 -118q68 -11 100 -42t32 -89q0 -84 -57.5 -127.5t-157.5 -43.5q-112 0 -185 64l74 90q31 -20 50.5 -27t45.5 -7q29 0 42.5 14.5t13.5 45.5q0 30 -15 44t-48 14h-59l9 105h38q31 0 44.5 14.5t13.5 44.5q0 25 -12 37.5t-33 12.5
q-19 0 -37 -7t-40 -22l-76 84q79 62 188 62q79 0 130 -41z" />
    <glyph glyph-name="uni025E" unicode="&#x25e;" horiz-adv-x="491" 
d="M80.5 54.5q-60.5 72.5 -60.5 212.5q0 137 61.5 210.5t175.5 73.5q57 0 101 -19.5t68 -53.5t24 -77q0 -89 -105 -117q66 -11 96 -42t30 -89q0 -80 -59.5 -125.5t-160.5 -45.5q-110 0 -170.5 72.5zM290 116.5q11 14.5 11 47.5q0 30 -11.5 42.5t-37.5 12.5h-22l9 107h8
q20 0 28.5 14t8.5 42q0 52 -38 52q-32 0 -45.5 -36.5t-13.5 -130.5q0 -67 5 -101.5t18.5 -49t40.5 -14.5q28 0 39 14.5z" />
    <glyph glyph-name="uni025D" unicode="&#x25d;" horiz-adv-x="685" 
d="M693 343q-46 -37 -109 -37q-57 0 -91 28.5t-43 77.5l-3 18l-73 -52q-14 -70 -110 -94q68 -11 100 -42t32 -89q0 -84 -57.5 -127.5t-157.5 -43.5q-112 0 -185 64l74 90q31 -20 50.5 -27t45.5 -7q29 0 42.5 14.5t13.5 45.5q0 30 -15 44t-48 14h-59l9 105h38q31 0 44.5 14.5
t13.5 44.5q0 25 -12 37.5t-33 12.5q-19 0 -37 -7t-40 -22l-76 84q79 62 188 62q54 0 96 -20t64 -55l83 57h135v-72q0 -39 33 -39q13 0 23.5 3.5t19.5 8.5z" />
    <glyph glyph-name="uni0258" unicode="&#x258;" horiz-adv-x="475" 
d="M455 264q0 -135 -60 -208.5t-181 -73.5q-55 0 -101.5 19.5t-80.5 53.5l68 92q29 -22 53.5 -32.5t51.5 -10.5q37 0 57 24t24 89h-267q-4 34 -4 58q0 134 61 205t162 71q217 0 217 -287zM180 316h107q-1 53 -7 80t-17 36.5t-29 9.5q-29 0 -41.5 -29t-12.5 -90v-7z" />
    <glyph glyph-name="uni0283" unicode="&#x283;" horiz-adv-x="240" 
d="M336 723l-44 -101q-30 14 -50 14q-19 0 -27.5 -11t-8.5 -37v-632q0 -87 -51 -133t-133 -46t-137 43l57 95q15 -9 26.5 -12.5t26.5 -3.5q41 0 41 47v638q0 81 45.5 128.5t131.5 47.5q68 0 123 -37z" />
    <glyph glyph-name="uni0286" unicode="&#x286;" horiz-adv-x="302" 
d="M268 -6v-2q46 -15 75 -35l-33 -64q-27 14 -50 22q-31 -138 -184 -138q-67 0 -102 31.5t-35 87.5q0 62 35.5 94t98.5 32q12 0 26 -2v564q0 81 45.5 128.5t131.5 47.5q68 0 123 -37l-44 -101q-30 14 -50 14q-19 0 -27.5 -11t-8.5 -37v-57zM99 -78v24q-8 2 -27 2
q-43 0 -43 -46q0 -40 32 -40q38 0 38 60z" />
    <glyph glyph-name="uni01AA" unicode="&#x1aa;" horiz-adv-x="394" 
d="M509 -180q-55 -43 -137 -43t-133 46t-51 133v461q-25 -10 -51 -10q-68 0 -109 47.5t-41 127.5q0 82 47 130t132 48q60 0 103.5 -23t66 -62.5t22.5 -88.5v-640q0 -47 41 -47q15 0 26.5 3.5t26.5 12.5zM188 526v68q0 28 -6.5 39t-22.5 11q-17 0 -25 -13.5t-8 -45.5
q0 -34 10 -48t30 -14q12 0 22 3z" />
    <glyph glyph-name="uni0285" unicode="&#x285;" horiz-adv-x="423" 
d="M437 26q-55 -43 -137 -43t-133 46t-51 133v216q0 26 -8.5 37t-27.5 11q-20 0 -50 -14l-44 101q55 37 123 37q86 0 131.5 -47.5t45.5 -128.5v-222q0 -47 41 -47q15 0 26.5 3.5t26.5 12.5z" />
    <glyph glyph-name="uni0247" unicode="&#x247;" horiz-adv-x="475" 
d="M257 220l-25 -114q15 -4 38 -4q27 0 51 10.5t54 32.5l68 -88q-35 -34 -82 -54.5t-104 -20.5q-30 0 -51 4l-13 -61l-49 11l14 64q-69 28 -103.5 96t-34.5 168q0 131 57 209t165 78q11 0 35 -2l11 52l49 -10l-12 -55q64 -25 99.5 -90.5t35.5 -170.5q0 -21 -4 -55h-199z
M190.5 417q-17.5 -29 -21.5 -105h56l29 134h-10q-36 0 -53.5 -29zM300 421l-23 -109h42v8q0 73 -19 101zM205 220h-36q4 -54 19 -80z" />
    <glyph glyph-name="uni1EBD" unicode="&#x1ebd;" horiz-adv-x="475" 
d="M456 217h-267q4 -65 24 -89t57 -24q27 0 51 10.5t54 32.5l68 -90q-35 -35 -81.5 -55t-104.5 -20q-117 0 -177 75t-60 207q0 131 57 209t165 78q101 0 159.5 -70t58.5 -206q0 -24 -4 -58zM294 323q0 63 -10.5 91t-39.5 28q-27 0 -40 -26.5t-16 -99.5h106v7zM260 642.5
q-14 6.5 -31 17.5q-21 15 -33 15q-14 0 -23 -9t-20 -30l-77 35q17 53 47.5 86.5t69.5 33.5q19 0 33 -6t32 -18q11 -8 18.5 -12t15.5 -4q13 0 21.5 9t19.5 30l77 -35q-16 -54 -46.5 -86.5t-69.5 -32.5q-20 0 -34 6.5z" />
    <glyph glyph-name="uni01DD" unicode="&#x1dd;" horiz-adv-x="474" 
d="M398.5 477.5q55.5 -73.5 55.5 -210.5q0 -134 -56.5 -209.5t-166.5 -75.5q-101 0 -158.5 68.5t-57.5 206.5q0 23 4 59h277q-3 64 -21.5 89.5t-54.5 25.5q-29 0 -55 -9t-55 -29l-67 89q39 34 84 51.5t102 17.5q114 0 169.5 -73.5zM278.5 124.5q14.5 23.5 17.5 90.5h-125v-7
q0 -58 15.5 -82.5t46.5 -24.5t45.5 23.5z" />
    <glyph glyph-name="uni0259" unicode="&#x259;" horiz-adv-x="474" 
d="M398.5 477.5q55.5 -73.5 55.5 -210.5q0 -134 -56.5 -209.5t-166.5 -75.5q-101 0 -158.5 68.5t-57.5 206.5q0 23 4 59h277q-3 64 -21.5 89.5t-54.5 25.5q-29 0 -55 -9t-55 -29l-67 89q39 34 84 51.5t102 17.5q114 0 169.5 -73.5zM278.5 124.5q14.5 23.5 17.5 90.5h-125v-7
q0 -58 15.5 -82.5t46.5 -24.5t45.5 23.5z" />
    <glyph glyph-name="uni025A" unicode="&#x25a;" horiz-adv-x="728" 
d="M737 343q-46 -37 -109 -37q-57 0 -91 28.5t-43 77.5l-3 18l-52 -37q15 -55 15 -126q0 -134 -56.5 -209.5t-166.5 -75.5q-101 0 -158.5 68.5t-57.5 206.5q0 23 4 59h277q-3 64 -21.5 89.5t-54.5 25.5q-29 0 -55 -9t-55 -29l-67 89q39 34 84 51.5t102 17.5q113 0 171 -75
l82 57h135v-72q0 -39 33 -39q13 0 23.5 3.5t19.5 8.5zM278.5 124.5q14.5 23.5 17.5 90.5h-125v-7q0 -58 15.5 -82.5t46.5 -24.5t45.5 23.5z" />
    <glyph glyph-name="uni0292" unicode="&#x292;" horiz-adv-x="435" 
d="M428 10q0 -67 -28 -120t-81.5 -83.5t-128.5 -30.5q-135 0 -209 105l88 82q31 -31 55 -44.5t54 -13.5q76 0 76 111q0 54 -22.5 77.5t-69.5 23.5h-76v96l132 194h-198v126h376v-116l-142 -204q174 -19 174 -203z" />
    <glyph glyph-name="uni01EF" unicode="&#x1ef;" horiz-adv-x="435" 
d="M428 10q0 -67 -28 -120t-81.5 -83.5t-128.5 -30.5q-135 0 -209 105l88 82q31 -31 55 -44.5t54 -13.5q76 0 76 111q0 54 -22.5 77.5t-69.5 23.5h-76v96l132 194h-198v126h376v-116l-142 -204q174 -19 174 -203zM321 815l56 -61l-119 -145h-101l-119 145l57 61l113 -94z
" />
    <glyph glyph-name="uni0293" unicode="&#x293;" horiz-adv-x="435" 
d="M391.5 -121q-36.5 -57 -108.5 -83l24 -57l-73 -31l-27 71q-26 -2 -42 -2q-80 0 -130.5 41t-50.5 117q0 59 31.5 91t78.5 32q46 0 75.5 -28t58.5 -100q26 27 26 94q0 54 -21.5 77t-62.5 23h-84v96l132 187h-198v126h376v-116l-140 -197q83 -8 127.5 -59t44.5 -148
q0 -77 -36.5 -134zM106.5 -85.5q13.5 -8.5 51.5 -8.5q-16 40 -25 53.5t-21 13.5q-10 0 -14.5 -6.5t-4.5 -22.5q0 -21 13.5 -29.5z" />
    <glyph glyph-name="uni01B9" unicode="&#x1b9;" horiz-adv-x="435" 
d="M453 -119q-72 -105 -211 -105q-73 0 -126 30t-81 83t-28 120q0 93 44.5 144t129.5 60l-143 204v116h377v-126h-199l132 -194v-96h-75q-46 0 -69.5 -24.5t-23.5 -79.5q0 -108 77 -108q30 0 53 13t55 45z" />
    <glyph glyph-name="uni01BA" unicode="&#x1ba;" horiz-adv-x="440" 
d="M62 -161.5q-40 39.5 -40 91.5q0 53 34 85t103 50q56 14 75.5 29.5t19.5 45.5q0 24 -15 35t-51 11h-96v89l125 140h-201v118h378v-109l-134 -142h10q70 0 112 -39t42 -107q0 -76 -43 -114.5t-118 -58.5q-39 -11 -57.5 -18t-25 -14.5t-6.5 -19.5q0 -22 29 -42l-34 -93
q-67 23 -107 62.5z" />
    <glyph glyph-name="f" unicode="f" horiz-adv-x="314" 
d="M240 624q-11 -13 -11 -40v-51h94l-19 -118h-75v-415h-170v415h-57v118h57v44q0 85 48 134.5t140 49.5q69 0 133 -34l-44 -106q-33 16 -61 16q-24 0 -35 -13z" />
    <glyph glyph-name="uni1E1F" unicode="&#x1e1f;" horiz-adv-x="314" 
d="M240 624q-11 -13 -11 -40v-51h94l-19 -118h-75v-415h-170v415h-57v118h57v44q0 85 48 134.5t140 49.5q69 0 133 -34l-44 -106q-33 16 -61 16q-24 0 -35 -13zM294.5 963q26.5 -27 26.5 -67q0 -41 -26.5 -68t-68.5 -27t-68 27t-26 68q0 40 26.5 67t67.5 27q42 0 68.5 -27z
" />
    <glyph glyph-name="uni02A9" unicode="&#x2a9;" horiz-adv-x="744" 
d="M679.5 510q32.5 -41 32.5 -110v-444q0 -87 -51 -133t-133 -46t-137 43l57 95q15 -9 26.5 -12.5t26.5 -3.5q41 0 41 47v437q0 39 -20 39q-11 0 -23 -13.5t-28 -40.5v-368h-170v415h-72v-415h-170v415h-57v117h57v45q0 85 48 134.5t140 49.5q69 0 133 -34l-44 -106
q-33 16 -61 16q-24 0 -35 -13t-11 -40v-52h72v1h148l12 -59q27 39 57.5 58t72.5 19q56 0 88.5 -41z" />
    <glyph glyph-name="g" unicode="g" horiz-adv-x="461" 
d="M468 500q-38 -22 -124 -22q46 -20 67.5 -52.5t21.5 -85.5q0 -52 -24 -92t-69 -63t-106 -23q-21 0 -47 6q-14 -11 -14 -29q0 -16 10 -24t37 -8h53q90 0 140 -42t50 -111q0 -81 -64 -129.5t-182 -48.5q-129 0 -177.5 44t-48.5 129h152q0 -34 15.5 -49.5t59.5 -15.5
q41 0 58 15.5t17 43.5q0 26 -14 38.5t-45 12.5h-41q-81 0 -118 28t-37 77q0 31 15.5 57t41.5 44q-44 28 -63.5 63.5t-19.5 89.5q0 92 56 143.5t156 51.5q61 0 105.5 17.5t99.5 51.5zM190.5 421q-12.5 -19 -12.5 -64q0 -46 12 -66t36 -20t35.5 19.5t11.5 68.5q0 45 -11 63
t-35 18t-36.5 -19z" />
    <glyph glyph-name="g.ss04" horiz-adv-x="503" 
d="M467 533v-546q0 -101 -61 -155.5t-170 -54.5q-102 0 -175 50l53 100q25 -13 49.5 -20.5t57.5 -7.5q76 0 76 76v78q-41 -51 -102 -51q-84 0 -129.5 72.5t-45.5 202.5q0 81 24 143.5t66.5 96.5t95.5 34q32 0 59 -14.5t46 -40.5l8 37h148zM297 174v224q-21 30 -46 30
q-27 0 -42 -34.5t-15 -116.5q0 -89 14 -120.5t37 -31.5q30 0 52 49z" />
    <glyph glyph-name="uni01F5" unicode="&#x1f5;" horiz-adv-x="461" 
d="M468 500q-38 -22 -124 -22q46 -20 67.5 -52.5t21.5 -85.5q0 -52 -24 -92t-69 -63t-106 -23q-21 0 -47 6q-14 -11 -14 -29q0 -16 10 -24t37 -8h53q90 0 140 -42t50 -111q0 -81 -64 -129.5t-182 -48.5q-129 0 -177.5 44t-48.5 129h152q0 -34 15.5 -49.5t59.5 -15.5
q41 0 58 15.5t17 43.5q0 26 -14 38.5t-45 12.5h-41q-81 0 -118 28t-37 77q0 31 15.5 57t41.5 44q-44 28 -63.5 63.5t-19.5 89.5q0 92 56 143.5t156 51.5q61 0 105.5 17.5t99.5 51.5zM190.5 421q-12.5 -19 -12.5 -64q0 -46 12 -66t36 -20t35.5 19.5t11.5 68.5q0 45 -11 63
t-35 18t-36.5 -19zM285 834l66 -119l-209 -95l-45 81z" />
    <glyph glyph-name="uni0263" unicode="&#x263;" horiz-adv-x="448" 
d="M306 86q32 -60 46.5 -100.5t14.5 -83.5q0 -125 -140 -125q-72 0 -106 33t-34 92q0 41 13 81.5t47 101.5l-157 448h174l63 -343l67 343h164zM244 -54q-5 19 -17 49q-22 -52 -22 -88q0 -27 22 -27t22 28q0 19 -5 38z" />
    <glyph glyph-name="gbreve" unicode="&#x11f;" horiz-adv-x="461" 
d="M468 500q-38 -22 -124 -22q46 -20 67.5 -52.5t21.5 -85.5q0 -52 -24 -92t-69 -63t-106 -23q-21 0 -47 6q-14 -11 -14 -29q0 -16 10 -24t37 -8h53q90 0 140 -42t50 -111q0 -81 -64 -129.5t-182 -48.5q-129 0 -177.5 44t-48.5 129h152q0 -34 15.5 -49.5t59.5 -15.5
q41 0 58 15.5t17 43.5q0 26 -14 38.5t-45 12.5h-41q-81 0 -118 28t-37 77q0 31 15.5 57t41.5 44q-44 28 -63.5 63.5t-19.5 89.5q0 92 56 143.5t156 51.5q61 0 105.5 17.5t99.5 51.5zM190.5 421q-12.5 -19 -12.5 -64q0 -46 12 -66t36 -20t35.5 19.5t11.5 68.5q0 45 -11 63
t-35 18t-36.5 -19zM122.5 678q-37.5 48 -43.5 132l87 16q14 -81 67 -81t66 81l88 -16q-6 -84 -43.5 -132t-110.5 -48t-110.5 48z" />
    <glyph glyph-name="gcaron" unicode="&#x1e7;" horiz-adv-x="461" 
d="M468 500q-38 -22 -124 -22q46 -20 67.5 -52.5t21.5 -85.5q0 -52 -24 -92t-69 -63t-106 -23q-21 0 -47 6q-14 -11 -14 -29q0 -16 10 -24t37 -8h53q90 0 140 -42t50 -111q0 -81 -64 -129.5t-182 -48.5q-129 0 -177.5 44t-48.5 129h152q0 -34 15.5 -49.5t59.5 -15.5
q41 0 58 15.5t17 43.5q0 26 -14 38.5t-45 12.5h-41q-81 0 -118 28t-37 77q0 31 15.5 57t41.5 44q-44 28 -63.5 63.5t-19.5 89.5q0 92 56 143.5t156 51.5q61 0 105.5 17.5t99.5 51.5zM190.5 421q-12.5 -19 -12.5 -64q0 -46 12 -66t36 -20t35.5 19.5t11.5 68.5q0 45 -11 63
t-35 18t-36.5 -19zM346 815l56 -61l-119 -145h-101l-119 145l57 61l113 -94z" />
    <glyph glyph-name="gcircumflex" unicode="&#x11d;" horiz-adv-x="461" 
d="M468 500q-38 -22 -124 -22q46 -20 67.5 -52.5t21.5 -85.5q0 -52 -24 -92t-69 -63t-106 -23q-21 0 -47 6q-14 -11 -14 -29q0 -16 10 -24t37 -8h53q90 0 140 -42t50 -111q0 -81 -64 -129.5t-182 -48.5q-129 0 -177.5 44t-48.5 129h152q0 -34 15.5 -49.5t59.5 -15.5
q41 0 58 15.5t17 43.5q0 26 -14 38.5t-45 12.5h-41q-81 0 -118 28t-37 77q0 31 15.5 57t41.5 44q-44 28 -63.5 63.5t-19.5 89.5q0 92 56 143.5t156 51.5q61 0 105.5 17.5t99.5 51.5zM190.5 421q-12.5 -19 -12.5 -64q0 -46 12 -66t36 -20t35.5 19.5t11.5 68.5q0 45 -11 63
t-35 18t-36.5 -19zM120 623l-57 58l120 146h100l119 -146l-56 -58l-113 92z" />
    <glyph glyph-name="gcommaaccent" unicode="&#x123;" horiz-adv-x="461" 
d="M468 500q-38 -22 -124 -22q46 -20 67.5 -52.5t21.5 -85.5q0 -52 -24 -92t-69 -63t-106 -23q-21 0 -47 6q-14 -11 -14 -29q0 -16 10 -24t37 -8h53q90 0 140 -42t50 -111q0 -81 -64 -129.5t-182 -48.5q-129 0 -177.5 44t-48.5 129h152q0 -34 15.5 -49.5t59.5 -15.5
q41 0 58 15.5t17 43.5q0 26 -14 38.5t-45 12.5h-41q-81 0 -118 28t-37 77q0 31 15.5 57t41.5 44q-44 28 -63.5 63.5t-19.5 89.5q0 92 56 143.5t156 51.5q61 0 105.5 17.5t99.5 51.5zM190.5 421q-12.5 -19 -12.5 -64q0 -46 12 -66t36 -20t35.5 19.5t11.5 68.5q0 45 -11 63
t-35 18t-36.5 -19zM173.5 599q-21.5 23 -21.5 58q0 19 5 36.5t18 48.5l40 98h81l-25 -115q38 -24 38 -68q0 -34 -22 -57.5t-57 -23.5t-56.5 23z" />
    <glyph glyph-name="gdotaccent" unicode="&#x121;" horiz-adv-x="461" 
d="M468 500q-38 -22 -124 -22q46 -20 67.5 -52.5t21.5 -85.5q0 -52 -24 -92t-69 -63t-106 -23q-21 0 -47 6q-14 -11 -14 -29q0 -16 10 -24t37 -8h53q90 0 140 -42t50 -111q0 -81 -64 -129.5t-182 -48.5q-129 0 -177.5 44t-48.5 129h152q0 -34 15.5 -49.5t59.5 -15.5
q41 0 58 15.5t17 43.5q0 26 -14 38.5t-45 12.5h-41q-81 0 -118 28t-37 77q0 31 15.5 57t41.5 44q-44 28 -63.5 63.5t-19.5 89.5q0 92 56 143.5t156 51.5q61 0 105.5 17.5t99.5 51.5zM190.5 421q-12.5 -19 -12.5 -64q0 -46 12 -66t36 -20t35.5 19.5t11.5 68.5q0 45 -11 63
t-35 18t-36.5 -19zM300.5 789q26.5 -27 26.5 -67q0 -41 -26.5 -68t-68.5 -27t-68 27t-26 68q0 40 26.5 67t67.5 27q42 0 68.5 -27z" />
    <glyph glyph-name="uni0260" unicode="&#x260;" horiz-adv-x="503" 
d="M597 723l-44 -101q-30 14 -50 14q-19 0 -27.5 -11t-8.5 -37v-601q0 -101 -61 -155.5t-170 -54.5q-102 0 -175 50l53 100q25 -13 49.5 -20.5t57.5 -7.5q76 0 76 76v78q-41 -51 -102 -51q-84 0 -129.5 72.5t-45.5 202.5q0 81 24 143.5t66.5 96.5t95.5 34q52 0 91 -39v72
q0 81 45.5 128.5t131.5 47.5q68 0 123 -37zM297 174v224q-21 30 -46 30q-27 0 -42 -34.5t-15 -116.5q0 -89 14 -120.5t37 -31.5q30 0 52 49z" />
    <glyph glyph-name="uni01BE" unicode="&#x1be;" horiz-adv-x="431" 
d="M381.5 358.5q29.5 -47.5 29.5 -134.5q0 -118 -60.5 -179.5t-161.5 -61.5q-59 0 -107.5 23t-90.5 69l81 80q25 -25 46.5 -36.5t46.5 -11.5q73 0 73 117q0 69 -22 102.5t-77 50.5l-35 11v139h-56v96h56v120l170 18v-138h69v-96h-69v-91l21 -8q57 -22 86.5 -69.5z" />
    <glyph glyph-name="uni0294" unicode="&#x294;" horiz-adv-x="414" 
d="M105 355l24 11q37 17 58 34.5t31.5 45t10.5 73.5q0 117 -73 117q-25 0 -46.5 -11.5t-46.5 -37.5l-81 80q42 46 91 69.5t109 23.5q101 0 160.5 -61t59.5 -178q0 -87 -28 -133.5t-86 -74.5l-13 -7v-306h-170v355z" />
    <glyph glyph-name="uni0296" unicode="&#x296;" horiz-adv-x="431" 
d="M274 761v-325l21 -8q57 -22 86.5 -69.5t29.5 -134.5q0 -118 -60.5 -179.5t-161.5 -61.5q-59 0 -107.5 23t-90.5 69l81 80q25 -25 46.5 -36.5t46.5 -11.5q73 0 73 117q0 69 -22 102.5t-77 50.5l-35 11v355z" />
    <glyph glyph-name="uni0295" unicode="&#x295;" horiz-adv-x="414" 
d="M139 0v306l-13 7q-58 28 -86 74.5t-28 133.5q0 116 60.5 177.5t161.5 61.5q60 0 108 -23t90 -70l-81 -80q-25 26 -46.5 37.5t-46.5 11.5q-73 0 -73 -117q0 -46 10.5 -73.5t31.5 -45t58 -34.5l24 -11v-355h-170z" />
    <glyph glyph-name="uni0242" unicode="&#x242;" horiz-adv-x="393" 
d="M87 204l31 12q43 19 65 47.5t22 77.5q0 44 -15.5 64.5t-42.5 20.5q-21 0 -39 -9.5t-40 -30.5l-76 79q72 86 183 86q92 0 148 -56.5t56 -151.5q0 -70 -26 -112.5t-74 -65.5l-22 -10v-155h-170v204z" />
    <glyph glyph-name="uni02A1" unicode="&#x2a1;" horiz-adv-x="414" 
d="M275 223h73v-96h-73v-127h-170v127h-54v96h54v132l24 11q37 17 58 34.5t31.5 45t10.5 73.5q0 117 -73 117q-25 0 -46.5 -11.5t-46.5 -37.5l-81 80q42 46 91 69.5t109 23.5q101 0 160.5 -61t59.5 -178q0 -87 -28 -133.5t-86 -74.5l-13 -7v-83z" />
    <glyph glyph-name="uni02A2" unicode="&#x2a2;" horiz-adv-x="414" 
d="M309 223h56v-96h-56v-127h-170v127h-71v96h71v83l-13 7q-58 28 -86 74.5t-28 133.5q0 116 60.5 177.5t161.5 61.5q60 0 108 -23t90 -70l-81 -80q-25 26 -46.5 37.5t-46.5 11.5q-73 0 -73 -117q0 -46 10.5 -73.5t31.5 -45t58 -34.5l24 -11v-132z" />
    <glyph glyph-name="uni0261" unicode="&#x261;" horiz-adv-x="503" 
d="M467 533v-546q0 -101 -61 -155.5t-170 -54.5q-102 0 -175 50l53 100q25 -13 49.5 -20.5t57.5 -7.5q76 0 76 76v78q-41 -51 -102 -51q-84 0 -129.5 72.5t-45.5 202.5q0 81 24 143.5t66.5 96.5t95.5 34q32 0 59 -14.5t46 -40.5l8 37h148zM297 174v224q-21 30 -46 30
q-27 0 -42 -34.5t-15 -116.5q0 -89 14 -120.5t37 -31.5q30 0 52 49z" />
    <glyph glyph-name="uni01E5" unicode="&#x1e5;" horiz-adv-x="461" 
d="M512 -85h-53q-15 -65 -77 -102t-165 -37q-129 0 -177.5 44t-48.5 129h152q0 -37 16.5 -52t66.5 -15q40 0 60.5 7.5t27.5 25.5h-85v62h83q-9 15 -28 22t-50 7h-41q-155 0 -155 93q0 31 15.5 57t41.5 44q-44 28 -63.5 63.5t-19.5 89.5q0 92 56 143.5t156 51.5
q61 0 105.5 17.5t99.5 51.5l39 -117q-38 -22 -124 -22q46 -20 67.5 -52.5t21.5 -85.5q0 -52 -24 -92t-69 -63t-106 -23q-21 0 -47 6q-14 -11 -14 -29q0 -16 10 -24t37 -8h53q82 0 131 -35t57 -95h51v-62zM190.5 421q-12.5 -19 -12.5 -64q0 -46 12 -66t36 -20t35.5 19.5
t11.5 68.5q0 45 -11 63t-35 18t-36.5 -19z" />
    <glyph glyph-name="uni021D" unicode="&#x21d;" horiz-adv-x="404" 
d="M312.5 510q51.5 -41 51.5 -112q0 -97 -113 -124q68 -5 100.5 -34t32.5 -84q0 -89 -87 -157.5t-251 -105.5l-14 109q96 39 137 74.5t41 83.5q0 26 -11.5 37.5t-36.5 11.5h-66l10 107h33q27 0 40.5 15t13.5 48q0 55 -42 55q-21 0 -39 -7t-42 -23l-74 85q77 62 183 62
q82 0 133.5 -41z" />
    <glyph glyph-name="h" unicode="h" horiz-adv-x="480" 
d="M414.5 510q32.5 -41 32.5 -110v-400h-170v383q0 39 -20 39q-11 0 -23 -13.5t-28 -40.5v-368h-170v743l170 18v-281q26 37 54.5 54t65.5 17q56 0 88.5 -41z" />
    <glyph glyph-name="hbar" unicode="&#x127;" horiz-adv-x="484" 
d="M419.5 510q32.5 -41 32.5 -110v-400h-170v383q0 39 -20 39q-11 0 -23 -13.5t-28 -40.5v-368h-170v596h-41v96h41v51l170 18v-69h98v-96h-98v-116q26 37 54.5 54t65.5 17q56 0 88.5 -41z" />
    <glyph glyph-name="uni021F" unicode="&#x21f;" horiz-adv-x="480" 
d="M414.5 510q32.5 -41 32.5 -110v-400h-170v383q0 39 -20 39q-11 0 -23 -13.5t-28 -40.5v-368h-170v743l170 18v-281q26 37 54.5 54t65.5 17q56 0 88.5 -41zM352 993l56 -59l-120 -137h-100l-119 137l57 59l113 -84z" />
    <glyph glyph-name="hcircumflex" unicode="&#x125;" horiz-adv-x="480" 
d="M414.5 510q32.5 -41 32.5 -110v-400h-170v383q0 39 -20 39q-11 0 -23 -13.5t-28 -40.5v-368h-170v743l170 18v-281q26 37 54.5 54t65.5 17q56 0 88.5 -41zM126 807l-57 59l120 137h100l119 -137l-56 -59l-113 84z" />
    <glyph glyph-name="uni1E25" unicode="&#x1e25;" horiz-adv-x="480" 
d="M414.5 510q32.5 -41 32.5 -110v-400h-170v383q0 39 -20 39q-11 0 -23 -13.5t-28 -40.5v-368h-170v743l170 18v-281q26 37 54.5 54t65.5 17q56 0 88.5 -41zM174.5 -220q-26.5 27 -26.5 67q0 41 26.5 68t68.5 27t68 -27t26 -68q0 -40 -26.5 -67t-67.5 -27q-42 0 -68.5 27z
" />
    <glyph glyph-name="uni0267" unicode="&#x267;" horiz-adv-x="480" 
d="M415 508.5q32 -42.5 32 -118.5v-434q0 -87 -51 -133t-133 -46t-137 43l57 95q15 -9 26.5 -12.5t26.5 -3.5q41 0 41 47v427q0 49 -20 49q-11 0 -23 -13.5t-28 -40.5v-368h-170v584q0 76 49 126t141 50q73 0 131 -34l-47 -105q-30 15 -58 15q-24 0 -35 -13.5t-11 -43.5v-99
q26 37 54.5 54t65.5 17q57 0 89 -42.5z" />
    <glyph glyph-name="uni0266" unicode="&#x266;" horiz-adv-x="480" 
d="M415 508.5q32 -42.5 32 -118.5v-390h-170v373q0 49 -20 49q-11 0 -23 -13.5t-28 -40.5v-368h-170v584q0 76 49 126t141 50q73 0 131 -34l-47 -105q-30 15 -58 15q-24 0 -35 -13.5t-11 -43.5v-99q26 37 54.5 54t65.5 17q57 0 89 -42.5z" />
    <glyph glyph-name="uni0265" unicode="&#x265;" horiz-adv-x="480" 
d="M444 533v-756l-170 17v259q-26 -37 -54.5 -54t-65.5 -17q-57 0 -89 40.5t-32 110.5v400h170v-383q0 -39 20 -39q21 0 51 54v368h170z" />
    <glyph glyph-name="uni02AE" unicode="&#x2ae;" horiz-adv-x="585" 
d="M549 533v-756l-170 17v258q-25 -37 -53.5 -53.5t-65.5 -16.5q-57 0 -89 40.5t-32 110.5v249q0 47 -41 47q-15 0 -26.5 -3.5t-26.5 -12.5l-57 95q55 43 137 43t133 -46t51 -133v-222q0 -39 20 -39q21 0 50 54v368h170z" />
    <glyph glyph-name="uni02AF" unicode="&#x2af;" horiz-adv-x="585" 
d="M701 -180q-55 -43 -137 -43t-133 46t-51 133v44h-1v52q-25 -37 -53.5 -53.5t-65.5 -16.5q-57 0 -89 40.5t-32 110.5v249q0 47 -41 47q-15 0 -26.5 -3.5t-26.5 -12.5l-57 95q55 43 137 43t133 -46t51 -133v-222q0 -39 20 -39q21 0 50 54v368h170v-532h1v-55q0 -47 41 -47
q15 0 26.5 3.5t26.5 12.5z" />
    <glyph glyph-name="uni0195" unicode="&#x195;" horiz-adv-x="717" 
d="M687.5 382q6.5 -60 6.5 -129q0 -146 -65 -208.5t-164 -62.5q-86 0 -137 46.5t-51 135.5v219q0 39 -20 39q-11 0 -23 -13.5t-28 -40.5v-368h-170v743l170 18v-281q26 37 54.5 54t65.5 17q56 0 88.5 -41t32.5 -110v-243q0 -29 7 -40t23 -11q23 0 35 33t12 121q0 97 -21 273
h166q12 -91 18.5 -151z" />
    <glyph glyph-name="i" unicode="i" horiz-adv-x="242" 
d="M206 533v-533h-170v533h170zM188.5 789q26.5 -27 26.5 -67q0 -41 -26.5 -68t-68.5 -27t-68 27t-26 68q0 40 26.5 67t67.5 27q42 0 68.5 -27z" />
    <glyph glyph-name="dotlessi" unicode="&#x131;" horiz-adv-x="242" 
d="M206 533v-533h-170v533h170z" />
    <glyph glyph-name="iacute" unicode="&#xed;" horiz-adv-x="242" 
d="M206 533v-533h-170v533h170zM173 834l66 -119l-209 -95l-45 81z" />
    <glyph glyph-name="ibreve" unicode="&#x12d;" horiz-adv-x="242" 
d="M206 533v-533h-170v533h170zM10.5 678q-37.5 48 -43.5 132l87 16q14 -81 67 -81t66 81l88 -16q-6 -84 -43.5 -132t-110.5 -48t-110.5 48z" />
    <glyph glyph-name="uni01D0" unicode="&#x1d0;" horiz-adv-x="242" 
d="M206 533v-533h-170v533h170zM234 815l56 -61l-119 -145h-101l-119 145l57 61l113 -94z" />
    <glyph glyph-name="icircumflex" unicode="&#xee;" horiz-adv-x="242" 
d="M206 533v-533h-170v533h170zM8 623l-57 58l120 146h100l119 -146l-56 -58l-113 92z" />
    <glyph glyph-name="uni0209" unicode="&#x209;" horiz-adv-x="242" 
d="M206 533v-533h-170v533h170zM17 863l84 -201l-77 -38l-109 185zM175 863l79 -202l-80 -33l-103 185z" />
    <glyph glyph-name="idieresis" unicode="&#xef;" horiz-adv-x="242" 
d="M206 533v-533h-170v533h170zM76.5 780.5q22.5 -23.5 22.5 -58.5q0 -36 -22 -59.5t-58 -23.5q-34 0 -57.5 24t-23.5 59t23.5 58.5t57.5 23.5q35 0 57.5 -23.5zM280.5 780.5q22.5 -23.5 22.5 -58.5q0 -36 -22.5 -59.5t-58.5 -23.5q-34 0 -57.5 24t-23.5 59t23.5 58.5
t57.5 23.5q36 0 58.5 -23.5z" />
    <glyph glyph-name="uni1E2F" unicode="&#x1e2f;" horiz-adv-x="242" 
d="M206 533v-533h-170v533h170zM181 959l98 -84l-152 -148l-65 53zM67.5 738.5q22.5 -23.5 22.5 -58.5q0 -36 -22 -59.5t-58 -23.5q-34 0 -57.5 24t-23.5 59q0 34 23.5 58t57.5 24q35 0 57.5 -23.5zM288.5 738.5q22.5 -23.5 22.5 -58.5q0 -36 -22 -59.5t-58 -23.5
q-34 0 -57.5 24t-23.5 59q0 34 23.5 58t57.5 24q35 0 57.5 -23.5z" />
    <glyph glyph-name="i.loclTRK" horiz-adv-x="242" 
d="M206 533v-533h-170v533h170zM188.5 789q26.5 -27 26.5 -67q0 -41 -26.5 -68t-68.5 -27t-68 27t-26 68q0 40 26.5 67t67.5 27q42 0 68.5 -27z" />
    <glyph glyph-name="uni1ECB" unicode="&#x1ecb;" horiz-adv-x="242" 
d="M206 533v-533h-170v533h170zM188.5 789q26.5 -27 26.5 -67q0 -41 -26.5 -68t-68.5 -27t-68 27t-26 68q0 40 26.5 67t67.5 27q42 0 68.5 -27zM53.5 -220q-26.5 27 -26.5 67q0 41 26.5 68t68.5 27t68 -27t26 -68q0 -40 -26.5 -67t-67.5 -27q-42 0 -68.5 27z" />
    <glyph glyph-name="igrave" unicode="&#xec;" horiz-adv-x="242" 
d="M206 533v-533h-170v533h170zM68 834l188 -133l-45 -81l-209 95z" />
    <glyph glyph-name="uni1EC9" unicode="&#x1ec9;" horiz-adv-x="242" 
d="M206 533v-533h-170v533h170zM76 704q32 2 45 10t13 27q0 15 -8 23t-21 8q-15 0 -25.5 -3t-26.5 -10l-24 68q41 26 98 26q54 0 83 -28t29 -75q0 -39 -18 -63t-53 -32v-51h-92v100z" />
    <glyph glyph-name="uni020B" unicode="&#x20b;" horiz-adv-x="242" 
d="M206 533v-533h-170v533h170zM231.5 747q37.5 -48 43.5 -132l-88 -16q-13 81 -66 81t-67 -81l-87 16q6 84 43.5 132t110.5 48t110.5 -48z" />
    <glyph glyph-name="ij" unicode="&#x133;" horiz-adv-x="484" 
d="M206 533v-533h-170v533h170zM188.5 789q26.5 -27 26.5 -67q0 -41 -26.5 -68t-68.5 -27t-68 27t-26 68q0 40 26.5 67t67.5 27q42 0 68.5 -27zM448 46q0 -109 -54 -169.5t-150 -99.5l-58 123q32 19 51 36t30 43t11 65v489h170v-487zM430.5 789q26.5 -27 26.5 -67
q0 -41 -26.5 -68t-68.5 -27t-68 27t-26 68q0 40 26.5 67t67.5 27q42 0 68.5 -27z" />
    <glyph glyph-name="imacron" unicode="&#x12b;" horiz-adv-x="242" 
d="M206 533v-533h-170v533h170zM256 655h-270v113h270v-113z" />
    <glyph glyph-name="iogonek" unicode="&#x12f;" horiz-adv-x="242" 
d="M52 654q-26 27 -26 68q0 40 26.5 67t67.5 27q42 0 68.5 -27t26.5 -67q0 -41 -26.5 -68t-68.5 -27t-68 27zM36 533h170v-533h-35q-54 -24 -73.5 -48.5t-19.5 -51.5q0 -23 11 -34.5t31 -11.5t49 8l-10 -102q-29 -8 -60 -8q-61 0 -99.5 31t-38.5 87q0 78 75 130v533z" />
    <glyph glyph-name="uni0269" unicode="&#x269;" horiz-adv-x="257" 
d="M69 21.5q-38 39.5 -38 108.5v403h170v-396q0 -21 19 -21q8 0 16 2l30 -117q-40 -19 -91 -19q-68 0 -106 39.5z" />
    <glyph glyph-name="uni0268" unicode="&#x268;" horiz-adv-x="287" 
d="M75 654q-26 27 -26 68q0 40 26.5 67t67.5 27q42 0 68.5 -27t26.5 -67q0 -41 -26.5 -68t-68.5 -27t-68 27zM285 340v-117h-56v-223h-170v223h-57v117h57v193h170v-193h56z" />
    <glyph glyph-name="itilde" unicode="&#x129;" horiz-adv-x="242" 
d="M206 533v-533h-170v533h170zM138 642.5q-14 6.5 -31 17.5q-21 15 -33 15q-14 0 -23 -9t-20 -30l-77 35q17 53 47.5 86.5t69.5 33.5q19 0 33 -6t32 -18q11 -8 18.5 -12t15.5 -4q13 0 21.5 9t19.5 30l77 -35q-16 -54 -46.5 -86.5t-69.5 -32.5q-20 0 -34 6.5z" />
    <glyph glyph-name="j" unicode="j" horiz-adv-x="242" 
d="M206 46q0 -109 -54 -169.5t-150 -99.5l-58 123q32 19 51 36t30 43t11 65v489h170v-487zM188.5 789q26.5 -27 26.5 -67q0 -41 -26.5 -68t-68.5 -27t-68 27t-26 68q0 40 26.5 67t67.5 27q42 0 68.5 -27z" />
    <glyph glyph-name="uni0237" unicode="&#x237;" horiz-adv-x="242" 
d="M206 46q0 -109 -54 -169.5t-150 -99.5l-58 123q32 19 51 36t30 43t11 65v489h170v-487z" />
    <glyph glyph-name="uni01F0" unicode="&#x1f0;" horiz-adv-x="242" 
d="M206 46q0 -109 -54 -169.5t-150 -99.5l-58 123q32 19 51 36t30 43t11 65v489h170v-487zM234 815l56 -61l-119 -145h-101l-119 145l57 61l113 -94z" />
    <glyph glyph-name="jcircumflex" unicode="&#x135;" horiz-adv-x="242" 
d="M206 46q0 -109 -54 -169.5t-150 -99.5l-58 123q32 19 51 36t30 43t11 65v489h170v-487zM8 623l-57 58l120 146h100l119 -146l-56 -58l-113 92z" />
    <glyph glyph-name="uni029D" unicode="&#x29d;" horiz-adv-x="305" 
d="M310 -107q-27 14 -50 22q-31 -138 -184 -138q-67 0 -102 31.5t-35 87.5q0 62 35.5 94t98.5 32q12 0 26 -2v513h170l-1 -539v-2q46 -15 75 -35zM99 -78v24q-8 2 -27 2q-43 0 -43 -46q0 -40 32 -40q38 0 38 60zM251.5 789q26.5 -27 26.5 -67q0 -41 -26.5 -68t-68.5 -27
t-68 27t-26 68q0 40 26.5 67t67.5 27q42 0 68.5 -27z" />
    <glyph glyph-name="uni025F" unicode="&#x25f;" horiz-adv-x="290" 
d="M288 200h-57v-154q0 -109 -54 -169.5t-150 -99.5l-58 123q32 19 51 36t30 43t11 65v156h-56v118h56v215h170v-215h57v-118z" />
    <glyph glyph-name="uni0284" unicode="&#x284;" horiz-adv-x="289" 
d="M287 118v-118h-60q-12 -86 -64 -137.5t-137 -85.5l-58 123q39 23 59.5 44t28.5 56h-52v118h56v466q0 81 45.5 128.5t131.5 47.5q68 0 123 -37l-44 -101q-30 14 -50 14q-19 0 -27.5 -11t-8.5 -37v-470h57z" />
    <glyph glyph-name="uni0249" unicode="&#x249;" horiz-adv-x="290" 
d="M288 200h-57v-154q0 -109 -54 -169.5t-150 -99.5l-58 123q32 19 51 36t30 43t11 65v156h-56v118h56v215h170v-215h57v-118zM213.5 789q26.5 -27 26.5 -67q0 -41 -26.5 -68t-68.5 -27t-68 27t-26 68q0 40 26.5 67t67.5 27q42 0 68.5 -27z" />
    <glyph glyph-name="k" unicode="k" horiz-adv-x="487" 
d="M206 761v-761h-170v743zM491 533l-117 -234l122 -299h-177l-110 291l121 242h161z" />
    <glyph glyph-name="uni01E9" unicode="&#x1e9;" horiz-adv-x="487" 
d="M206 761v-761h-170v743zM491 533l-117 -234l122 -299h-177l-110 291l121 242h161zM372 993l56 -59l-120 -137h-100l-119 137l57 59l113 -84z" />
    <glyph glyph-name="kcommaaccent" unicode="&#x137;" horiz-adv-x="487" 
d="M206 761v-761h-170v743zM491 533l-117 -234l122 -299h-177l-110 291l121 242h161zM300.5 -89q21.5 -23 21.5 -58q0 -19 -5 -36.5t-18 -48.5l-40 -98h-81l25 115q-38 24 -38 68q0 34 22 57.5t57 23.5t56.5 -23z" />
    <glyph glyph-name="kgreenlandic" unicode="&#x138;" horiz-adv-x="487" 
d="M206 533v-533h-170v533h170zM491 533l-117 -236l122 -297h-177l-110 289l121 244h161z" />
    <glyph glyph-name="uni0199" unicode="&#x199;" horiz-adv-x="487" 
d="M217 622.5q-11 -13.5 -11 -43.5v-579h-170v584q0 76 49 126t141 50q73 0 131 -34l-47 -105q-30 15 -58 15q-24 0 -35 -13.5zM374 299l122 -299h-177l-110 291l121 242h161z" />
    <glyph glyph-name="uni029E" unicode="&#x29e;" horiz-adv-x="487" 
d="M-3 0l117 234l-123 299h178l109 -292l-120 -241h-161zM281 -206v739h170v-756z" />
    <glyph glyph-name="l" unicode="l" horiz-adv-x="257" 
d="M69 21.5q-38 39.5 -38 108.5v613l170 18v-623q0 -22 19 -22q8 0 16 2l30 -117q-40 -19 -91 -19q-68 0 -106 39.5z" />
    <glyph glyph-name="lacute" unicode="&#x13a;" horiz-adv-x="257" 
d="M69 21.5q-38 39.5 -38 108.5v613l170 18v-623q0 -22 19 -22q8 0 16 2l30 -117q-40 -19 -91 -19q-68 0 -106 39.5zM178 1004l63 -120l-209 -86l-43 82z" />
    <glyph glyph-name="uni019B" unicode="&#x19b;" 
d="M412 195.5q25 -89.5 67 -160.5l-162 -53q-32 76 -50 157t-36 226l-61 -383l-167 33l129 481h77q-7 42 -20 73l-49 -53l-76 57l62 62q-21 11 -75 26l19 99q97 -16 150 -50l64 59l64 -70l-58 -54q45 -63 64 -174q33 -186 58 -275.5z" />
    <glyph glyph-name="uni019A" unicode="&#x19a;" horiz-adv-x="296" 
d="M294 1q-40 -19 -91 -19q-68 0 -106 39.5t-38 108.5v183h-57v117h57v313l170 18v-331h56v-117h-56v-175q0 -22 19 -22q8 0 16 2z" />
    <glyph glyph-name="uni026C" unicode="&#x26c;" horiz-adv-x="389" 
d="M344 118l30 -117q-40 -19 -91 -19q-68 0 -106 39.5t-38 108.5v109q-75 2 -111 36t-36 92q0 55 31 85t83 30q21 0 33 -4v265l170 18v-430q32 3 51 8l15 -82q-27 -11 -66 -14v-105q0 -22 19 -22q8 0 16 2zM139 329v69q-6 2 -17 2q-13 0 -19.5 -8.5t-6.5 -22.5q0 -40 43 -40
z" />
    <glyph glyph-name="lcaron" unicode="&#x13e;" horiz-adv-x="349" 
d="M69 21.5q-38 39.5 -38 108.5v613l170 18v-623q0 -22 19 -22q8 0 16 2l30 -117q-40 -19 -91 -19q-68 0 -106 39.5zM321 520l48 222l-120 18l-21 -225z" />
    <glyph glyph-name="uni1E3D" unicode="&#x1e3d;" horiz-adv-x="257" 
d="M69 21.5q-38 39.5 -38 108.5v613l170 18v-623q0 -22 19 -22q8 0 16 2l30 -117q-40 -19 -91 -19q-68 0 -106 39.5zM42 -267l-57 59l120 146h100l119 -146l-56 -59l-113 93z" />
    <glyph glyph-name="lcommaaccent" unicode="&#x13c;" horiz-adv-x="257" 
d="M69 21.5q-38 39.5 -38 108.5v613l170 18v-623q0 -22 19 -22q8 0 16 2l30 -117q-40 -19 -91 -19q-68 0 -106 39.5zM214.5 -89q21.5 -23 21.5 -58q0 -19 -5 -36.5t-18 -48.5l-40 -98h-81l25 115q-38 24 -38 68q0 34 22 57.5t57 23.5t56.5 -23z" />
    <glyph glyph-name="uni0234" unicode="&#x234;" horiz-adv-x="412" 
d="M386 216.5q29 -31.5 29 -86.5q0 -73 -48 -110.5t-122 -37.5q-12 0 -34 2l-28 -70l-72 30l24 60q-48 22 -76 66t-28 114v559l170 17v-579q0 -18 1 -25q23 50 48.5 71t62.5 21q44 0 73 -31.5zM297 109.5q9 8.5 9 28.5q0 23 -15 23q-10 0 -17.5 -11.5t-20.5 -47.5
q6 -1 17 -1q18 0 27 8.5z" />
    <glyph glyph-name="ldot" unicode="&#x140;" horiz-adv-x="427" 
d="M69 21.5q-38 39.5 -38 108.5v613l170 18v-623q0 -22 19 -22q8 0 16 2l30 -117q-40 -19 -91 -19q-68 0 -106 39.5zM398.5 444q26.5 -27 26.5 -67q0 -41 -26.5 -68t-68.5 -27t-68 27t-26 68q0 40 26.5 67t67.5 27q42 0 68.5 -27z" />
    <glyph glyph-name="uni1E37" unicode="&#x1e37;" horiz-adv-x="257" 
d="M69 21.5q-38 39.5 -38 108.5v613l170 18v-623q0 -22 19 -22q8 0 16 2l30 -117q-40 -19 -91 -19q-68 0 -106 39.5zM90.5 -220q-26.5 27 -26.5 67q0 41 26.5 68t68.5 27t68 -27t26 -68q0 -40 -26.5 -67t-67.5 -27q-42 0 -68.5 27z" />
    <glyph glyph-name="uni026E" unicode="&#x26e;" horiz-adv-x="610" 
d="M603 10q0 -67 -28 -120t-81.5 -83.5t-128.5 -30.5q-116 0 -186 78l82 93q25 -22 46 -32t47 -10q76 0 76 111q0 54 -22.5 77.5t-69.5 23.5h-68v96l124 194h-193v-269q0 -22 19 -22q8 0 16 2l30 -117q-40 -19 -91 -19q-68 0 -106 39.5t-38 108.5v613l170 18v-228h371v-116
l-137 -205q168 -20 168 -202z" />
    <glyph glyph-name="uni026D" unicode="&#x26d;" horiz-adv-x="242" 
d="M357 -180q-55 -43 -137 -43t-133 46t-51 133v787l170 17v-814q0 -47 41 -47q15 0 26.5 3.5t26.5 12.5z" />
    <glyph glyph-name="uni01C9" unicode="&#x1c9;" horiz-adv-x="499" 
d="M69 21.5q-38 39.5 -38 108.5v613l170 18v-623q0 -22 19 -22q8 0 16 2l30 -117q-40 -19 -91 -19q-68 0 -106 39.5zM463 46q0 -109 -54 -169.5t-150 -99.5l-58 123q32 19 51 36t30 43t11 65v489h170v-487zM445.5 789q26.5 -27 26.5 -67q0 -41 -26.5 -68t-68.5 -27t-68 27
t-26 68q0 40 26.5 67t67.5 27q42 0 68.5 -27z" />
    <glyph glyph-name="uni026B" unicode="&#x26b;" horiz-adv-x="411" 
d="M374.5 311.5q-31.5 -33.5 -76.5 -36.5v-137q0 -22 19 -22q8 0 16 2l30 -117q-40 -19 -91 -19q-68 0 -106 39.5t-38 108.5v199q-13 -3 -23 -14.5t-24 -33.5l-82 43q26 55 56 88.5t73 39.5v291l170 18v-363q15 3 26 14t24 32l85 -43q-27 -56 -58.5 -89.5z" />
    <glyph glyph-name="uni02AA" unicode="&#x2aa;" horiz-adv-x="588" 
d="M136.5 9.5q-60.5 27.5 -83 74.5t-22.5 112v547l170 17v-562q0 -50 26.5 -73t87.5 -23q56 0 83 12.5t27 39.5q0 16 -5.5 26.5t-21.5 20.5t-50 25q-58 25 -85.5 60t-27.5 96q0 74 45.5 121t127.5 47q45 0 85 -16t71 -45l-54 -90q-46 31 -86 31q-19 0 -28.5 -10.5
t-9.5 -27.5q0 -15 6 -24t22 -18t51 -24q59 -25 87.5 -63t28.5 -95q0 -91 -70 -138.5t-205 -47.5q-109 0 -169.5 27.5z" />
    <glyph glyph-name="lslash" unicode="&#x142;" horiz-adv-x="326" 
d="M277 118l30 -117q-40 -19 -91 -19q-68 0 -106 39.5t-38 108.5v132l-29 -20l-54 87l83 59v355l170 18v-259l39 26l54 -87l-93 -63v-240q0 -22 19 -22q8 0 16 2z" />
    <glyph glyph-name="uni02AB" unicode="&#x2ab;" horiz-adv-x="622" 
d="M601 0h-337q-38 -18 -89 -18q-68 0 -106 39.5t-38 108.5v613l170 18v-623q0 -22 19 -22q9 0 15 2l189 288h-172v127h358v-119l-189 -286h194z" />
    <glyph glyph-name="m" unicode="m" horiz-adv-x="697" 
d="M632.5 510q31.5 -41 31.5 -110v-400h-167v384q0 20 -5 29.5t-15 9.5q-22 0 -45 -48v-375h-164v384q0 39 -20 39q-23 0 -46 -48v-375h-166v533h148l10 -61q27 40 57 59.5t68 19.5q36 0 62 -21t40 -61q51 82 127 82q53 0 84.5 -41z" />
    <glyph glyph-name="uni1E3F" unicode="&#x1e3f;" horiz-adv-x="697" 
d="M632.5 510q31.5 -41 31.5 -110v-400h-167v384q0 20 -5 29.5t-15 9.5q-22 0 -45 -48v-375h-164v384q0 39 -20 39q-23 0 -46 -48v-375h-166v533h148l10 -61q27 40 57 59.5t68 19.5q36 0 62 -21t40 -61q51 82 127 82q53 0 84.5 -41zM400 834l66 -119l-209 -95l-45 81z" />
    <glyph glyph-name="uni1E41" unicode="&#x1e41;" horiz-adv-x="697" 
d="M632.5 510q31.5 -41 31.5 -110v-400h-167v384q0 20 -5 29.5t-15 9.5q-22 0 -45 -48v-375h-164v384q0 39 -20 39q-23 0 -46 -48v-375h-166v533h148l10 -61q27 40 57 59.5t68 19.5q36 0 62 -21t40 -61q51 82 127 82q53 0 84.5 -41zM415.5 789q26.5 -27 26.5 -67
q0 -41 -26.5 -68t-68.5 -27t-68 27t-26 68q0 40 26.5 67t67.5 27q42 0 68.5 -27z" />
    <glyph glyph-name="uni0271" unicode="&#x271;" horiz-adv-x="697" 
d="M632.5 510q31.5 -41 31.5 -110v-438q0 -91 -50.5 -138t-132.5 -47q-79 0 -135 43l57 95q28 -16 53 -16q41 0 41 47v438q0 20 -5 29.5t-15 9.5q-22 0 -45 -48v-375h-164v384q0 39 -20 39q-23 0 -46 -48v-375h-166v533h148l10 -61q27 40 57 59.5t68 19.5q36 0 62 -21
t40 -61q51 82 127 82q53 0 84.5 -41z" />
    <glyph glyph-name="uni0270" unicode="&#x270;" horiz-adv-x="697" 
d="M661 533v-756l-170 17v251q-48 -63 -113 -63q-36 0 -62 21t-40 61q-51 -82 -127 -82q-53 0 -84.5 41t-31.5 110v400h167v-384q0 -20 5 -29.5t15 -9.5q22 0 45 48v375h164v-384q0 -39 20 -39q23 0 46 48v375h166z" />
    <glyph glyph-name="uni026F" unicode="&#x26f;" horiz-adv-x="697" 
d="M661 533v-533h-148l-10 61q-27 -40 -57 -59.5t-68 -19.5q-36 0 -62 21t-40 61q-51 -82 -127 -82q-53 0 -84.5 41t-31.5 110v400h167v-384q0 -20 5 -29.5t15 -9.5q22 0 45 48v375h164v-384q0 -39 20 -39q23 0 46 48v375h166z" />
    <glyph glyph-name="n" unicode="n" horiz-adv-x="480" 
d="M414.5 510q32.5 -41 32.5 -110v-400h-170v383q0 39 -20 39q-11 0 -23 -13.5t-28 -40.5v-368h-170v533h148l12 -59q27 39 57.5 58t72.5 19q56 0 88.5 -41z" />
    <glyph glyph-name="nacute" unicode="&#x144;" horiz-adv-x="480" 
d="M414.5 510q32.5 -41 32.5 -110v-400h-170v383q0 39 -20 39q-11 0 -23 -13.5t-28 -40.5v-368h-170v533h148l12 -59q27 39 57.5 58t72.5 19q56 0 88.5 -41zM295 834l66 -119l-209 -95l-45 81z" />
    <glyph glyph-name="nacute.loclPLK" horiz-adv-x="480" 
d="M414.5 510q32.5 -41 32.5 -110v-400h-170v383q0 39 -20 39q-11 0 -23 -13.5t-28 -40.5v-368h-170v533h148l12 -59q27 39 57.5 58t72.5 19q56 0 88.5 -41zM245 816l124 -70l-123 -163l-74 43z" />
    <glyph glyph-name="napostrophe" unicode="&#x149;" horiz-adv-x="601" 
d="M142.5 741.5q17.5 -19.5 17.5 -49.5q0 -16 -4 -30t-16 -45l-33 -82h-67l17 98q-30 23 -30 59q0 29 18.5 49t48.5 20q31 0 48.5 -19.5zM536.5 510q32.5 -41 32.5 -110v-400h-170v383q0 39 -20 39q-11 0 -23 -13.5t-28 -40.5v-368h-170v533h148l12 -59q27 39 57.5 58
t72.5 19q56 0 88.5 -41z" />
    <glyph glyph-name="ncaron" unicode="&#x148;" horiz-adv-x="480" 
d="M414.5 510q32.5 -41 32.5 -110v-400h-170v383q0 39 -20 39q-11 0 -23 -13.5t-28 -40.5v-368h-170v533h148l12 -59q27 39 57.5 58t72.5 19q56 0 88.5 -41zM356 815l56 -61l-119 -145h-101l-119 145l57 61l113 -94z" />
    <glyph glyph-name="uni1E4B" unicode="&#x1e4b;" horiz-adv-x="480" 
d="M414.5 510q32.5 -41 32.5 -110v-400h-170v383q0 39 -20 39q-11 0 -23 -13.5t-28 -40.5v-368h-170v533h148l12 -59q27 39 57.5 58t72.5 19q56 0 88.5 -41zM123 -267l-57 59l120 146h100l119 -146l-56 -59l-113 93z" />
    <glyph glyph-name="ncommaaccent" unicode="&#x146;" horiz-adv-x="480" 
d="M414.5 510q32.5 -41 32.5 -110v-400h-170v383q0 39 -20 39q-11 0 -23 -13.5t-28 -40.5v-368h-170v533h148l12 -59q27 39 57.5 58t72.5 19q56 0 88.5 -41zM295.5 -89q21.5 -23 21.5 -58q0 -19 -5 -36.5t-18 -48.5l-40 -98h-81l25 115q-38 24 -38 68q0 34 22 57.5t57 23.5
t56.5 -23z" />
    <glyph glyph-name="uni0235" unicode="&#x235;" horiz-adv-x="657" 
d="M631.5 216.5q28.5 -31.5 28.5 -86.5q0 -73 -47.5 -110.5t-121.5 -37.5q-12 0 -34 2l-28 -70l-73 30l25 60q-48 22 -76 66t-28 114v199q0 39 -20 39q-11 0 -23 -13.5t-28 -40.5v-368h-170v533h148l12 -59q27 39 57.5 58t72.5 19q56 0 88.5 -41t32.5 -110v-219q0 -18 1 -25
q23 50 48.5 71t62.5 21q44 0 72.5 -31.5zM543 109.5q9 8.5 9 28.5q0 23 -15 23q-10 0 -17.5 -11.5t-20.5 -47.5q6 -1 17 -1q18 0 27 8.5z" />
    <glyph glyph-name="uni1E45" unicode="&#x1e45;" horiz-adv-x="480" 
d="M414.5 510q32.5 -41 32.5 -110v-400h-170v383q0 39 -20 39q-11 0 -23 -13.5t-28 -40.5v-368h-170v533h148l12 -59q27 39 57.5 58t72.5 19q56 0 88.5 -41zM310.5 789q26.5 -27 26.5 -67q0 -41 -26.5 -68t-68.5 -27t-68 27t-26 68q0 40 26.5 67t67.5 27q42 0 68.5 -27z" />
    <glyph glyph-name="uni1E47" unicode="&#x1e47;" horiz-adv-x="480" 
d="M414.5 510q32.5 -41 32.5 -110v-400h-170v383q0 39 -20 39q-11 0 -23 -13.5t-28 -40.5v-368h-170v533h148l12 -59q27 39 57.5 58t72.5 19q56 0 88.5 -41zM171.5 -220q-26.5 27 -26.5 67q0 41 26.5 68t68.5 27t68 -27t26 -68q0 -40 -26.5 -67t-67.5 -27q-42 0 -68.5 27z
" />
    <glyph glyph-name="uni01F9" unicode="&#x1f9;" horiz-adv-x="480" 
d="M414.5 510q32.5 -41 32.5 -110v-400h-170v383q0 39 -20 39q-11 0 -23 -13.5t-28 -40.5v-368h-170v533h148l12 -59q27 39 57.5 58t72.5 19q56 0 88.5 -41zM190 834l188 -133l-45 -81l-209 95z" />
    <glyph glyph-name="eng" unicode="&#x14b;" horiz-adv-x="480" 
d="M414.5 510q32.5 -41 32.5 -110v-444q0 -87 -51 -133t-133 -46t-137 43l57 95q15 -9 26.5 -12.5t26.5 -3.5q41 0 41 47v437q0 39 -20 39q-11 0 -23 -13.5t-28 -40.5v-368h-170v533h148l12 -59q27 39 57.5 58t72.5 19q56 0 88.5 -41z" />
    <glyph glyph-name="uni0272" unicode="&#x272;" horiz-adv-x="480" 
d="M414.5 510q32.5 -41 32.5 -110v-400h-170v383q0 39 -20 39q-11 0 -23 -13.5t-28 -40.5v-412q0 -87 -51 -133t-133 -46t-137 43l57 95q15 -9 26.5 -12.5t26.5 -3.5q41 0 41 47v587h148l12 -59q27 39 57.5 58t72.5 19q56 0 88.5 -41z" />
    <glyph glyph-name="uni0273" unicode="&#x273;" horiz-adv-x="479" 
d="M598 -180q-55 -43 -137 -43t-133 46t-51 133v427q0 39 -20 39q-11 0 -23 -13.5t-28 -40.5v-368h-170v533h148l12 -59q27 39 57.5 58t72.5 19q56 0 88.5 -41t32.5 -110v-454q0 -47 41 -47q15 0 26.5 3.5t26.5 12.5z" />
    <glyph glyph-name="uni01CC" unicode="&#x1cc;" horiz-adv-x="722" 
d="M414.5 510q32.5 -41 32.5 -110v-400h-170v383q0 39 -20 39q-11 0 -23 -13.5t-28 -40.5v-368h-170v533h148l12 -59q27 39 57.5 58t72.5 19q56 0 88.5 -41zM686 46q0 -109 -54 -169.5t-150 -99.5l-58 123q32 19 51 36t30 43t11 65v489h170v-487zM668.5 789
q26.5 -27 26.5 -67q0 -41 -26.5 -68t-68.5 -27t-68 27t-26 68q0 40 26.5 67t67.5 27q42 0 68.5 -27z" />
    <glyph glyph-name="uni019E" unicode="&#x19e;" horiz-adv-x="480" 
d="M414.5 510q32.5 -41 32.5 -110v-623l-170 17v589q0 39 -20 39q-11 0 -23 -13.5t-28 -40.5v-368h-170v533h148l12 -59q27 39 57.5 58t72.5 19q56 0 88.5 -41z" />
    <glyph glyph-name="ntilde" unicode="&#xf1;" horiz-adv-x="480" 
d="M414.5 510q32.5 -41 32.5 -110v-400h-170v383q0 39 -20 39q-11 0 -23 -13.5t-28 -40.5v-368h-170v533h148l12 -59q27 39 57.5 58t72.5 19q56 0 88.5 -41zM260 642.5q-14 6.5 -31 17.5q-21 15 -33 15q-14 0 -23 -9t-20 -30l-77 35q17 53 47.5 86.5t69.5 33.5q19 0 33 -6
t32 -18q11 -8 18.5 -12t15.5 -4q13 0 21.5 9t19.5 30l77 -35q-16 -54 -46.5 -86.5t-69.5 -32.5q-20 0 -34 6.5z" />
    <glyph glyph-name="o" unicode="o" horiz-adv-x="497" 
d="M416.5 480q60.5 -71 60.5 -214q0 -137 -61 -210.5t-168 -73.5t-167.5 71.5t-60.5 213.5q0 138 60.5 211t168.5 73q107 0 167.5 -71zM206.5 391.5q-12.5 -35.5 -12.5 -124.5q0 -92 12.5 -127t41.5 -35q30 0 42.5 35.5t12.5 125.5q0 91 -12.5 126t-41.5 35
q-30 0 -42.5 -35.5z" />
    <glyph glyph-name="oacute" unicode="&#xf3;" horiz-adv-x="497" 
d="M416.5 480q60.5 -71 60.5 -214q0 -137 -61 -210.5t-168 -73.5t-167.5 71.5t-60.5 213.5q0 138 60.5 211t168.5 73q107 0 167.5 -71zM206.5 391.5q-12.5 -35.5 -12.5 -124.5q0 -92 12.5 -127t41.5 -35q30 0 42.5 35.5t12.5 125.5q0 91 -12.5 126t-41.5 35
q-30 0 -42.5 -35.5zM300 834l66 -119l-209 -95l-45 81z" />
    <glyph glyph-name="oacute.loclPLK" horiz-adv-x="497" 
d="M416.5 480q60.5 -71 60.5 -214q0 -137 -61 -210.5t-168 -73.5t-167.5 71.5t-60.5 213.5q0 138 60.5 211t168.5 73q107 0 167.5 -71zM206.5 391.5q-12.5 -35.5 -12.5 -124.5q0 -92 12.5 -127t41.5 -35q30 0 42.5 35.5t12.5 125.5q0 91 -12.5 126t-41.5 35
q-30 0 -42.5 -35.5zM250 816l124 -70l-123 -163l-74 43z" />
    <glyph glyph-name="uni0275" unicode="&#x275;" horiz-adv-x="497" 
d="M416.5 480q60.5 -71 60.5 -214q0 -137 -61 -210.5t-168 -73.5t-167.5 71.5t-60.5 213.5q0 138 60.5 211t168.5 73q107 0 167.5 -71zM204 404.5q-15 -25.5 -19 -88.5h127q-4 64 -18.5 89t-44.5 25t-45 -25.5zM294 129q15 28 18 95h-127q3 -68 18 -95.5t45 -27.5
q31 0 46 28z" />
    <glyph glyph-name="obreve" unicode="&#x14f;" horiz-adv-x="497" 
d="M416.5 480q60.5 -71 60.5 -214q0 -137 -61 -210.5t-168 -73.5t-167.5 71.5t-60.5 213.5q0 138 60.5 211t168.5 73q107 0 167.5 -71zM206.5 391.5q-12.5 -35.5 -12.5 -124.5q0 -92 12.5 -127t41.5 -35q30 0 42.5 35.5t12.5 125.5q0 91 -12.5 126t-41.5 35
q-30 0 -42.5 -35.5zM137.5 678q-37.5 48 -43.5 132l87 16q14 -81 67 -81t66 81l88 -16q-6 -84 -43.5 -132t-110.5 -48t-110.5 48z" />
    <glyph glyph-name="uni01D2" unicode="&#x1d2;" horiz-adv-x="497" 
d="M416.5 480q60.5 -71 60.5 -214q0 -137 -61 -210.5t-168 -73.5t-167.5 71.5t-60.5 213.5q0 138 60.5 211t168.5 73q107 0 167.5 -71zM206.5 391.5q-12.5 -35.5 -12.5 -124.5q0 -92 12.5 -127t41.5 -35q30 0 42.5 35.5t12.5 125.5q0 91 -12.5 126t-41.5 35
q-30 0 -42.5 -35.5zM361 815l56 -61l-119 -145h-101l-119 145l57 61l113 -94z" />
    <glyph glyph-name="ocircumflex" unicode="&#xf4;" horiz-adv-x="497" 
d="M416.5 480q60.5 -71 60.5 -214q0 -137 -61 -210.5t-168 -73.5t-167.5 71.5t-60.5 213.5q0 138 60.5 211t168.5 73q107 0 167.5 -71zM206.5 391.5q-12.5 -35.5 -12.5 -124.5q0 -92 12.5 -127t41.5 -35q30 0 42.5 35.5t12.5 125.5q0 91 -12.5 126t-41.5 35
q-30 0 -42.5 -35.5zM135 623l-57 58l120 146h100l119 -146l-56 -58l-113 92z" />
    <glyph glyph-name="uni1ED1" unicode="&#x1ed1;" horiz-adv-x="497" 
d="M416.5 480q60.5 -71 60.5 -214q0 -137 -61 -210.5t-168 -73.5t-167.5 71.5t-60.5 213.5q0 138 60.5 211t168.5 73q107 0 167.5 -71zM206.5 391.5q-12.5 -35.5 -12.5 -124.5q0 -92 12.5 -127t41.5 -35q30 0 42.5 35.5t12.5 125.5q0 91 -12.5 126t-41.5 35
q-30 0 -42.5 -35.5zM135 589l-57 59l120 137h100l119 -137l-56 -59l-113 84zM455 967l98 -84l-152 -148l-65 53z" />
    <glyph glyph-name="uni1ED9" unicode="&#x1ed9;" horiz-adv-x="497" 
d="M416.5 480q60.5 -71 60.5 -214q0 -137 -61 -210.5t-168 -73.5t-167.5 71.5t-60.5 213.5q0 138 60.5 211t168.5 73q107 0 167.5 -71zM206.5 391.5q-12.5 -35.5 -12.5 -124.5q0 -92 12.5 -127t41.5 -35q30 0 42.5 35.5t12.5 125.5q0 91 -12.5 126t-41.5 35
q-30 0 -42.5 -35.5zM135 623l-57 58l120 146h100l119 -146l-56 -58l-113 92zM180.5 -220q-26.5 27 -26.5 67q0 41 26.5 68t68.5 27t68 -27t26 -68q0 -40 -26.5 -67t-67.5 -27q-42 0 -68.5 27z" />
    <glyph glyph-name="uni1ED3" unicode="&#x1ed3;" horiz-adv-x="497" 
d="M416.5 480q60.5 -71 60.5 -214q0 -137 -61 -210.5t-168 -73.5t-167.5 71.5t-60.5 213.5q0 138 60.5 211t168.5 73q107 0 167.5 -71zM206.5 391.5q-12.5 -35.5 -12.5 -124.5q0 -92 12.5 -127t41.5 -35q30 0 42.5 35.5t12.5 125.5q0 91 -12.5 126t-41.5 35
q-30 0 -42.5 -35.5zM132 589l-57 59l120 137h100l119 -137l-56 -59l-113 84zM39 967l120 -179l-65 -53l-152 148z" />
    <glyph glyph-name="uni1ED5" unicode="&#x1ed5;" horiz-adv-x="497" 
d="M416.5 480q60.5 -71 60.5 -214q0 -137 -61 -210.5t-168 -73.5t-167.5 71.5t-60.5 213.5q0 138 60.5 211t168.5 73q107 0 167.5 -71zM206.5 391.5q-12.5 -35.5 -12.5 -124.5q0 -92 12.5 -127t41.5 -35q30 0 42.5 35.5t12.5 125.5q0 91 -12.5 126t-41.5 35
q-30 0 -42.5 -35.5zM135 589l-57 59l120 137h100l119 -137l-56 -59l-113 84zM336 860q32 2 45 10t13 27q0 15 -8 23t-21 8q-15 0 -25.5 -3t-26.5 -10l-24 68q41 26 98 26q54 0 83 -28t29 -75q0 -39 -18 -63t-53 -32v-51h-92v100z" />
    <glyph glyph-name="uni1ED7" unicode="&#x1ed7;" horiz-adv-x="497" 
d="M416.5 480q60.5 -71 60.5 -214q0 -137 -61 -210.5t-168 -73.5t-167.5 71.5t-60.5 213.5q0 138 60.5 211t168.5 73q107 0 167.5 -71zM206.5 391.5q-12.5 -35.5 -12.5 -124.5q0 -92 12.5 -127t41.5 -35q30 0 42.5 35.5t12.5 125.5q0 91 -12.5 126t-41.5 35
q-30 0 -42.5 -35.5zM134 586l-57 59l120 137h100l119 -137l-56 -59l-113 84zM264 820.5q-14 5.5 -31 16.5q-19 14 -33 14t-23 -8.5t-20 -27.5l-77 32q16 49 47 79.5t70 30.5q19 0 32.5 -5.5t32.5 -16.5q2 -1 13 -7.5t21 -6.5q13 0 21.5 8t19.5 27l77 -32
q-16 -50 -46.5 -79.5t-69.5 -29.5q-20 0 -34 5.5z" />
    <glyph glyph-name="uni020D" unicode="&#x20d;" horiz-adv-x="497" 
d="M416.5 480q60.5 -71 60.5 -214q0 -137 -61 -210.5t-168 -73.5t-167.5 71.5t-60.5 213.5q0 138 60.5 211t168.5 73q107 0 167.5 -71zM206.5 391.5q-12.5 -35.5 -12.5 -124.5q0 -92 12.5 -127t41.5 -35q30 0 42.5 35.5t12.5 125.5q0 91 -12.5 126t-41.5 35
q-30 0 -42.5 -35.5zM144 863l84 -201l-77 -38l-109 185zM302 863l79 -202l-80 -33l-103 185z" />
    <glyph glyph-name="odieresis" unicode="&#xf6;" horiz-adv-x="497" 
d="M416.5 480q60.5 -71 60.5 -214q0 -137 -61 -210.5t-168 -73.5t-167.5 71.5t-60.5 213.5q0 138 60.5 211t168.5 73q107 0 167.5 -71zM206.5 391.5q-12.5 -35.5 -12.5 -124.5q0 -92 12.5 -127t41.5 -35q30 0 42.5 35.5t12.5 125.5q0 91 -12.5 126t-41.5 35
q-30 0 -42.5 -35.5zM203.5 780.5q22.5 -23.5 22.5 -58.5q0 -36 -22 -59.5t-58 -23.5q-34 0 -57.5 24t-23.5 59t23.5 58.5t57.5 23.5q35 0 57.5 -23.5zM407.5 780.5q22.5 -23.5 22.5 -58.5q0 -36 -22.5 -59.5t-58.5 -23.5q-34 0 -57.5 24t-23.5 59t23.5 58.5t57.5 23.5
q36 0 58.5 -23.5z" />
    <glyph glyph-name="uni022B" unicode="&#x22b;" horiz-adv-x="497" 
d="M416.5 480q60.5 -71 60.5 -214q0 -137 -61 -210.5t-168 -73.5t-167.5 71.5t-60.5 213.5q0 138 60.5 211t168.5 73q107 0 167.5 -71zM206.5 391.5q-12.5 -35.5 -12.5 -124.5q0 -92 12.5 -127t41.5 -35q30 0 42.5 35.5t12.5 125.5q0 91 -12.5 126t-41.5 35
q-30 0 -42.5 -35.5zM204.5 739.5q22.5 -23.5 22.5 -58.5q0 -36 -22 -59.5t-58 -23.5q-34 0 -57.5 24t-23.5 59t23.5 58.5t57.5 23.5q35 0 57.5 -23.5zM408.5 739.5q22.5 -23.5 22.5 -58.5q0 -36 -22.5 -59.5t-58.5 -23.5q-34 0 -57.5 24t-23.5 59t23.5 58.5t57.5 23.5
q36 0 58.5 -23.5zM384 807h-270v113h270v-113z" />
    <glyph glyph-name="uni022F" unicode="&#x22f;" horiz-adv-x="497" 
d="M416.5 480q60.5 -71 60.5 -214q0 -137 -61 -210.5t-168 -73.5t-167.5 71.5t-60.5 213.5q0 138 60.5 211t168.5 73q107 0 167.5 -71zM206.5 391.5q-12.5 -35.5 -12.5 -124.5q0 -92 12.5 -127t41.5 -35q30 0 42.5 35.5t12.5 125.5q0 91 -12.5 126t-41.5 35
q-30 0 -42.5 -35.5zM315.5 789q26.5 -27 26.5 -67q0 -41 -26.5 -68t-68.5 -27t-68 27t-26 68q0 40 26.5 67t67.5 27q42 0 68.5 -27z" />
    <glyph glyph-name="uni0231" unicode="&#x231;" horiz-adv-x="497" 
d="M416.5 480q60.5 -71 60.5 -214q0 -137 -61 -210.5t-168 -73.5t-167.5 71.5t-60.5 213.5q0 138 60.5 211t168.5 73q107 0 167.5 -71zM206.5 391.5q-12.5 -35.5 -12.5 -124.5q0 -92 12.5 -127t41.5 -35q30 0 42.5 35.5t12.5 125.5q0 91 -12.5 126t-41.5 35
q-30 0 -42.5 -35.5zM314.5 753q26.5 -27 26.5 -67q0 -41 -26.5 -68t-68.5 -27t-68 27t-26 68q0 40 26.5 67t67.5 27q42 0 68.5 -27zM383 817h-270v113h270v-113z" />
    <glyph glyph-name="uni1ECD" unicode="&#x1ecd;" horiz-adv-x="497" 
d="M416.5 480q60.5 -71 60.5 -214q0 -137 -61 -210.5t-168 -73.5t-167.5 71.5t-60.5 213.5q0 138 60.5 211t168.5 73q107 0 167.5 -71zM206.5 391.5q-12.5 -35.5 -12.5 -124.5q0 -92 12.5 -127t41.5 -35q30 0 42.5 35.5t12.5 125.5q0 91 -12.5 126t-41.5 35
q-30 0 -42.5 -35.5zM180.5 -220q-26.5 27 -26.5 67q0 41 26.5 68t68.5 27t68 -27t26 -68q0 -40 -26.5 -67t-67.5 -27q-42 0 -68.5 27z" />
    <glyph glyph-name="ograve" unicode="&#xf2;" horiz-adv-x="497" 
d="M416.5 480q60.5 -71 60.5 -214q0 -137 -61 -210.5t-168 -73.5t-167.5 71.5t-60.5 213.5q0 138 60.5 211t168.5 73q107 0 167.5 -71zM206.5 391.5q-12.5 -35.5 -12.5 -124.5q0 -92 12.5 -127t41.5 -35q30 0 42.5 35.5t12.5 125.5q0 91 -12.5 126t-41.5 35
q-30 0 -42.5 -35.5zM195 834l188 -133l-45 -81l-209 95z" />
    <glyph glyph-name="uni1ECF" unicode="&#x1ecf;" horiz-adv-x="497" 
d="M416.5 480q60.5 -71 60.5 -214q0 -137 -61 -210.5t-168 -73.5t-167.5 71.5t-60.5 213.5q0 138 60.5 211t168.5 73q107 0 167.5 -71zM206.5 391.5q-12.5 -35.5 -12.5 -124.5q0 -92 12.5 -127t41.5 -35q30 0 42.5 35.5t12.5 125.5q0 91 -12.5 126t-41.5 35
q-30 0 -42.5 -35.5zM203 704q32 2 45 10t13 27q0 15 -8 23t-21 8q-15 0 -25.5 -3t-26.5 -10l-24 68q41 26 98 26q54 0 83 -28t29 -75q0 -39 -18 -63t-53 -32v-51h-92v100z" />
    <glyph glyph-name="ohorn" unicode="&#x1a1;" horiz-adv-x="546" 
d="M532.5 436q-25.5 -32 -72.5 -41q17 -56 17 -129q0 -137 -61 -210.5t-168 -73.5t-167.5 71.5t-60.5 213.5q0 138 60.5 211t168.5 73q114 0 173 -78q16 4 22.5 14.5t6.5 32.5q0 25 -2.5 40.5t-7.5 35.5l102 15q15 -43 15 -90q0 -53 -25.5 -85zM290.5 140.5
q12.5 35.5 12.5 125.5q0 91 -12.5 126t-41.5 35q-30 0 -42.5 -35.5t-12.5 -124.5q0 -92 12.5 -127t41.5 -35q30 0 42.5 35.5z" />
    <glyph glyph-name="uni1EDB" unicode="&#x1edb;" horiz-adv-x="546" 
d="M366 715l-209 -95l-45 81l188 133zM532.5 436q-25.5 -32 -72.5 -41q17 -56 17 -129q0 -137 -61 -210.5t-168 -73.5t-167.5 71.5t-60.5 213.5q0 138 60.5 211t168.5 73q114 0 173 -78q16 4 22.5 14.5t6.5 32.5q0 25 -2.5 40.5t-7.5 35.5l102 15q15 -43 15 -90
q0 -53 -25.5 -85zM290.5 140.5q12.5 35.5 12.5 125.5q0 91 -12.5 126t-41.5 35q-30 0 -42.5 -35.5t-12.5 -124.5q0 -92 12.5 -127t41.5 -35q30 0 42.5 35.5z" />
    <glyph glyph-name="uni1EE3" unicode="&#x1ee3;" horiz-adv-x="546" 
d="M532.5 436q-25.5 -32 -72.5 -41q17 -56 17 -129q0 -137 -61 -210.5t-168 -73.5t-167.5 71.5t-60.5 213.5q0 138 60.5 211t168.5 73q114 0 173 -78q16 4 22.5 14.5t6.5 32.5q0 25 -2.5 40.5t-7.5 35.5l102 15q15 -43 15 -90q0 -53 -25.5 -85zM290.5 140.5
q12.5 35.5 12.5 125.5q0 91 -12.5 126t-41.5 35q-30 0 -42.5 -35.5t-12.5 -124.5q0 -92 12.5 -127t41.5 -35q30 0 42.5 35.5zM317 -85q26 -27 26 -68q0 -40 -26.5 -67t-67.5 -27q-42 0 -68.5 27t-26.5 67q0 41 26.5 68t68.5 27t68 -27z" />
    <glyph glyph-name="uni1EDD" unicode="&#x1edd;" horiz-adv-x="546" 
d="M383 701l-45 -81l-209 95l66 119zM532.5 436q-25.5 -32 -72.5 -41q17 -56 17 -129q0 -137 -61 -210.5t-168 -73.5t-167.5 71.5t-60.5 213.5q0 138 60.5 211t168.5 73q114 0 173 -78q16 4 22.5 14.5t6.5 32.5q0 25 -2.5 40.5t-7.5 35.5l102 15q15 -43 15 -90
q0 -53 -25.5 -85zM290.5 140.5q12.5 35.5 12.5 125.5q0 91 -12.5 126t-41.5 35q-30 0 -42.5 -35.5t-12.5 -124.5q0 -92 12.5 -127t41.5 -35q30 0 42.5 35.5z" />
    <glyph glyph-name="uni1EDF" unicode="&#x1edf;" horiz-adv-x="546" 
d="M206.5 769q-10.5 -3 -26.5 -10l-24 68q41 26 98 26q54 0 83 -28t29 -75q0 -39 -18 -63t-53 -32v-51h-92v100q32 2 45 10t13 27q0 15 -8 23t-21 8q-15 0 -25.5 -3zM532.5 436q-25.5 -32 -72.5 -41q17 -56 17 -129q0 -137 -61 -210.5t-168 -73.5t-167.5 71.5t-60.5 213.5
q0 138 60.5 211t168.5 73q114 0 173 -78q16 4 22.5 14.5t6.5 32.5q0 25 -2.5 40.5t-7.5 35.5l102 15q15 -43 15 -90q0 -53 -25.5 -85zM290.5 140.5q12.5 35.5 12.5 125.5q0 91 -12.5 126t-41.5 35q-30 0 -42.5 -35.5t-12.5 -124.5q0 -92 12.5 -127t41.5 -35q30 0 42.5 35.5z
" />
    </font>
</defs>
</svg>
