<?xml version="1.0" standalone="no"?>
<!DOCTYPE svg PUBLIC "-//W3C//DTD SVG 1.1//EN" "http://www.w3.org/Graphics/SVG/1.1/DTD/svg11.dtd" >
<svg>
<metadata>
Created by FontForge 20120731 at Fri May  5 11:00:56 2017
 By www-data
Digitized data copyright 2012-2016, The Mozilla Foundation and Telefonica S.A.
</metadata>
<defs>
<font id="FiraSansExtraCondensed-BlackItalic" horiz-adv-x="460" >
  <font-face 
    font-family="Fira Sans Extra Condensed Black"
    font-weight="900"
    font-style="italic"
    font-stretch="condensed"
    units-per-em="1000"
    panose-1="2 11 10 3 5 0 0 2 0 4"
    ascent="800"
    descent="-200"
    x-height="534"
    cap-height="696"
    bbox="-662 -356 1416 1233"
    underline-thickness="50"
    underline-position="-50"
    slope="-8"
    unicode-range="U+000D-FEFF"
  />
<missing-glyph horiz-adv-x="654" 
d="M643 1050l-197 -1400h-412l197 1400h412zM584 998h-305l-183 -1296h305zM416 426q23 -25 23 -66q0 -9 -2 -27q-7 -52 -32.5 -80t-75.5 -35l-7 -46q-1 -11 -9 -17t-17 -6q-10 0 -17.5 7t-5.5 18l11 83q52 3 73.5 20.5t26.5 59.5q2 14 2 21q0 45 -50 45q-26 0 -53 -12
q-6 -2 -12 -2q-12 0 -18 7t-5 19q3 17 32.5 26.5t61.5 9.5q51 0 74 -25zM313 109.5q9 -10.5 7 -27.5q-2 -14 -13.5 -24t-25.5 -10q-13 0 -21.5 9.5t-8.5 24.5q0 16 11 27t26 11q16 0 25 -10.5z" />
    <glyph glyph-name="fi" unicode="fi" horiz-adv-x="498" 
d="M436 0h-185l56 405h-51l-44 -332q-13 -94 -50 -152.5t-86.5 -89.5t-120.5 -57l-41 136q52 21 77 53.5t34 99.5l46 342h-52l18 129h51l5 35q12 85 73.5 139.5t157.5 54.5q48 0 87.5 -10t81.5 -33l-65 -116q-28 12 -47.5 17t-39.5 5q-29 0 -44 -16t-20 -52l-3 -24h237z" />
    <glyph glyph-name="fl" unicode="fl" horiz-adv-x="538" 
d="M505 132l11 -131q-47 -20 -101 -20q-63 0 -96 33t-33 92q0 16 3 34l69 491q-18 2 -24 2q-28 0 -39.5 -17.5t-17.5 -57.5l-3 -24h52l-36 -129h-34l-44 -332q-13 -94 -50 -152.5t-86.5 -89.5t-120.5 -57l-41 136q52 21 77 53.5t34 99.5l46 342h-52l18 129h51l5 35
q12 86 68 140t149 54q59 0 105 -16l147 15l-84 -606q-1 -4 -1 -10q0 -16 15 -16q5 0 13 2z" />
    <glyph glyph-name=".notdef" horiz-adv-x="654" 
d="M643 1050l-197 -1400h-412l197 1400h412zM584 998h-305l-183 -1296h305zM416 426q23 -25 23 -66q0 -9 -2 -27q-7 -52 -32.5 -80t-75.5 -35l-7 -46q-1 -11 -9 -17t-17 -6q-10 0 -17.5 7t-5.5 18l11 83q52 3 73.5 20.5t26.5 59.5q2 14 2 21q0 45 -50 45q-26 0 -53 -12
q-6 -2 -12 -2q-12 0 -18 7t-5 19q3 17 32.5 26.5t61.5 9.5q51 0 74 -25zM313 109.5q9 -10.5 7 -27.5q-2 -14 -13.5 -24t-25.5 -10q-13 0 -21.5 9.5t-8.5 24.5q0 16 11 27t26 11q16 0 25 -10.5z" />
    <glyph glyph-name="nonmarkingreturn" unicode="&#xd;" horiz-adv-x="157" 
 />
    <glyph glyph-name="space" unicode=" " horiz-adv-x="157" 
 />
    <glyph glyph-name="A" unicode="A" horiz-adv-x="506" 
d="M488 0h-198v138h-111l-36 -138h-201l255 696h231zM214 276h76v294z" />
    <glyph glyph-name="Aacute" unicode="&#xc1;" horiz-adv-x="506" 
d="M488 0h-198v138h-111l-36 -138h-201l255 696h231zM214 276h76v294zM419 962l60 -131l-226 -88l-43 87z" />
    <glyph glyph-name="Abreve" unicode="&#x102;" horiz-adv-x="506" 
d="M488 0h-198v138h-111l-36 -138h-201l255 696h231zM214 276h76v294zM219.5 792q-33.5 45 -33.5 113q0 16 1 24l93 15q1 -30 14 -49t39 -19q49 0 72 70l95 -19q-14 -79 -57.5 -129.5t-119.5 -50.5q-70 0 -103.5 45z" />
    <glyph glyph-name="uni1EAE" unicode="&#x1eae;" horiz-adv-x="506" 
d="M515 1063l-174 -153l-62 57l149 189zM403 934l95 -19q-14 -79 -57.5 -129.5t-119.5 -50.5q-70 0 -103.5 45t-33.5 113q0 16 1 24l93 15q1 -30 14 -49t39 -19q49 0 72 70zM197 696h231l60 -696h-198v138h-111l-36 -138h-201zM214 276h76v294z" />
    <glyph glyph-name="uni1EB6" unicode="&#x1eb6;" horiz-adv-x="506" 
d="M488 0h-198v138h-111l-36 -138h-201l255 696h231zM214 276h76v294zM219.5 792q-33.5 45 -33.5 113q0 16 1 24l93 15q1 -30 14 -49t39 -19q49 0 72 70l95 -19q-14 -79 -57.5 -129.5t-119.5 -50.5q-70 0 -103.5 45zM270 -78q24 -24 24 -64q0 -51 -33.5 -84t-82.5 -33
q-44 0 -68 24t-24 64q0 51 33.5 84t82.5 33q44 0 68 -24z" />
    <glyph glyph-name="uni1EB0" unicode="&#x1eb0;" horiz-adv-x="506" 
d="M404 962l-78 -52l-129 161l112 82zM219.5 780q-33.5 45 -33.5 113q0 16 1 24l93 15q1 -30 14 -49t39 -19q49 0 72 70l95 -19q-14 -79 -57.5 -129.5t-119.5 -50.5q-70 0 -103.5 45zM197 696h231l60 -696h-198v138h-111l-36 -138h-201zM214 276h76v294z" />
    <glyph glyph-name="uni1EB2" unicode="&#x1eb2;" horiz-adv-x="506" 
d="M488 0h-198v138h-111l-36 -138h-201l255 696h231zM214 276h76v294zM223.5 780q-33.5 45 -33.5 113q0 16 1 24l93 15q1 -30 14 -49t39 -19q49 0 72 70l95 -19q-14 -79 -57.5 -129.5t-119.5 -50.5q-70 0 -103.5 45zM307 1019q34 1 48 10.5t14 30.5q0 12 -6 17.5t-20 5.5
q-21 0 -50 -13l-15 74q43 26 98 26q52 0 80.5 -26.5t28.5 -69.5q0 -42 -23.5 -70t-63.5 -37l-4 -40h-98z" />
    <glyph glyph-name="uni1EB4" unicode="&#x1eb4;" horiz-adv-x="506" 
d="M281 991q-10 -9 -23 -30l-76 41q26 51 62 84.5t72 33.5q19 0 31.5 -6t30.5 -18q20 -16 33 -16q10 0 20 9t23 29l75 -39q-24 -51 -60.5 -84.5t-73.5 -33.5q-15 0 -27.5 6t-28.5 17q-24 16 -35 16q-13 0 -23 -9zM401 934l95 -19q-14 -79 -57.5 -129.5t-119.5 -50.5
q-70 0 -103.5 45t-33.5 113q0 16 1 24l93 15q1 -30 14 -49t39 -19q49 0 72 70zM197 696h231l60 -696h-198v138h-111l-36 -138h-201zM214 276h76v294z" />
    <glyph glyph-name="uni01CD" unicode="&#x1cd;" horiz-adv-x="506" 
d="M488 0h-198v138h-111l-36 -138h-201l255 696h231zM214 276h76v294zM452 958l65 -72l-142 -138h-110l-109 148l72 62l103 -87z" />
    <glyph glyph-name="Acircumflex" unicode="&#xc2;" horiz-adv-x="506" 
d="M488 0h-198v138h-111l-36 -138h-201l255 696h231zM214 276h76v294zM209 756l-65 72l142 138h110l109 -148l-72 -62l-103 87z" />
    <glyph glyph-name="uni1EA4" unicode="&#x1ea4;" horiz-adv-x="506" 
d="M655 1036l-174 -153l-62 57l149 189zM282 937h110l109 -148l-72 -62l-103 87l-121 -87l-65 72zM197 696h231l60 -696h-198v138h-111l-36 -138h-201zM214 276h76v294z" />
    <glyph glyph-name="uni1EAC" unicode="&#x1eac;" horiz-adv-x="506" 
d="M488 0h-198v138h-111l-36 -138h-201l255 696h231zM214 276h76v294zM209 756l-65 72l142 138h110l109 -148l-72 -62l-103 87zM270 -78q24 -24 24 -64q0 -51 -33.5 -84t-82.5 -33q-44 0 -68 24t-24 64q0 51 33.5 84t82.5 33q44 0 68 -24z" />
    <glyph glyph-name="uni1EA6" unicode="&#x1ea6;" horiz-adv-x="506" 
d="M257 935l-78 -52l-129 161l112 82zM209 727l-65 72l142 138h110l109 -148l-72 -62l-103 87zM197 696h231l60 -696h-198v138h-111l-36 -138h-201zM214 276h76v294z" />
    <glyph glyph-name="uni1EA8" unicode="&#x1ea8;" horiz-adv-x="506" 
d="M488 0h-198v138h-111l-36 -138h-201l255 696h231zM214 276h76v294zM204 727l-65 72l142 138h110l109 -148l-72 -62l-103 87zM451 967q34 1 48 10.5t14 30.5q0 12 -6 17.5t-20 5.5q-21 0 -50 -13l-15 74q43 26 98 26q52 0 80.5 -26.5t28.5 -69.5q0 -42 -23.5 -70
t-63.5 -37l-4 -40h-98z" />
    <glyph glyph-name="uni1EAA" unicode="&#x1eaa;" horiz-adv-x="506" 
d="M285 994q-10 -9 -23 -30l-76 41q26 51 62 84.5t72 33.5q19 0 31.5 -6t30.5 -18q20 -16 33 -16q10 0 20 9t23 29l75 -39q-24 -51 -60.5 -84.5t-73.5 -33.5q-15 0 -27.5 6t-28.5 17q-24 16 -35 16q-13 0 -23 -9zM285 937h110l109 -148l-72 -62l-103 87l-121 -87l-65 72z
M197 696h231l60 -696h-198v138h-111l-36 -138h-201zM214 276h76v294z" />
    <glyph glyph-name="uni0200" unicode="&#x200;" horiz-adv-x="506" 
d="M488 0h-198v138h-111l-36 -138h-201l255 696h231zM214 276h76v294zM242 1000l61 -213l-99 -40l-90 201zM403 1000l55 -215l-98 -34l-85 202z" />
    <glyph glyph-name="Adieresis" unicode="&#xc4;" horiz-adv-x="506" 
d="M488 0h-198v138h-111l-36 -138h-201l255 696h231zM214 276h76v294zM157.5 782q-20.5 21 -20.5 56q0 43 29 72.5t70 29.5q38 0 58.5 -21t20.5 -56q0 -43 -29 -72.5t-71 -29.5q-37 0 -57.5 21zM369 782q-21 21 -21 56q0 43 29 72.5t70 29.5q37 0 58 -21t21 -56
q0 -43 -29 -72.5t-70 -29.5q-37 0 -58 21z" />
    <glyph glyph-name="uni01DE" unicode="&#x1de;" horiz-adv-x="506" 
d="M488 0h-198v138h-111l-36 -138h-201l255 696h231zM214 276h76v294zM157.5 766q-20.5 21 -20.5 56q0 43 29 72.5t70 29.5q38 0 58.5 -21t20.5 -56q0 -43 -29 -72.5t-71 -29.5q-37 0 -57.5 21zM369 766q-21 21 -21 56q0 43 29 72.5t70 29.5q37 0 58 -21t21 -56
q0 -43 -29 -72.5t-70 -29.5q-37 0 -58 21zM480 964h-274l20 130h274z" />
    <glyph glyph-name="uni0226" unicode="&#x226;" horiz-adv-x="506" 
d="M488 0h-198v138h-111l-36 -138h-201l255 696h231zM214 276h76v294zM258 770q-24 24 -24 64q0 51 33.5 84t82.5 33q44 0 68 -24t24 -64q0 -51 -33.5 -84t-82.5 -33q-44 0 -68 24z" />
    <glyph glyph-name="uni1EA0" unicode="&#x1ea0;" horiz-adv-x="506" 
d="M488 0h-198v138h-111l-36 -138h-201l255 696h231zM214 276h76v294zM270 -78q24 -24 24 -64q0 -51 -33.5 -84t-82.5 -33q-44 0 -68 24t-24 64q0 51 33.5 84t82.5 33q44 0 68 -24z" />
    <glyph glyph-name="uni01E0" unicode="&#x1e0;" horiz-adv-x="506" 
d="M488 0h-198v138h-111l-36 -138h-201l255 696h231zM214 276h76v294zM251 758q-24 24 -24 64q0 51 33.5 84t82.5 33q44 0 68 -24t24 -64q0 -51 -33.5 -84t-82.5 -33q-44 0 -68 24zM489 964h-274l20 130h274z" />
    <glyph glyph-name="Agrave" unicode="&#xc0;" horiz-adv-x="506" 
d="M488 0h-198v138h-111l-36 -138h-201l255 696h231zM214 276h76v294zM292 958l182 -133l-54 -81l-204 85z" />
    <glyph glyph-name="uni1EA2" unicode="&#x1ea2;" horiz-adv-x="506" 
d="M488 0h-198v138h-111l-36 -138h-201l255 696h231zM214 276h76v294zM285 856q34 1 48 10.5t14 30.5q0 12 -6 17.5t-20 5.5q-21 0 -50 -13l-15 74q43 26 98 26q52 0 80.5 -26.5t28.5 -69.5q0 -42 -23.5 -70t-63.5 -37l-4 -40h-98z" />
    <glyph glyph-name="uni0202" unicode="&#x202;" horiz-adv-x="506" 
d="M488 0h-198v138h-111l-36 -138h-201l255 696h231zM214 276h76v294zM164 775q17 84 63 137t121 53q71 0 104.5 -46t33.5 -119q0 -18 -1 -27l-98 -14q-2 77 -52 77q-27 0 -46.5 -21t-31.5 -59z" />
    <glyph glyph-name="uni2C6D" unicode="&#x2c6d;" horiz-adv-x="575" 
d="M525 139q0 -13 4 -20.5t13 -12.5l-57 -122q-87 7 -128 69q-28 -35 -62 -53.5t-80 -18.5q-96 0 -145 66.5t-49 184.5q0 130 36 241t101 177t149 66q41 0 67.5 -18t45.5 -51l17 49h164l-75 -538q-1 -7 -1 -19zM330 149l56 393q-23 33 -47 33q-38 0 -65 -51.5t-40.5 -132
t-13.5 -165.5q0 -59 11.5 -84t38.5 -25q34 0 60 32z" />
    <glyph glyph-name="Amacron" unicode="&#x100;" horiz-adv-x="506" 
d="M488 0h-198v138h-111l-36 -138h-201l255 696h231zM214 276h76v294zM457 775h-274l20 130h274z" />
    <glyph glyph-name="Aogonek" unicode="&#x104;" horiz-adv-x="506" 
d="M310.5 -54.5q-22.5 -29.5 -22.5 -54.5q0 -32 37 -32q18 0 46 5l-26 -108q-29 -8 -63 -8q-53 0 -87.5 31t-34.5 85q0 103 130 163v111h-111l-36 -138h-201l255 696h231l60 -696h-95q-60 -25 -82.5 -54.5zM214 276h76v294z" />
    <glyph glyph-name="Aring" unicode="&#xc5;" horiz-adv-x="506" 
d="M488 0h-198v138h-111l-36 -138h-201l255 696h231zM214 276h76v294zM442 972.5q31 -34.5 31 -90.5q0 -44 -19 -80t-54 -57t-81 -21q-57 0 -88 34t-31 90q0 43 19 79.5t54 58t81 21.5q57 0 88 -34.5zM313.5 896.5q-11.5 -18.5 -11.5 -42.5q0 -38 27 -38q19 0 30.5 18.5
t11.5 42.5q0 38 -26 38q-20 0 -31.5 -18.5z" />
    <glyph glyph-name="Aringacute" unicode="&#x1fa;" horiz-adv-x="506" 
d="M488 0h-198v138h-111l-36 -138h-201l255 696h231zM214 276h76v294zM439 974.5q31 -34.5 31 -90.5q0 -44 -19 -80t-54 -57t-81 -21q-57 0 -88 34t-31 90q0 43 19 79.5t54 58t81 21.5q57 0 88 -34.5zM310.5 898.5q-11.5 -18.5 -11.5 -42.5q0 -38 27 -38q19 0 30.5 18.5
t11.5 42.5q0 38 -26 38q-20 0 -31.5 -18.5zM425 1233l60 -131l-226 -88l-43 87z" />
    <glyph glyph-name="uni023A" unicode="&#x23a;" horiz-adv-x="506" 
d="M316 0l-5 138h-71l-76 -214l-53 14l71 200h-18l-40 -138h-182l255 696h182l22 62l53 -14l-24 -69l58 -675h-172zM200 267h27l71 199l-5 124zM285 267h21l-2 52z" />
    <glyph glyph-name="Atilde" unicode="&#xc3;" horiz-adv-x="506" 
d="M488 0h-198v138h-111l-36 -138h-201l255 696h231zM214 276h76v294zM347 757.5q-12 6.5 -30 18.5q-2 2 -10 7.5t-14 8t-12 2.5q-13 0 -23 -10.5t-24 -33.5l-77 46q25 57 62 94t74 37q19 0 33 -7t30 -20q9 -7 17.5 -12t16.5 -5q11 0 21 10t23 32l77 -43q-24 -57 -61.5 -94
t-75.5 -37q-15 0 -27 6.5z" />
    <glyph glyph-name="AE" unicode="&#xc6;" horiz-adv-x="713" 
d="M698 559h-183l-4 -141h183l-21 -134h-166l-4 -145h187l-22 -139h-344l6 138h-127l-48 -138h-211l303 696h492zM336 277l13 278l-97 -278h84z" />
    <glyph glyph-name="AEacute" unicode="&#x1fc;" horiz-adv-x="713" 
d="M698 559h-183l-4 -141h183l-21 -134h-166l-4 -145h187l-22 -139h-344l6 138h-127l-48 -138h-211l303 696h492zM336 277l13 278l-97 -278h84zM570 962l60 -131l-226 -88l-43 87z" />
    <glyph glyph-name="uni01E2" unicode="&#x1e2;" horiz-adv-x="713" 
d="M698 559h-183l-4 -141h183l-21 -134h-166l-4 -145h187l-22 -139h-344l6 138h-127l-48 -138h-211l303 696h492zM336 277l13 278l-97 -278h84zM608 775h-274l20 130h274z" />
    <glyph glyph-name="B" unicode="B" horiz-adv-x="512" 
d="M500 230q0 -114 -82.5 -172t-216.5 -58h-211l98 696h186q115 0 180.5 -40.5t65.5 -117.5q0 -68 -40 -111t-102 -59q122 -27 122 -138zM306.5 449.5q16.5 24.5 16.5 65.5q0 45 -48 45h-13l-19 -135h11q36 0 52.5 24.5zM283 169.5q21 29.5 21 72.5q0 29 -13 43t-44 14h-21
l-22 -159h17q41 0 62 29.5z" />
    <glyph glyph-name="uni1E02" unicode="&#x1e02;" horiz-adv-x="512" 
d="M500 230q0 -114 -82.5 -172t-216.5 -58h-211l98 696h186q115 0 180.5 -40.5t65.5 -117.5q0 -68 -40 -111t-102 -59q122 -27 122 -138zM306.5 449.5q16.5 24.5 16.5 65.5q0 45 -48 45h-13l-19 -135h11q36 0 52.5 24.5zM283 169.5q21 29.5 21 72.5q0 29 -13 43t-44 14h-21
l-22 -159h17q41 0 62 29.5zM239 770q-24 24 -24 64q0 51 33.5 84t82.5 33q44 0 68 -24t24 -64q0 -51 -33.5 -84t-82.5 -33q-44 0 -68 24z" />
    <glyph glyph-name="uni1E04" unicode="&#x1e04;" horiz-adv-x="512" 
d="M500 230q0 -114 -82.5 -172t-216.5 -58h-211l98 696h186q115 0 180.5 -40.5t65.5 -117.5q0 -68 -40 -111t-102 -59q122 -27 122 -138zM306.5 449.5q16.5 24.5 16.5 65.5q0 45 -48 45h-13l-19 -135h11q36 0 52.5 24.5zM283 169.5q21 29.5 21 72.5q0 29 -13 43t-44 14h-21
l-22 -159h17q41 0 62 29.5zM274 -78q24 -24 24 -64q0 -51 -33.5 -84t-82.5 -33q-44 0 -68 24t-24 64q0 51 33.5 84t82.5 33q44 0 68 -24z" />
    <glyph glyph-name="uniA7B4" unicode="&#xa7b4;" horiz-adv-x="513" 
d="M467.5 325.5q33.5 -34.5 33.5 -95.5q0 -75 -36 -127t-93.5 -77.5t-121.5 -25.5q-33 0 -65 6l-31 -221h-194l129 911h178q116 0 181 -41.5t65 -121.5q0 -68 -39 -110.5t-95 -54.5q55 -8 88.5 -42.5zM241 299l28 126h3q20 0 32 23.5t12 64.5q0 47 -41 47h-12l-59 -419
q8 -1 23 -1q38 0 58 28t20 74q0 57 -49 57h-15z" />
    <glyph glyph-name="uni0181" unicode="&#x181;" horiz-adv-x="682" 
d="M670 230q0 -114 -82.5 -172t-216.5 -58h-211l79 558h-25q-17 0 -26.5 -14t-9.5 -40q0 -20 6 -52l-126 -44q-9 27 -14 50t-5 52q0 56 24.5 98.5t67.5 65t98 22.5h215q115 0 180.5 -40.5t65.5 -117.5q0 -68 -40 -111t-102 -59q122 -27 122 -138zM476.5 449.5
q16.5 24.5 16.5 65.5q0 45 -48 45h-13l-19 -135h11q36 0 52.5 24.5zM453 169.5q21 29.5 21 72.5q0 29 -13 43t-44 14h-21l-22 -159h17q41 0 62 29.5z" />
    <glyph glyph-name="uni0243" unicode="&#x243;" horiz-adv-x="518" 
d="M506 230q0 -114 -82.5 -172t-216.5 -58h-211l25 179h-28l12 85h28l61 432h186q115 0 180.5 -40.5t65.5 -117.5q0 -68 -40 -111t-102 -59q122 -27 122 -138zM312.5 449.5q16.5 24.5 16.5 65.5q0 45 -48 45h-13l-19 -135h11q36 0 52.5 24.5zM289 169.5q21 29.5 21 72.5
q0 29 -13 43t-44 14h-21l-5 -35h56l-12 -85h-56l-5 -39h17q41 0 62 29.5z" />
    <glyph glyph-name="uni0182" unicode="&#x182;" horiz-adv-x="508" 
d="M440.5 406q59.5 -49 59.5 -141q0 -67 -28 -127.5t-89 -99t-153 -38.5h-239l97 696h399l-41 -147h-185l-13 -94h32q101 0 160.5 -49zM278 174.5q19 34.5 19 84.5q0 31 -10.5 46.5t-35.5 15.5h-22l-25 -181h17q38 0 57 34.5z" />
    <glyph glyph-name="C" unicode="C" horiz-adv-x="488" 
d="M537 634l-98 -100q-39 39 -84 39q-46 0 -76 -51t-43 -127.5t-13 -154.5q0 -59 16.5 -85t50.5 -26q25 0 48.5 12.5t58.5 38.5l69 -106q-98 -94 -217 -94q-105 0 -165.5 68.5t-60.5 203.5q0 130 37.5 235t113 167t183.5 62q109 0 180 -82z" />
    <glyph glyph-name="Cacute" unicode="&#x106;" horiz-adv-x="488" 
d="M537 634l-98 -100q-39 39 -84 39q-46 0 -76 -51t-43 -127.5t-13 -154.5q0 -59 16.5 -85t50.5 -26q25 0 48.5 12.5t58.5 38.5l69 -106q-98 -94 -217 -94q-105 0 -165.5 68.5t-60.5 203.5q0 130 37.5 235t113 167t183.5 62q109 0 180 -82zM458 962l60 -131l-226 -88l-43 87
z" />
    <glyph glyph-name="Ccaron" unicode="&#x10c;" horiz-adv-x="488" 
d="M537 634l-98 -100q-39 39 -84 39q-46 0 -76 -51t-43 -127.5t-13 -154.5q0 -59 16.5 -85t50.5 -26q25 0 48.5 12.5t58.5 38.5l69 -106q-98 -94 -217 -94q-105 0 -165.5 68.5t-60.5 203.5q0 130 37.5 235t113 167t183.5 62q109 0 180 -82zM491 958l65 -72l-142 -138h-110
l-109 148l72 62l103 -87z" />
    <glyph glyph-name="Ccedilla" unicode="&#xc7;" horiz-adv-x="488" 
d="M287 -17l-5 -32q81 -13 81 -87q0 -31 -15 -62t-51 -52.5t-95 -21.5q-32 0 -59.5 9.5t-45.5 24.5l51 77q25 -13 50 -13q17 0 27.5 7t10.5 22t-17 21t-56 6l26 104q-78 19 -122 85.5t-44 180.5q0 130 37.5 235t113 167t183.5 62q109 0 180 -82l-98 -100q-39 39 -84 39
q-46 0 -76 -51t-43 -127.5t-13 -154.5q0 -59 16.5 -85t50.5 -26q25 0 48.5 12.5t58.5 38.5l69 -106q-81 -78 -179 -91z" />
    <glyph glyph-name="Ccircumflex" unicode="&#x108;" horiz-adv-x="488" 
d="M537 634l-98 -100q-39 39 -84 39q-46 0 -76 -51t-43 -127.5t-13 -154.5q0 -59 16.5 -85t50.5 -26q25 0 48.5 12.5t58.5 38.5l69 -106q-98 -94 -217 -94q-105 0 -165.5 68.5t-60.5 203.5q0 130 37.5 235t113 167t183.5 62q109 0 180 -82zM248 756l-65 72l142 138h110
l109 -148l-72 -62l-103 87z" />
    <glyph glyph-name="Cdotaccent" unicode="&#x10a;" horiz-adv-x="488" 
d="M537 634l-98 -100q-39 39 -84 39q-46 0 -76 -51t-43 -127.5t-13 -154.5q0 -59 16.5 -85t50.5 -26q25 0 48.5 12.5t58.5 38.5l69 -106q-98 -94 -217 -94q-105 0 -165.5 68.5t-60.5 203.5q0 130 37.5 235t113 167t183.5 62q109 0 180 -82zM297 770q-24 24 -24 64
q0 51 33.5 84t82.5 33q44 0 68 -24t24 -64q0 -51 -33.5 -84t-82.5 -33q-44 0 -68 24z" />
    <glyph glyph-name="uniA7B3" unicode="&#xa7b3;" horiz-adv-x="494" 
d="M560 696l-200 -413l84 -459h-200l-20 328l-88 -328h-210l203 457l-69 415h200l7 -293l89 293h204z" />
    <glyph glyph-name="uni0187" unicode="&#x187;" horiz-adv-x="490" 
d="M689 823l-64 -114q-24 15 -45 15q-17 0 -26 -14t-13 -43l-4 -33l-94 -96q-24 17 -44.5 26t-43.5 9q-46 0 -76 -51t-43 -127.5t-13 -154.5q0 -59 16.5 -85t50.5 -26q25 0 48.5 12.5t58.5 38.5l69 -106q-98 -94 -217 -94q-105 0 -165.5 68.5t-60.5 203.5q0 127 38 233
t106.5 168.5t156.5 62.5q38 0 68 -13l2 12q10 64 53.5 105t119.5 41q68 0 122 -38z" />
    <glyph glyph-name="uni023B" unicode="&#x23b;" horiz-adv-x="488" 
d="M338.5 141.5q23.5 12.5 58.5 38.5l69 -106q-98 -94 -217 -94q-27 0 -47 4l-22 -60l-58 16l22 62q-58 28 -89.5 90.5t-31.5 159.5q0 130 37.5 235t113 167t183.5 62q25 0 44 -4l16 46l57 -16l-17 -47q46 -21 80 -61l-98 -100q-16 16 -31 24l-151 -421q14 -8 33 -8
q25 0 48.5 12.5zM223 221l127 352q-44 -3 -72.5 -54.5t-41.5 -126.5t-13 -152v-19z" />
    <glyph glyph-name="D" unicode="D" horiz-adv-x="550" 
d="M477.5 642q71.5 -54 71.5 -197q0 -208 -85 -326.5t-266 -118.5h-208l98 696h197q121 0 192.5 -54zM262 557l-58 -417h23q67 0 96.5 97.5t29.5 214.5q0 56 -15.5 80.5t-48.5 24.5h-27z" />
    <glyph glyph-name="uni01F1" unicode="&#x1f1;" horiz-adv-x="982" 
d="M477.5 642q71.5 -54 71.5 -197q0 -208 -85 -326.5t-266 -118.5h-208l98 696h197q121 0 192.5 -54zM262 557l-58 -417h23q67 0 96.5 97.5t29.5 214.5q0 56 -15.5 80.5t-48.5 24.5h-27zM490 0l21 145l279 401h-206l23 150h417l-22 -147l-279 -394h240l-43 -155h-430z" />
    <glyph glyph-name="uni01C4" unicode="&#x1c4;" horiz-adv-x="982" 
d="M477.5 642q71.5 -54 71.5 -197q0 -208 -85 -326.5t-266 -118.5h-208l98 696h197q121 0 192.5 -54zM262 557l-58 -417h23q67 0 96.5 97.5t29.5 214.5q0 56 -15.5 80.5t-48.5 24.5h-27zM490 0l21 145l279 401h-206l23 150h417l-22 -147l-279 -394h240l-43 -155h-430z
M949 958l65 -72l-142 -138h-110l-109 148l72 62l103 -87z" />
    <glyph glyph-name="uni0189" unicode="&#x189;" horiz-adv-x="558" 
d="M485.5 642q71.5 -54 71.5 -197q0 -208 -85 -326.5t-266 -118.5h-208l42 297h-31l18 112h29l40 287h197q121 0 192.5 -54zM331.5 237.5q29.5 97.5 29.5 214.5q0 56 -15.5 80.5t-48.5 24.5h-27l-21 -148h87l-18 -112h-84l-22 -157h23q67 0 96.5 97.5z" />
    <glyph glyph-name="Eth" unicode="&#xd0;" horiz-adv-x="558" 
d="M485.5 642q71.5 -54 71.5 -197q0 -208 -85 -326.5t-266 -118.5h-208l42 297h-31l18 112h29l40 287h197q121 0 192.5 -54zM331.5 237.5q29.5 97.5 29.5 214.5q0 56 -15.5 80.5t-48.5 24.5h-27l-21 -148h87l-18 -112h-84l-22 -157h23q67 0 96.5 97.5z" />
    <glyph glyph-name="Dcaron" unicode="&#x10e;" horiz-adv-x="550" 
d="M477.5 642q71.5 -54 71.5 -197q0 -208 -85 -326.5t-266 -118.5h-208l98 696h197q121 0 192.5 -54zM262 557l-58 -417h23q67 0 96.5 97.5t29.5 214.5q0 56 -15.5 80.5t-48.5 24.5h-27zM437 958l65 -72l-142 -138h-110l-109 148l72 62l103 -87z" />
    <glyph glyph-name="uni1E12" unicode="&#x1e12;" horiz-adv-x="550" 
d="M477.5 642q71.5 -54 71.5 -197q0 -208 -85 -326.5t-266 -118.5h-208l98 696h197q121 0 192.5 -54zM262 557l-58 -417h23q67 0 96.5 97.5t29.5 214.5q0 56 -15.5 80.5t-48.5 24.5h-27zM61 -281l-60 72l142 148h110l108 -157l-76 -63l-98 97z" />
    <glyph glyph-name="Dcroat" unicode="&#x110;" horiz-adv-x="558" 
d="M485.5 642q71.5 -54 71.5 -197q0 -208 -85 -326.5t-266 -118.5h-208l42 297h-31l18 112h29l40 287h197q121 0 192.5 -54zM331.5 237.5q29.5 97.5 29.5 214.5q0 56 -15.5 80.5t-48.5 24.5h-27l-21 -148h87l-18 -112h-84l-22 -157h23q67 0 96.5 97.5z" />
    <glyph glyph-name="uni1E0A" unicode="&#x1e0a;" horiz-adv-x="550" 
d="M477.5 642q71.5 -54 71.5 -197q0 -208 -85 -326.5t-266 -118.5h-208l98 696h197q121 0 192.5 -54zM262 557l-58 -417h23q67 0 96.5 97.5t29.5 214.5q0 56 -15.5 80.5t-48.5 24.5h-27zM243 770q-24 24 -24 64q0 51 33.5 84t82.5 33q44 0 68 -24t24 -64q0 -51 -33.5 -84
t-82.5 -33q-44 0 -68 24z" />
    <glyph glyph-name="uni1E0C" unicode="&#x1e0c;" horiz-adv-x="550" 
d="M477.5 642q71.5 -54 71.5 -197q0 -208 -85 -326.5t-266 -118.5h-208l98 696h197q121 0 192.5 -54zM262 557l-58 -417h23q67 0 96.5 97.5t29.5 214.5q0 56 -15.5 80.5t-48.5 24.5h-27zM268 -78q24 -24 24 -64q0 -51 -33.5 -84t-82.5 -33q-44 0 -68 24t-24 64q0 51 33.5 84
t82.5 33q44 0 68 -24z" />
    <glyph glyph-name="uni018A" unicode="&#x18a;" horiz-adv-x="719" 
d="M646.5 642q71.5 -54 71.5 -197q0 -208 -85 -326.5t-266 -118.5h-208l79 558h-24q-17 0 -26.5 -14t-9.5 -40q0 -20 6 -52l-126 -44q-9 27 -14 50t-5 52q0 56 24.5 98.5t67.5 65t98 22.5h225q121 0 192.5 -54zM492.5 237.5q29.5 97.5 29.5 214.5q0 56 -15.5 80.5
t-48.5 24.5h-27l-58 -417h23q67 0 96.5 97.5z" />
    <glyph glyph-name="uni1E0E" unicode="&#x1e0e;" horiz-adv-x="550" 
d="M477.5 642q71.5 -54 71.5 -197q0 -208 -85 -326.5t-266 -118.5h-208l98 696h197q121 0 192.5 -54zM262 557l-58 -417h23q67 0 96.5 97.5t29.5 214.5q0 56 -15.5 80.5t-48.5 24.5h-27zM74 -70h274l-20 -130h-274z" />
    <glyph glyph-name="uni018B" unicode="&#x18b;" horiz-adv-x="506" 
d="M440 0h-218q-109 0 -166 52.5t-57 146.5q0 82 34 139.5t94.5 86.5t138.5 29h43l14 95h-201l20 147h395zM266 140l25 181h-22q-33 0 -50 -30t-17 -82q0 -36 13 -52.5t40 -16.5h11z" />
    <glyph glyph-name="uni01F2" unicode="&#x1f2;" horiz-adv-x="934" 
d="M477.5 642q71.5 -54 71.5 -197q0 -208 -85 -326.5t-266 -118.5h-208l98 696h197q121 0 192.5 -54zM262 557l-58 -417h23q67 0 96.5 97.5t29.5 214.5q0 56 -15.5 80.5t-48.5 24.5h-27zM958 534l-19 -131l-195 -262h169l-37 -141h-371l19 133l195 262h-146l21 139h364z" />
    <glyph glyph-name="uni01C5" unicode="&#x1c5;" horiz-adv-x="934" 
d="M477.5 642q71.5 -54 71.5 -197q0 -208 -85 -326.5t-266 -118.5h-208l98 696h197q121 0 192.5 -54zM262 557l-58 -417h23q67 0 96.5 97.5t29.5 214.5q0 56 -15.5 80.5t-48.5 24.5h-27zM958 534l-19 -131l-195 -262h169l-37 -141h-371l19 133l195 262h-146l21 139h364z
M924 824l60 -72l-142 -148h-110l-99 148l67 72l98 -97z" />
    <glyph glyph-name="E" unicode="E" horiz-adv-x="421" 
d="M476 696l-42 -137h-171l-20 -139h154l-20 -134h-153l-20 -147h188l-20 -139h-382l98 696h388z" />
    <glyph glyph-name="Eacute" unicode="&#xc9;" horiz-adv-x="421" 
d="M476 696l-42 -137h-171l-20 -139h154l-20 -134h-153l-20 -147h188l-20 -139h-382l98 696h388zM387 962l60 -131l-226 -88l-43 87z" />
    <glyph glyph-name="Ebreve" unicode="&#x114;" horiz-adv-x="421" 
d="M476 696l-42 -137h-171l-20 -139h154l-20 -134h-153l-20 -147h188l-20 -139h-382l98 696h388zM187.5 792q-33.5 45 -33.5 113q0 16 1 24l93 15q1 -30 14 -49t39 -19q49 0 72 70l95 -19q-14 -79 -57.5 -129.5t-119.5 -50.5q-70 0 -103.5 45z" />
    <glyph glyph-name="Ecaron" unicode="&#x11a;" horiz-adv-x="421" 
d="M476 696l-42 -137h-171l-20 -139h154l-20 -134h-153l-20 -147h188l-20 -139h-382l98 696h388zM420 958l65 -72l-142 -138h-110l-109 148l72 62l103 -87z" />
    <glyph glyph-name="uni0228" unicode="&#x228;" horiz-adv-x="421" 
d="M263 559l-20 -139h154l-20 -134h-153l-20 -147h188l-20 -139h-143l-8 -49q81 -13 81 -87q0 -31 -15 -62t-51 -52.5t-95 -21.5q-32 0 -59.5 9.5t-45.5 24.5l51 77q25 -13 50 -13q17 0 27.5 7t10.5 22t-17 21t-56 6l29 118h-141l98 696h388l-42 -137h-171z" />
    <glyph glyph-name="Ecircumflex" unicode="&#xca;" horiz-adv-x="421" 
d="M476 696l-42 -137h-171l-20 -139h154l-20 -134h-153l-20 -147h188l-20 -139h-382l98 696h388zM177 756l-65 72l142 138h110l109 -148l-72 -62l-103 87z" />
    <glyph glyph-name="uni1EBE" unicode="&#x1ebe;" horiz-adv-x="421" 
d="M536 1129l87 -93l-174 -153l-62 57zM173 727l-65 72l142 138h110l109 -148l-72 -62l-103 87zM476 696l-42 -137h-171l-20 -139h154l-20 -134h-153l-20 -147h188l-20 -139h-382l98 696h388z" />
    <glyph glyph-name="uni1EC6" unicode="&#x1ec6;" horiz-adv-x="421" 
d="M476 696l-42 -137h-171l-20 -139h154l-20 -134h-153l-20 -147h188l-20 -139h-382l98 696h388zM177 756l-65 72l142 138h110l109 -148l-72 -62l-103 87zM238 -78q24 -24 24 -64q0 -51 -33.5 -84t-82.5 -33q-44 0 -68 24t-24 64q0 51 33.5 84t82.5 33q44 0 68 -24z" />
    <glyph glyph-name="uni1EC0" unicode="&#x1ec0;" horiz-adv-x="421" 
d="M130 1126l95 -191l-78 -52l-129 161zM177 727l-65 72l142 138h110l109 -148l-72 -62l-103 87zM476 696l-42 -137h-171l-20 -139h154l-20 -134h-153l-20 -147h188l-20 -139h-382l98 696h388z" />
    <glyph glyph-name="uni1EC2" unicode="&#x1ec2;" horiz-adv-x="421" 
d="M476 696l-42 -137h-171l-20 -139h154l-20 -134h-153l-20 -147h188l-20 -139h-382l98 696h388zM172 727l-65 72l142 138h110l109 -148l-72 -62l-103 87zM419 967q34 1 48 10.5t14 30.5q0 12 -6 17.5t-20 5.5q-21 0 -50 -13l-15 74q43 26 98 26q52 0 80.5 -26.5t28.5 -69.5
q0 -42 -23.5 -70t-63.5 -37l-4 -40h-98z" />
    <glyph glyph-name="uni1EC4" unicode="&#x1ec4;" horiz-adv-x="421" 
d="M339.5 970q-12.5 6 -28.5 17q-24 16 -35 16q-13 0 -23 -9t-23 -30l-76 41q26 51 62 84.5t72 33.5q19 0 31.5 -6t30.5 -18q20 -16 33 -16q10 0 20 9t23 29l75 -39q-24 -51 -60.5 -84.5t-73.5 -33.5q-15 0 -27.5 6zM176 727l-65 72l142 138h110l109 -148l-72 -62l-103 87z
M476 696l-42 -137h-171l-20 -139h154l-20 -134h-153l-20 -147h188l-20 -139h-382l98 696h388z" />
    <glyph glyph-name="uni0204" unicode="&#x204;" horiz-adv-x="421" 
d="M476 696l-42 -137h-171l-20 -139h154l-20 -134h-153l-20 -147h188l-20 -139h-382l98 696h388zM210 1000l61 -213l-99 -40l-90 201zM371 1000l55 -215l-98 -34l-85 202z" />
    <glyph glyph-name="Edieresis" unicode="&#xcb;" horiz-adv-x="421" 
d="M476 696l-42 -137h-171l-20 -139h154l-20 -134h-153l-20 -147h188l-20 -139h-382l98 696h388zM125.5 782q-20.5 21 -20.5 56q0 43 29 72.5t70 29.5q38 0 58.5 -21t20.5 -56q0 -43 -29 -72.5t-71 -29.5q-37 0 -57.5 21zM337 782q-21 21 -21 56q0 43 29 72.5t70 29.5
q37 0 58 -21t21 -56q0 -43 -29 -72.5t-70 -29.5q-37 0 -58 21z" />
    <glyph glyph-name="Edotaccent" unicode="&#x116;" horiz-adv-x="421" 
d="M476 696l-42 -137h-171l-20 -139h154l-20 -134h-153l-20 -147h188l-20 -139h-382l98 696h388zM226 770q-24 24 -24 64q0 51 33.5 84t82.5 33q44 0 68 -24t24 -64q0 -51 -33.5 -84t-82.5 -33q-44 0 -68 24z" />
    <glyph glyph-name="uni1EB8" unicode="&#x1eb8;" horiz-adv-x="421" 
d="M476 696l-42 -137h-171l-20 -139h154l-20 -134h-153l-20 -147h188l-20 -139h-382l98 696h388zM238 -78q24 -24 24 -64q0 -51 -33.5 -84t-82.5 -33q-44 0 -68 24t-24 64q0 51 33.5 84t82.5 33q44 0 68 -24z" />
    <glyph glyph-name="Egrave" unicode="&#xc8;" horiz-adv-x="421" 
d="M476 696l-42 -137h-171l-20 -139h154l-20 -134h-153l-20 -147h188l-20 -139h-382l98 696h388zM260 958l182 -133l-54 -81l-204 85z" />
    <glyph glyph-name="uni1EBA" unicode="&#x1eba;" horiz-adv-x="421" 
d="M476 696l-42 -137h-171l-20 -139h154l-20 -134h-153l-20 -147h188l-20 -139h-382l98 696h388zM253 856q34 1 48 10.5t14 30.5q0 12 -6 17.5t-20 5.5q-21 0 -50 -13l-15 74q43 26 98 26q52 0 80.5 -26.5t28.5 -69.5q0 -42 -23.5 -70t-63.5 -37l-4 -40h-98z" />
    <glyph glyph-name="uni0206" unicode="&#x206;" horiz-adv-x="421" 
d="M476 696l-42 -137h-171l-20 -139h154l-20 -134h-153l-20 -147h188l-20 -139h-382l98 696h388zM132 775q17 84 63 137t121 53q71 0 104.5 -46t33.5 -119q0 -18 -1 -27l-98 -14q-2 77 -52 77q-27 0 -46.5 -21t-31.5 -59z" />
    <glyph glyph-name="Emacron" unicode="&#x112;" horiz-adv-x="421" 
d="M476 696l-42 -137h-171l-20 -139h154l-20 -134h-153l-20 -147h188l-20 -139h-382l98 696h388zM425 775h-274l20 130h274z" />
    <glyph glyph-name="Eogonek" unicode="&#x118;" horiz-adv-x="421" 
d="M263 559l-20 -139h154l-20 -134h-153l-20 -147h188l-20 -139h-32q-60 -25 -82.5 -54.5t-22.5 -54.5q0 -32 37 -32q18 0 46 5l-26 -108q-29 -8 -63 -8q-53 0 -87.5 31t-34.5 85q0 82 81 136h-198l98 696h388l-42 -137h-171z" />
    <glyph glyph-name="uni0190" unicode="&#x190;" horiz-adv-x="454" 
d="M421 691.5q46 -23.5 82 -72.5l-100 -92q-21 25 -41 37t-43 12q-29 0 -46 -23.5t-17 -62.5q0 -56 60 -56h54l-41 -137h-33q-49 0 -76.5 -27.5t-27.5 -78.5q0 -36 14 -52.5t42 -16.5q26 0 50 13t57 41l83 -97q-90 -98 -227 -98q-101 0 -159.5 50t-58.5 135q0 182 196 201
q-69 15 -98 49.5t-29 87.5q0 63 35 111t91 74t117 26q70 0 116 -23.5z" />
    <glyph glyph-name="uni018E" unicode="&#x18e;" horiz-adv-x="415" 
d="M66 696h380l-97 -696h-382l20 139h187l21 147h-155l20 134h154l19 139h-187z" />
    <glyph glyph-name="uni01A9" unicode="&#x1a9;" horiz-adv-x="416" 
d="M468 696l-20 -139h-207l94 -185l-9 -68l-131 -161h199l-21 -143h-402l21 139l166 212l-112 206l20 139h402z" />
    <glyph glyph-name="uni0246" unicode="&#x246;" horiz-adv-x="421" 
d="M434 559h-27l-50 -139h40l-20 -134h-68l-53 -147h136l-20 -139h-166l-27 -76l-57 16l22 60h-154l98 696h306l22 62l57 -16l-17 -46h20zM295 420l49 139h-81l-20 -139h52zM210 186l36 100h-22z" />
    <glyph glyph-name="uni1EBC" unicode="&#x1ebc;" horiz-adv-x="421" 
d="M476 696l-42 -137h-171l-20 -139h154l-20 -134h-153l-20 -147h188l-20 -139h-382l98 696h388zM315 757.5q-12 6.5 -30 18.5q-2 2 -10 7.5t-14 8t-12 2.5q-13 0 -23 -10.5t-24 -33.5l-77 46q25 57 62 94t74 37q19 0 33 -7t30 -20q9 -7 17.5 -12t16.5 -5q11 0 21 10t23 32
l77 -43q-24 -57 -61.5 -94t-75.5 -37q-15 0 -27 6.5z" />
    <glyph glyph-name="uni01B7" unicode="&#x1b7;" horiz-adv-x="470" 
d="M466 562l-145 -157q67 -7 103.5 -48.5t36.5 -112.5q0 -82 -37.5 -141.5t-100 -90.5t-136.5 -31q-78 0 -127 28t-82 81l110 89q25 -30 46.5 -43t50.5 -13q32 0 55 30.5t23 78.5q0 34 -17.5 50t-45.5 16h-90l16 104l138 155h-185l22 139h386z" />
    <glyph glyph-name="uni01EE" unicode="&#x1ee;" horiz-adv-x="470" 
d="M466 562l-145 -157q67 -7 103.5 -48.5t36.5 -112.5q0 -82 -37.5 -141.5t-100 -90.5t-136.5 -31q-78 0 -127 28t-82 81l110 89q25 -30 46.5 -43t50.5 -13q32 0 55 30.5t23 78.5q0 34 -17.5 50t-45.5 16h-90l16 104l138 155h-185l22 139h386zM433 958l65 -72l-142 -138
h-110l-109 148l72 62l103 -87z" />
    <glyph glyph-name="uni01B8" unicode="&#x1b8;" horiz-adv-x="473" 
d="M466 557h-195l112 -157l-17 -101l1 -1h-80q-91 0 -91 -108q0 -67 50 -67q26 0 52.5 15t61.5 46l85 -96q-44 -52 -99.5 -79.5t-130.5 -27.5q-105 0 -163 54t-58 148q0 61 26 109.5t72.5 78t104.5 34.5l-115 157l21 134h385z" />
    <glyph glyph-name="F" unicode="F" horiz-adv-x="397" 
d="M462 696l-43 -137h-156l-22 -160h142l-22 -138h-140l-37 -261h-194l98 696h374z" />
    <glyph glyph-name="uni1E1E" unicode="&#x1e1e;" horiz-adv-x="397" 
d="M462 696l-43 -137h-156l-22 -160h142l-22 -138h-140l-37 -261h-194l98 696h374zM219 770q-24 24 -24 64q0 51 33.5 84t82.5 33q44 0 68 -24t24 -64q0 -51 -33.5 -84t-82.5 -33q-44 0 -68 24z" />
    <glyph glyph-name="uni0191" unicode="&#x191;" horiz-adv-x="397" 
d="M263 559l-22 -160h142l-22 -138h-140l-37 -261l-4 -31q-14 -95 -76 -145.5t-154 -50.5q-85 0 -135 46l77 111q15 -9 25 -12.5t23 -3.5q19 0 30.5 12t14.5 34l5 40l98 696h374l-43 -137h-156z" />
    <glyph glyph-name="G" unicode="G" horiz-adv-x="547" 
d="M488.5 691q49.5 -25 83.5 -66l-101 -93q-25 24 -47.5 34.5t-51.5 10.5q-81 0 -118 -110.5t-37 -253.5q0 -49 12.5 -70.5t37.5 -21.5q28 0 55 20l19 132h-48l1 134h246l-48 -349q-52 -37 -115.5 -57t-119.5 -20q-236 0 -236 263q0 129 41.5 237t121.5 171.5t191 63.5
q64 0 113.5 -25z" />
    <glyph glyph-name="uni01F4" unicode="&#x1f4;" horiz-adv-x="547" 
d="M488.5 691q49.5 -25 83.5 -66l-101 -93q-25 24 -47.5 34.5t-51.5 10.5q-81 0 -118 -110.5t-37 -253.5q0 -49 12.5 -70.5t37.5 -21.5q28 0 55 20l19 132h-48l1 134h246l-48 -349q-52 -37 -115.5 -57t-119.5 -20q-236 0 -236 263q0 129 41.5 237t121.5 171.5t191 63.5
q64 0 113.5 -25zM466 962l60 -131l-226 -88l-43 87z" />
    <glyph glyph-name="uni0194" unicode="&#x194;" horiz-adv-x="488" 
d="M312 95q20 -53 29.5 -86t9.5 -67q0 -82 -44.5 -125t-125.5 -43q-66 0 -99.5 33t-33.5 90q0 51 21 100.5t62 105.5l-91 593h197l8 -467l126 467h197zM211 7q-33 -60 -33 -93q0 -23 17 -23q26 0 26 46q0 31 -10 70z" />
    <glyph glyph-name="Gbreve" unicode="&#x11e;" horiz-adv-x="547" 
d="M488.5 691q49.5 -25 83.5 -66l-101 -93q-25 24 -47.5 34.5t-51.5 10.5q-81 0 -118 -110.5t-37 -253.5q0 -49 12.5 -70.5t37.5 -21.5q28 0 55 20l19 132h-48l1 134h246l-48 -349q-52 -37 -115.5 -57t-119.5 -20q-236 0 -236 263q0 129 41.5 237t121.5 171.5t191 63.5
q64 0 113.5 -25zM266.5 792q-33.5 45 -33.5 113q0 16 1 24l93 15q1 -30 14 -49t39 -19q49 0 72 70l95 -19q-14 -79 -57.5 -129.5t-119.5 -50.5q-70 0 -103.5 45z" />
    <glyph glyph-name="Gcaron" unicode="&#x1e6;" horiz-adv-x="547" 
d="M488.5 691q49.5 -25 83.5 -66l-101 -93q-25 24 -47.5 34.5t-51.5 10.5q-81 0 -118 -110.5t-37 -253.5q0 -49 12.5 -70.5t37.5 -21.5q28 0 55 20l19 132h-48l1 134h246l-48 -349q-52 -37 -115.5 -57t-119.5 -20q-236 0 -236 263q0 129 41.5 237t121.5 171.5t191 63.5
q64 0 113.5 -25zM499 958l65 -72l-142 -138h-110l-109 148l72 62l103 -87z" />
    <glyph glyph-name="Gcircumflex" unicode="&#x11c;" horiz-adv-x="547" 
d="M488.5 691q49.5 -25 83.5 -66l-101 -93q-25 24 -47.5 34.5t-51.5 10.5q-81 0 -118 -110.5t-37 -253.5q0 -49 12.5 -70.5t37.5 -21.5q28 0 55 20l19 132h-48l1 134h246l-48 -349q-52 -37 -115.5 -57t-119.5 -20q-236 0 -236 263q0 129 41.5 237t121.5 171.5t191 63.5
q64 0 113.5 -25zM256 756l-65 72l142 138h110l109 -148l-72 -62l-103 87z" />
    <glyph glyph-name="Gcommaaccent" unicode="&#x122;" horiz-adv-x="547" 
d="M488.5 691q49.5 -25 83.5 -66l-101 -93q-25 24 -47.5 34.5t-51.5 10.5q-81 0 -118 -110.5t-37 -253.5q0 -49 12.5 -70.5t37.5 -21.5q28 0 55 20l19 132h-48l1 134h246l-48 -349q-52 -37 -115.5 -57t-119.5 -20q-236 0 -236 263q0 129 41.5 237t121.5 171.5t191 63.5
q64 0 113.5 -25zM309.5 -84q21.5 -21 21.5 -55q0 -25 -8 -46t-29 -57l-56 -97h-86l38 117q-30 21 -30 57q0 45 26.5 73.5t66.5 28.5q35 0 56.5 -21z" />
    <glyph glyph-name="Gdotaccent" unicode="&#x120;" horiz-adv-x="547" 
d="M488.5 691q49.5 -25 83.5 -66l-101 -93q-25 24 -47.5 34.5t-51.5 10.5q-81 0 -118 -110.5t-37 -253.5q0 -49 12.5 -70.5t37.5 -21.5q28 0 55 20l19 132h-48l1 134h246l-48 -349q-52 -37 -115.5 -57t-119.5 -20q-236 0 -236 263q0 129 41.5 237t121.5 171.5t191 63.5
q64 0 113.5 -25zM305 770q-24 24 -24 64q0 51 33.5 84t82.5 33q44 0 68 -24t24 -64q0 -51 -33.5 -84t-82.5 -33q-44 0 -68 24z" />
    <glyph glyph-name="uni0193" unicode="&#x193;" horiz-adv-x="527" 
d="M726 823l-64 -114q-24 15 -45 15q-17 0 -26 -14t-13 -43l-6 -42l-92 -88q-26 21 -52 30.5t-56 9.5q-81 0 -118 -110.5t-37 -253.5q0 -49 12.5 -70.5t37.5 -21.5q28 0 55 20l19 132h-48l1 134h246l-48 -349q-52 -37 -115.5 -57t-119.5 -20q-236 0 -236 263q0 128 40.5 236
t115.5 172t174 64q46 0 78 -16l2 15q11 65 54 105.5t119 40.5q68 0 122 -38z" />
    <glyph glyph-name="uni0241" unicode="&#x241;" horiz-adv-x="459" 
d="M134 336l33 13q54 21 81.5 58t27.5 98q0 71 -49 71q-24 0 -46 -12t-51 -38l-75 95q52 49 101.5 71.5t114.5 22.5q93 0 148.5 -52.5t55.5 -143.5q0 -84 -31 -137.5t-97 -83.5l-26 -12l-40 -286h-194z" />
    <glyph glyph-name="uni01E4" unicode="&#x1e4;" horiz-adv-x="575" 
d="M562 173h-55l-15 -115q-52 -37 -115.5 -57t-119.5 -20q-236 0 -236 263q0 129 41.5 237t121.5 171.5t191 63.5q64 0 113.5 -25t83.5 -66l-101 -93q-25 24 -47.5 34.5t-51.5 10.5q-81 0 -118 -110.5t-37 -253.5q0 -49 12.5 -70.5t37.5 -21.5q30 0 65 20l4 32h-57l13 100
h57l6 47h-58l-4 109h246l-20 -156h56z" />
    <glyph glyph-name="uni021C" unicode="&#x21c;" horiz-adv-x="432" 
d="M400 669q52 -47 52 -123q0 -74 -43.5 -121t-135.5 -68q76 -1 111.5 -34t35.5 -97q0 -133 -121 -219.5t-305 -125.5l11 139q74 27 118 51.5t69 61t25 92.5q0 34 -16 48t-57 14h-55l40 137h41q44 0 62.5 26.5t18.5 72.5q0 54 -39 54q-22 0 -46 -12.5t-55 -39.5l-71 97
q97 94 221 94q87 0 139 -47z" />
    <glyph glyph-name="H" unicode="H" horiz-adv-x="536" 
d="M184 0h-194l98 696h194l-37 -260h92l36 260h194l-97 -696h-194l40 284h-92z" />
    <glyph glyph-name="Hbar" unicode="&#x126;" horiz-adv-x="552" 
d="M599 599l-15 -103h-35l-69 -496h-194l40 284h-92l-40 -284h-194l70 496h-37l14 103h37l14 97h194l-14 -97h92l13 97h194l-14 -97h36zM347 436l8 60h-91l-9 -60h92z" />
    <glyph glyph-name="uni021E" unicode="&#x21e;" horiz-adv-x="536" 
d="M184 0h-194l98 696h194l-37 -260h92l36 260h194l-97 -696h-194l40 284h-92zM467 958l65 -72l-142 -138h-110l-109 148l72 62l103 -87z" />
    <glyph glyph-name="Hcircumflex" unicode="&#x124;" horiz-adv-x="536" 
d="M184 0h-194l98 696h194l-37 -260h92l36 260h194l-97 -696h-194l40 284h-92zM224 756l-65 72l142 138h110l109 -148l-72 -62l-103 87z" />
    <glyph glyph-name="uni1E24" unicode="&#x1e24;" horiz-adv-x="536" 
d="M184 0h-194l98 696h194l-37 -260h92l36 260h194l-97 -696h-194l40 284h-92zM284 -78q24 -24 24 -64q0 -51 -33.5 -84t-82.5 -33q-44 0 -68 24t-24 64q0 51 33.5 84t82.5 33q44 0 68 -24z" />
    <glyph glyph-name="uniA7AA" unicode="&#xa7aa;" horiz-adv-x="705" 
d="M736 696l-97 -696h-194l40 284h-92l-40 -284h-194l79 558h-24q-17 0 -26.5 -14t-9.5 -40q0 -20 6 -52l-126 -44q-9 27 -14 50t-5 52q0 56 24.5 98.5t67.5 65t98 22.5h222l-37 -260h92l36 260h194z" />
    <glyph glyph-name="uniA78D" unicode="&#xa78d;" horiz-adv-x="517" 
d="M548 696l-97 -696h-193l33 239q-51 -42 -116 -42q-73 0 -111 47.5t-38 126.5q0 24 3 49l38 276h189l-37 -283q-2 -20 -2 -27q0 -23 8.5 -35.5t29.5 -12.5q30 0 54 26l46 332h193z" />
    <glyph glyph-name="uni01F6" unicode="&#x1f6;" horiz-adv-x="765" 
d="M379 4q-42 23 -61.5 59.5t-19.5 79.5q0 9 2 25l16 116h-92l-40 -284h-194l98 696h194l-37 -260h92l36 260h194l-75 -538q-2 -14 -2 -19q0 -22 17 -22q38 0 56 106.5t18 223.5q0 31 -2 87h175q5 -53 5 -88q0 -147 -20.5 -246.5t-81 -159t-174.5 -59.5q-62 0 -104 23z" />
    <glyph glyph-name="I" unicode="I" horiz-adv-x="250" 
d="M282 696l-98 -696h-194l98 696h194z" />
    <glyph glyph-name="IJ" unicode="&#x132;" horiz-adv-x="528" 
d="M282 696l-98 -696h-194l98 696h194zM478 104q-13 -92 -51 -149t-88.5 -86.5t-121.5 -53.5l-32 136q50 24 70.5 60.5t30.5 106.5l81 578h194z" />
    <glyph glyph-name="Iacute" unicode="&#xcd;" horiz-adv-x="250" 
d="M282 696l-98 -696h-194l98 696h194zM291 962l60 -131l-226 -88l-43 87z" />
    <glyph glyph-name="Ibreve" unicode="&#x12c;" horiz-adv-x="250" 
d="M282 696l-98 -696h-194l98 696h194zM91.5 792q-33.5 45 -33.5 113q0 16 1 24l93 15q1 -30 14 -49t39 -19q49 0 72 70l95 -19q-14 -79 -57.5 -129.5t-119.5 -50.5q-70 0 -103.5 45z" />
    <glyph glyph-name="uni01CF" unicode="&#x1cf;" horiz-adv-x="250" 
d="M282 696l-98 -696h-194l98 696h194zM324 958l65 -72l-142 -138h-110l-109 148l72 62l103 -87z" />
    <glyph glyph-name="Icircumflex" unicode="&#xce;" horiz-adv-x="250" 
d="M282 696l-98 -696h-194l98 696h194zM81 756l-65 72l142 138h110l109 -148l-72 -62l-103 87z" />
    <glyph glyph-name="uni0208" unicode="&#x208;" horiz-adv-x="250" 
d="M282 696l-98 -696h-194l98 696h194zM114 1000l61 -213l-99 -40l-90 201zM275 1000l55 -215l-98 -34l-85 202z" />
    <glyph glyph-name="Idieresis" unicode="&#xcf;" horiz-adv-x="250" 
d="M282 696l-98 -696h-194l98 696h194zM29.5 782q-20.5 21 -20.5 56q0 43 29 72.5t70 29.5q38 0 58.5 -21t20.5 -56q0 -43 -29 -72.5t-71 -29.5q-37 0 -57.5 21zM241 782q-21 21 -21 56q0 43 29 72.5t70 29.5q37 0 58 -21t21 -56q0 -43 -29 -72.5t-70 -29.5q-37 0 -58 21z
" />
    <glyph glyph-name="uni1E2E" unicode="&#x1e2e;" horiz-adv-x="250" 
d="M282 696l-98 -696h-194l98 696h194zM298 1136l87 -93l-174 -153l-62 57zM22.5 770q-20.5 21 -20.5 56q0 43 29 72.5t71 29.5q37 0 57.5 -21t20.5 -56q0 -43 -29 -72.5t-71 -29.5q-37 0 -57.5 21zM251.5 770q-20.5 21 -20.5 56q0 43 29 72.5t71 29.5q37 0 57.5 -21
t20.5 -56q0 -43 -29 -72.5t-71 -29.5q-37 0 -57.5 21z" />
    <glyph glyph-name="Idotaccent" unicode="&#x130;" horiz-adv-x="250" 
d="M282 696l-98 -696h-194l98 696h194zM130 770q-24 24 -24 64q0 51 33.5 84t82.5 33q44 0 68 -24t24 -64q0 -51 -33.5 -84t-82.5 -33q-44 0 -68 24z" />
    <glyph glyph-name="uni1ECA" unicode="&#x1eca;" horiz-adv-x="250" 
d="M282 696l-98 -696h-194l98 696h194zM144 -78q24 -24 24 -64q0 -51 -33.5 -84t-82.5 -33q-44 0 -68 24t-24 64q0 51 33.5 84t82.5 33q44 0 68 -24z" />
    <glyph glyph-name="Igrave" unicode="&#xcc;" horiz-adv-x="250" 
d="M282 696l-98 -696h-194l98 696h194zM164 958l182 -133l-54 -81l-204 85z" />
    <glyph glyph-name="uni1EC8" unicode="&#x1ec8;" horiz-adv-x="250" 
d="M282 696l-98 -696h-194l98 696h194zM157 856q34 1 48 10.5t14 30.5q0 12 -6 17.5t-20 5.5q-21 0 -50 -13l-15 74q43 26 98 26q52 0 80.5 -26.5t28.5 -69.5q0 -42 -23.5 -70t-63.5 -37l-4 -40h-98z" />
    <glyph glyph-name="uni020A" unicode="&#x20a;" horiz-adv-x="250" 
d="M282 696l-98 -696h-194l98 696h194zM36 775q17 84 63 137t121 53q71 0 104.5 -46t33.5 -119q0 -18 -1 -27l-98 -14q-2 77 -52 77q-27 0 -46.5 -21t-31.5 -59z" />
    <glyph glyph-name="Imacron" unicode="&#x12a;" horiz-adv-x="250" 
d="M282 696l-98 -696h-194l98 696h194zM329 775h-274l20 130h274z" />
    <glyph glyph-name="Iogonek" unicode="&#x12e;" horiz-adv-x="250" 
d="M282 696l-98 -696h-48q-60 -25 -82.5 -54.5t-22.5 -54.5q0 -32 37 -32q18 0 46 5l-26 -108q-29 -8 -63 -8q-53 0 -87.5 31t-34.5 85q0 84 88 140l97 692h194z" />
    <glyph glyph-name="uni0196" unicode="&#x196;" horiz-adv-x="345" 
d="M326 24q-62 -43 -143 -43q-85 0 -131.5 42t-46.5 122q0 10 2 34l3 28l69 489h193l-68 -489l-5 -43q-2 -20 5.5 -31.5t24.5 -11.5q14 0 26 3.5t30 12.5z" />
    <glyph glyph-name="uni0197" unicode="&#x197;" horiz-adv-x="288" 
d="M311 432l-19 -144h-46l-41 -288h-194l41 288h-48l19 144h49l37 264h194l-37 -264h45z" />
    <glyph glyph-name="Itilde" unicode="&#x128;" horiz-adv-x="250" 
d="M282 696l-98 -696h-194l98 696h194zM219 757.5q-12 6.5 -30 18.5q-2 2 -10 7.5t-14 8t-12 2.5q-13 0 -23 -10.5t-24 -33.5l-77 46q25 57 62 94t74 37q19 0 33 -7t30 -20q9 -7 17.5 -12t16.5 -5q11 0 21 10t23 32l77 -43q-24 -57 -61.5 -94t-75.5 -37q-15 0 -27 6.5z" />
    <glyph glyph-name="J" unicode="J" horiz-adv-x="278" 
d="M228 104q-13 -92 -51 -149t-88.5 -86.5t-121.5 -53.5l-32 136q50 24 70.5 60.5t30.5 106.5l81 578h194z" />
    <glyph glyph-name="Jcircumflex" unicode="&#x134;" horiz-adv-x="278" 
d="M228 104q-13 -92 -51 -149t-88.5 -86.5t-121.5 -53.5l-32 136q50 24 70.5 60.5t30.5 106.5l81 578h194zM109 756l-65 72l142 138h110l109 -148l-72 -62l-103 87z" />
    <glyph glyph-name="uniA7B2" unicode="&#xa7b2;" horiz-adv-x="339" 
d="M272 -9q31 -13 63 -37l-43 -69q-18 11 -43 21q-27 -67 -78.5 -99.5t-136.5 -32.5q-70 0 -107.5 30.5t-37.5 86.5q0 65 42 100.5t106 35.5q25 0 45 -3l94 672h194l-95 -686zM52.5 -116.5q11.5 17.5 17.5 55.5q-18 3 -33 3q-21 0 -31.5 -11.5t-10.5 -32.5q0 -15 6.5 -23.5
t19.5 -8.5q20 0 31.5 17.5z" />
    <glyph glyph-name="uni0248" unicode="&#x248;" horiz-adv-x="291" 
d="M293 271h-46l-23 -167q-13 -92 -51 -149t-88.5 -86.5t-121.5 -53.5l-32 136q50 24 70.5 60.5t30.5 106.5l21 153h-48l19 144h50l39 281h194l-39 -281h44z" />
    <glyph glyph-name="K" unicode="K" horiz-adv-x="566" 
d="M-10 0l98 696h194l-98 -696h-194zM329 0l-88 371l187 325h192l-185 -320l103 -376h-209z" />
    <glyph glyph-name="uni01E8" unicode="&#x1e8;" horiz-adv-x="566" 
d="M-10 0l98 696h194l-98 -696h-194zM329 0l-88 371l187 325h192l-185 -320l103 -376h-209zM472 958l65 -72l-142 -138h-110l-109 148l72 62l103 -87z" />
    <glyph glyph-name="Kcommaaccent" unicode="&#x136;" horiz-adv-x="566" 
d="M-10 0l98 696h194l-98 -696h-194zM329 0l-88 371l187 325h192l-185 -320l103 -376h-209zM292.5 -84q21.5 -21 21.5 -55q0 -25 -8 -46t-29 -57l-56 -97h-86l38 117q-30 21 -30 57q0 45 26.5 73.5t66.5 28.5q35 0 56.5 -21z" />
    <glyph glyph-name="uni0198" unicode="&#x198;" horiz-adv-x="572" 
d="M241 371l122 226q35 65 74 91.5t98 26.5q63 0 105 -36l-57 -108q-14 7 -26 7q-24 0 -37 -26l-84 -175l102 -377h-209zM-10 0l98 696h194l-98 -696h-194z" />
    <glyph glyph-name="L" unicode="L" horiz-adv-x="428" 
d="M282 696l-76 -544h208l-43 -152h-381l98 696h194z" />
    <glyph glyph-name="uni01C7" unicode="&#x1c7;" horiz-adv-x="681" 
d="M282 696l-76 -544h208l-43 -152h-381l98 696h194zM631 104q-13 -92 -51 -149t-88.5 -86.5t-121.5 -53.5l-32 136q50 24 70.5 60.5t30.5 106.5l81 578h194z" />
    <glyph glyph-name="Lacute" unicode="&#x139;" horiz-adv-x="428" 
d="M282 696l-76 -544h208l-43 -152h-381l98 696h194zM291 962l60 -131l-226 -88l-43 87z" />
    <glyph glyph-name="uni023D" unicode="&#x23d;" horiz-adv-x="446" 
d="M224 152h208l-43 -152h-381l41 291h-44l19 144h45l37 261h194l-36 -261h48l-19 -144h-50z" />
    <glyph glyph-name="uniA7AD" unicode="&#xa7ad;" horiz-adv-x="552" 
d="M538 152l-43 -152h-381l35 249q-69 3 -103 35.5t-34 87.5q0 63 38 100.5t99 37.5q18 0 36 -4l27 190h194l-48 -341q38 3 80 9l3 -98q-45 -11 -97 -13l-14 -101h208zM163 351l9 63q-7 3 -16 3q-13 0 -20 -9.5t-7 -24.5q0 -30 34 -32z" />
    <glyph glyph-name="Lcaron" unicode="&#x13d;" horiz-adv-x="428" 
d="M282 696l-76 -544h208l-43 -152h-381l98 696h194zM317 711l126 -16l-73 -231l-91 8z" />
    <glyph glyph-name="uni1E3C" unicode="&#x1e3c;" horiz-adv-x="428" 
d="M282 696l-76 -544h208l-43 -152h-381l98 696h194zM31 -281l-60 72l142 148h110l108 -157l-76 -63l-98 97z" />
    <glyph glyph-name="Lcommaaccent" unicode="&#x13b;" horiz-adv-x="428" 
d="M282 696l-76 -544h208l-43 -152h-381l98 696h194zM234.5 -84q21.5 -21 21.5 -55q0 -25 -8 -46t-29 -57l-56 -97h-86l38 117q-30 21 -30 57q0 45 26.5 73.5t66.5 28.5q35 0 56.5 -21z" />
    <glyph glyph-name="Ldot" unicode="&#x13f;" horiz-adv-x="428" 
d="M282 696l-76 -544h208l-43 -152h-381l98 696h194zM276 324q-24 24 -24 64q0 51 33.5 84t82.5 33q44 0 68 -24t24 -64q0 -51 -33.5 -84t-82.5 -33q-44 0 -68 24z" />
    <glyph glyph-name="uni1E36" unicode="&#x1e36;" horiz-adv-x="428" 
d="M282 696l-76 -544h208l-43 -152h-381l98 696h194zM238 -78q24 -24 24 -64q0 -51 -33.5 -84t-82.5 -33q-44 0 -68 24t-24 64q0 51 33.5 84t82.5 33q44 0 68 -24z" />
    <glyph glyph-name="uni01C8" unicode="&#x1c8;" horiz-adv-x="648" 
d="M282 696l-76 -544h208l-43 -152h-381l98 696h194zM299 -90q52 21 77 53.5t34 99.5l65 471h187l-65 -461q-14 -94 -51 -152.5t-86.5 -89.5t-119.5 -57zM517 644q-24 24 -24 64q0 51 33.5 84t82.5 33q44 0 68 -24t24 -64q0 -51 -33.5 -84t-82.5 -33q-44 0 -68 24z" />
    <glyph glyph-name="Lslash" unicode="&#x141;" horiz-adv-x="476" 
d="M254 152h208l-43 -152h-381l29 209l-25 -17l-46 89l90 58l50 357h194l-31 -219l80 51l46 -89l-144 -92z" />
    <glyph glyph-name="M" unicode="M" horiz-adv-x="662" 
d="M612 0h-187l32 253q7 52 19 121.5t17 98.5l15 82l-114 -484h-184l7 482q-6 -108 -11 -172t-13 -130l-32 -251h-187l135 696h229l-16 -473l103 473h246z" />
    <glyph glyph-name="uni1E3E" unicode="&#x1e3e;" horiz-adv-x="662" 
d="M612 0h-187l32 253q7 52 19 121.5t17 98.5l15 82l-114 -484h-184l7 482q-6 -108 -11 -172t-13 -130l-32 -251h-187l135 696h229l-16 -473l103 473h246zM489 962l60 -131l-226 -88l-43 87z" />
    <glyph glyph-name="uni1E40" unicode="&#x1e40;" horiz-adv-x="662" 
d="M612 0h-187l32 253q7 52 19 121.5t17 98.5l15 82l-114 -484h-184l7 482q-6 -108 -11 -172t-13 -130l-32 -251h-187l135 696h229l-16 -473l103 473h246zM328 770q-24 24 -24 64q0 51 33.5 84t82.5 33q44 0 68 -24t24 -64q0 -51 -33.5 -84t-82.5 -33q-44 0 -68 24z" />
    <glyph glyph-name="uni019C" unicode="&#x19c;" horiz-adv-x="733" 
d="M764 696l-97 -696h-171l-5 54q-35 -40 -64 -56.5t-65 -16.5q-39 0 -66.5 20t-39.5 55q-32 -39 -65.5 -57t-73.5 -18q-55 0 -86 39.5t-31 99.5q0 22 2 33l77 543h194l-75 -536q-1 -4 -1 -12q0 -24 15 -24q17 0 38 41l75 531h193l-74 -536q-1 -5 -1 -13q0 -23 14 -23
q9 0 19 11t19 32l75 529h194z" />
    <glyph glyph-name="N" unicode="N" horiz-adv-x="530" 
d="M464 0h-227l-45 533q4 -86 4 -132q0 -93 -12 -188l-26 -213h-167l97 696h228l43 -534q-3 71 -3 130q0 94 11 180l28 224h166z" />
    <glyph glyph-name="uni01CA" unicode="&#x1ca;" horiz-adv-x="808" 
d="M464 0h-227l-45 533q4 -86 4 -132q0 -93 -12 -188l-26 -213h-167l97 696h228l43 -534q-3 71 -3 130q0 94 11 180l28 224h166zM758 104q-13 -92 -51 -149t-88.5 -86.5t-121.5 -53.5l-32 136q50 24 70.5 60.5t30.5 106.5l81 578h194z" />
    <glyph glyph-name="Nacute" unicode="&#x143;" horiz-adv-x="530" 
d="M464 0h-227l-45 533q4 -86 4 -132q0 -93 -12 -188l-26 -213h-167l97 696h228l43 -534q-3 71 -3 130q0 94 11 180l28 224h166zM428 962l60 -131l-226 -88l-43 87z" />
    <glyph glyph-name="Ncaron" unicode="&#x147;" horiz-adv-x="530" 
d="M464 0h-227l-45 533q4 -86 4 -132q0 -93 -12 -188l-26 -213h-167l97 696h228l43 -534q-3 71 -3 130q0 94 11 180l28 224h166zM461 958l65 -72l-142 -138h-110l-109 148l72 62l103 -87z" />
    <glyph glyph-name="uni1E4A" unicode="&#x1e4a;" horiz-adv-x="530" 
d="M464 0h-227l-45 533q4 -86 4 -132q0 -93 -12 -188l-26 -213h-167l97 696h228l43 -534q-3 71 -3 130q0 94 11 180l28 224h166zM78 -281l-60 72l142 148h110l108 -157l-76 -63l-98 97z" />
    <glyph glyph-name="Ncommaaccent" unicode="&#x145;" horiz-adv-x="530" 
d="M464 0h-227l-45 533q4 -86 4 -132q0 -93 -12 -188l-26 -213h-167l97 696h228l43 -534q-3 71 -3 130q0 94 11 180l28 224h166zM281.5 -84q21.5 -21 21.5 -55q0 -25 -8 -46t-29 -57l-56 -97h-86l38 117q-30 21 -30 57q0 45 26.5 73.5t66.5 28.5q35 0 56.5 -21z" />
    <glyph glyph-name="uni1E44" unicode="&#x1e44;" horiz-adv-x="530" 
d="M464 0h-227l-45 533q4 -86 4 -132q0 -93 -12 -188l-26 -213h-167l97 696h228l43 -534q-3 71 -3 130q0 94 11 180l28 224h166zM267 770q-24 24 -24 64q0 51 33.5 84t82.5 33q44 0 68 -24t24 -64q0 -51 -33.5 -84t-82.5 -33q-44 0 -68 24z" />
    <glyph glyph-name="uni1E46" unicode="&#x1e46;" horiz-adv-x="530" 
d="M464 0h-227l-45 533q4 -86 4 -132q0 -93 -12 -188l-26 -213h-167l97 696h228l43 -534q-3 71 -3 130q0 94 11 180l28 224h166zM285 -78q24 -24 24 -64q0 -51 -33.5 -84t-82.5 -33q-44 0 -68 24t-24 64q0 51 33.5 84t82.5 33q44 0 68 -24z" />
    <glyph glyph-name="uni01F8" unicode="&#x1f8;" horiz-adv-x="530" 
d="M464 0h-227l-45 533q4 -86 4 -132q0 -93 -12 -188l-26 -213h-167l97 696h228l43 -534q-3 71 -3 130q0 94 11 180l28 224h166zM301 958l182 -133l-54 -81l-204 85z" />
    <glyph glyph-name="Eng" unicode="&#x14a;" horiz-adv-x="530" 
d="M561 696l-97 -696l-4 -31q-14 -95 -76 -145.5t-154 -50.5q-85 0 -135 46l77 111q15 -9 25 -12.5t23 -3.5q19 0 30.5 12t14.5 34l5 40h-33l-45 533q4 -86 4 -132q0 -93 -12 -188l-26 -213h-167l97 696h228l43 -534q-3 71 -3 130q0 94 11 180l28 224h166z" />
    <glyph glyph-name="uni019D" unicode="&#x19d;" horiz-adv-x="530" 
d="M561 696l-97 -696h-227l-45 533q4 -86 4 -132q0 -93 -12 -188l-26 -213l-6 -42q-12 -89 -64.5 -136.5t-139.5 -47.5q-44 0 -75 12t-57 34l77 103q15 -9 25 -12.5t24 -3.5q18 0 29.5 14t14.5 39l5 40l97 696h228l43 -534q-3 71 -3 130q0 94 11 180l28 224h166z" />
    <glyph glyph-name="uni01CB" unicode="&#x1cb;" horiz-adv-x="765" 
d="M464 0h-227l-45 533q4 -86 4 -132q0 -93 -12 -188l-26 -213h-167l97 696h228l43 -534q-3 71 -3 130q0 94 11 180l28 224h166zM416 -90q52 21 77 53.5t34 99.5l65 471h187l-65 -461q-14 -94 -51 -152.5t-86.5 -89.5t-119.5 -57zM634 644q-24 24 -24 64q0 51 33.5 84
t82.5 33q44 0 68 -24t24 -64q0 -51 -33.5 -84t-82.5 -33q-44 0 -68 24z" />
    <glyph glyph-name="uni0220" unicode="&#x220;" horiz-adv-x="526" 
d="M507 677.5q32 -38.5 32 -99.5q0 -22 -2 -34l-104 -759h-194l102 741q1 5 1 15q0 31 -22 31q-23 0 -60 -32l-76 -540h-194l98 696h170l5 -46q67 66 152 66q60 0 92 -38.5z" />
    <glyph glyph-name="Ntilde" unicode="&#xd1;" horiz-adv-x="530" 
d="M464 0h-227l-45 533q4 -86 4 -132q0 -93 -12 -188l-26 -213h-167l97 696h228l43 -534q-3 71 -3 130q0 94 11 180l28 224h166zM356 757.5q-12 6.5 -30 18.5q-2 2 -10 7.5t-14 8t-12 2.5q-13 0 -23 -10.5t-24 -33.5l-77 46q25 57 62 94t74 37q19 0 33 -7t30 -20
q9 -7 17.5 -12t16.5 -5q11 0 21 10t23 32l77 -43q-24 -57 -61.5 -94t-75.5 -37q-15 0 -27 6.5z" />
    <glyph glyph-name="O" unicode="O" horiz-adv-x="581" 
d="M581 451q0 -130 -36 -236.5t-109.5 -170.5t-181.5 -64q-231 0 -231 266q0 130 35.5 236.5t109 170t181.5 63.5q232 0 232 -265zM270.5 513q-26.5 -62 -39 -149t-12.5 -162q0 -44 11.5 -63t35.5 -19q41 0 67.5 60t38.5 145.5t12 163.5q0 46 -11.5 66t-35.5 20
q-40 0 -66.5 -62z" />
    <glyph glyph-name="uni0222" unicode="&#x222;" horiz-adv-x="543" 
d="M431 401q90 -42 90 -143q0 -85 -37.5 -148t-102 -96t-144.5 -33q-71 0 -122.5 27t-78.5 74t-27 105q0 78 37.5 130.5t102.5 80.5q-68 31 -68 107q0 8 2 26l20 165h194l-24 -180q-2 -18 -2 -23q0 -18 6.5 -26t21.5 -8q19 0 28 14t13 45l24 178h194l-23 -167
q-13 -90 -104 -128zM300.5 156q18.5 35 18.5 94q0 37 -10 56t-30 19q-28 0 -47.5 -36t-19.5 -94q0 -74 42 -74q28 0 46.5 35z" />
    <glyph glyph-name="Oacute" unicode="&#xd3;" horiz-adv-x="581" 
d="M581 451q0 -130 -36 -236.5t-109.5 -170.5t-181.5 -64q-231 0 -231 266q0 130 35.5 236.5t109 170t181.5 63.5q232 0 232 -265zM270.5 513q-26.5 -62 -39 -149t-12.5 -162q0 -44 11.5 -63t35.5 -19q41 0 67.5 60t38.5 145.5t12 163.5q0 46 -11.5 66t-35.5 20
q-40 0 -66.5 -62zM453 962l60 -131l-226 -88l-43 87z" />
    <glyph glyph-name="Obreve" unicode="&#x14e;" horiz-adv-x="581" 
d="M581 451q0 -130 -36 -236.5t-109.5 -170.5t-181.5 -64q-231 0 -231 266q0 130 35.5 236.5t109 170t181.5 63.5q232 0 232 -265zM270.5 513q-26.5 -62 -39 -149t-12.5 -162q0 -44 11.5 -63t35.5 -19q41 0 67.5 60t38.5 145.5t12 163.5q0 46 -11.5 66t-35.5 20
q-40 0 -66.5 -62zM253.5 792q-33.5 45 -33.5 113q0 16 1 24l93 15q1 -30 14 -49t39 -19q49 0 72 70l95 -19q-14 -79 -57.5 -129.5t-119.5 -50.5q-70 0 -103.5 45z" />
    <glyph glyph-name="uni01D1" unicode="&#x1d1;" horiz-adv-x="581" 
d="M581 451q0 -130 -36 -236.5t-109.5 -170.5t-181.5 -64q-231 0 -231 266q0 130 35.5 236.5t109 170t181.5 63.5q232 0 232 -265zM270.5 513q-26.5 -62 -39 -149t-12.5 -162q0 -44 11.5 -63t35.5 -19q41 0 67.5 60t38.5 145.5t12 163.5q0 46 -11.5 66t-35.5 20
q-40 0 -66.5 -62zM486 958l65 -72l-142 -138h-110l-109 148l72 62l103 -87z" />
    <glyph glyph-name="uni019F" unicode="&#x19f;" horiz-adv-x="581" 
d="M581 451q0 -130 -36 -236.5t-109.5 -170.5t-181.5 -64q-231 0 -231 266q0 130 35.5 236.5t109 170t181.5 63.5q232 0 232 -265zM273 531q-28 -49 -44 -128h162q3 47 3 86q0 50 -12 70.5t-40 20.5q-41 0 -69 -49zM333 166q29 51 44 133h-163q-5 -44 -5 -97q0 -48 12 -67.5
t40 -19.5q43 0 72 51z" />
    <glyph glyph-name="Ocircumflex" unicode="&#xd4;" horiz-adv-x="581" 
d="M581 451q0 -130 -36 -236.5t-109.5 -170.5t-181.5 -64q-231 0 -231 266q0 130 35.5 236.5t109 170t181.5 63.5q232 0 232 -265zM270.5 513q-26.5 -62 -39 -149t-12.5 -162q0 -44 11.5 -63t35.5 -19q41 0 67.5 60t38.5 145.5t12 163.5q0 46 -11.5 66t-35.5 20
q-40 0 -66.5 -62zM243 756l-65 72l142 138h110l109 -148l-72 -62l-103 87z" />
    <glyph glyph-name="uni1ED0" unicode="&#x1ed0;" horiz-adv-x="581" 
d="M602 1129l87 -93l-174 -153l-62 57zM239 727l-65 72l142 138h110l109 -148l-72 -62l-103 87zM581 451q0 -130 -36 -236.5t-109.5 -170.5t-181.5 -64q-231 0 -231 266q0 130 35.5 236.5t109 170t181.5 63.5q232 0 232 -265zM270.5 513q-26.5 -62 -39 -149t-12.5 -162
q0 -44 11.5 -63t35.5 -19q41 0 67.5 60t38.5 145.5t12 163.5q0 46 -11.5 66t-35.5 20q-40 0 -66.5 -62z" />
    <glyph glyph-name="uni1ED8" unicode="&#x1ed8;" horiz-adv-x="581" 
d="M581 451q0 -130 -36 -236.5t-109.5 -170.5t-181.5 -64q-231 0 -231 266q0 130 35.5 236.5t109 170t181.5 63.5q232 0 232 -265zM270.5 513q-26.5 -62 -39 -149t-12.5 -162q0 -44 11.5 -63t35.5 -19q41 0 67.5 60t38.5 145.5t12 163.5q0 46 -11.5 66t-35.5 20
q-40 0 -66.5 -62zM243 756l-65 72l142 138h110l109 -148l-72 -62l-103 87zM312 -78q24 -24 24 -64q0 -51 -33.5 -84t-82.5 -33q-44 0 -68 24t-24 64q0 51 33.5 84t82.5 33q44 0 68 -24z" />
    <glyph glyph-name="uni1ED2" unicode="&#x1ed2;" horiz-adv-x="581" 
d="M196 1126l95 -191l-78 -52l-129 161zM243 727l-65 72l142 138h110l109 -148l-72 -62l-103 87zM581 451q0 -130 -36 -236.5t-109.5 -170.5t-181.5 -64q-231 0 -231 266q0 130 35.5 236.5t109 170t181.5 63.5q232 0 232 -265zM270.5 513q-26.5 -62 -39 -149t-12.5 -162
q0 -44 11.5 -63t35.5 -19q41 0 67.5 60t38.5 145.5t12 163.5q0 46 -11.5 66t-35.5 20q-40 0 -66.5 -62z" />
    <glyph glyph-name="uni1ED4" unicode="&#x1ed4;" horiz-adv-x="581" 
d="M581 451q0 -130 -36 -236.5t-109.5 -170.5t-181.5 -64q-231 0 -231 266q0 130 35.5 236.5t109 170t181.5 63.5q232 0 232 -265zM270.5 513q-26.5 -62 -39 -149t-12.5 -162q0 -44 11.5 -63t35.5 -19q41 0 67.5 60t38.5 145.5t12 163.5q0 46 -11.5 66t-35.5 20
q-40 0 -66.5 -62zM238 727l-65 72l142 138h110l109 -148l-72 -62l-103 87zM485 967q34 1 48 10.5t14 30.5q0 12 -6 17.5t-20 5.5q-21 0 -50 -13l-15 74q43 26 98 26q52 0 80.5 -26.5t28.5 -69.5q0 -42 -23.5 -70t-63.5 -37l-4 -40h-98z" />
    <glyph glyph-name="uni1ED6" unicode="&#x1ed6;" horiz-adv-x="581" 
d="M405.5 970q-12.5 6 -28.5 17q-24 16 -35 16q-13 0 -23 -9t-23 -30l-76 41q26 51 62 84.5t72 33.5q19 0 31.5 -6t30.5 -18q20 -16 33 -16q10 0 20 9t23 29l75 -39q-24 -51 -60.5 -84.5t-73.5 -33.5q-15 0 -27.5 6zM242 727l-65 72l142 138h110l109 -148l-72 -62l-103 87z
M581 451q0 -130 -36 -236.5t-109.5 -170.5t-181.5 -64q-231 0 -231 266q0 130 35.5 236.5t109 170t181.5 63.5q232 0 232 -265zM270.5 513q-26.5 -62 -39 -149t-12.5 -162q0 -44 11.5 -63t35.5 -19q41 0 67.5 60t38.5 145.5t12 163.5q0 46 -11.5 66t-35.5 20
q-40 0 -66.5 -62z" />
    <glyph glyph-name="uni020C" unicode="&#x20c;" horiz-adv-x="581" 
d="M581 451q0 -130 -36 -236.5t-109.5 -170.5t-181.5 -64q-231 0 -231 266q0 130 35.5 236.5t109 170t181.5 63.5q232 0 232 -265zM270.5 513q-26.5 -62 -39 -149t-12.5 -162q0 -44 11.5 -63t35.5 -19q41 0 67.5 60t38.5 145.5t12 163.5q0 46 -11.5 66t-35.5 20
q-40 0 -66.5 -62zM276 1000l61 -213l-99 -40l-90 201zM437 1000l55 -215l-98 -34l-85 202z" />
    <glyph glyph-name="Odieresis" unicode="&#xd6;" horiz-adv-x="581" 
d="M581 451q0 -130 -36 -236.5t-109.5 -170.5t-181.5 -64q-231 0 -231 266q0 130 35.5 236.5t109 170t181.5 63.5q232 0 232 -265zM270.5 513q-26.5 -62 -39 -149t-12.5 -162q0 -44 11.5 -63t35.5 -19q41 0 67.5 60t38.5 145.5t12 163.5q0 46 -11.5 66t-35.5 20
q-40 0 -66.5 -62zM191.5 782q-20.5 21 -20.5 56q0 43 29 72.5t70 29.5q38 0 58.5 -21t20.5 -56q0 -43 -29 -72.5t-71 -29.5q-37 0 -57.5 21zM403 782q-21 21 -21 56q0 43 29 72.5t70 29.5q37 0 58 -21t21 -56q0 -43 -29 -72.5t-70 -29.5q-37 0 -58 21z" />
    <glyph glyph-name="uni022A" unicode="&#x22a;" horiz-adv-x="581" 
d="M581 451q0 -130 -36 -236.5t-109.5 -170.5t-181.5 -64q-231 0 -231 266q0 130 35.5 236.5t109 170t181.5 63.5q232 0 232 -265zM270.5 513q-26.5 -62 -39 -149t-12.5 -162q0 -44 11.5 -63t35.5 -19q41 0 67.5 60t38.5 145.5t12 163.5q0 46 -11.5 66t-35.5 20
q-40 0 -66.5 -62zM191.5 766q-20.5 21 -20.5 56q0 43 29 72.5t70 29.5q38 0 58.5 -21t20.5 -56q0 -43 -29 -72.5t-71 -29.5q-37 0 -57.5 21zM403 766q-21 21 -21 56q0 43 29 72.5t70 29.5q37 0 58 -21t21 -56q0 -43 -29 -72.5t-70 -29.5q-37 0 -58 21zM514 964h-274l20 130
h274z" />
    <glyph glyph-name="uni022E" unicode="&#x22e;" horiz-adv-x="581" 
d="M581 451q0 -130 -36 -236.5t-109.5 -170.5t-181.5 -64q-231 0 -231 266q0 130 35.5 236.5t109 170t181.5 63.5q232 0 232 -265zM270.5 513q-26.5 -62 -39 -149t-12.5 -162q0 -44 11.5 -63t35.5 -19q41 0 67.5 60t38.5 145.5t12 163.5q0 46 -11.5 66t-35.5 20
q-40 0 -66.5 -62zM292 770q-24 24 -24 64q0 51 33.5 84t82.5 33q44 0 68 -24t24 -64q0 -51 -33.5 -84t-82.5 -33q-44 0 -68 24z" />
    <glyph glyph-name="uni0230" unicode="&#x230;" horiz-adv-x="581" 
d="M581 451q0 -130 -36 -236.5t-109.5 -170.5t-181.5 -64q-231 0 -231 266q0 130 35.5 236.5t109 170t181.5 63.5q232 0 232 -265zM270.5 513q-26.5 -62 -39 -149t-12.5 -162q0 -44 11.5 -63t35.5 -19q41 0 67.5 60t38.5 145.5t12 163.5q0 46 -11.5 66t-35.5 20
q-40 0 -66.5 -62zM285 758q-24 24 -24 64q0 51 33.5 84t82.5 33q44 0 68 -24t24 -64q0 -51 -33.5 -84t-82.5 -33q-44 0 -68 24zM523 964h-274l20 130h274z" />
    <glyph glyph-name="uni1ECC" unicode="&#x1ecc;" horiz-adv-x="581" 
d="M581 451q0 -130 -36 -236.5t-109.5 -170.5t-181.5 -64q-231 0 -231 266q0 130 35.5 236.5t109 170t181.5 63.5q232 0 232 -265zM270.5 513q-26.5 -62 -39 -149t-12.5 -162q0 -44 11.5 -63t35.5 -19q41 0 67.5 60t38.5 145.5t12 163.5q0 46 -11.5 66t-35.5 20
q-40 0 -66.5 -62zM312 -78q24 -24 24 -64q0 -51 -33.5 -84t-82.5 -33q-44 0 -68 24t-24 64q0 51 33.5 84t82.5 33q44 0 68 -24z" />
    <glyph glyph-name="Ograve" unicode="&#xd2;" horiz-adv-x="581" 
d="M581 451q0 -130 -36 -236.5t-109.5 -170.5t-181.5 -64q-231 0 -231 266q0 130 35.5 236.5t109 170t181.5 63.5q232 0 232 -265zM270.5 513q-26.5 -62 -39 -149t-12.5 -162q0 -44 11.5 -63t35.5 -19q41 0 67.5 60t38.5 145.5t12 163.5q0 46 -11.5 66t-35.5 20
q-40 0 -66.5 -62zM326 958l182 -133l-54 -81l-204 85z" />
    <glyph glyph-name="uni1ECE" unicode="&#x1ece;" horiz-adv-x="581" 
d="M581 451q0 -130 -36 -236.5t-109.5 -170.5t-181.5 -64q-231 0 -231 266q0 130 35.5 236.5t109 170t181.5 63.5q232 0 232 -265zM270.5 513q-26.5 -62 -39 -149t-12.5 -162q0 -44 11.5 -63t35.5 -19q41 0 67.5 60t38.5 145.5t12 163.5q0 46 -11.5 66t-35.5 20
q-40 0 -66.5 -62zM319 856q34 1 48 10.5t14 30.5q0 12 -6 17.5t-20 5.5q-21 0 -50 -13l-15 74q43 26 98 26q52 0 80.5 -26.5t28.5 -69.5q0 -42 -23.5 -70t-63.5 -37l-4 -40h-98z" />
    <glyph glyph-name="Ohorn" unicode="&#x1a0;" horiz-adv-x="622" 
d="M660.5 603q-31.5 -41 -89.5 -53q10 -41 10 -99q0 -130 -36 -236.5t-109.5 -170.5t-181.5 -64q-231 0 -231 266q0 130 35.5 236.5t109 170t181.5 63.5q129 0 186 -82q21 5 30.5 24.5t9.5 53.5q0 26 -3 47l115 13q5 -27 5 -58q0 -70 -31.5 -111zM333.5 180
q26.5 60 38.5 145.5t12 163.5q0 46 -11.5 66t-35.5 20q-40 0 -66.5 -62t-39 -149t-12.5 -162q0 -44 11.5 -63t35.5 -19q41 0 67.5 60z" />
    <glyph glyph-name="uni1EDA" unicode="&#x1eda;" horiz-adv-x="622" 
d="M513 831l-226 -88l-43 87l209 132zM660.5 603q-31.5 -41 -89.5 -53q10 -41 10 -99q0 -130 -36 -236.5t-109.5 -170.5t-181.5 -64q-231 0 -231 266q0 130 35.5 236.5t109 170t181.5 63.5q129 0 186 -82q21 5 30.5 24.5t9.5 53.5q0 26 -3 47l115 13q5 -27 5 -58
q0 -70 -31.5 -111zM333.5 180q26.5 60 38.5 145.5t12 163.5q0 46 -11.5 66t-35.5 20q-40 0 -66.5 -62t-39 -149t-12.5 -162q0 -44 11.5 -63t35.5 -19q41 0 67.5 60z" />
    <glyph glyph-name="uni1EE2" unicode="&#x1ee2;" horiz-adv-x="622" 
d="M660.5 603q-31.5 -41 -89.5 -53q10 -41 10 -99q0 -130 -36 -236.5t-109.5 -170.5t-181.5 -64q-231 0 -231 266q0 130 35.5 236.5t109 170t181.5 63.5q129 0 186 -82q21 5 30.5 24.5t9.5 53.5q0 26 -3 47l115 13q5 -27 5 -58q0 -70 -31.5 -111zM333.5 180
q26.5 60 38.5 145.5t12 163.5q0 46 -11.5 66t-35.5 20q-40 0 -66.5 -62t-39 -149t-12.5 -162q0 -44 11.5 -63t35.5 -19q41 0 67.5 60zM312 -78q24 -24 24 -64q0 -51 -33.5 -84t-82.5 -33q-44 0 -68 24t-24 64q0 51 33.5 84t82.5 33q44 0 68 -24z" />
    <glyph glyph-name="uni1EDC" unicode="&#x1edc;" horiz-adv-x="622" 
d="M508 825l-54 -81l-204 85l76 129zM660.5 603q-31.5 -41 -89.5 -53q10 -41 10 -99q0 -130 -36 -236.5t-109.5 -170.5t-181.5 -64q-231 0 -231 266q0 130 35.5 236.5t109 170t181.5 63.5q129 0 186 -82q21 5 30.5 24.5t9.5 53.5q0 26 -3 47l115 13q5 -27 5 -58
q0 -70 -31.5 -111zM333.5 180q26.5 60 38.5 145.5t12 163.5q0 46 -11.5 66t-35.5 20q-40 0 -66.5 -62t-39 -149t-12.5 -162q0 -44 11.5 -63t35.5 -19q41 0 67.5 60z" />
    <glyph glyph-name="uni1EDE" unicode="&#x1ede;" horiz-adv-x="622" 
d="M305 907l-15 74q43 26 98 26q52 0 80.5 -26.5t28.5 -69.5q0 -42 -23.5 -70t-63.5 -37l-4 -40h-98l11 92q34 1 48 10.5t14 30.5q0 12 -6 17.5t-20 5.5q-21 0 -50 -13zM660.5 603q-31.5 -41 -89.5 -53q10 -41 10 -99q0 -130 -36 -236.5t-109.5 -170.5t-181.5 -64
q-231 0 -231 266q0 130 35.5 236.5t109 170t181.5 63.5q129 0 186 -82q21 5 30.5 24.5t9.5 53.5q0 26 -3 47l115 13q5 -27 5 -58q0 -70 -31.5 -111zM333.5 180q26.5 60 38.5 145.5t12 163.5q0 46 -11.5 66t-35.5 20q-40 0 -66.5 -62t-39 -149t-12.5 -162q0 -44 11.5 -63
t35.5 -19q41 0 67.5 60z" />
    <glyph glyph-name="uni1EE0" unicode="&#x1ee0;" horiz-adv-x="622" 
d="M292 783.5q-10 -10.5 -24 -33.5l-77 46q25 57 62 94t74 37q19 0 33 -7t30 -20q9 -7 17.5 -12t16.5 -5q11 0 21 10t23 32l77 -43q-24 -57 -61.5 -94t-75.5 -37q-15 0 -27 6.5t-30 18.5q-2 2 -10 7.5t-14 8t-12 2.5q-13 0 -23 -10.5zM660.5 603q-31.5 -41 -89.5 -53
q10 -41 10 -99q0 -130 -36 -236.5t-109.5 -170.5t-181.5 -64q-231 0 -231 266q0 130 35.5 236.5t109 170t181.5 63.5q129 0 186 -82q21 5 30.5 24.5t9.5 53.5q0 26 -3 47l115 13q5 -27 5 -58q0 -70 -31.5 -111zM333.5 180q26.5 60 38.5 145.5t12 163.5q0 46 -11.5 66
t-35.5 20q-40 0 -66.5 -62t-39 -149t-12.5 -162q0 -44 11.5 -63t35.5 -19q41 0 67.5 60z" />
    <glyph glyph-name="Ohungarumlaut" unicode="&#x150;" horiz-adv-x="581" 
d="M581 451q0 -130 -36 -236.5t-109.5 -170.5t-181.5 -64q-231 0 -231 266q0 130 35.5 236.5t109 170t181.5 63.5q232 0 232 -265zM270.5 513q-26.5 -62 -39 -149t-12.5 -162q0 -44 11.5 -63t35.5 -19q41 0 67.5 60t38.5 145.5t12 163.5q0 46 -11.5 66t-35.5 20
q-40 0 -66.5 -62zM333 1000l104 -55l-135 -194l-83 38zM494 1000l102 -60l-140 -193l-80 44z" />
    <glyph glyph-name="uni01A2" unicode="&#x1a2;" horiz-adv-x="822" 
d="M786 674q47 -41 47 -113q0 -16 -3 -34l-104 -742h-193l104 751l1 11q0 33 -29 33q-22 0 -44 -16q16 -53 16 -113q0 -130 -36 -236.5t-109.5 -170.5t-181.5 -64q-231 0 -231 266q0 130 35.5 236.5t109 170t181.5 63.5q92 0 152 -52q68 51 157 51q81 0 128 -41zM333.5 180
q26.5 60 38.5 145.5t12 163.5q0 46 -11.5 66t-35.5 20q-40 0 -66.5 -62t-39 -149t-12.5 -162q0 -44 11.5 -63t35.5 -19q41 0 67.5 60z" />
    <glyph glyph-name="uni020E" unicode="&#x20e;" horiz-adv-x="581" 
d="M581 451q0 -130 -36 -236.5t-109.5 -170.5t-181.5 -64q-231 0 -231 266q0 130 35.5 236.5t109 170t181.5 63.5q232 0 232 -265zM270.5 513q-26.5 -62 -39 -149t-12.5 -162q0 -44 11.5 -63t35.5 -19q41 0 67.5 60t38.5 145.5t12 163.5q0 46 -11.5 66t-35.5 20
q-40 0 -66.5 -62zM198 775q17 84 63 137t121 53q71 0 104.5 -46t33.5 -119q0 -18 -1 -27l-98 -14q-2 77 -52 77q-27 0 -46.5 -21t-31.5 -59z" />
    <glyph glyph-name="Omacron" unicode="&#x14c;" horiz-adv-x="581" 
d="M581 451q0 -130 -36 -236.5t-109.5 -170.5t-181.5 -64q-231 0 -231 266q0 130 35.5 236.5t109 170t181.5 63.5q232 0 232 -265zM270.5 513q-26.5 -62 -39 -149t-12.5 -162q0 -44 11.5 -63t35.5 -19q41 0 67.5 60t38.5 145.5t12 163.5q0 46 -11.5 66t-35.5 20
q-40 0 -66.5 -62zM491 775h-274l20 130h274z" />
    <glyph glyph-name="uni1E52" unicode="&#x1e52;" horiz-adv-x="581" 
d="M581 451q0 -130 -36 -236.5t-109.5 -170.5t-181.5 -64q-231 0 -231 266q0 130 35.5 236.5t109 170t181.5 63.5q232 0 232 -265zM270.5 513q-26.5 -62 -39 -149t-12.5 -162q0 -44 11.5 -63t35.5 -19q41 0 67.5 60t38.5 145.5t12 163.5q0 46 -11.5 66t-35.5 20
q-40 0 -66.5 -62zM499 761h-274l20 130h274zM464 1130l60 -131l-226 -88l-43 87z" />
    <glyph glyph-name="uni1E50" unicode="&#x1e50;" horiz-adv-x="581" 
d="M581 451q0 -130 -36 -236.5t-109.5 -170.5t-181.5 -64q-231 0 -231 266q0 130 35.5 236.5t109 170t181.5 63.5q232 0 232 -265zM270.5 513q-26.5 -62 -39 -149t-12.5 -162q0 -44 11.5 -63t35.5 -19q41 0 67.5 60t38.5 145.5t12 163.5q0 46 -11.5 66t-35.5 20
q-40 0 -66.5 -62zM494 761h-274l20 130h274zM341 1126l182 -133l-54 -81l-204 85z" />
    <glyph glyph-name="uniA7B6" unicode="&#xa7b6;" horiz-adv-x="757" 
d="M66 33q-42 52 -42 161q0 123 34 251.5t94 250.5h176q-37 -115 -58 -186.5t-36 -154.5t-15 -163q0 -38 5 -54.5t17 -16.5t19.5 13.5t11.5 45.5l30 219h192l-31 -222q-3 -18 -3 -30q0 -26 17 -26q25 0 43 59.5t26.5 144t8.5 156.5q0 48 -3.5 89.5t-11.5 105.5l-3 20h186
q25 -100 25 -215q0 -216 -60 -358t-194 -142q-125 0 -137 123q-24 -64 -68 -93.5t-93 -29.5q-88 0 -130 52z" />
    <glyph glyph-name="uni01EA" unicode="&#x1ea;" horiz-adv-x="581" 
d="M279 -55.5q-22 -28.5 -22 -53.5q0 -32 37 -32q18 0 46 5l-26 -108q-29 -8 -63 -8q-53 0 -87.5 31t-34.5 85q0 71 62 122q-168 33 -168 260q0 130 35.5 236.5t109 170t181.5 63.5q232 0 232 -265q0 -164 -57 -287.5t-166 -165.5q-57 -25 -79 -53.5zM270.5 513
q-26.5 -62 -39 -149t-12.5 -162q0 -44 11.5 -63t35.5 -19q41 0 67.5 60t38.5 145.5t12 163.5q0 46 -11.5 66t-35.5 20q-40 0 -66.5 -62z" />
    <glyph glyph-name="uni01EC" unicode="&#x1ec;" horiz-adv-x="581" 
d="M511 905l-20 -130h-274l20 130h274zM279 -55.5q-22 -28.5 -22 -53.5q0 -32 37 -32q18 0 46 5l-26 -108q-29 -8 -63 -8q-53 0 -87.5 31t-34.5 85q0 71 62 122q-168 33 -168 260q0 130 35.5 236.5t109 170t181.5 63.5q232 0 232 -265q0 -164 -57 -287.5t-166 -165.5
q-57 -25 -79 -53.5zM270.5 513q-26.5 -62 -39 -149t-12.5 -162q0 -44 11.5 -63t35.5 -19q41 0 67.5 60t38.5 145.5t12 163.5q0 46 -11.5 66t-35.5 20q-40 0 -66.5 -62z" />
    <glyph glyph-name="uni0186" unicode="&#x186;" horiz-adv-x="488" 
d="M425.5 648q61.5 -68 61.5 -204q0 -132 -36.5 -236.5t-110 -165.5t-180.5 -61q-63 0 -111.5 27t-80.5 69l98 102q27 -25 47 -37t47 -12q45 0 74.5 52t42.5 126.5t13 145.5q0 67 -14.5 93t-45.5 26q-27 0 -49.5 -10.5t-49.5 -31.5l-79 105q91 80 204 80q108 0 169.5 -68z
" />
    <glyph glyph-name="Oslash" unicode="&#xd8;" horiz-adv-x="581" 
d="M581 451q0 -130 -36 -236.5t-109.5 -170.5t-181.5 -64q-17 0 -25 1l-41 -119l-134 38l47 132q-78 69 -78 214q0 130 35.5 236.5t109 170t181.5 63.5q15 0 22 -1l42 117l132 -39l-44 -127q80 -69 80 -215zM264 515.5q-29 -62.5 -42 -149.5t-13 -164v-11l129 387h-1
q-44 0 -73 -62.5zM340 177.5q29 60.5 41.5 146.5t12.5 165v10l-128 -382q45 0 74 60.5z" />
    <glyph glyph-name="Oslashacute" unicode="&#x1fe;" horiz-adv-x="581" 
d="M581 451q0 -130 -36 -236.5t-109.5 -170.5t-181.5 -64q-17 0 -25 1l-41 -119l-134 38l47 132q-78 69 -78 214q0 130 35.5 236.5t109 170t181.5 63.5q15 0 22 -1l42 117l132 -39l-44 -127q80 -69 80 -215zM264 515.5q-29 -62.5 -42 -149.5t-13 -164v-11l129 387h-1
q-44 0 -73 -62.5zM340 177.5q29 60.5 41.5 146.5t12.5 165v10l-128 -382q45 0 74 60.5zM434 1004l60 -131l-226 -88l-43 87z" />
    <glyph glyph-name="Otilde" unicode="&#xd5;" horiz-adv-x="581" 
d="M581 451q0 -130 -36 -236.5t-109.5 -170.5t-181.5 -64q-231 0 -231 266q0 130 35.5 236.5t109 170t181.5 63.5q232 0 232 -265zM270.5 513q-26.5 -62 -39 -149t-12.5 -162q0 -44 11.5 -63t35.5 -19q41 0 67.5 60t38.5 145.5t12 163.5q0 46 -11.5 66t-35.5 20
q-40 0 -66.5 -62zM381 757.5q-12 6.5 -30 18.5q-2 2 -10 7.5t-14 8t-12 2.5q-13 0 -23 -10.5t-24 -33.5l-77 46q25 57 62 94t74 37q19 0 33 -7t30 -20q9 -7 17.5 -12t16.5 -5q11 0 21 10t23 32l77 -43q-24 -57 -61.5 -94t-75.5 -37q-15 0 -27 6.5z" />
    <glyph glyph-name="uni1E4C" unicode="&#x1e4c;" horiz-adv-x="581" 
d="M581 451q0 -130 -36 -236.5t-109.5 -170.5t-181.5 -64q-231 0 -231 266q0 130 35.5 236.5t109 170t181.5 63.5q232 0 232 -265zM270.5 513q-26.5 -62 -39 -149t-12.5 -162q0 -44 11.5 -63t35.5 -19q41 0 67.5 60t38.5 145.5t12 163.5q0 46 -11.5 66t-35.5 20
q-40 0 -66.5 -62zM373 761.5q-12 6.5 -30 18.5q-2 2 -10 7.5t-14 8t-12 2.5q-13 0 -23 -10.5t-24 -33.5l-77 46q25 57 62 94t74 37q19 0 33 -7t30 -20q9 -7 17.5 -12t16.5 -5q11 0 21 10t23 32l77 -43q-24 -57 -61.5 -94t-75.5 -37q-15 0 -27 6.5zM449 1162l60 -131
l-226 -88l-43 87z" />
    <glyph glyph-name="uni022C" unicode="&#x22c;" horiz-adv-x="581" 
d="M513 963h-274l20 130h274zM378 761.5q-12 6.5 -30 18.5q-2 2 -10 7.5t-14 8t-12 2.5q-13 0 -23 -10.5t-24 -33.5l-77 46q25 57 62 94t74 37q19 0 33 -7t30 -20q9 -7 17.5 -12t16.5 -5q11 0 21 10t23 32l77 -43q-24 -57 -61.5 -94t-75.5 -37q-15 0 -27 6.5zM581 451
q0 -130 -36 -236.5t-109.5 -170.5t-181.5 -64q-231 0 -231 266q0 130 35.5 236.5t109 170t181.5 63.5q232 0 232 -265zM270.5 513q-26.5 -62 -39 -149t-12.5 -162q0 -44 11.5 -63t35.5 -19q41 0 67.5 60t38.5 145.5t12 163.5q0 46 -11.5 66t-35.5 20q-40 0 -66.5 -62z" />
    <glyph glyph-name="OE" unicode="&#x152;" horiz-adv-x="744" 
d="M758 559h-215q18 -46 18 -108q0 -21 -1 -31h161l-20 -134h-158q-18 -82 -60 -147h235l-23 -139h-359q-45 -20 -100 -20q-103 0 -158 67t-55 199q0 129 35 236t106.5 170.5t174.5 63.5q60 0 100 -20h360zM316.5 180q24.5 60 36 146t11.5 163q0 46 -8.5 66t-28.5 20
q-35 0 -59.5 -62t-36.5 -149.5t-12 -161.5q0 -44 9 -63t28 -19q36 0 60.5 60z" />
    <glyph glyph-name="P" unicode="P" horiz-adv-x="505" 
d="M467 646q62 -50 62 -147q0 -83 -34.5 -146t-98.5 -98t-151 -35h-30l-31 -220h-194l98 696h198q119 0 181 -50zM311.5 396.5q20.5 37.5 20.5 99.5q0 34 -13 48.5t-43 14.5h-14l-28 -200h9q48 0 68.5 37.5z" />
    <glyph glyph-name="uni1E54" unicode="&#x1e54;" horiz-adv-x="505" 
d="M467 646q62 -50 62 -147q0 -83 -34.5 -146t-98.5 -98t-151 -35h-30l-31 -220h-194l98 696h198q119 0 181 -50zM311.5 396.5q20.5 37.5 20.5 99.5q0 34 -13 48.5t-43 14.5h-14l-28 -200h9q48 0 68.5 37.5zM417 962l60 -131l-226 -88l-43 87z" />
    <glyph glyph-name="uni1E56" unicode="&#x1e56;" horiz-adv-x="505" 
d="M467 646q62 -50 62 -147q0 -83 -34.5 -146t-98.5 -98t-151 -35h-30l-31 -220h-194l98 696h198q119 0 181 -50zM311.5 396.5q20.5 37.5 20.5 99.5q0 34 -13 48.5t-43 14.5h-14l-28 -200h9q48 0 68.5 37.5zM256 770q-24 24 -24 64q0 51 33.5 84t82.5 33q44 0 68 -24t24 -64
q0 -51 -33.5 -84t-82.5 -33q-44 0 -68 24z" />
    <glyph glyph-name="uni01A4" unicode="&#x1a4;" horiz-adv-x="674" 
d="M636 646q62 -50 62 -147q0 -83 -34.5 -146t-98.5 -98t-151 -35h-30l-31 -220h-194l79 558h-24q-17 0 -26.5 -14t-9.5 -40q0 -20 6 -52l-126 -44q-9 27 -14 50t-5 52q0 56 24.5 98.5t67.5 65t98 22.5h226q119 0 181 -50zM480.5 396.5q20.5 37.5 20.5 99.5q0 34 -13 48.5
t-43 14.5h-14l-28 -200h9q48 0 68.5 37.5z" />
    <glyph glyph-name="Thorn" unicode="&#xde;" horiz-adv-x="507" 
d="M454 540.5q62 -50.5 62 -150.5q0 -85 -34.5 -148.5t-98.5 -98.5t-151 -35h-32l-15 -108h-194l97 696h194l-15 -105h6q119 0 181 -50.5zM319 387q0 37 -13 52t-43 15h-15l-29 -207h11q89 0 89 140z" />
    <glyph glyph-name="Q" unicode="Q" horiz-adv-x="579" 
d="M498.5 27q40.5 -17 73.5 -53l-136 -141q-27 64 -72.5 107.5t-109.5 43.5q-115 0 -173 64.5t-58 197.5q0 130 35.5 236.5t109 170t181.5 63.5q232 0 232 -265q0 -141 -44.5 -247.5t-136.5 -156.5q58 -3 98.5 -20zM230.5 139q11.5 -19 35.5 -19q41 0 67.5 60t38.5 145.5
t12 163.5q0 46 -11.5 66t-35.5 20q-40 0 -66.5 -62t-39 -149t-12.5 -162q0 -44 11.5 -63z" />
    <glyph glyph-name="uni024A" unicode="&#x24a;" horiz-adv-x="575" 
d="M627 -183q-62 -43 -143 -43q-85 0 -131.5 42t-46.5 122q0 10 2 34l3 28l1 10q-42 -29 -97 -29q-96 0 -145 66.5t-49 184.5q0 130 36 241t101 177t149 66q41 0 67.5 -18t45.5 -51l17 49h164l-96 -696l-5 -43q-2 -20 5.5 -31.5t24.5 -11.5q14 0 26 3.5t30 12.5zM332 151
l54 391q-23 33 -47 33q-38 0 -65 -51.5t-40.5 -132t-13.5 -165.5q0 -59 11.5 -84t38.5 -25q34 0 62 34z" />
    <glyph glyph-name="R" unicode="R" horiz-adv-x="518" 
d="M504 379.5q-30 -50.5 -93 -89.5l94 -290h-200l-67 251h-19l-35 -251h-194l98 696h198q248 0 248 -190q0 -76 -30 -126.5zM238 384h17q43 0 63 33.5t20 83.5q0 32 -14.5 46t-44.5 14h-16z" />
    <glyph glyph-name="Racute" unicode="&#x154;" horiz-adv-x="518" 
d="M504 379.5q-30 -50.5 -93 -89.5l94 -290h-200l-67 251h-19l-35 -251h-194l98 696h198q248 0 248 -190q0 -76 -30 -126.5zM238 384h17q43 0 63 33.5t20 83.5q0 32 -14.5 46t-44.5 14h-16zM413 962l60 -131l-226 -88l-43 87z" />
    <glyph glyph-name="Rcaron" unicode="&#x158;" horiz-adv-x="518" 
d="M504 379.5q-30 -50.5 -93 -89.5l94 -290h-200l-67 251h-19l-35 -251h-194l98 696h198q248 0 248 -190q0 -76 -30 -126.5zM238 384h17q43 0 63 33.5t20 83.5q0 32 -14.5 46t-44.5 14h-16zM446 958l65 -72l-142 -138h-110l-109 148l72 62l103 -87z" />
    <glyph glyph-name="Rcommaaccent" unicode="&#x156;" horiz-adv-x="518" 
d="M504 379.5q-30 -50.5 -93 -89.5l94 -290h-200l-67 251h-19l-35 -251h-194l98 696h198q248 0 248 -190q0 -76 -30 -126.5zM238 384h17q43 0 63 33.5t20 83.5q0 32 -14.5 46t-44.5 14h-16zM296.5 -84q21.5 -21 21.5 -55q0 -25 -8 -46t-29 -57l-56 -97h-86l38 117
q-30 21 -30 57q0 45 26.5 73.5t66.5 28.5q35 0 56.5 -21z" />
    <glyph glyph-name="uni0210" unicode="&#x210;" horiz-adv-x="518" 
d="M504 379.5q-30 -50.5 -93 -89.5l94 -290h-200l-67 251h-19l-35 -251h-194l98 696h198q248 0 248 -190q0 -76 -30 -126.5zM238 384h17q43 0 63 33.5t20 83.5q0 32 -14.5 46t-44.5 14h-16zM236 1000l61 -213l-99 -40l-90 201zM397 1000l55 -215l-98 -34l-85 202z" />
    <glyph glyph-name="uni1E5A" unicode="&#x1e5a;" horiz-adv-x="518" 
d="M504 379.5q-30 -50.5 -93 -89.5l94 -290h-200l-67 251h-19l-35 -251h-194l98 696h198q248 0 248 -190q0 -76 -30 -126.5zM238 384h17q43 0 63 33.5t20 83.5q0 32 -14.5 46t-44.5 14h-16zM300 -78q24 -24 24 -64q0 -51 -33.5 -84t-82.5 -33q-44 0 -68 24t-24 64
q0 51 33.5 84t82.5 33q44 0 68 -24z" />
    <glyph glyph-name="uni0212" unicode="&#x212;" horiz-adv-x="518" 
d="M504 379.5q-30 -50.5 -93 -89.5l94 -290h-200l-67 251h-19l-35 -251h-194l98 696h198q248 0 248 -190q0 -76 -30 -126.5zM238 384h17q43 0 63 33.5t20 83.5q0 32 -14.5 46t-44.5 14h-16zM158 775q17 84 63 137t121 53q71 0 104.5 -46t33.5 -119q0 -18 -1 -27l-98 -14
q-2 77 -52 77q-27 0 -46.5 -21t-31.5 -59z" />
    <glyph glyph-name="uni024C" unicode="&#x24c;" horiz-adv-x="527" 
d="M513 379.5q-30 -50.5 -93 -89.5l94 -290h-200l-67 251h-19l-35 -251h-194l35 251h-31l20 133h30l44 312h198q248 0 248 -190q0 -76 -30 -126.5zM272 561l-25 -177h17q43 0 63 33.5t20 83.5q0 32 -14.5 46t-44.5 14h-16z" />
    <glyph glyph-name="uni2C64" unicode="&#x2c64;" horiz-adv-x="518" 
d="M179 -43q-2 -20 5.5 -31.5t24.5 -11.5q14 0 26 3.5t30 12.5l41 -113q-62 -43 -143 -43q-85 0 -131.5 42t-46.5 122q0 10 2 34l3 28l98 696h198q248 0 248 -190q0 -76 -30 -126.5t-93 -89.5l94 -290h-200l-67 251h-19l-35 -251zM263 561l-25 -177h17q43 0 63 33.5t20 83.5
q0 32 -14.5 46t-44.5 14h-16z" />
    <glyph glyph-name="S" unicode="S" horiz-adv-x="488" 
d="M431 692q52 -24 90 -71l-94 -98q-49 52 -109 52q-34 0 -52.5 -16.5t-18.5 -41.5t19 -42.5t79 -48.5q65 -34 96.5 -78t31.5 -114q0 -74 -35.5 -131.5t-98.5 -90t-142 -32.5q-148 0 -231 104l103 99q32 -31 61.5 -46t66.5 -15t58 20.5t21 53.5q0 32 -21 53t-78 50
q-67 34 -96.5 74.5t-29.5 106.5q0 71 33.5 124.5t92 82.5t131.5 29q71 0 123 -24z" />
    <glyph glyph-name="Sacute" unicode="&#x15a;" horiz-adv-x="488" 
d="M431 692q52 -24 90 -71l-94 -98q-49 52 -109 52q-34 0 -52.5 -16.5t-18.5 -41.5t19 -42.5t79 -48.5q65 -34 96.5 -78t31.5 -114q0 -74 -35.5 -131.5t-98.5 -90t-142 -32.5q-148 0 -231 104l103 99q32 -31 61.5 -46t66.5 -15t58 20.5t21 53.5q0 32 -21 53t-78 50
q-67 34 -96.5 74.5t-29.5 106.5q0 71 33.5 124.5t92 82.5t131.5 29q71 0 123 -24zM413 962l60 -131l-226 -88l-43 87z" />
    <glyph glyph-name="uniA78B" unicode="&#xa78b;" horiz-adv-x="237" 
d="M63 328l32 368h167l-74 -368h-125z" />
    <glyph glyph-name="Scaron" unicode="&#x160;" horiz-adv-x="488" 
d="M431 692q52 -24 90 -71l-94 -98q-49 52 -109 52q-34 0 -52.5 -16.5t-18.5 -41.5t19 -42.5t79 -48.5q65 -34 96.5 -78t31.5 -114q0 -74 -35.5 -131.5t-98.5 -90t-142 -32.5q-148 0 -231 104l103 99q32 -31 61.5 -46t66.5 -15t58 20.5t21 53.5q0 32 -21 53t-78 50
q-67 34 -96.5 74.5t-29.5 106.5q0 71 33.5 124.5t92 82.5t131.5 29q71 0 123 -24zM446 958l65 -72l-142 -138h-110l-109 148l72 62l103 -87z" />
    <glyph glyph-name="Scedilla" unicode="&#x15e;" horiz-adv-x="488" 
d="M441.5 348q31.5 -44 31.5 -114q0 -98 -61.5 -166t-161.5 -84l-5 -33q81 -13 81 -87q0 -31 -15 -62t-51 -52.5t-95 -21.5q-32 0 -59.5 9.5t-45.5 24.5l51 77q25 -13 50 -13q17 0 27.5 7t10.5 22t-17 21t-56 6l25 101q-115 14 -185 101l103 99q32 -31 61.5 -46t66.5 -15
t58 20.5t21 53.5q0 32 -21 53t-78 50q-67 34 -96.5 74.5t-29.5 106.5q0 71 33.5 124.5t92 82.5t131.5 29q71 0 123 -24t90 -71l-94 -98q-49 52 -109 52q-34 0 -52.5 -16.5t-18.5 -41.5t19 -42.5t79 -48.5q65 -34 96.5 -78z" />
    <glyph glyph-name="Scircumflex" unicode="&#x15c;" horiz-adv-x="488" 
d="M431 692q52 -24 90 -71l-94 -98q-49 52 -109 52q-34 0 -52.5 -16.5t-18.5 -41.5t19 -42.5t79 -48.5q65 -34 96.5 -78t31.5 -114q0 -74 -35.5 -131.5t-98.5 -90t-142 -32.5q-148 0 -231 104l103 99q32 -31 61.5 -46t66.5 -15t58 20.5t21 53.5q0 32 -21 53t-78 50
q-67 34 -96.5 74.5t-29.5 106.5q0 71 33.5 124.5t92 82.5t131.5 29q71 0 123 -24zM203 756l-65 72l142 138h110l109 -148l-72 -62l-103 87z" />
    <glyph glyph-name="Scommaaccent" unicode="&#x218;" horiz-adv-x="488" 
d="M431 692q52 -24 90 -71l-94 -98q-49 52 -109 52q-34 0 -52.5 -16.5t-18.5 -41.5t19 -42.5t79 -48.5q65 -34 96.5 -78t31.5 -114q0 -74 -35.5 -131.5t-98.5 -90t-142 -32.5q-148 0 -231 104l103 99q32 -31 61.5 -46t66.5 -15t58 20.5t21 53.5q0 32 -21 53t-78 50
q-67 34 -96.5 74.5t-29.5 106.5q0 71 33.5 124.5t92 82.5t131.5 29q71 0 123 -24zM251.5 -84q21.5 -21 21.5 -55q0 -25 -8 -46t-29 -57l-56 -97h-86l38 117q-30 21 -30 57q0 45 26.5 73.5t66.5 28.5q35 0 56.5 -21z" />
    <glyph glyph-name="uni1E60" unicode="&#x1e60;" horiz-adv-x="488" 
d="M431 692q52 -24 90 -71l-94 -98q-49 52 -109 52q-34 0 -52.5 -16.5t-18.5 -41.5t19 -42.5t79 -48.5q65 -34 96.5 -78t31.5 -114q0 -74 -35.5 -131.5t-98.5 -90t-142 -32.5q-148 0 -231 104l103 99q32 -31 61.5 -46t66.5 -15t58 20.5t21 53.5q0 32 -21 53t-78 50
q-67 34 -96.5 74.5t-29.5 106.5q0 71 33.5 124.5t92 82.5t131.5 29q71 0 123 -24zM252 770q-24 24 -24 64q0 51 33.5 84t82.5 33q44 0 68 -24t24 -64q0 -51 -33.5 -84t-82.5 -33q-44 0 -68 24z" />
    <glyph glyph-name="uni1E62" unicode="&#x1e62;" horiz-adv-x="488" 
d="M431 692q52 -24 90 -71l-94 -98q-49 52 -109 52q-34 0 -52.5 -16.5t-18.5 -41.5t19 -42.5t79 -48.5q65 -34 96.5 -78t31.5 -114q0 -74 -35.5 -131.5t-98.5 -90t-142 -32.5q-148 0 -231 104l103 99q32 -31 61.5 -46t66.5 -15t58 20.5t21 53.5q0 32 -21 53t-78 50
q-67 34 -96.5 74.5t-29.5 106.5q0 71 33.5 124.5t92 82.5t131.5 29q71 0 123 -24zM255 -78q24 -24 24 -64q0 -51 -33.5 -84t-82.5 -33q-44 0 -68 24t-24 64q0 51 33.5 84t82.5 33q44 0 68 -24z" />
    <glyph glyph-name="uni1E9E" unicode="&#x1e9e;" horiz-adv-x="559" 
d="M574 634l-13 -78l-132 -176q50 -16 83.5 -50.5t33.5 -100.5q0 -77 -30 -133t-84 -85.5t-125 -29.5q-68 0 -114 29l74 122q15 -6 28 -6q24 0 36 25t12 70q0 40 -17 60.5t-62 27.5l15 92l120 160q-49 13 -88 13q-24 0 -37.5 -14.5t-17.5 -49.5l-70 -510h-195l69 494
q15 109 77 165t176 56q124 0 261 -81z" />
    <glyph glyph-name="uni018F" unicode="&#x18f;" horiz-adv-x="531" 
d="M474.5 651.5q57.5 -64.5 57.5 -185.5q0 -143 -35.5 -252.5t-106 -171t-173.5 -61.5t-156.5 64t-53.5 176q0 95 31 194l300 -2q4 29 4 60q0 54 -15.5 78t-47.5 24t-58 -13.5t-54 -36.5l-68 101q50 46 101.5 68t116.5 22q100 0 157.5 -64.5zM281.5 156q21.5 35 37.5 126
h-127q-7 -44 -7 -76q0 -45 11 -65t32 -20q32 0 53.5 35z" />
    <glyph glyph-name="T" unicode="T" horiz-adv-x="457" 
d="M524 696l-41 -148h-118l-77 -548h-194l77 548h-132l21 148h464z" />
    <glyph glyph-name="Tbar" unicode="&#x166;" horiz-adv-x="457" 
d="M483 548h-118l-22 -157h86l-15 -103h-86l-40 -288h-194l40 288h-86l15 103h86l22 157h-132l21 148h464z" />
    <glyph glyph-name="Tcaron" unicode="&#x164;" horiz-adv-x="457" 
d="M524 696l-41 -148h-118l-77 -548h-194l77 548h-132l21 148h464zM428 958l65 -72l-142 -138h-110l-109 148l72 62l103 -87z" />
    <glyph glyph-name="uni0162" unicode="&#x162;" horiz-adv-x="457" 
d="M524 696l-41 -148h-118l-77 -548l-5 -44q37 -6 57.5 -29.5t20.5 -62.5q0 -31 -15 -62t-51.5 -52.5t-94.5 -21.5q-62 0 -105 34l51 81q26 -17 50 -17q38 0 38 30q0 14 -17.5 20t-55.5 6l29 118h-96l77 548h-132l21 148h464z" />
    <glyph glyph-name="uni1E70" unicode="&#x1e70;" horiz-adv-x="457" 
d="M524 696l-41 -148h-118l-77 -548h-194l77 548h-132l21 148h464zM41 -281l-60 72l142 148h110l108 -157l-76 -63l-98 97z" />
    <glyph glyph-name="uni021A" unicode="&#x21a;" horiz-adv-x="457" 
d="M524 696l-41 -148h-118l-77 -548h-194l77 548h-132l21 148h464zM244.5 -84q21.5 -21 21.5 -55q0 -25 -8 -46t-29 -57l-56 -97h-86l38 117q-30 21 -30 57q0 45 26.5 73.5t66.5 28.5q35 0 56.5 -21z" />
    <glyph glyph-name="uni023E" unicode="&#x23e;" 
d="M530 734l-21 -38h18l-42 -140h-53l-107 -193l-50 -363h-151l-42 -76l-44 24l92 165l60 443h-149l22 140h389l34 62zM343 500l31 56h-23z" />
    <glyph glyph-name="uni1E6A" unicode="&#x1e6a;" horiz-adv-x="457" 
d="M524 696l-41 -148h-118l-77 -548h-194l77 548h-132l21 148h464zM234 770q-24 24 -24 64q0 51 33.5 84t82.5 33q44 0 68 -24t24 -64q0 -51 -33.5 -84t-82.5 -33q-44 0 -68 24z" />
    <glyph glyph-name="uni1E6C" unicode="&#x1e6c;" horiz-adv-x="457" 
d="M524 696l-41 -148h-118l-77 -548h-194l77 548h-132l21 148h464zM248 -78q24 -24 24 -64q0 -51 -33.5 -84t-82.5 -33q-44 0 -68 24t-24 64q0 51 33.5 84t82.5 33q44 0 68 -24z" />
    <glyph glyph-name="uni01AC" unicode="&#x1ac;" horiz-adv-x="521" 
d="M547 548h-118l-77 -548h-194l77 548h-21q-36 0 -36 -44q0 -20 6 -52l-126 -44q-9 27 -14 50t-5 52q0 56 24.5 98.5t67.5 65t98 22.5h359z" />
    <glyph glyph-name="uni1E6E" unicode="&#x1e6e;" horiz-adv-x="457" 
d="M524 696l-41 -148h-118l-77 -548h-194l77 548h-132l21 148h464zM54 -70h274l-20 -130h-274z" />
    <glyph glyph-name="uni01BC" unicode="&#x1bc;" horiz-adv-x="468" 
d="M51.5 9.5q-45.5 29.5 -76.5 81.5l110 87q20 -29 39 -43.5t48 -14.5q47 0 68 47t21 112q0 32 -10.5 44.5t-30.5 12.5q-14 0 -27.5 -5.5t-31.5 -18.5h-119l54 384h382l-38 -133h-191l-18 -124q25 14 45 19t42 5q59 0 95 -44t36 -129q0 -93 -35 -163t-99.5 -108.5
t-149.5 -38.5q-68 0 -113.5 29.5z" />
    <glyph glyph-name="uni0184" unicode="&#x184;" horiz-adv-x="529" 
d="M465 417q59 -50 59 -147q0 -70 -28 -131t-89 -100t-153 -39h-239l66 475l-59 56q67 62 128 165h156l-32 -229h30q102 0 161 -50zM302 175.5q19 35.5 19 88.5q0 36 -10 52.5t-36 16.5h-20l-27 -193h17q38 0 57 35.5z" />
    <glyph glyph-name="uni01A7" unicode="&#x1a7;" horiz-adv-x="472" 
d="M459.5 668q52.5 -47 52.5 -126q0 -66 -25 -111.5t-72 -77t-122 -60.5q-51 -20 -73.5 -47.5t-22.5 -68.5q0 -25 10.5 -38t36.5 -13q58 0 133 61l77 -104q-45 -46 -108 -74t-142 -28q-97 0 -152 51t-55 135q0 102 51.5 162.5t151.5 96.5q47 17 71.5 31.5t33.5 31t9 41.5
q0 21 -11.5 32.5t-32.5 11.5q-59 0 -125 -53l-65 101q104 93 239 93q88 0 140.5 -47z" />
    <glyph glyph-name="uni01AE" unicode="&#x1ae;" horiz-adv-x="457" 
d="M283 -43q-2 -20 5.5 -31.5t24.5 -11.5q14 0 26 3.5t30 12.5l41 -113q-62 -43 -143 -43q-85 0 -131.5 42t-46.5 122q0 10 2 34l3 28l77 548h-132l21 148h464l-41 -148h-118l-77 -548z" />
    <glyph glyph-name="U" unicode="U" horiz-adv-x="524" 
d="M497 204q-14 -98 -83.5 -160.5t-184.5 -62.5q-110 0 -166 52.5t-56 137.5q0 20 3 39l68 486h194l-71 -511q-1 -6 -1 -17q0 -45 41 -45q50 0 59 64l71 509h195z" />
    <glyph glyph-name="Uacute" unicode="&#xda;" horiz-adv-x="524" 
d="M497 204q-14 -98 -83.5 -160.5t-184.5 -62.5q-110 0 -166 52.5t-56 137.5q0 20 3 39l68 486h194l-71 -511q-1 -6 -1 -17q0 -45 41 -45q50 0 59 64l71 509h195zM427 962l60 -131l-226 -88l-43 87z" />
    <glyph glyph-name="uni0244" unicode="&#x244;" horiz-adv-x="557" 
d="M589 496h-35l-41 -292q-14 -98 -83.5 -160.5t-184.5 -62.5q-110 0 -166 52.5t-56 137.5q0 20 3 39l40 286h-34l15 103h33l14 97h194l-13 -97h98l14 97h195l-14 -97h36zM359 496h-99l-43 -311q-1 -6 -1 -17q0 -45 41 -45q50 0 59 64z" />
    <glyph glyph-name="Ubreve" unicode="&#x16c;" horiz-adv-x="524" 
d="M497 204q-14 -98 -83.5 -160.5t-184.5 -62.5q-110 0 -166 52.5t-56 137.5q0 20 3 39l68 486h194l-71 -511q-1 -6 -1 -17q0 -45 41 -45q50 0 59 64l71 509h195zM227.5 792q-33.5 45 -33.5 113q0 16 1 24l93 15q1 -30 14 -49t39 -19q49 0 72 70l95 -19
q-14 -79 -57.5 -129.5t-119.5 -50.5q-70 0 -103.5 45z" />
    <glyph glyph-name="uni01D3" unicode="&#x1d3;" horiz-adv-x="524" 
d="M497 204q-14 -98 -83.5 -160.5t-184.5 -62.5q-110 0 -166 52.5t-56 137.5q0 20 3 39l68 486h194l-71 -511q-1 -6 -1 -17q0 -45 41 -45q50 0 59 64l71 509h195zM460 958l65 -72l-142 -138h-110l-109 148l72 62l103 -87z" />
    <glyph glyph-name="Ucircumflex" unicode="&#xdb;" horiz-adv-x="524" 
d="M497 204q-14 -98 -83.5 -160.5t-184.5 -62.5q-110 0 -166 52.5t-56 137.5q0 20 3 39l68 486h194l-71 -511q-1 -6 -1 -17q0 -45 41 -45q50 0 59 64l71 509h195zM217 756l-65 72l142 138h110l109 -148l-72 -62l-103 87z" />
    <glyph glyph-name="uni0214" unicode="&#x214;" horiz-adv-x="524" 
d="M497 204q-14 -98 -83.5 -160.5t-184.5 -62.5q-110 0 -166 52.5t-56 137.5q0 20 3 39l68 486h194l-71 -511q-1 -6 -1 -17q0 -45 41 -45q50 0 59 64l71 509h195zM250 1000l61 -213l-99 -40l-90 201zM411 1000l55 -215l-98 -34l-85 202z" />
    <glyph glyph-name="Udieresis" unicode="&#xdc;" horiz-adv-x="524" 
d="M497 204q-14 -98 -83.5 -160.5t-184.5 -62.5q-110 0 -166 52.5t-56 137.5q0 20 3 39l68 486h194l-71 -511q-1 -6 -1 -17q0 -45 41 -45q50 0 59 64l71 509h195zM165.5 782q-20.5 21 -20.5 56q0 43 29 72.5t70 29.5q38 0 58.5 -21t20.5 -56q0 -43 -29 -72.5t-71 -29.5
q-37 0 -57.5 21zM377 782q-21 21 -21 56q0 43 29 72.5t70 29.5q37 0 58 -21t21 -56q0 -43 -29 -72.5t-70 -29.5q-37 0 -58 21z" />
    <glyph glyph-name="uni01D7" unicode="&#x1d7;" horiz-adv-x="524" 
d="M497 204q-14 -98 -83.5 -160.5t-184.5 -62.5q-110 0 -166 52.5t-56 137.5q0 20 3 39l68 486h194l-71 -511q-1 -6 -1 -17q0 -45 41 -45q50 0 59 64l71 509h195zM434 1136l87 -93l-174 -153l-62 57zM158.5 770q-20.5 21 -20.5 56q0 43 29 72.5t71 29.5q37 0 57.5 -21
t20.5 -56q0 -43 -29 -72.5t-71 -29.5q-37 0 -57.5 21zM387.5 770q-20.5 21 -20.5 56q0 43 29 72.5t71 29.5q37 0 57.5 -21t20.5 -56q0 -43 -29 -72.5t-71 -29.5q-37 0 -57.5 21z" />
    <glyph glyph-name="uni01D9" unicode="&#x1d9;" horiz-adv-x="524" 
d="M497 204q-14 -98 -83.5 -160.5t-184.5 -62.5q-110 0 -166 52.5t-56 137.5q0 20 3 39l68 486h194l-71 -511q-1 -6 -1 -17q0 -45 41 -45q50 0 59 64l71 509h195zM484 1135l65 -72l-142 -138h-110l-109 148l72 62l103 -87zM157.5 770q-20.5 21 -20.5 56q0 43 29 72.5
t71 29.5q37 0 57.5 -21t20.5 -56q0 -43 -29 -72.5t-71 -29.5q-37 0 -57.5 21zM386.5 770q-20.5 21 -20.5 56q0 43 29 72.5t71 29.5q37 0 57.5 -21t20.5 -56q0 -43 -29 -72.5t-71 -29.5q-37 0 -57.5 21z" />
    <glyph glyph-name="uni01DB" unicode="&#x1db;" horiz-adv-x="524" 
d="M497 204q-14 -98 -83.5 -160.5t-184.5 -62.5q-110 0 -166 52.5t-56 137.5q0 20 3 39l68 486h194l-71 -511q-1 -6 -1 -17q0 -45 41 -45q50 0 59 64l71 509h195zM323 1134l95 -191l-78 -52l-129 161zM155.5 771q-20.5 21 -20.5 56q0 43 29 72.5t71 29.5q37 0 57.5 -21
t20.5 -56q0 -43 -29 -72.5t-71 -29.5q-37 0 -57.5 21zM384.5 771q-20.5 21 -20.5 56q0 43 29 72.5t71 29.5q37 0 57.5 -21t20.5 -56q0 -43 -29 -72.5t-71 -29.5q-37 0 -57.5 21z" />
    <glyph glyph-name="uni01D5" unicode="&#x1d5;" horiz-adv-x="524" 
d="M497 204q-14 -98 -83.5 -160.5t-184.5 -62.5q-110 0 -166 52.5t-56 137.5q0 20 3 39l68 486h194l-71 -511q-1 -6 -1 -17q0 -45 41 -45q50 0 59 64l71 509h195zM165.5 766q-20.5 21 -20.5 56q0 43 29 72.5t70 29.5q38 0 58.5 -21t20.5 -56q0 -43 -29 -72.5t-71 -29.5
q-37 0 -57.5 21zM377 766q-21 21 -21 56q0 43 29 72.5t70 29.5q37 0 58 -21t21 -56q0 -43 -29 -72.5t-70 -29.5q-37 0 -58 21zM488 964h-274l20 130h274z" />
    <glyph glyph-name="uni1EE4" unicode="&#x1ee4;" horiz-adv-x="524" 
d="M497 204q-14 -98 -83.5 -160.5t-184.5 -62.5q-110 0 -166 52.5t-56 137.5q0 20 3 39l68 486h194l-71 -511q-1 -6 -1 -17q0 -45 41 -45q50 0 59 64l71 509h195zM281 -78q24 -24 24 -64q0 -51 -33.5 -84t-82.5 -33q-44 0 -68 24t-24 64q0 51 33.5 84t82.5 33q44 0 68 -24z
" />
    <glyph glyph-name="Ugrave" unicode="&#xd9;" horiz-adv-x="524" 
d="M497 204q-14 -98 -83.5 -160.5t-184.5 -62.5q-110 0 -166 52.5t-56 137.5q0 20 3 39l68 486h194l-71 -511q-1 -6 -1 -17q0 -45 41 -45q50 0 59 64l71 509h195zM300 958l182 -133l-54 -81l-204 85z" />
    <glyph glyph-name="uni1EE6" unicode="&#x1ee6;" horiz-adv-x="524" 
d="M497 204q-14 -98 -83.5 -160.5t-184.5 -62.5q-110 0 -166 52.5t-56 137.5q0 20 3 39l68 486h194l-71 -511q-1 -6 -1 -17q0 -45 41 -45q50 0 59 64l71 509h195zM293 856q34 1 48 10.5t14 30.5q0 12 -6 17.5t-20 5.5q-21 0 -50 -13l-15 74q43 26 98 26q52 0 80.5 -26.5
t28.5 -69.5q0 -42 -23.5 -70t-63.5 -37l-4 -40h-98z" />
    <glyph glyph-name="Uhorn" unicode="&#x1af;" horiz-adv-x="637" 
d="M664 590q-43 -42 -119 -44l-48 -342q-14 -98 -83.5 -160.5t-184.5 -62.5q-110 0 -166 52.5t-56 137.5q0 20 3 39l68 486h194l-71 -511q-1 -6 -1 -17q0 -45 41 -45q50 0 59 64l71 509h195l-8 -59q17 7 24.5 25.5t7.5 49.5q0 26 -3 47l115 13q5 -27 5 -58q0 -82 -43 -124z
" />
    <glyph glyph-name="uni1EE8" unicode="&#x1ee8;" horiz-adv-x="637" 
d="M487 831l-226 -88l-43 87l209 132zM664 590q-43 -42 -119 -44l-48 -342q-14 -98 -83.5 -160.5t-184.5 -62.5q-110 0 -166 52.5t-56 137.5q0 20 3 39l68 486h194l-71 -511q-1 -6 -1 -17q0 -45 41 -45q50 0 59 64l71 509h195l-8 -59q17 7 24.5 25.5t7.5 49.5q0 26 -3 47
l115 13q5 -27 5 -58q0 -82 -43 -124z" />
    <glyph glyph-name="uni1EF0" unicode="&#x1ef0;" horiz-adv-x="637" 
d="M664 590q-43 -42 -119 -44l-48 -342q-14 -98 -83.5 -160.5t-184.5 -62.5q-110 0 -166 52.5t-56 137.5q0 20 3 39l68 486h194l-71 -511q-1 -6 -1 -17q0 -45 41 -45q50 0 59 64l71 509h195l-8 -59q17 7 24.5 25.5t7.5 49.5q0 26 -3 47l115 13q5 -27 5 -58q0 -82 -43 -124z
M281 -78q24 -24 24 -64q0 -51 -33.5 -84t-82.5 -33q-44 0 -68 24t-24 64q0 51 33.5 84t82.5 33q44 0 68 -24z" />
    <glyph glyph-name="uni1EEA" unicode="&#x1eea;" horiz-adv-x="637" 
d="M482 825l-54 -81l-204 85l76 129zM664 590q-43 -42 -119 -44l-48 -342q-14 -98 -83.5 -160.5t-184.5 -62.5q-110 0 -166 52.5t-56 137.5q0 20 3 39l68 486h194l-71 -511q-1 -6 -1 -17q0 -45 41 -45q50 0 59 64l71 509h195l-8 -59q17 7 24.5 25.5t7.5 49.5q0 26 -3 47
l115 13q5 -27 5 -58q0 -82 -43 -124z" />
    <glyph glyph-name="uni1EEC" unicode="&#x1eec;" horiz-adv-x="637" 
d="M279 907l-15 74q43 26 98 26q52 0 80.5 -26.5t28.5 -69.5q0 -42 -23.5 -70t-63.5 -37l-4 -40h-98l11 92q34 1 48 10.5t14 30.5q0 12 -6 17.5t-20 5.5q-21 0 -50 -13zM664 590q-43 -42 -119 -44l-48 -342q-14 -98 -83.5 -160.5t-184.5 -62.5q-110 0 -166 52.5t-56 137.5
q0 20 3 39l68 486h194l-71 -511q-1 -6 -1 -17q0 -45 41 -45q50 0 59 64l71 509h195l-8 -59q17 7 24.5 25.5t7.5 49.5q0 26 -3 47l115 13q5 -27 5 -58q0 -82 -43 -124z" />
    <glyph glyph-name="uni1EEE" unicode="&#x1eee;" horiz-adv-x="637" 
d="M266 783.5q-10 -10.5 -24 -33.5l-77 46q25 57 62 94t74 37q19 0 33 -7t30 -20q9 -7 17.5 -12t16.5 -5q11 0 21 10t23 32l77 -43q-24 -57 -61.5 -94t-75.5 -37q-15 0 -27 6.5t-30 18.5q-2 2 -10 7.5t-14 8t-12 2.5q-13 0 -23 -10.5zM664 590q-43 -42 -119 -44l-48 -342
q-14 -98 -83.5 -160.5t-184.5 -62.5q-110 0 -166 52.5t-56 137.5q0 20 3 39l68 486h194l-71 -511q-1 -6 -1 -17q0 -45 41 -45q50 0 59 64l71 509h195l-8 -59q17 7 24.5 25.5t7.5 49.5q0 26 -3 47l115 13q5 -27 5 -58q0 -82 -43 -124z" />
    <glyph glyph-name="Uhungarumlaut" unicode="&#x170;" horiz-adv-x="524" 
d="M497 204q-14 -98 -83.5 -160.5t-184.5 -62.5q-110 0 -166 52.5t-56 137.5q0 20 3 39l68 486h194l-71 -511q-1 -6 -1 -17q0 -45 41 -45q50 0 59 64l71 509h195zM307 1000l104 -55l-135 -194l-83 38zM468 1000l102 -60l-140 -193l-80 44z" />
    <glyph glyph-name="uni0216" unicode="&#x216;" horiz-adv-x="524" 
d="M497 204q-14 -98 -83.5 -160.5t-184.5 -62.5q-110 0 -166 52.5t-56 137.5q0 20 3 39l68 486h194l-71 -511q-1 -6 -1 -17q0 -45 41 -45q50 0 59 64l71 509h195zM172 775q17 84 63 137t121 53q71 0 104.5 -46t33.5 -119q0 -18 -1 -27l-98 -14q-2 77 -52 77q-27 0 -46.5 -21
t-31.5 -59z" />
    <glyph glyph-name="Umacron" unicode="&#x16a;" horiz-adv-x="524" 
d="M497 204q-14 -98 -83.5 -160.5t-184.5 -62.5q-110 0 -166 52.5t-56 137.5q0 20 3 39l68 486h194l-71 -511q-1 -6 -1 -17q0 -45 41 -45q50 0 59 64l71 509h195zM465 775h-274l20 130h274z" />
    <glyph glyph-name="Uogonek" unicode="&#x172;" horiz-adv-x="524" 
d="M566 696l-69 -492q-11 -75 -54.5 -130.5t-115.5 -78.5q-57 -25 -79 -52.5t-22 -52.5q0 -31 32 -31q24 0 53 8l-29 -111q-30 -8 -64 -8q-54 0 -88 27t-34 75q0 86 93 133q-90 9 -136 60t-46 127q0 19 3 40l68 486h194l-71 -511q-1 -6 -1 -17q0 -45 41 -45q50 0 59 64
l71 509h195z" />
    <glyph glyph-name="uni01B1" unicode="&#x1b1;" horiz-adv-x="574" 
d="M76.5 53q-59.5 73 -59.5 189q0 110 39 188.5t122 129.5h-105l20 136h237l-19 -127q-48 -28 -72.5 -135.5t-24.5 -224.5q0 -48 11 -68t35 -20q42 0 69.5 55t40.5 136t13 160q0 37 -9 58.5t-30 38.5l19 127h237l-20 -137h-104q92 -66 92 -193q0 -110 -40 -197.5t-113 -138
t-168 -50.5q-111 0 -170.5 73z" />
    <glyph glyph-name="Uring" unicode="&#x16e;" horiz-adv-x="524" 
d="M497 204q-14 -98 -83.5 -160.5t-184.5 -62.5q-110 0 -166 52.5t-56 137.5q0 20 3 39l68 486h194l-71 -511q-1 -6 -1 -17q0 -45 41 -45q50 0 59 64l71 509h195zM450 972.5q31 -34.5 31 -90.5q0 -44 -19 -80t-54 -57t-81 -21q-57 0 -88 34t-31 90q0 43 19 79.5t54 58
t81 21.5q57 0 88 -34.5zM321.5 896.5q-11.5 -18.5 -11.5 -42.5q0 -38 27 -38q19 0 30.5 18.5t11.5 42.5q0 38 -26 38q-20 0 -31.5 -18.5z" />
    <glyph glyph-name="Utilde" unicode="&#x168;" horiz-adv-x="524" 
d="M497 204q-14 -98 -83.5 -160.5t-184.5 -62.5q-110 0 -166 52.5t-56 137.5q0 20 3 39l68 486h194l-71 -511q-1 -6 -1 -17q0 -45 41 -45q50 0 59 64l71 509h195zM355 757.5q-12 6.5 -30 18.5q-2 2 -10 7.5t-14 8t-12 2.5q-13 0 -23 -10.5t-24 -33.5l-77 46q25 57 62 94
t74 37q19 0 33 -7t30 -20q9 -7 17.5 -12t16.5 -5q11 0 21 10t23 32l77 -43q-24 -57 -61.5 -94t-75.5 -37q-15 0 -27 6.5z" />
    <glyph glyph-name="uni1E78" unicode="&#x1e78;" horiz-adv-x="524" 
d="M497 204q-14 -98 -83.5 -160.5t-184.5 -62.5q-110 0 -166 52.5t-56 137.5q0 20 3 39l68 486h194l-71 -511q-1 -6 -1 -17q0 -45 41 -45q50 0 59 64l71 509h195zM347 761.5q-12 6.5 -30 18.5q-2 2 -10 7.5t-14 8t-12 2.5q-13 0 -23 -10.5t-24 -33.5l-77 46q25 57 62 94
t74 37q19 0 33 -7t30 -20q9 -7 17.5 -12t16.5 -5q11 0 21 10t23 32l77 -43q-24 -57 -61.5 -94t-75.5 -37q-15 0 -27 6.5zM423 1162l60 -131l-226 -88l-43 87z" />
    <glyph glyph-name="V" unicode="V" horiz-adv-x="486" 
d="M566 696l-225 -696h-257l-44 696h197l-4 -556l136 556h197z" />
    <glyph glyph-name="uni01B2" unicode="&#x1b2;" horiz-adv-x="526" 
d="M546 582q0 -14 -4 -48l-38 -278q-18 -133 -94.5 -204t-197.5 -71q-97 0 -151.5 51.5t-54.5 134.5q0 18 3 36l70 493h194l-71 -508q-2 -16 -2 -22q0 -43 32 -43q26 0 47 30.5t30 98.5l42 307v6q0 16 -14 16q-7 0 -13 -2l-4 120q45 17 94 17q132 0 132 -134z" />
    <glyph glyph-name="uni0245" unicode="&#x245;" horiz-adv-x="506" 
d="M428 696l60 -696h-195v560l-147 -560h-204l255 696h231z" />
    <glyph glyph-name="W" unicode="W" horiz-adv-x="710" 
d="M770 696l-168 -696h-255l39 511l-103 -511h-253l30 696h190l-54 -552l123 552h194l-40 -552l110 552h187z" />
    <glyph glyph-name="Wacute" unicode="&#x1e82;" horiz-adv-x="710" 
d="M770 696l-168 -696h-255l39 511l-103 -511h-253l30 696h190l-54 -552l123 552h194l-40 -552l110 552h187zM524 962l60 -131l-226 -88l-43 87z" />
    <glyph glyph-name="Wcircumflex" unicode="&#x174;" horiz-adv-x="710" 
d="M770 696l-168 -696h-255l39 511l-103 -511h-253l30 696h190l-54 -552l123 552h194l-40 -552l110 552h187zM314 756l-65 72l142 138h110l109 -148l-72 -62l-103 87z" />
    <glyph glyph-name="Wdieresis" unicode="&#x1e84;" horiz-adv-x="710" 
d="M770 696l-168 -696h-255l39 511l-103 -511h-253l30 696h190l-54 -552l123 552h194l-40 -552l110 552h187zM262.5 782q-20.5 21 -20.5 56q0 43 29 72.5t70 29.5q38 0 58.5 -21t20.5 -56q0 -43 -29 -72.5t-71 -29.5q-37 0 -57.5 21zM474 782q-21 21 -21 56q0 43 29 72.5
t70 29.5q37 0 58 -21t21 -56q0 -43 -29 -72.5t-70 -29.5q-37 0 -58 21z" />
    <glyph glyph-name="Wgrave" unicode="&#x1e80;" horiz-adv-x="710" 
d="M770 696l-168 -696h-255l39 511l-103 -511h-253l30 696h190l-54 -552l123 552h194l-40 -552l110 552h187zM397 958l182 -133l-54 -81l-204 85z" />
    <glyph glyph-name="uni2C72" unicode="&#x2c72;" horiz-adv-x="753" 
d="M283 0l103 511l-39 -511h255l107 543q7 35 37 35q14 0 30 -9l62 109q-51 37 -114 37q-73 0 -117 -38t-60 -126l-74 -407l40 552h-194l-123 -552l54 552h-190l-30 -696h253z" />
    <glyph glyph-name="uni01F7" unicode="&#x1f7;" horiz-adv-x="506" 
d="M500 671.5q37 -44.5 37 -122.5q0 -86 -33.5 -144.5t-90 -98t-146.5 -79.5l-54 -24l-29 -203h-194l98 696h194l-4 -27q25 22 56.5 34.5t65.5 12.5q63 0 100 -44.5zM311 424q24 45 24 105q0 53 -31 53q-22 0 -41 -21l-31 -217l5 3q50 32 74 77z" />
    <glyph glyph-name="X" unicode="X" horiz-adv-x="503" 
d="M564 696l-186 -321l99 -375h-203l-28 255l-86 -255h-210l195 369l-89 327h203l16 -220l81 220h208z" />
    <glyph glyph-name="Y" unicode="Y" horiz-adv-x="514" 
d="M592 696l-239 -439l-36 -257h-194l36 257l-117 439h204l33 -294l107 294h206z" />
    <glyph glyph-name="Yacute" unicode="&#xdd;" horiz-adv-x="514" 
d="M592 696l-239 -439l-36 -257h-194l36 257l-117 439h204l33 -294l107 294h206zM420 962l60 -131l-226 -88l-43 87z" />
    <glyph glyph-name="Ycircumflex" unicode="&#x176;" horiz-adv-x="514" 
d="M592 696l-239 -439l-36 -257h-194l36 257l-117 439h204l33 -294l107 294h206zM210 756l-65 72l142 138h110l109 -148l-72 -62l-103 87z" />
    <glyph glyph-name="Ydieresis" unicode="&#x178;" horiz-adv-x="514" 
d="M592 696l-239 -439l-36 -257h-194l36 257l-117 439h204l33 -294l107 294h206zM158.5 782q-20.5 21 -20.5 56q0 43 29 72.5t70 29.5q38 0 58.5 -21t20.5 -56q0 -43 -29 -72.5t-71 -29.5q-37 0 -57.5 21zM370 782q-21 21 -21 56q0 43 29 72.5t70 29.5q37 0 58 -21t21 -56
q0 -43 -29 -72.5t-70 -29.5q-37 0 -58 21z" />
    <glyph glyph-name="uni1EF4" unicode="&#x1ef4;" horiz-adv-x="514" 
d="M592 696l-239 -439l-36 -257h-194l36 257l-117 439h204l33 -294l107 294h206zM277 -78q24 -24 24 -64q0 -51 -33.5 -84t-82.5 -33q-44 0 -68 24t-24 64q0 51 33.5 84t82.5 33q44 0 68 -24z" />
    <glyph glyph-name="Ygrave" unicode="&#x1ef2;" horiz-adv-x="514" 
d="M592 696l-239 -439l-36 -257h-194l36 257l-117 439h204l33 -294l107 294h206zM293 958l182 -133l-54 -81l-204 85z" />
    <glyph glyph-name="uni01B3" unicode="&#x1b3;" horiz-adv-x="534" 
d="M159 257l-117 440h204l31 -295l54 175q22 72 63.5 105.5t110.5 33.5q64 0 114 -38l-62 -109q-16 9 -30 9q-12 0 -20 -6.5t-15 -22.5l-139 -292l-36 -257h-194z" />
    <glyph glyph-name="uni1EF6" unicode="&#x1ef6;" horiz-adv-x="514" 
d="M592 696l-239 -439l-36 -257h-194l36 257l-117 439h204l33 -294l107 294h206zM286 856q34 1 48 10.5t14 30.5q0 12 -6 17.5t-20 5.5q-21 0 -50 -13l-15 74q43 26 98 26q52 0 80.5 -26.5t28.5 -69.5q0 -42 -23.5 -70t-63.5 -37l-4 -40h-98z" />
    <glyph glyph-name="uni0232" unicode="&#x232;" horiz-adv-x="514" 
d="M592 696l-239 -439l-36 -257h-194l36 257l-117 439h204l33 -294l107 294h206zM458 775h-274l20 130h274z" />
    <glyph glyph-name="uni01A6" unicode="&#x1a6;" horiz-adv-x="518" 
d="M489 268.5q-30 -50.5 -93 -89.5l94 -290h-200l-67 251h-18l-19 -140h-194l81 585h1l15 111h194l-15 -111h3q248 0 248 -190q0 -76 -30 -126.5zM224 273h16q43 0 63 33.5t20 83.5q0 32 -14.5 46t-44.5 14h-15z" />
    <glyph glyph-name="uni024E" unicode="&#x24e;" horiz-adv-x="516" 
d="M553 620h28l-15 -103h-69l-142 -260l-36 -257h-194l36 257l-69 260h-75l15 103h32l-20 76h184l13 -76h136l31 76h186zM280 382l55 135h-77z" />
    <glyph glyph-name="uni1EF8" unicode="&#x1ef8;" horiz-adv-x="514" 
d="M592 696l-239 -439l-36 -257h-194l36 257l-117 439h204l33 -294l107 294h206zM348 757.5q-12 6.5 -30 18.5q-2 2 -10 7.5t-14 8t-12 2.5q-13 0 -23 -10.5t-24 -33.5l-77 46q25 57 62 94t74 37q19 0 33 -7t30 -20q9 -7 17.5 -12t16.5 -5q11 0 21 10t23 32l77 -43
q-24 -57 -61.5 -94t-75.5 -37q-15 0 -27 6.5z" />
    <glyph glyph-name="Z" unicode="Z" horiz-adv-x="457" 
d="M-35 0l21 145l279 401h-206l23 150h417l-22 -147l-279 -394h240l-43 -155h-430z" />
    <glyph glyph-name="Zacute" unicode="&#x179;" horiz-adv-x="457" 
d="M-35 0l21 145l279 401h-206l23 150h417l-22 -147l-279 -394h240l-43 -155h-430zM391 962l60 -131l-226 -88l-43 87z" />
    <glyph glyph-name="Zcaron" unicode="&#x17d;" horiz-adv-x="457" 
d="M-35 0l21 145l279 401h-206l23 150h417l-22 -147l-279 -394h240l-43 -155h-430zM424 958l65 -72l-142 -138h-110l-109 148l72 62l103 -87z" />
    <glyph glyph-name="Zdotaccent" unicode="&#x17b;" horiz-adv-x="457" 
d="M-35 0l21 145l279 401h-206l23 150h417l-22 -147l-279 -394h240l-43 -155h-430zM230 770q-24 24 -24 64q0 51 33.5 84t82.5 33q44 0 68 -24t24 -64q0 -51 -33.5 -84t-82.5 -33q-44 0 -68 24z" />
    <glyph glyph-name="uni1E92" unicode="&#x1e92;" horiz-adv-x="457" 
d="M-35 0l21 145l279 401h-206l23 150h417l-22 -147l-279 -394h240l-43 -155h-430zM237 -78q24 -24 24 -64q0 -51 -33.5 -84t-82.5 -33q-44 0 -68 24t-24 64q0 51 33.5 84t82.5 33q44 0 68 -24z" />
    <glyph glyph-name="uni0224" unicode="&#x224;" horiz-adv-x="442" 
d="M477 549l-279 -394h225l-22 -155l-6 -41q-13 -89 -73.5 -137.5t-145.5 -48.5q-84 0 -134 46l76 106q14 -8 25 -12t24 -4q39 0 45 51l5 40h-252l21 145l279 401h-206l23 150h417z" />
    <glyph glyph-name="uni01B5" unicode="&#x1b5;" horiz-adv-x="457" 
d="M499 696l-22 -147l-111 -148h57l-16 -115h-127l-98 -131h256l-43 -155h-430l21 145l104 141h-58l16 115h126l107 145h-222l23 150h417z" />
    <glyph glyph-name="Cacute.loclPLK" horiz-adv-x="488" 
d="M537 634l-98 -100q-39 39 -84 39q-46 0 -76 -51t-43 -127.5t-13 -154.5q0 -59 16.5 -85t50.5 -26q25 0 48.5 12.5t58.5 38.5l69 -106q-98 -94 -217 -94q-105 0 -165.5 68.5t-60.5 203.5q0 130 37.5 235t113 167t183.5 62q109 0 180 -82zM372 984l122 -75l-148 -163
l-74 47z" />
    <glyph glyph-name="Nacute.loclPLK" horiz-adv-x="530" 
d="M464 0h-227l-45 533q4 -86 4 -132q0 -93 -12 -188l-26 -213h-167l97 696h228l43 -534q-3 71 -3 130q0 94 11 180l28 224h166zM342 984l122 -75l-148 -163l-74 47z" />
    <glyph glyph-name="Oacute.loclPLK" horiz-adv-x="581" 
d="M581 451q0 -130 -36 -236.5t-109.5 -170.5t-181.5 -64q-231 0 -231 266q0 130 35.5 236.5t109 170t181.5 63.5q232 0 232 -265zM270.5 513q-26.5 -62 -39 -149t-12.5 -162q0 -44 11.5 -63t35.5 -19q41 0 67.5 60t38.5 145.5t12 163.5q0 46 -11.5 66t-35.5 20
q-40 0 -66.5 -62zM367 984l122 -75l-148 -163l-74 47z" />
    <glyph glyph-name="Sacute.loclPLK" horiz-adv-x="488" 
d="M431 692q52 -24 90 -71l-94 -98q-49 52 -109 52q-34 0 -52.5 -16.5t-18.5 -41.5t19 -42.5t79 -48.5q65 -34 96.5 -78t31.5 -114q0 -74 -35.5 -131.5t-98.5 -90t-142 -32.5q-148 0 -231 104l103 99q32 -31 61.5 -46t66.5 -15t58 20.5t21 53.5q0 32 -21 53t-78 50
q-67 34 -96.5 74.5t-29.5 106.5q0 71 33.5 124.5t92 82.5t131.5 29q71 0 123 -24zM327 984l122 -75l-148 -163l-74 47z" />
    <glyph glyph-name="Zacute.loclPLK" horiz-adv-x="457" 
d="M-35 0l21 145l279 401h-206l23 150h417l-22 -147l-279 -394h240l-43 -155h-430zM305 984l122 -75l-148 -163l-74 47z" />
    <glyph glyph-name="Eng.ss01" horiz-adv-x="525" 
d="M507 677.5q32 -38.5 32 -99.5q0 -22 -2 -34l-75 -544l-4 -31q-14 -95 -76 -145.5t-154 -50.5q-85 0 -135 46l77 111q15 -9 25 -12.5t23 -3.5q19 0 30.5 12t14.5 34l5 40l73 526q1 5 1 15q0 31 -22 31q-23 0 -60 -32l-76 -540h-194l98 696h170l5 -46q67 66 152 66
q60 0 92 -38.5z" />
    <glyph glyph-name="uni019D.ss01" horiz-adv-x="525" 
d="M507 677.5q32 -38.5 32 -99.5q0 -22 -2 -34l-75 -544h-194l73 526q1 5 1 15q0 31 -22 31q-23 0 -60 -32l-76 -540l-4 -31q-14 -95 -76 -145.5t-154 -50.5q-85 0 -135 46l77 111q15 -9 25 -12.5t23 -3.5q19 0 30.5 12t14.5 34l5 40l98 696h170l5 -46q67 66 152 66
q60 0 92 -38.5z" />
    <glyph glyph-name="uni2C64.ss01" horiz-adv-x="377" 
d="M448 704l-58 -189q-19 8 -45 8q-43 0 -66.5 -29.5t-39.5 -86.5l-54 -407l-5 -43q-2 -20 5.5 -31.5t24.5 -11.5q14 0 26 3.5t30 12.5l41 -113q-62 -43 -143 -43q-85 0 -131.5 42t-46.5 122q0 10 2 34l3 28l97 696h170l1 -80q23 46 59 71.5t81 25.5q28 0 49 -9z" />
    <glyph glyph-name="uni0181.ss02" horiz-adv-x="508" 
d="M440.5 406q59.5 -49 59.5 -141q0 -67 -28 -127.5t-89 -99t-153 -38.5h-239l97 696h399l-41 -147h-185l-13 -94h32q101 0 160.5 -49zM278 174.5q19 34.5 19 84.5q0 31 -10.5 46.5t-35.5 15.5h-22l-25 -181h17q38 0 57 34.5z" />
    <glyph glyph-name="uniA78D.ss02" horiz-adv-x="494" 
d="M428 0h-194l33 234l-264 -1l65 463h194l-44 -310h70l43 310h194z" />
    <glyph glyph-name="uni0299" unicode="&#x299;" horiz-adv-x="449" 
d="M404 260.5q24 -26.5 24 -71.5q0 -92 -64 -140.5t-174 -48.5h-202l73 528q98 25 199 25q87 0 136 -35.5t49 -94.5q0 -51 -30 -83.5t-90 -45.5q55 -7 79 -33.5zM254 348.5q11 20.5 11 56.5q0 17 -5.5 24.5t-18.5 7.5q-9 0 -17 -2l-15 -107h13q21 0 32 20.5zM233 141
q14 22 14 61q0 19 -7 27.5t-25 8.5h-18l-16 -119h12q26 0 40 22z" />
    <glyph glyph-name="uni0262" unicode="&#x262;" horiz-adv-x="473" 
d="M478 476l-97 -93q-20 20 -40.5 30t-46.5 10q-52 0 -73.5 -67.5t-21.5 -164.5q0 -43 8.5 -60t27.5 -17q16 0 33 7l11 80h-34l2 117h215l-38 -268q-41 -32 -94.5 -49.5t-114.5 -17.5q-105 0 -155.5 51.5t-50.5 155.5q0 112 36.5 194.5t101 126t147.5 43.5q117 0 184 -78z
" />
    <glyph glyph-name="uni029B" unicode="&#x29b;" horiz-adv-x="465" 
d="M581.5 752.5q31.5 -10.5 55.5 -27.5l-63 -113q-26 14 -46 14q-17 0 -24 -11.5t-10 -35.5l-16 -103l-89 -85q-29 18 -49 25t-46 7q-52 0 -73.5 -67.5t-21.5 -164.5q0 -43 8.5 -60t27.5 -17q16 0 33 7l11 80h-34l2 117h215l-38 -268q-41 -32 -94.5 -49.5t-114.5 -17.5
q-105 0 -155.5 51.5t-50.5 155.5q0 112 36 194.5t98.5 126t140.5 43.5q24 0 50 -8l12 71q12 70 53 108t114 38q37 0 68.5 -10.5z" />
    <glyph glyph-name="uni029C" unicode="&#x29c;" horiz-adv-x="473" 
d="M225 0l28 201h-51l-28 -201h-186l74 534h186l-27 -196h51l27 196h186l-74 -534h-186z" />
    <glyph glyph-name="uni026A" unicode="&#x26a;" horiz-adv-x="280" 
d="M292 404h-40l-38 -274h40l-18 -130h-266l18 130h40l38 274h-40l18 130h266z" />
    <glyph glyph-name="uni029F" unicode="&#x29f;" horiz-adv-x="376" 
d="M248 534l-51 -391h167l-42 -143h-334l74 534h186z" />
    <glyph glyph-name="uni0274" unicode="&#x274;" horiz-adv-x="474" 
d="M412 0h-212l-31 373v-31q0 -129 -12 -220l-17 -122h-152l74 534h213l31 -373v45q0 10 1 68.5t8 109.5l21 150h150z" />
    <glyph glyph-name="uni0276" unicode="&#x276;" horiz-adv-x="634" 
d="M460 407q12 -33 14 -75h131l-16 -124h-129q-11 -42 -33 -80h177l-17 -128h-285q-48 -20 -97 -20q-91 0 -143 54t-52 162q0 99 31 180t93 129.5t150 48.5q61 0 94 -20h289l-36 -127h-171zM264.5 157.5q16.5 41.5 24.5 100t8 109.5q0 28 -6.5 39t-20.5 11
q-36 0 -54.5 -82.5t-18.5 -167.5q0 -28 6.5 -39.5t20.5 -11.5q24 0 40.5 41.5z" />
    <glyph glyph-name="uni0280" unicode="&#x280;" horiz-adv-x="454" 
d="M414.5 276q-20.5 -40 -61.5 -66l68 -210h-177l-46 174h-11l-24 -174h-175l74 534h176q101 0 149 -38t48 -124q0 -56 -20.5 -96zM203 293h12q22 0 33.5 20.5t11.5 55.5q0 38 -28 38h-13z" />
    <glyph glyph-name="uni0281" unicode="&#x281;" horiz-adv-x="451" 
d="M402 271q11 -27 11 -64q0 -102 -60.5 -154.5t-167.5 -52.5h-197l74 534h175l-24 -175h16l87 175h178l-127 -217q24 -19 35 -46zM238 198q0 39 -34 39h-8l-15 -110h8q49 0 49 71z" />
    <glyph glyph-name="uni028F" unicode="&#x28f;" horiz-adv-x="445" 
d="M498 534l-193 -344l-27 -190h-186l27 189l-96 345h194l11 -217l77 217h193z" />
    <glyph glyph-name="a" unicode="a" horiz-adv-x="483" 
d="M493 499l-47 -331q-3 -16 -3 -28q0 -13 4.5 -21t14.5 -13l-57 -122q-45 4 -79.5 22.5t-48.5 51.5q-28 -39 -59 -58.5t-74 -19.5q-67 0 -102 51t-35 141q0 104 29 190t94 139t168 53q101 0 195 -55zM216 345.5q-22 -77.5 -22 -178.5q0 -28 5 -39t16 -11t22 12.5t24 34.5
l36 256q-9 3 -18 3q-41 0 -63 -77.5z" />
    <glyph glyph-name="aacute" unicode="&#xe1;" horiz-adv-x="483" 
d="M493 499l-47 -331q-3 -16 -3 -28q0 -13 4.5 -21t14.5 -13l-57 -122q-45 4 -79.5 22.5t-48.5 51.5q-28 -39 -59 -58.5t-74 -19.5q-67 0 -102 51t-35 141q0 104 29 190t94 139t168 53q101 0 195 -55zM216 345.5q-22 -77.5 -22 -178.5q0 -28 5 -39t16 -11t22 12.5t24 34.5
l36 256q-9 3 -18 3q-41 0 -63 -77.5zM400 844l60 -131l-226 -98l-46 87z" />
    <glyph glyph-name="abreve" unicode="&#x103;" horiz-adv-x="483" 
d="M493 499l-47 -331q-3 -16 -3 -28q0 -13 4.5 -21t14.5 -13l-57 -122q-45 4 -79.5 22.5t-48.5 51.5q-28 -39 -59 -58.5t-74 -19.5q-67 0 -102 51t-35 141q0 104 29 190t94 139t168 53q101 0 195 -55zM216 345.5q-22 -77.5 -22 -178.5q0 -28 5 -39t16 -11t22 12.5t24 34.5
l36 256q-9 3 -18 3q-41 0 -63 -77.5zM213 674q-35 47 -35 121q0 17 1 25l94 14q1 -36 14.5 -57t39.5 -21t45 21.5t30 58.5l90 -19q-15 -83 -58.5 -136.5t-115.5 -53.5q-70 0 -105 47z" />
    <glyph glyph-name="uni1EAF" unicode="&#x1eaf;" horiz-adv-x="483" 
d="M431 1024l87 -93l-174 -153l-62 57zM215.5 648q-33.5 45 -33.5 113q0 16 1 24l93 15q1 -30 14 -49t39 -19q49 0 72 70l95 -19q-14 -79 -57.5 -129.5t-119.5 -50.5q-70 0 -103.5 45zM493 499l-47 -331q-3 -16 -3 -28q0 -13 4.5 -21t14.5 -13l-57 -122q-45 4 -79.5 22.5
t-48.5 51.5q-28 -39 -59 -58.5t-74 -19.5q-67 0 -102 51t-35 141q0 104 29 190t94 139t168 53q101 0 195 -55zM216 345.5q-22 -77.5 -22 -178.5q0 -28 5 -39t16 -11t22 12.5t24 34.5l36 256q-9 3 -18 3q-41 0 -63 -77.5z" />
    <glyph glyph-name="uni1EB7" unicode="&#x1eb7;" horiz-adv-x="483" 
d="M493 499l-47 -331q-3 -16 -3 -28q0 -13 4.5 -21t14.5 -13l-57 -122q-45 4 -79.5 22.5t-48.5 51.5q-28 -39 -59 -58.5t-74 -19.5q-67 0 -102 51t-35 141q0 104 29 190t94 139t168 53q101 0 195 -55zM216 345.5q-22 -77.5 -22 -178.5q0 -28 5 -39t16 -11t22 12.5t24 34.5
l36 256q-9 3 -18 3q-41 0 -63 -77.5zM213 674q-35 47 -35 121q0 17 1 25l94 14q1 -36 14.5 -57t39.5 -21t45 21.5t30 58.5l90 -19q-15 -83 -58.5 -136.5t-115.5 -53.5q-70 0 -105 47zM279 -78q24 -24 24 -64q0 -51 -33.5 -84t-82.5 -33q-44 0 -68 24t-24 64q0 51 33.5 84
t82.5 33q44 0 68 -24z" />
    <glyph glyph-name="uni1EB1" unicode="&#x1eb1;" horiz-adv-x="483" 
d="M307 1021l95 -191l-78 -52l-129 161zM215.5 648q-33.5 45 -33.5 113q0 16 1 24l93 15q1 -30 14 -49t39 -19q49 0 72 70l95 -19q-14 -79 -57.5 -129.5t-119.5 -50.5q-70 0 -103.5 45zM493 499l-47 -331q-3 -16 -3 -28q0 -13 4.5 -21t14.5 -13l-57 -122q-45 4 -79.5 22.5
t-48.5 51.5q-28 -39 -59 -58.5t-74 -19.5q-67 0 -102 51t-35 141q0 104 29 190t94 139t168 53q101 0 195 -55zM216 345.5q-22 -77.5 -22 -178.5q0 -28 5 -39t16 -11t22 12.5t24 34.5l36 256q-9 3 -18 3q-41 0 -63 -77.5z" />
    <glyph glyph-name="uni1EB3" unicode="&#x1eb3;" horiz-adv-x="483" 
d="M493 499l-47 -331q-3 -16 -3 -28q0 -13 4.5 -21t14.5 -13l-57 -122q-45 4 -79.5 22.5t-48.5 51.5q-28 -39 -59 -58.5t-74 -19.5q-67 0 -102 51t-35 141q0 104 29 190t94 139t168 53q101 0 195 -55zM216 345.5q-22 -77.5 -22 -178.5q0 -28 5 -39t16 -11t22 12.5t24 34.5
l36 256q-9 3 -18 3q-41 0 -63 -77.5zM214.5 648q-33.5 45 -33.5 113q0 16 1 24l93 15q1 -30 14 -49t39 -19q49 0 72 70l95 -19q-14 -79 -57.5 -129.5t-119.5 -50.5q-70 0 -103.5 45zM300 887q34 1 48 10.5t14 30.5q0 12 -6 17.5t-20 5.5q-21 0 -50 -13l-15 74q43 26 98 26
q52 0 80.5 -26.5t28.5 -69.5q0 -42 -23.5 -70t-63.5 -37l-7 -50h-98z" />
    <glyph glyph-name="uni1EB5" unicode="&#x1eb5;" horiz-adv-x="483" 
d="M362.5 825q-12.5 6 -28.5 17q-24 16 -35 16q-13 0 -23 -9t-23 -30l-76 41q26 51 62 84.5t72 33.5q19 0 31.5 -6t30.5 -18q20 -16 33 -16q10 0 20 9t23 29l75 -39q-24 -51 -60.5 -84.5t-73.5 -33.5q-15 0 -27.5 6zM215.5 648q-33.5 45 -33.5 113q0 16 1 24l93 15
q1 -30 14 -49t39 -19q49 0 72 70l95 -19q-14 -79 -57.5 -129.5t-119.5 -50.5q-70 0 -103.5 45zM493 499l-47 -331q-3 -16 -3 -28q0 -13 4.5 -21t14.5 -13l-57 -122q-45 4 -79.5 22.5t-48.5 51.5q-28 -39 -59 -58.5t-74 -19.5q-67 0 -102 51t-35 141q0 104 29 190t94 139
t168 53q101 0 195 -55zM216 345.5q-22 -77.5 -22 -178.5q0 -28 5 -39t16 -11t22 12.5t24 34.5l36 256q-9 3 -18 3q-41 0 -63 -77.5z" />
    <glyph glyph-name="uni01CE" unicode="&#x1ce;" horiz-adv-x="483" 
d="M493 499l-47 -331q-3 -16 -3 -28q0 -13 4.5 -21t14.5 -13l-57 -122q-45 4 -79.5 22.5t-48.5 51.5q-28 -39 -59 -58.5t-74 -19.5q-67 0 -102 51t-35 141q0 104 29 190t94 139t168 53q101 0 195 -55zM216 345.5q-22 -77.5 -22 -178.5q0 -28 5 -39t16 -11t22 12.5t24 34.5
l36 256q-9 3 -18 3q-41 0 -63 -77.5zM450 824l60 -72l-142 -148h-110l-99 148l67 72l98 -97z" />
    <glyph glyph-name="acircumflex" unicode="&#xe2;" horiz-adv-x="483" 
d="M493 499l-47 -331q-3 -16 -3 -28q0 -13 4.5 -21t14.5 -13l-57 -122q-45 4 -79.5 22.5t-48.5 51.5q-28 -39 -59 -58.5t-74 -19.5q-67 0 -102 51t-35 141q0 104 29 190t94 139t168 53q101 0 195 -55zM216 345.5q-22 -77.5 -22 -178.5q0 -28 5 -39t16 -11t22 12.5t24 34.5
l36 256q-9 3 -18 3q-41 0 -63 -77.5zM207 616l-60 72l142 148h110l108 -157l-76 -63l-98 97z" />
    <glyph glyph-name="uni1EA5" unicode="&#x1ea5;" horiz-adv-x="483" 
d="M560 988l87 -93l-174 -153l-62 57zM197 586l-65 72l142 138h110l109 -148l-72 -62l-103 87zM493 499l-47 -331q-3 -16 -3 -28q0 -13 4.5 -21t14.5 -13l-57 -122q-45 4 -79.5 22.5t-48.5 51.5q-28 -39 -59 -58.5t-74 -19.5q-67 0 -102 51t-35 141q0 104 29 190t94 139
t168 53q101 0 195 -55zM216 345.5q-22 -77.5 -22 -178.5q0 -28 5 -39t16 -11t22 12.5t24 34.5l36 256q-9 3 -18 3q-41 0 -63 -77.5z" />
    <glyph glyph-name="uni1EAD" unicode="&#x1ead;" horiz-adv-x="483" 
d="M493 499l-47 -331q-3 -16 -3 -28q0 -13 4.5 -21t14.5 -13l-57 -122q-45 4 -79.5 22.5t-48.5 51.5q-28 -39 -59 -58.5t-74 -19.5q-67 0 -102 51t-35 141q0 104 29 190t94 139t168 53q101 0 195 -55zM216 345.5q-22 -77.5 -22 -178.5q0 -28 5 -39t16 -11t22 12.5t24 34.5
l36 256q-9 3 -18 3q-41 0 -63 -77.5zM207 616l-60 72l142 148h110l108 -157l-76 -63l-98 97zM279 -78q24 -24 24 -64q0 -51 -33.5 -84t-82.5 -33q-44 0 -68 24t-24 64q0 51 33.5 84t82.5 33q44 0 68 -24z" />
    <glyph glyph-name="uni1EA7" unicode="&#x1ea7;" horiz-adv-x="483" 
d="M151 985l95 -191l-78 -52l-129 161zM198 586l-65 72l142 138h110l109 -148l-72 -62l-103 87zM493 499l-47 -331q-3 -16 -3 -28q0 -13 4.5 -21t14.5 -13l-57 -122q-45 4 -79.5 22.5t-48.5 51.5q-28 -39 -59 -58.5t-74 -19.5q-67 0 -102 51t-35 141q0 104 29 190t94 139
t168 53q101 0 195 -55zM216 345.5q-22 -77.5 -22 -178.5q0 -28 5 -39t16 -11t22 12.5t24 34.5l36 256q-9 3 -18 3q-41 0 -63 -77.5z" />
    <glyph glyph-name="uni1EA9" unicode="&#x1ea9;" horiz-adv-x="483" 
d="M493 499l-47 -331q-3 -16 -3 -28q0 -13 4.5 -21t14.5 -13l-57 -122q-45 4 -79.5 22.5t-48.5 51.5q-28 -39 -59 -58.5t-74 -19.5q-67 0 -102 51t-35 141q0 104 29 190t94 139t168 53q101 0 195 -55zM216 345.5q-22 -77.5 -22 -178.5q0 -28 5 -39t16 -11t22 12.5t24 34.5
l36 256q-9 3 -18 3q-41 0 -63 -77.5zM200 586l-65 72l142 138h110l109 -148l-72 -62l-103 87zM445 874q34 1 48 10.5t14 30.5q0 12 -6 17.5t-20 5.5q-21 0 -50 -13l-15 74q43 26 98 26q52 0 80.5 -26.5t28.5 -69.5q0 -42 -23.5 -70t-63.5 -37l-7 -50h-98z" />
    <glyph glyph-name="uni1EAB" unicode="&#x1eab;" horiz-adv-x="483" 
d="M361.5 828q-12.5 6 -28.5 17q-24 16 -35 16q-13 0 -23 -9t-23 -30l-76 41q26 51 62 84.5t72 33.5q19 0 31.5 -6t30.5 -18q20 -16 33 -16q10 0 20 9t23 29l75 -39q-24 -51 -60.5 -84.5t-73.5 -33.5q-15 0 -27.5 6zM197 585l-65 72l142 138h110l109 -148l-72 -62l-103 87z
M493 499l-47 -331q-3 -16 -3 -28q0 -13 4.5 -21t14.5 -13l-57 -122q-45 4 -79.5 22.5t-48.5 51.5q-28 -39 -59 -58.5t-74 -19.5q-67 0 -102 51t-35 141q0 104 29 190t94 139t168 53q101 0 195 -55zM216 345.5q-22 -77.5 -22 -178.5q0 -28 5 -39t16 -11t22 12.5t24 34.5
l36 256q-9 3 -18 3q-41 0 -63 -77.5z" />
    <glyph glyph-name="uni0201" unicode="&#x201;" horiz-adv-x="483" 
d="M493 499l-47 -331q-3 -16 -3 -28q0 -13 4.5 -21t14.5 -13l-57 -122q-45 4 -79.5 22.5t-48.5 51.5q-28 -39 -59 -58.5t-74 -19.5q-67 0 -102 51t-35 141q0 104 29 190t94 139t168 53q101 0 195 -55zM216 345.5q-22 -77.5 -22 -178.5q0 -28 5 -39t16 -11t22 12.5t24 34.5
l36 256q-9 3 -18 3q-41 0 -63 -77.5zM239 874l61 -213l-99 -40l-90 201zM400 874l55 -215l-98 -34l-85 202z" />
    <glyph glyph-name="adieresis" unicode="&#xe4;" horiz-adv-x="483" 
d="M493 499l-47 -331q-3 -16 -3 -28q0 -13 4.5 -21t14.5 -13l-57 -122q-45 4 -79.5 22.5t-48.5 51.5q-28 -39 -59 -58.5t-74 -19.5q-67 0 -102 51t-35 141q0 104 29 190t94 139t168 53q101 0 195 -55zM216 345.5q-22 -77.5 -22 -178.5q0 -28 5 -39t16 -11t22 12.5t24 34.5
l36 256q-9 3 -18 3q-41 0 -63 -77.5zM154.5 656q-20.5 21 -20.5 56q0 43 29 72.5t70 29.5q38 0 58.5 -21t20.5 -56q0 -43 -29 -72.5t-71 -29.5q-37 0 -57.5 21zM366 656q-21 21 -21 56q0 43 29 72.5t70 29.5q37 0 58 -21t21 -56q0 -43 -29 -72.5t-70 -29.5q-37 0 -58 21z
" />
    <glyph glyph-name="uni01DF" unicode="&#x1df;" horiz-adv-x="483" 
d="M493 499l-47 -331q-3 -16 -3 -28q0 -13 4.5 -21t14.5 -13l-57 -122q-45 4 -79.5 22.5t-48.5 51.5q-28 -39 -59 -58.5t-74 -19.5q-67 0 -102 51t-35 141q0 104 29 190t94 139t168 53q101 0 195 -55zM216 345.5q-22 -77.5 -22 -178.5q0 -28 5 -39t16 -11t22 12.5t24 34.5
l36 256q-9 3 -18 3q-41 0 -63 -77.5zM148.5 612q-20.5 21 -20.5 56q0 43 29 72.5t70 29.5q38 0 58.5 -21t20.5 -56q0 -43 -29 -72.5t-71 -29.5q-37 0 -57.5 21zM360 612q-21 21 -21 56q0 43 29 72.5t70 29.5q37 0 58 -21t21 -56q0 -43 -29 -72.5t-70 -29.5q-37 0 -58 21z
M474 808h-274l20 130h274z" />
    <glyph glyph-name="uni0227" unicode="&#x227;" horiz-adv-x="483" 
d="M493 499l-47 -331q-3 -16 -3 -28q0 -13 4.5 -21t14.5 -13l-57 -122q-45 4 -79.5 22.5t-48.5 51.5q-28 -39 -59 -58.5t-74 -19.5q-67 0 -102 51t-35 141q0 104 29 190t94 139t168 53q101 0 195 -55zM216 345.5q-22 -77.5 -22 -178.5q0 -28 5 -39t16 -11t22 12.5t24 34.5
l36 256q-9 3 -18 3q-41 0 -63 -77.5zM251 644q-24 24 -24 64q0 51 33.5 84t82.5 33q44 0 68 -24t24 -64q0 -51 -33.5 -84t-82.5 -33q-44 0 -68 24z" />
    <glyph glyph-name="uni1EA1" unicode="&#x1ea1;" horiz-adv-x="483" 
d="M493 499l-47 -331q-3 -16 -3 -28q0 -13 4.5 -21t14.5 -13l-57 -122q-45 4 -79.5 22.5t-48.5 51.5q-28 -39 -59 -58.5t-74 -19.5q-67 0 -102 51t-35 141q0 104 29 190t94 139t168 53q101 0 195 -55zM216 345.5q-22 -77.5 -22 -178.5q0 -28 5 -39t16 -11t22 12.5t24 34.5
l36 256q-9 3 -18 3q-41 0 -63 -77.5zM279 -78q24 -24 24 -64q0 -51 -33.5 -84t-82.5 -33q-44 0 -68 24t-24 64q0 51 33.5 84t82.5 33q44 0 68 -24z" />
    <glyph glyph-name="uni01E1" unicode="&#x1e1;" horiz-adv-x="483" 
d="M493 499l-47 -331q-3 -16 -3 -28q0 -13 4.5 -21t14.5 -13l-57 -122q-45 4 -79.5 22.5t-48.5 51.5q-28 -39 -59 -58.5t-74 -19.5q-67 0 -102 51t-35 141q0 104 29 190t94 139t168 53q101 0 195 -55zM216 345.5q-22 -77.5 -22 -178.5q0 -28 5 -39t16 -11t22 12.5t24 34.5
l36 256q-9 3 -18 3q-41 0 -63 -77.5zM243 612q-24 24 -24 64q0 51 33.5 84t82.5 33q44 0 68 -24t24 -64q0 -51 -33.5 -84t-82.5 -33q-44 0 -68 24zM475 826h-274l20 130h274z" />
    <glyph glyph-name="agrave" unicode="&#xe0;" horiz-adv-x="483" 
d="M493 499l-47 -331q-3 -16 -3 -28q0 -13 4.5 -21t14.5 -13l-57 -122q-45 4 -79.5 22.5t-48.5 51.5q-28 -39 -59 -58.5t-74 -19.5q-67 0 -102 51t-35 141q0 104 29 190t94 139t168 53q101 0 195 -55zM216 345.5q-22 -77.5 -22 -178.5q0 -28 5 -39t16 -11t22 12.5t24 34.5
l36 256q-9 3 -18 3q-41 0 -63 -77.5zM289 842l178 -143l-54 -81l-204 95z" />
    <glyph glyph-name="uni1EA3" unicode="&#x1ea3;" horiz-adv-x="483" 
d="M493 499l-47 -331q-3 -16 -3 -28q0 -13 4.5 -21t14.5 -13l-57 -122q-45 4 -79.5 22.5t-48.5 51.5q-28 -39 -59 -58.5t-74 -19.5q-67 0 -102 51t-35 141q0 104 29 190t94 139t168 53q101 0 195 -55zM216 345.5q-22 -77.5 -22 -178.5q0 -28 5 -39t16 -11t22 12.5t24 34.5
l36 256q-9 3 -18 3q-41 0 -63 -77.5zM277 704q34 1 48 10.5t14 30.5q0 12 -6 17.5t-20 5.5q-21 0 -50 -13l-15 74q43 26 98 26q52 0 80.5 -26.5t28.5 -69.5q0 -42 -23.5 -70t-63.5 -37l-7 -50h-98z" />
    <glyph glyph-name="uni0203" unicode="&#x203;" horiz-adv-x="483" 
d="M493 499l-47 -331q-3 -16 -3 -28q0 -13 4.5 -21t14.5 -13l-57 -122q-45 4 -79.5 22.5t-48.5 51.5q-28 -39 -59 -58.5t-74 -19.5q-67 0 -102 51t-35 141q0 104 29 190t94 139t168 53q101 0 195 -55zM216 345.5q-22 -77.5 -22 -178.5q0 -28 5 -39t16 -11t22 12.5t24 34.5
l36 256q-9 3 -18 3q-41 0 -63 -77.5zM154 613q17 84 63 137t121 53q71 0 104.5 -46t33.5 -119q0 -18 -1 -27l-98 -14q-2 77 -52 77q-27 0 -46.5 -21t-31.5 -59z" />
    <glyph glyph-name="uni0251" unicode="&#x251;" horiz-adv-x="484" 
d="M444 140q0 -13 4.5 -21t14.5 -13l-57 -122q-45 4 -79.5 22.5t-48.5 51.5q-28 -39 -59 -58.5t-74 -19.5q-67 0 -102 51t-35 141q0 106 26 192.5t76.5 137.5t121.5 51q40 0 67 -15t44 -49l25 45h128l-49 -366q-3 -16 -3 -28zM292 395q-10 27 -30 27q-30 0 -48.5 -78
t-18.5 -177q0 -28 5 -39t16 -11t22 12.5t24 34.5z" />
    <glyph glyph-name="uni0252" unicode="&#x252;" horiz-adv-x="484" 
d="M441 503q35 -51 35 -141q0 -106 -26 -192.5t-76.5 -137.5t-121.5 -51q-40 0 -67 15t-44 49l-25 -45h-128l49 366q3 17 3 28q0 13 -4.5 21t-14.5 13l57 122q45 -4 79.5 -22.5t48.5 -51.5q28 39 59 58.5t74 19.5q67 0 102 -51zM270.5 190q18.5 78 18.5 177q0 28 -5 39
t-16 11t-22 -12.5t-24 -34.5l-30 -231q11 -27 30 -27q30 0 48.5 78z" />
    <glyph glyph-name="amacron" unicode="&#x101;" horiz-adv-x="483" 
d="M493 499l-47 -331q-3 -16 -3 -28q0 -13 4.5 -21t14.5 -13l-57 -122q-45 4 -79.5 22.5t-48.5 51.5q-28 -39 -59 -58.5t-74 -19.5q-67 0 -102 51t-35 141q0 104 29 190t94 139t168 53q101 0 195 -55zM216 345.5q-22 -77.5 -22 -178.5q0 -28 5 -39t16 -11t22 12.5t24 34.5
l36 256q-9 3 -18 3q-41 0 -63 -77.5zM454 649h-274l20 130h274z" />
    <glyph glyph-name="aogonek" unicode="&#x105;" horiz-adv-x="483" 
d="M443 140q0 -13 4.5 -21t14.5 -13l-57 -122q-60 -25 -82.5 -54.5t-22.5 -54.5q0 -32 37 -32q18 0 46 5l-26 -108q-29 -8 -63 -8q-53 0 -87.5 31t-34.5 85t34.5 95t104.5 73q-24 18 -34 42q-28 -39 -59 -58.5t-74 -19.5q-67 0 -102 51t-35 141q0 104 29 190t94 139t168 53
q101 0 195 -55l-47 -331q-3 -16 -3 -28zM297 420q-9 3 -18 3q-41 0 -63 -77.5t-22 -178.5q0 -28 5 -39t16 -11t22 12.5t24 34.5z" />
    <glyph glyph-name="aring" unicode="&#xe5;" horiz-adv-x="483" 
d="M493 499l-47 -331q-3 -16 -3 -28q0 -13 4.5 -21t14.5 -13l-57 -122q-45 4 -79.5 22.5t-48.5 51.5q-28 -39 -59 -58.5t-74 -19.5q-67 0 -102 51t-35 141q0 104 29 190t94 139t168 53q101 0 195 -55zM216 345.5q-22 -77.5 -22 -178.5q0 -28 5 -39t16 -11t22 12.5t24 34.5
l36 256q-9 3 -18 3q-41 0 -63 -77.5zM437 845.5q31 -34.5 31 -90.5q0 -44 -19 -80t-54 -57t-81 -21q-57 0 -88 34t-31 90q0 43 19 79.5t54 58t81 21.5q57 0 88 -34.5zM308.5 769.5q-11.5 -18.5 -11.5 -42.5q0 -38 27 -38q19 0 30.5 18.5t11.5 42.5q0 38 -26 38
q-20 0 -31.5 -18.5z" />
    <glyph glyph-name="aringacute" unicode="&#x1fb;" horiz-adv-x="483" 
d="M493 499l-47 -331q-3 -16 -3 -28q0 -13 4.5 -21t14.5 -13l-57 -122q-45 4 -79.5 22.5t-48.5 51.5q-28 -39 -59 -58.5t-74 -19.5q-67 0 -102 51t-35 141q0 104 29 190t94 139t168 53q101 0 195 -55zM216 345.5q-22 -77.5 -22 -178.5q0 -28 5 -39t16 -11t22 12.5t24 34.5
l36 256q-9 3 -18 3q-41 0 -63 -77.5zM434 823.5q31 -34.5 31 -90.5q0 -44 -19 -80t-54 -57t-81 -21q-57 0 -88 34t-31 90q0 43 19 79.5t54 58t81 21.5q57 0 88 -34.5zM305.5 747.5q-11.5 -18.5 -11.5 -42.5q0 -38 27 -38q19 0 30.5 18.5t11.5 42.5q0 38 -26 38
q-20 0 -31.5 -18.5zM426 1082l60 -131l-226 -88l-43 87z" />
    <glyph glyph-name="uni2C65" unicode="&#x2c65;" horiz-adv-x="483" 
d="M443 140q0 -13 4.5 -21t14.5 -13l-57 -122q-45 4 -79.5 22.5t-48.5 51.5q-24 -33 -49 -52t-58 -24l-20 -58l-50 15l15 44q-53 10 -80.5 60t-27.5 129q0 104 29 190t94 139t168 53h18l17 49l50 -15l-14 -41q64 -13 124 -48l-47 -331q-3 -16 -3 -28zM210 352.5
q-22 -73.5 -25 -170.5l88 250q-41 -6 -63 -79.5zM297 343l-83 -236q15 2 31 17t26 40z" />
    <glyph glyph-name="atilde" unicode="&#xe3;" horiz-adv-x="483" 
d="M493 499l-47 -331q-3 -16 -3 -28q0 -13 4.5 -21t14.5 -13l-57 -122q-45 4 -79.5 22.5t-48.5 51.5q-28 -39 -59 -58.5t-74 -19.5q-67 0 -102 51t-35 141q0 104 29 190t94 139t168 53q101 0 195 -55zM216 345.5q-22 -77.5 -22 -178.5q0 -28 5 -39t16 -11t22 12.5t24 34.5
l36 256q-9 3 -18 3q-41 0 -63 -77.5zM341 631.5q-12 6.5 -30 18.5q-2 2 -10 7.5t-14 8t-12 2.5q-13 0 -23 -10.5t-24 -33.5l-77 46q25 57 62 94t74 37q19 0 33 -7t30 -20q9 -7 17.5 -12t16.5 -5q11 0 21 10t23 32l77 -43q-24 -57 -61.5 -94t-75.5 -37q-15 0 -27 6.5z" />
    <glyph glyph-name="uni0250" unicode="&#x250;" horiz-adv-x="451" 
d="M194 171q-1 -7 -1 -19q0 -20 10 -28t36 -8q44 0 99 21l36 -116q-40 -19 -91 -29.5t-97 -10.5q-180 0 -180 144q0 19 3 38l27 202q3 17 3 28q0 13 -4.5 21t-14.5 13l57 122q41 -4 73 -19t48 -42q58 65 136 65q57 0 90.5 -38.5t33.5 -101.5q0 -104 -67 -158t-175 -54h-18z
M224 398l-13 -97h5q28 0 43 21t15 60q0 19 -4.5 28t-14.5 9q-15 0 -31 -21z" />
    <glyph glyph-name="ae" unicode="&#xe6;" horiz-adv-x="713" 
d="M325 540q28 -13 51 -39q67 53 165 53q84 0 132.5 -42t46.5 -109q-4 -101 -85 -149.5t-200 -62.5q0 -40 12.5 -57.5t43.5 -17.5q26 0 50 11t58 35l61 -106q-88 -76 -204 -76q-117 0 -169 76q-34 -41 -72 -58t-81 -17q-64 0 -102 39t-38 103q0 88 55 146.5t195 58.5h26
q6 24 15 45q-4 22 -21.5 32.5t-43.5 10.5q-52 0 -116 -25l-22 122q46 19 91.5 29.5t81.5 10.5q42 0 70 -13zM474.5 394.5q-18.5 -37.5 -28.5 -95.5q51 5 73.5 37t22.5 68q0 28 -24 28q-25 0 -43.5 -37.5zM240 224q-23 0 -37 -18.5t-14 -52.5q0 -39 23 -39q10 0 19.5 11
t22.5 32q-1 8 -1 25l1 42h-14z" />
    <glyph glyph-name="aeacute" unicode="&#x1fd;" horiz-adv-x="713" 
d="M325 540q28 -13 51 -39q67 53 165 53q84 0 132.5 -42t46.5 -109q-4 -101 -85 -149.5t-200 -62.5q0 -40 12.5 -57.5t43.5 -17.5q26 0 50 11t58 35l61 -106q-88 -76 -204 -76q-117 0 -169 76q-34 -41 -72 -58t-81 -17q-64 0 -102 39t-38 103q0 88 55 146.5t195 58.5h26
q6 24 15 45q-4 22 -21.5 32.5t-43.5 10.5q-52 0 -116 -25l-22 122q46 19 91.5 29.5t81.5 10.5q42 0 70 -13zM474.5 394.5q-18.5 -37.5 -28.5 -95.5q51 5 73.5 37t22.5 68q0 28 -24 28q-25 0 -43.5 -37.5zM240 224q-23 0 -37 -18.5t-14 -52.5q0 -39 23 -39q10 0 19.5 11
t22.5 32q-1 8 -1 25l1 42h-14zM489 844l60 -131l-226 -98l-46 87z" />
    <glyph glyph-name="uni01E3" unicode="&#x1e3;" horiz-adv-x="713" 
d="M325 540q28 -13 51 -39q67 53 165 53q84 0 132.5 -42t46.5 -109q-4 -101 -85 -149.5t-200 -62.5q0 -40 12.5 -57.5t43.5 -17.5q26 0 50 11t58 35l61 -106q-88 -76 -204 -76q-117 0 -169 76q-34 -41 -72 -58t-81 -17q-64 0 -102 39t-38 103q0 88 55 146.5t195 58.5h26
q6 24 15 45q-4 22 -21.5 32.5t-43.5 10.5q-52 0 -116 -25l-22 122q46 19 91.5 29.5t81.5 10.5q42 0 70 -13zM474.5 394.5q-18.5 -37.5 -28.5 -95.5q51 5 73.5 37t22.5 68q0 28 -24 28q-25 0 -43.5 -37.5zM240 224q-23 0 -37 -18.5t-14 -52.5q0 -39 23 -39q10 0 19.5 11
t22.5 32q-1 8 -1 25l1 42h-14zM543 649h-274l20 130h274z" />
    <glyph glyph-name="b" unicode="b" horiz-adv-x="495" 
d="M454.5 508q32.5 -46 32.5 -132q0 -396 -295 -396q-45 0 -97.5 12.5t-103.5 33.5l100 718l188 20l-37 -267q21 26 52.5 41.5t66.5 15.5q61 0 93.5 -46zM226 377l-35 -255q16 -7 28 -7q39 0 59 78.5t20 168.5q0 33 -6 44t-17 11q-22 0 -49 -40z" />
    <glyph glyph-name="uni1E03" unicode="&#x1e03;" horiz-adv-x="495" 
d="M454.5 508q32.5 -46 32.5 -132q0 -396 -295 -396q-45 0 -97.5 12.5t-103.5 33.5l100 718l188 20l-37 -267q21 26 52.5 41.5t66.5 15.5q61 0 93.5 -46zM226 377l-35 -255q16 -7 28 -7q39 0 59 78.5t20 168.5q0 33 -6 44t-17 11q-22 0 -49 -40zM284 818q-24 24 -24 64
q0 51 33.5 84t82.5 33q44 0 68 -24t24 -64q0 -51 -33.5 -84t-82.5 -33q-44 0 -68 24z" />
    <glyph glyph-name="uni1E05" unicode="&#x1e05;" horiz-adv-x="495" 
d="M454.5 508q32.5 -46 32.5 -132q0 -396 -295 -396q-45 0 -97.5 12.5t-103.5 33.5l100 718l188 20l-37 -267q21 26 52.5 41.5t66.5 15.5q61 0 93.5 -46zM226 377l-35 -255q16 -7 28 -7q39 0 59 78.5t20 168.5q0 33 -6 44t-17 11q-22 0 -49 -40zM258 -78q24 -24 24 -64
q0 -51 -33.5 -84t-82.5 -33q-44 0 -68 24t-24 64q0 51 33.5 84t82.5 33q44 0 68 -24z" />
    <glyph glyph-name="uniA7B5" unicode="&#xa7b5;" horiz-adv-x="505" 
d="M66 560q14 97 77.5 150t161.5 53q60 0 102 -23.5t63 -63t21 -87.5q0 -146 -138 -184q58 -3 97 -40t39 -112q0 -59 -22.5 -122t-71.5 -106.5t-124 -43.5q-35 0 -59.5 10.5t-44.5 30.5l-30 -230l-182 -18zM284 166q19 42 19 93q0 43 -13 59.5t-37 16.5h-21l28 125h5
q20 0 30 35t10 87q0 26 -4.5 38.5t-16.5 12.5q-15 0 -24.5 -17.5t-15.5 -56.5l-60 -420q18 -15 43 -15q38 0 57 42z" />
    <glyph glyph-name="uni0253" unicode="&#x253;" horiz-adv-x="495" 
d="M454.5 508q32.5 -46 32.5 -132q0 -396 -295 -396q-45 0 -97.5 12.5t-103.5 33.5l70 507l8 56q11 78 66.5 126t148.5 48q38 0 73.5 -10.5t61.5 -26.5l-66 -115q-34 15 -57 15q-19 0 -29.5 -13t-14.5 -41l-5 -39l-4 -37q20 26 51 42t67 16q61 0 93.5 -46zM278 193.5
q20 78.5 20 168.5q0 33 -6 44t-17 11q-22 0 -49 -40l-35 -255q16 -7 28 -7q39 0 59 78.5z" />
    <glyph glyph-name="uni02AD" unicode="&#x2ad;" horiz-adv-x="328" 
d="M316 400h-105l11 88h-55l-12 -88h-106l25 172h267zM259 -1h-105l11 88h-55l-12 -88h-106l25 172h267z" />
    <glyph glyph-name="uni0298" unicode="&#x298;" horiz-adv-x="671" 
d="M542.5 681q61.5 -35 94.5 -99.5t33 -152.5q0 -138 -47 -239t-131.5 -155t-194.5 -54q-83 0 -144.5 35.5t-95 101t-33.5 153.5q0 138 47.5 238.5t132.5 153.5t194 53q83 0 144.5 -35zM252 498q-44 -90 -44 -238q0 -152 104 -152q85 0 130 89t45 234q0 79 -27.5 118
t-74.5 39q-89 0 -133 -90zM282.5 273q-19.5 19 -19.5 51q0 41 27 67.5t66 26.5q35 0 54.5 -19t19.5 -51q0 -41 -27 -67.5t-66 -26.5q-35 0 -54.5 19z" />
    <glyph glyph-name="uni02AC" unicode="&#x2ac;" horiz-adv-x="389" 
d="M415 669l-81 -269h-99l9 194l-50 -194h-95l-13 269h64l6 -210l54 210h90l-7 -211l59 211h63zM359 269l-81 -269h-99l9 194l-50 -194h-95l-13 269h64l6 -210l54 210h90l-7 -211l59 211h63z" />
    <glyph glyph-name="uni0180" unicode="&#x180;" horiz-adv-x="504" 
d="M463.5 508q32.5 -46 32.5 -132q0 -396 -295 -396q-45 0 -97.5 12.5t-103.5 33.5l79 567h-35l16 103h33l7 48l188 20l-9 -68h101l-30 -103h-86l-13 -96q21 26 52.5 41.5t66.5 15.5q61 0 93.5 -46zM287 193.5q20 78.5 20 168.5q0 33 -6 44t-17 11q-22 0 -49 -40l-35 -255
q16 -7 28 -7q39 0 59 78.5z" />
    <glyph glyph-name="uni0183" unicode="&#x183;" horiz-adv-x="496" 
d="M453.5 486.5q32.5 -47.5 32.5 -141.5q0 -365 -294 -365q-45 0 -97.5 12.5t-103.5 33.5l100 718h359l-41 -134h-152l-18 -133q21 26 53 41.5t68 15.5q61 0 93.5 -47.5zM263 152.5q18 37.5 26.5 89.5t8.5 95q0 36 -6 48t-18 12q-11 0 -24.5 -10t-26.5 -30l-32 -235
q16 -7 28 -7q26 0 44 37.5z" />
    <glyph glyph-name="c" unicode="c" horiz-adv-x="402" 
d="M447 483l-88 -99q-18 15 -33 21.5t-32 6.5q-47 0 -68.5 -63.5t-21.5 -147.5q0 -45 12 -60.5t35 -15.5q15 0 31 6.5t39 20.5l64 -108q-75 -64 -170 -64q-96 0 -150 59.5t-54 164.5q0 101 33.5 180.5t96 124.5t145.5 45q100 0 161 -71z" />
    <glyph glyph-name="cacute" unicode="&#x107;" horiz-adv-x="402" 
d="M447 483l-88 -99q-18 15 -33 21.5t-32 6.5q-47 0 -68.5 -63.5t-21.5 -147.5q0 -45 12 -60.5t35 -15.5q15 0 31 6.5t39 20.5l64 -108q-75 -64 -170 -64q-96 0 -150 59.5t-54 164.5q0 101 33.5 180.5t96 124.5t145.5 45q100 0 161 -71zM377 844l60 -131l-226 -98l-46 87z
" />
    <glyph glyph-name="ccaron" unicode="&#x10d;" horiz-adv-x="402" 
d="M447 483l-88 -99q-18 15 -33 21.5t-32 6.5q-47 0 -68.5 -63.5t-21.5 -147.5q0 -45 12 -60.5t35 -15.5q15 0 31 6.5t39 20.5l64 -108q-75 -64 -170 -64q-96 0 -150 59.5t-54 164.5q0 101 33.5 180.5t96 124.5t145.5 45q100 0 161 -71zM427 824l60 -72l-142 -148h-110
l-99 148l67 72l98 -97z" />
    <glyph glyph-name="ccedilla" unicode="&#xe7;" horiz-adv-x="402" 
d="M247 -18l-5 -31q81 -13 81 -87q0 -31 -15 -62t-51 -52.5t-95 -21.5q-32 0 -59.5 9.5t-45.5 24.5l51 77q25 -13 50 -13q17 0 27.5 7t10.5 22t-17 21t-56 6l26 107q-66 18 -102 73.5t-36 141.5q0 101 33.5 180.5t96 124.5t145.5 45q100 0 161 -71l-88 -99q-18 15 -33 21.5
t-32 6.5q-47 0 -68.5 -63.5t-21.5 -147.5q0 -45 12 -60.5t35 -15.5q15 0 31 6.5t39 20.5l64 -108q-64 -54 -138 -62z" />
    <glyph glyph-name="ccircumflex" unicode="&#x109;" horiz-adv-x="402" 
d="M447 483l-88 -99q-18 15 -33 21.5t-32 6.5q-47 0 -68.5 -63.5t-21.5 -147.5q0 -45 12 -60.5t35 -15.5q15 0 31 6.5t39 20.5l64 -108q-75 -64 -170 -64q-96 0 -150 59.5t-54 164.5q0 101 33.5 180.5t96 124.5t145.5 45q100 0 161 -71zM184 616l-60 72l142 148h110
l108 -157l-76 -63l-98 97z" />
    <glyph glyph-name="uni0255" unicode="&#x255;" horiz-adv-x="439" 
d="M394 235q27 -28 27 -79q0 -84 -53.5 -129.5t-136.5 -45.5q-31 0 -54 5l-38 -75l-71 34l38 70q-46 26 -70.5 75t-24.5 119q0 99 33.5 177.5t96 123t145.5 44.5q100 0 161 -71l-88 -99q-34 28 -65 28q-47 0 -68.5 -63.5t-21.5 -147.5v-15q45 77 118 77q45 0 72 -28z
M296.5 121.5q8.5 10.5 9.5 30.5q0 19 -14 19q-25 0 -46 -56q12 -4 28 -4q14 0 22.5 10.5z" />
    <glyph glyph-name="cdotaccent" unicode="&#x10b;" horiz-adv-x="402" 
d="M447 483l-88 -99q-18 15 -33 21.5t-32 6.5q-47 0 -68.5 -63.5t-21.5 -147.5q0 -45 12 -60.5t35 -15.5q15 0 31 6.5t39 20.5l64 -108q-75 -64 -170 -64q-96 0 -150 59.5t-54 164.5q0 101 33.5 180.5t96 124.5t145.5 45q100 0 161 -71zM228 644q-24 24 -24 64q0 51 33.5 84
t82.5 33q44 0 68 -24t24 -64q0 -51 -33.5 -84t-82.5 -33q-44 0 -68 24z" />
    <glyph glyph-name="uni0188" unicode="&#x188;" horiz-adv-x="400" 
d="M605 725l-63 -113q-26 14 -46 14q-17 0 -24 -12.5t-12 -44.5l-13 -86l-83 -95q-37 24 -70 24q-47 0 -68.5 -63.5t-21.5 -147.5q0 -45 12 -60.5t35 -15.5q15 0 31 6.5t39 20.5l64 -108q-75 -64 -170 -64q-96 0 -150 59.5t-54 164.5q0 100 32.5 180t90 125t129.5 45
q21 0 40 -6l11 69q12 70 53 108t114 38q72 0 124 -38z" />
    <glyph glyph-name="uni0297" unicode="&#x297;" horiz-adv-x="417" 
d="M462 483l-88 -99q-18 15 -33 21.5t-32 6.5q-41 0 -68 -56t-40 -143.5t-13 -182.5q0 -48 6 -72.5t15.5 -32t25.5 -7.5q15 0 31 6.5t39 20.5l64 -108q-75 -64 -170 -64q-97 0 -150.5 64t-53.5 190q0 155 37.5 274.5t107 186t161.5 66.5q100 0 161 -71z" />
    <glyph glyph-name="uni023C" unicode="&#x23c;" horiz-adv-x="402" 
d="M282 131.5q16 6.5 39 20.5l64 -108q-75 -64 -170 -64q-18 0 -26 1l-20 -57l-50 15l19 53q-61 21 -94 76t-33 136q0 101 33.5 180.5t96 124.5t145.5 45q28 0 47 -4l19 53l50 -15l-19 -55q36 -17 64 -50l-88 -99q-9 8 -23 16l-96 -274q3 -1 11 -1q15 0 31 6.5zM205 183
l80 228q-42 -7 -61.5 -68.5t-19.5 -141.5q0 -13 1 -18z" />
    <glyph glyph-name="d" unicode="d" horiz-adv-x="495" 
d="M537 744l-104 -744h-165l2 56q-27 -38 -57 -57t-72 -19q-64 0 -99 49t-35 142q0 99 26.5 187t76.5 142t119 54q57 0 89 -43l35 252zM232 378q-17 -40 -26 -97.5t-9 -106.5q0 -35 6 -46.5t17 -11.5q22 0 49 47l33 235q-12 20 -30 20q-23 0 -40 -40z" />
    <glyph glyph-name="eth" unicode="&#xf0;" horiz-adv-x="495" 
d="M456.5 542q28.5 -71 28.5 -159q0 -110 -32 -201.5t-95.5 -146t-153.5 -54.5q-89 0 -143.5 55t-54.5 152q0 67 27.5 135.5t74.5 113t103 44.5q32 0 55 -10t42 -31q-5 42 -16.5 72t-35.5 59l-46 -49l-96 53l52 53q-31 11 -64 18l49 116q50 -9 118 -35l75 81l80 -72l-57 -66
q61 -57 89.5 -128zM261 142.5q14 26.5 21 67t16 119.5q-17 23 -37 23q-35 0 -53 -60t-18 -121q0 -31 8 -43t25 -12q24 0 38 26.5z" />
    <glyph glyph-name="uni0238" unicode="&#x238;" horiz-adv-x="729" 
d="M692 504.5q30 -48.5 30 -138.5q0 -96 -26.5 -185t-75 -144.5t-111.5 -55.5q-28 0 -52.5 18.5t-41.5 56.5l-16 -56h-145v52q-45 -71 -109 -71q-69 0 -103 52t-34 147q0 93 27 179.5t76.5 140t112.5 53.5q25 0 46 -14t32 -41l34 246l189 19l-37 -270q21 28 51 44t65 16
q58 0 88 -48.5zM255 149l33 242q-6 14 -12 20t-15 6q-27 0 -44.5 -71t-17.5 -158q0 -41 5.5 -56t16.5 -15q16 0 34 32zM513.5 190.5q17.5 74.5 17.5 159.5q0 38 -4.5 52t-14.5 14q-16 0 -39 -31l-31 -230q6 -22 12.5 -30.5t15.5 -8.5q26 0 43.5 74.5z" />
    <glyph glyph-name="dcaron" unicode="&#x10f;" horiz-adv-x="608" 
d="M537 744l-104 -744h-165l2 56q-27 -38 -57 -57t-72 -19q-64 0 -99 49t-35 142q0 99 26.5 187t76.5 142t119 54q57 0 89 -43l35 252zM232 378q-17 -40 -26 -97.5t-9 -106.5q0 -35 6 -46.5t17 -11.5q22 0 49 47l33 235q-12 20 -30 20q-23 0 -40 -40zM567 759l126 -16
l-73 -231l-91 8z" />
    <glyph glyph-name="uni1E13" unicode="&#x1e13;" horiz-adv-x="495" 
d="M537 744l-104 -744h-165l2 56q-27 -38 -57 -57t-72 -19q-64 0 -99 49t-35 142q0 99 26.5 187t76.5 142t119 54q57 0 89 -43l35 252zM232 378q-17 -40 -26 -97.5t-9 -106.5q0 -35 6 -46.5t17 -11.5q22 0 49 47l33 235q-12 20 -30 20q-23 0 -40 -40zM78 -281l-60 72
l142 148h110l108 -157l-76 -63l-98 97z" />
    <glyph glyph-name="dcroat" unicode="&#x111;" horiz-adv-x="505" 
d="M567 694l-16 -103h-35l-83 -591h-165l2 56q-27 -38 -57 -57t-72 -19q-64 0 -99 49t-35 142q0 99 26.5 187t76.5 142t119 54q57 0 89 -43l11 80h-83l4 103h93l10 69l184 -19l-7 -50h37zM302 398q-12 20 -30 20q-23 0 -40 -40t-26 -97.5t-9 -106.5q0 -35 6 -46.5t17 -11.5
q22 0 49 47z" />
    <glyph glyph-name="uni0221" unicode="&#x221;" horiz-adv-x="690" 
d="M644.5 227q26.5 -28 26.5 -76q0 -85 -52.5 -127.5t-136.5 -42.5q-20 0 -29 1l-35 -71l-71 34l27 49q-64 21 -91 76q-28 -47 -63 -68.5t-79 -21.5q-64 0 -99 49t-35 142q0 99 26.5 187t76.5 142t119 54q57 0 89 -43l35 252l184 -19l-81 -581l-1 -7q25 55 53 77t69 22
t67.5 -28zM302 398q-12 20 -30 20q-23 0 -40 -40t-26 -97.5t-9 -106.5q0 -35 6 -46.5t17 -11.5q21 0 50 48zM548.5 120.5q8.5 9.5 8.5 26.5q0 16 -11 16q-9 0 -16 -11.5t-16 -40.5h12q14 0 22.5 9.5z" />
    <glyph glyph-name="uni1E0B" unicode="&#x1e0b;" horiz-adv-x="495" 
d="M537 744l-104 -744h-165l2 56q-27 -38 -57 -57t-72 -19q-64 0 -99 49t-35 142q0 99 26.5 187t76.5 142t119 54q57 0 89 -43l35 252zM232 378q-17 -40 -26 -97.5t-9 -106.5q0 -35 6 -46.5t17 -11.5q22 0 49 47l33 235q-12 20 -30 20q-23 0 -40 -40zM256 818q-24 24 -24 64
q0 51 33.5 84t82.5 33q44 0 68 -24t24 -64q0 -51 -33.5 -84t-82.5 -33q-44 0 -68 24z" />
    <glyph glyph-name="uni1E0D" unicode="&#x1e0d;" horiz-adv-x="495" 
d="M537 744l-104 -744h-165l2 56q-27 -38 -57 -57t-72 -19q-64 0 -99 49t-35 142q0 99 26.5 187t76.5 142t119 54q57 0 89 -43l35 252zM232 378q-17 -40 -26 -97.5t-9 -106.5q0 -35 6 -46.5t17 -11.5q22 0 49 47l33 235q-12 20 -30 20q-23 0 -40 -40zM285 -78q24 -24 24 -64
q0 -51 -33.5 -84t-82.5 -33q-44 0 -68 24t-24 64q0 51 33.5 84t82.5 33q44 0 68 -24z" />
    <glyph glyph-name="uni018D" unicode="&#x18d;" horiz-adv-x="488" 
d="M60.5 -204q-44.5 22 -69.5 57l95 84q35 -38 75 -38q23 0 33.5 13t10.5 35q0 16 -10.5 28.5t-43.5 30.5q-75 41 -107.5 88.5t-32.5 123.5t27.5 153.5t88.5 129.5t155 52q62 0 107 -27.5t68 -74t23 -103.5q0 -97 -36.5 -169t-128.5 -116q34 -25 49 -55t15 -60
q0 -44 -24 -84t-71.5 -65t-115.5 -25q-63 0 -107.5 22zM280 217q12 56 12 133q0 35 -7 50.5t-22 15.5q-30 0 -47 -57t-17 -147q0 -35 7 -56t28 -40q34 45 46 101z" />
    <glyph glyph-name="uni02A4" unicode="&#x2a4;" horiz-adv-x="889" 
d="M868 407l-160 -197q144 -23 144 -163q0 -84 -36 -146t-98.5 -95t-140.5 -33q-135 0 -199 110l110 88q23 -29 44 -42t47 -13q38 0 61 32.5t23 93.5q0 38 -16.5 53.5t-46.5 15.5h-87l15 104l148 181h-188l-55 -396h-165l2 56q-27 -38 -57 -57t-72 -19q-64 0 -99 49t-35 142
q0 99 26.5 187t76.5 142t119 54q57 0 89 -43l35 252l184 -19l-29 -210h379zM302 398q-12 20 -30 20q-23 0 -40 -40t-26 -97.5t-9 -106.5q0 -35 6 -46.5t17 -11.5q22 0 49 47z" />
    <glyph glyph-name="uni0257" unicode="&#x257;" horiz-adv-x="495" 
d="M658 725l-68 -112q-23 13 -42 13q-17 0 -23.5 -10.5t-10.5 -36.5l-7 -46l-74 -533h-165l2 56q-27 -38 -57 -57t-72 -19q-64 0 -99 49t-35 142q0 99 26.5 187t76.5 142t119 54q57 0 89 -43l3 22l6 45q10 80 63.5 132.5t144.5 52.5q74 0 123 -38zM302 398q-7 11 -13.5 15.5
t-16.5 4.5q-23 0 -40 -40t-26 -97.5t-9 -106.5q0 -35 6 -46.5t17 -11.5q22 0 49 47z" />
    <glyph glyph-name="uni1E0F" unicode="&#x1e0f;" horiz-adv-x="495" 
d="M537 744l-104 -744h-165l2 56q-27 -38 -57 -57t-72 -19q-64 0 -99 49t-35 142q0 99 26.5 187t76.5 142t119 54q57 0 89 -43l35 252zM232 378q-17 -40 -26 -97.5t-9 -106.5q0 -35 6 -46.5t17 -11.5q22 0 49 47l33 235q-12 20 -30 20q-23 0 -40 -40zM91 -70h274l-20 -130
h-274z" />
    <glyph glyph-name="uni0256" unicode="&#x256;" horiz-adv-x="496" 
d="M557 -183q-64 -43 -145 -43q-80 0 -125 42t-45 121q0 11 2 35l3 28l5 39q-42 -59 -111 -59q-64 0 -99 49t-35 142q0 99 26.5 187t76.5 142t119 54q57 0 89 -43l35 252l184 -19l-104 -744l-6 -47l-1 -10q0 -16 9 -25t25 -9q15 0 25.5 3.5t26.5 11.5zM269 163l33 235
q-7 11 -13.5 15.5t-16.5 4.5q-23 0 -40 -40t-26 -97.5t-9 -106.5q0 -35 6 -46.5t17 -11.5q22 0 49 47z" />
    <glyph glyph-name="uni018C" unicode="&#x18c;" horiz-adv-x="494" 
d="M432 0h-165l2 56q-27 -38 -57 -57t-72 -19q-64 0 -99 49t-35 142q0 90 26 173.5t76 136.5t118 53q57 0 89 -43l16 119h-163l18 134h350zM299 378q-12 20 -30 20q-23 0 -39.5 -39t-25 -92t-8.5 -93q0 -35 6 -46.5t17 -11.5q22 0 49 47z" />
    <glyph glyph-name="uni01F3" unicode="&#x1f3;" horiz-adv-x="889" 
d="M537 744l-104 -744h-165l2 56q-27 -38 -57 -57t-72 -19q-64 0 -99 49t-35 142q0 99 26.5 187t76.5 142t119 54q57 0 89 -43l35 252zM232 378q-17 -40 -26 -97.5t-9 -106.5q0 -35 6 -46.5t17 -11.5q22 0 49 47l33 235q-12 20 -30 20q-23 0 -40 -40zM913 534l-19 -131
l-195 -262h169l-37 -141h-371l19 133l195 262h-146l21 139h364z" />
    <glyph glyph-name="uni02A3" unicode="&#x2a3;" horiz-adv-x="859" 
d="M864 403l-190 -262h164l-37 -141h-533l2 56q-27 -38 -57 -57t-72 -19q-64 0 -99 49t-35 142q0 99 26.5 187t76.5 142t119 54q57 0 89 -43l35 252l184 -19l-29 -210h375zM302 398q-12 20 -30 20q-23 0 -40 -40t-26 -97.5t-9 -106.5q0 -35 6 -46.5t17 -11.5q22 0 49 47z
M451 128l193 267h-156z" />
    <glyph glyph-name="uni01C6" unicode="&#x1c6;" horiz-adv-x="889" 
d="M537 744l-104 -744h-165l2 56q-27 -38 -57 -57t-72 -19q-64 0 -99 49t-35 142q0 99 26.5 187t76.5 142t119 54q57 0 89 -43l35 252zM232 378q-17 -40 -26 -97.5t-9 -106.5q0 -35 6 -46.5t17 -11.5q22 0 49 47l33 235q-12 20 -30 20q-23 0 -40 -40zM913 534l-19 -131
l-195 -262h169l-37 -141h-371l19 133l195 262h-146l21 139h364zM879 824l60 -72l-142 -148h-110l-99 148l67 72l98 -97z" />
    <glyph glyph-name="uni02A5" unicode="&#x2a5;" horiz-adv-x="989" 
d="M954 261.5q30 -29.5 30 -85.5q0 -86 -54.5 -131.5t-141.5 -44.5h-23q-9 -37 -17 -97l-6 -35l-93 2q13 87 24 130h-405l2 56q-27 -38 -57 -57t-72 -19q-64 0 -99 49t-35 142q0 99 26.5 187t76.5 142t119 54q57 0 89 -43l35 252l184 -19l-29 -210h376l-18 -116l-206 -277
h54q35 83 72 116.5t88 33.5q50 0 80 -29.5zM302 398q-12 20 -30 20q-23 0 -40 -40t-26 -97.5t-9 -106.5q0 -35 6 -46.5t17 -11.5q22 0 49 47zM452 136l193 259h-157zM860.5 150q8.5 9 8.5 26q0 21 -16 21q-13 0 -25 -14t-21 -42h30q15 0 23.5 9z" />
    <glyph glyph-name="e" unicode="e" horiz-adv-x="469" 
d="M429.5 512q48.5 -42 46.5 -109q-4 -101 -85 -149.5t-200 -62.5v-14q0 -61 56 -61q26 0 50 11t58 35l61 -106q-88 -76 -203 -76q-96 0 -150 52t-54 156q0 105 32.5 188t97 130.5t158.5 47.5q84 0 132.5 -42zM275.5 336q22.5 32 22.5 68q0 28 -24 28q-25 0 -43.5 -37.5
t-28.5 -95.5q51 5 73.5 37z" />
    <glyph glyph-name="eacute" unicode="&#xe9;" horiz-adv-x="469" 
d="M429.5 512q48.5 -42 46.5 -109q-4 -101 -85 -149.5t-200 -62.5v-14q0 -61 56 -61q26 0 50 11t58 35l61 -106q-88 -76 -203 -76q-96 0 -150 52t-54 156q0 105 32.5 188t97 130.5t158.5 47.5q84 0 132.5 -42zM275.5 336q22.5 32 22.5 68q0 28 -24 28q-25 0 -43.5 -37.5
t-28.5 -95.5q51 5 73.5 37zM385 844l60 -131l-226 -98l-46 87z" />
    <glyph glyph-name="ebreve" unicode="&#x115;" horiz-adv-x="469" 
d="M429.5 512q48.5 -42 46.5 -109q-4 -101 -85 -149.5t-200 -62.5v-14q0 -61 56 -61q26 0 50 11t58 35l61 -106q-88 -76 -203 -76q-96 0 -150 52t-54 156q0 105 32.5 188t97 130.5t158.5 47.5q84 0 132.5 -42zM275.5 336q22.5 32 22.5 68q0 28 -24 28q-25 0 -43.5 -37.5
t-28.5 -95.5q51 5 73.5 37zM198 674q-35 47 -35 121q0 17 1 25l94 14q1 -36 14.5 -57t39.5 -21t45 21.5t30 58.5l90 -19q-15 -83 -58.5 -136.5t-115.5 -53.5q-70 0 -105 47z" />
    <glyph glyph-name="ecaron" unicode="&#x11b;" horiz-adv-x="469" 
d="M429.5 512q48.5 -42 46.5 -109q-4 -101 -85 -149.5t-200 -62.5v-14q0 -61 56 -61q26 0 50 11t58 35l61 -106q-88 -76 -203 -76q-96 0 -150 52t-54 156q0 105 32.5 188t97 130.5t158.5 47.5q84 0 132.5 -42zM275.5 336q22.5 32 22.5 68q0 28 -24 28q-25 0 -43.5 -37.5
t-28.5 -95.5q51 5 73.5 37zM435 824l60 -72l-142 -148h-110l-99 148l67 72l98 -97z" />
    <glyph glyph-name="uni0229" unicode="&#x229;" horiz-adv-x="469" 
d="M429.5 512q48.5 -42 46.5 -109q-4 -101 -85 -149.5t-200 -62.5v-14q0 -61 56 -61q26 0 50 11t58 35l61 -106q-69 -58 -150 -72l-5 -33q81 -13 81 -87q0 -31 -15 -62t-51 -52.5t-95 -21.5q-32 0 -59.5 9.5t-45.5 24.5l51 77q25 -13 50 -13q17 0 27.5 7t10.5 22t-17 21
t-56 6l25 101q-75 12 -116.5 63t-41.5 141q0 106 32.5 189t97 130.5t158.5 47.5q84 0 132.5 -42zM275.5 336q22.5 32 22.5 68q0 28 -24 28q-25 0 -43.5 -37.5t-28.5 -95.5q51 5 73.5 37z" />
    <glyph glyph-name="ecircumflex" unicode="&#xea;" horiz-adv-x="469" 
d="M429.5 512q48.5 -42 46.5 -109q-4 -101 -85 -149.5t-200 -62.5v-14q0 -61 56 -61q26 0 50 11t58 35l61 -106q-88 -76 -203 -76q-96 0 -150 52t-54 156q0 105 32.5 188t97 130.5t158.5 47.5q84 0 132.5 -42zM275.5 336q22.5 32 22.5 68q0 28 -24 28q-25 0 -43.5 -37.5
t-28.5 -95.5q51 5 73.5 37zM192 616l-60 72l142 148h110l108 -157l-76 -63l-98 97z" />
    <glyph glyph-name="uni1EBF" unicode="&#x1ebf;" horiz-adv-x="469" 
d="M632 895l-174 -153l-62 57l149 189zM259 796h110l109 -148l-72 -62l-103 87l-121 -87l-65 72zM429.5 512q48.5 -42 46.5 -109q-4 -101 -85 -149.5t-200 -62.5v-14q0 -61 56 -61q26 0 50 11t58 35l61 -106q-88 -76 -203 -76q-96 0 -150 52t-54 156q0 105 32.5 188
t97 130.5t158.5 47.5q84 0 132.5 -42zM275.5 336q22.5 32 22.5 68q0 28 -24 28q-25 0 -43.5 -37.5t-28.5 -95.5q51 5 73.5 37z" />
    <glyph glyph-name="uni1EC7" unicode="&#x1ec7;" horiz-adv-x="469" 
d="M429.5 512q48.5 -42 46.5 -109q-4 -101 -85 -149.5t-200 -62.5v-14q0 -61 56 -61q26 0 50 11t58 35l61 -106q-88 -76 -203 -76q-96 0 -150 52t-54 156q0 105 32.5 188t97 130.5t158.5 47.5q84 0 132.5 -42zM275.5 336q22.5 32 22.5 68q0 28 -24 28q-25 0 -43.5 -37.5
t-28.5 -95.5q51 5 73.5 37zM192 616l-60 72l142 148h110l108 -157l-76 -63l-98 97zM273 -78q24 -24 24 -64q0 -51 -33.5 -84t-82.5 -33q-44 0 -68 24t-24 64q0 51 33.5 84t82.5 33q44 0 68 -24z" />
    <glyph glyph-name="uni1EC1" unicode="&#x1ec1;" horiz-adv-x="469" 
d="M231 794l-78 -52l-129 161l112 82zM183 586l-65 72l142 138h110l109 -148l-72 -62l-103 87zM429.5 512q48.5 -42 46.5 -109q-4 -101 -85 -149.5t-200 -62.5v-14q0 -61 56 -61q26 0 50 11t58 35l61 -106q-88 -76 -203 -76q-96 0 -150 52t-54 156q0 105 32.5 188t97 130.5
t158.5 47.5q84 0 132.5 -42zM275.5 336q22.5 32 22.5 68q0 28 -24 28q-25 0 -43.5 -37.5t-28.5 -95.5q51 5 73.5 37z" />
    <glyph glyph-name="uni1EC3" unicode="&#x1ec3;" horiz-adv-x="469" 
d="M429.5 512q48.5 -42 46.5 -109q-4 -101 -85 -149.5t-200 -62.5v-14q0 -61 56 -61q26 0 50 11t58 35l61 -106q-88 -76 -203 -76q-96 0 -150 52t-54 156q0 105 32.5 188t97 130.5t158.5 47.5q84 0 132.5 -42zM275.5 336q22.5 32 22.5 68q0 28 -24 28q-25 0 -43.5 -37.5
t-28.5 -95.5q51 5 73.5 37zM185 586l-65 72l142 138h110l109 -148l-72 -62l-103 87zM430 874q34 1 48 10.5t14 30.5q0 12 -6 17.5t-20 5.5q-21 0 -50 -13l-15 74q43 26 98 26q52 0 80.5 -26.5t28.5 -69.5q0 -42 -23.5 -70t-63.5 -37l-7 -50h-98z" />
    <glyph glyph-name="uni1EC5" unicode="&#x1ec5;" horiz-adv-x="469" 
d="M260 852q-10 -9 -23 -30l-76 41q26 51 62 84.5t72 33.5q19 0 31.5 -6t30.5 -18q20 -16 33 -16q10 0 20 9t23 29l75 -39q-24 -51 -60.5 -84.5t-73.5 -33.5q-15 0 -27.5 6t-28.5 17q-24 16 -35 16q-13 0 -23 -9zM259 795h110l109 -148l-72 -62l-103 87l-121 -87l-65 72z
M429.5 512q48.5 -42 46.5 -109q-4 -101 -85 -149.5t-200 -62.5v-14q0 -61 56 -61q26 0 50 11t58 35l61 -106q-88 -76 -203 -76q-96 0 -150 52t-54 156q0 105 32.5 188t97 130.5t158.5 47.5q84 0 132.5 -42zM275.5 336q22.5 32 22.5 68q0 28 -24 28q-25 0 -43.5 -37.5
t-28.5 -95.5q51 5 73.5 37z" />
    <glyph glyph-name="uni0205" unicode="&#x205;" horiz-adv-x="469" 
d="M429.5 512q48.5 -42 46.5 -109q-4 -101 -85 -149.5t-200 -62.5v-14q0 -61 56 -61q26 0 50 11t58 35l61 -106q-88 -76 -203 -76q-96 0 -150 52t-54 156q0 105 32.5 188t97 130.5t158.5 47.5q84 0 132.5 -42zM275.5 336q22.5 32 22.5 68q0 28 -24 28q-25 0 -43.5 -37.5
t-28.5 -95.5q51 5 73.5 37zM224 874l61 -213l-99 -40l-90 201zM385 874l55 -215l-98 -34l-85 202z" />
    <glyph glyph-name="edieresis" unicode="&#xeb;" horiz-adv-x="469" 
d="M429.5 512q48.5 -42 46.5 -109q-4 -101 -85 -149.5t-200 -62.5v-14q0 -61 56 -61q26 0 50 11t58 35l61 -106q-88 -76 -203 -76q-96 0 -150 52t-54 156q0 105 32.5 188t97 130.5t158.5 47.5q84 0 132.5 -42zM275.5 336q22.5 32 22.5 68q0 28 -24 28q-25 0 -43.5 -37.5
t-28.5 -95.5q51 5 73.5 37zM139.5 656q-20.5 21 -20.5 56q0 43 29 72.5t70 29.5q38 0 58.5 -21t20.5 -56q0 -43 -29 -72.5t-71 -29.5q-37 0 -57.5 21zM351 656q-21 21 -21 56q0 43 29 72.5t70 29.5q37 0 58 -21t21 -56q0 -43 -29 -72.5t-70 -29.5q-37 0 -58 21z" />
    <glyph glyph-name="edotaccent" unicode="&#x117;" horiz-adv-x="469" 
d="M429.5 512q48.5 -42 46.5 -109q-4 -101 -85 -149.5t-200 -62.5v-14q0 -61 56 -61q26 0 50 11t58 35l61 -106q-88 -76 -203 -76q-96 0 -150 52t-54 156q0 105 32.5 188t97 130.5t158.5 47.5q84 0 132.5 -42zM275.5 336q22.5 32 22.5 68q0 28 -24 28q-25 0 -43.5 -37.5
t-28.5 -95.5q51 5 73.5 37zM236 644q-24 24 -24 64q0 51 33.5 84t82.5 33q44 0 68 -24t24 -64q0 -51 -33.5 -84t-82.5 -33q-44 0 -68 24z" />
    <glyph glyph-name="uni1EB9" unicode="&#x1eb9;" horiz-adv-x="469" 
d="M429.5 512q48.5 -42 46.5 -109q-4 -101 -85 -149.5t-200 -62.5v-14q0 -61 56 -61q26 0 50 11t58 35l61 -106q-88 -76 -203 -76q-96 0 -150 52t-54 156q0 105 32.5 188t97 130.5t158.5 47.5q84 0 132.5 -42zM275.5 336q22.5 32 22.5 68q0 28 -24 28q-25 0 -43.5 -37.5
t-28.5 -95.5q51 5 73.5 37zM273 -78q24 -24 24 -64q0 -51 -33.5 -84t-82.5 -33q-44 0 -68 24t-24 64q0 51 33.5 84t82.5 33q44 0 68 -24z" />
    <glyph glyph-name="egrave" unicode="&#xe8;" horiz-adv-x="469" 
d="M429.5 512q48.5 -42 46.5 -109q-4 -101 -85 -149.5t-200 -62.5v-14q0 -61 56 -61q26 0 50 11t58 35l61 -106q-88 -76 -203 -76q-96 0 -150 52t-54 156q0 105 32.5 188t97 130.5t158.5 47.5q84 0 132.5 -42zM275.5 336q22.5 32 22.5 68q0 28 -24 28q-25 0 -43.5 -37.5
t-28.5 -95.5q51 5 73.5 37zM274 842l178 -143l-54 -81l-204 95z" />
    <glyph glyph-name="uni1EBB" unicode="&#x1ebb;" horiz-adv-x="469" 
d="M429.5 512q48.5 -42 46.5 -109q-4 -101 -85 -149.5t-200 -62.5v-14q0 -61 56 -61q26 0 50 11t58 35l61 -106q-88 -76 -203 -76q-96 0 -150 52t-54 156q0 105 32.5 188t97 130.5t158.5 47.5q84 0 132.5 -42zM275.5 336q22.5 32 22.5 68q0 28 -24 28q-25 0 -43.5 -37.5
t-28.5 -95.5q51 5 73.5 37zM262 704q34 1 48 10.5t14 30.5q0 12 -6 17.5t-20 5.5q-21 0 -50 -13l-15 74q43 26 98 26q52 0 80.5 -26.5t28.5 -69.5q0 -42 -23.5 -70t-63.5 -37l-7 -50h-98z" />
    <glyph glyph-name="uni0207" unicode="&#x207;" horiz-adv-x="469" 
d="M429.5 512q48.5 -42 46.5 -109q-4 -101 -85 -149.5t-200 -62.5v-14q0 -61 56 -61q26 0 50 11t58 35l61 -106q-88 -76 -203 -76q-96 0 -150 52t-54 156q0 105 32.5 188t97 130.5t158.5 47.5q84 0 132.5 -42zM275.5 336q22.5 32 22.5 68q0 28 -24 28q-25 0 -43.5 -37.5
t-28.5 -95.5q51 5 73.5 37zM139 613q17 84 63 137t121 53q71 0 104.5 -46t33.5 -119q0 -18 -1 -27l-98 -14q-2 77 -52 77q-27 0 -46.5 -21t-31.5 -59z" />
    <glyph glyph-name="emacron" unicode="&#x113;" horiz-adv-x="469" 
d="M429.5 512q48.5 -42 46.5 -109q-4 -101 -85 -149.5t-200 -62.5v-14q0 -61 56 -61q26 0 50 11t58 35l61 -106q-88 -76 -203 -76q-96 0 -150 52t-54 156q0 105 32.5 188t97 130.5t158.5 47.5q84 0 132.5 -42zM275.5 336q22.5 32 22.5 68q0 28 -24 28q-25 0 -43.5 -37.5
t-28.5 -95.5q51 5 73.5 37zM439 649h-274l20 130h274z" />
    <glyph glyph-name="eogonek" unicode="&#x119;" horiz-adv-x="469" 
d="M429.5 512q48.5 -42 46.5 -109q-4 -101 -85 -149.5t-200 -62.5v-14q0 -61 56 -61q26 0 50 11t58 35l61 -106q-44 -38 -95 -57q-47 -24 -66 -49.5t-19 -48.5q0 -31 32 -31q24 0 53 8l-29 -111q-30 -8 -64 -8q-54 0 -88 27t-34 75q0 75 71 121q-79 9 -123.5 60.5
t-44.5 144.5q0 106 32.5 189t97 130.5t158.5 47.5q84 0 132.5 -42zM275.5 336q22.5 32 22.5 68q0 28 -24 28q-25 0 -43.5 -37.5t-28.5 -95.5q51 5 73.5 37z" />
    <glyph glyph-name="uni025B" unicode="&#x25b;" horiz-adv-x="420" 
d="M51.5 23.5q-53.5 42.5 -53.5 118.5q0 61 41.5 99t111.5 43q-101 22 -101 110q0 74 58 117t147 43q52 0 98.5 -18t80.5 -56l-83 -86q-38 32 -74 32q-22 0 -33.5 -13.5t-11.5 -36.5q0 -22 10.5 -34t37.5 -12h39l-35 -116h-39q-29 0 -43.5 -14.5t-14.5 -39.5
q0 -23 11.5 -35.5t34.5 -12.5q22 0 43.5 9t48.5 28l59 -100q-35 -32 -86 -50t-109 -18q-84 0 -137.5 42.5z" />
    <glyph glyph-name="uni029A" unicode="&#x29a;" horiz-adv-x="490" 
d="M53 21q-56 40 -56 116q0 64 40 103t108 44q-48 12 -71 37t-23 65q0 49 28 87t78 59.5t115 21.5q100 0 153 -58.5t53 -161.5q0 -170 -70.5 -261.5t-211.5 -91.5q-87 0 -143 40zM284 182.5q19 70.5 19 156.5q0 47 -9.5 67t-27.5 20q-34 0 -34 -56q0 -40 32 -40h9l-35 -116
h-5q-23 0 -36 -16t-13 -43q0 -20 8.5 -31.5t24.5 -11.5q48 0 67 70.5z" />
    <glyph glyph-name="uni025C" unicode="&#x25c;" horiz-adv-x="415" 
d="M362 517.5q46 -36.5 46 -95.5q0 -54 -36 -90.5t-109 -48.5q123 -11 123 -116q0 -48 -24.5 -90t-76.5 -69t-131 -27q-111 0 -180 66l90 103q25 -21 44 -29.5t37 -8.5q25 0 38.5 17t13.5 49q0 20 -9.5 28t-30.5 8h-64l31 116h37q28 0 42.5 16t14.5 44q0 19 -7 27.5t-23 8.5
q-32 0 -76 -29l-65 95q87 62 192 62q77 0 123 -36.5z" />
    <glyph glyph-name="uni025E" unicode="&#x25e;" horiz-adv-x="485" 
d="M63 36q-53 55 -53 158q0 114 35.5 195t100.5 123t151 42q81 0 131.5 -35.5t50.5 -98.5q0 -53 -33.5 -89t-97.5 -48q56 -6 82.5 -35.5t26.5 -76.5q0 -49 -24 -92t-77.5 -70.5t-138.5 -27.5q-101 0 -154 55zM274 180q0 18 -7.5 26t-25.5 8h-24l35 116h7q13 0 23.5 15.5
t10.5 44.5q0 36 -26 36q-40 0 -61 -69.5t-21 -168.5q0 -42 9.5 -59t32.5 -17q47 0 47 68z" />
    <glyph glyph-name="uni025D" unicode="&#x25d;" horiz-adv-x="653" 
d="M673 340q-50 -36 -112 -36q-58 0 -86.5 27.5t-36.5 75.5l-3 17l-28 -18q-5 -48 -41 -80t-103 -43q123 -11 123 -116q0 -48 -24.5 -90t-76.5 -69t-131 -27q-111 0 -180 66l90 103q25 -21 44 -29.5t37 -8.5q25 0 38.5 17t13.5 49q0 20 -9.5 28t-30.5 8h-64l31 116h37
q28 0 42.5 16t14.5 44q0 19 -7 27.5t-23 8.5q-32 0 -76 -29l-65 95q87 62 192 62q48 0 85.5 -15t58.5 -42l58 37h145l-9 -64l-1 -10q0 -16 8 -24.5t21 -8.5q16 0 39 9z" />
    <glyph glyph-name="uni0258" unicode="&#x258;" horiz-adv-x="476" 
d="M416 492q49 -62 49 -160q0 -166 -76 -258.5t-211 -92.5q-113 0 -179 78l89 95q21 -19 42.5 -28.5t46.5 -9.5q65 0 89 74q-112 9 -176 46t-64 121q0 54 27.5 98.5t80 71.5t124.5 27q109 0 158 -62zM228 318q14 -16 55 -19q1 17 1 54q0 41 -7.5 60.5t-25.5 19.5
q-17 0 -27 -19t-10 -55q0 -25 14 -41z" />
    <glyph glyph-name="uni0283" unicode="&#x283;" horiz-adv-x="237" 
d="M399 725l-68 -112q-23 13 -42 13q-17 0 -23.5 -10.5t-10.5 -36.5l-7 -46l-74 -533l-5 -35q-14 -96 -73.5 -143.5t-150.5 -47.5q-45 0 -76.5 12.5t-56.5 33.5l74 106q17 -9 27.5 -13t25.5 -4q19 0 29.5 11t12.5 30l7 50l74 534l6 44q10 80 63.5 132.5t144.5 52.5
q74 0 123 -38z" />
    <glyph glyph-name="uni0286" unicode="&#x286;" horiz-adv-x="319" 
d="M481 725l-68 -112q-23 13 -42 13q-17 0 -23.5 -10.5t-10.5 -36.5l-7 -46l-74 -531l-2 -11q33 -10 64 -34l-38 -72q-21 12 -46 24q-26 -67 -75 -101t-128 -34q-63 0 -96 31t-33 86q0 63 37.5 99t98.5 36q21 0 35 -2l71 510l6 44q10 80 63.5 132.5t144.5 52.5q74 0 123 -38
zM45 -122q9 12 13 39l4 27q-18 2 -24 2q-20 0 -30.5 -13.5t-10.5 -35.5q0 -31 24 -31q15 0 24 12z" />
    <glyph glyph-name="uni01AA" unicode="&#x1aa;" horiz-adv-x="421" 
d="M483 -183q-64 -43 -145 -43q-80 0 -125 42t-45 121q0 11 2 35l3 28l56 404q-30 -14 -64 -14q-54 0 -88.5 45t-34.5 115q0 63 26 111t75 75t114 27q84 0 132 -48t48 -134q0 -20 -3 -43l-75 -538l-6 -47l-1 -10q0 -16 9 -25t25 -9q15 0 25.5 3.5t26.5 11.5zM245 520l10 70
q1 7 1 17q0 28 -21 28q-22 0 -31 -23.5t-9 -56.5q0 -38 29 -38q11 0 21 3z" />
    <glyph glyph-name="uni0285" unicode="&#x285;" horiz-adv-x="455" 
d="M436 24q-64 -43 -145 -43q-80 0 -125 42t-45 121q0 11 2 35l3 28l17 120l6 47l1 10q0 16 -9 25t-25 9q-15 0 -25 -3.5t-27 -11.5l-45 107q64 43 145 43q80 0 125 -42t45 -121q0 -11 -2 -35l-3 -28l-17 -120l-6 -47l-1 -10q0 -16 9 -25t25 -9q15 0 25.5 3.5t26.5 11.5z
" />
    <glyph glyph-name="uni0247" unicode="&#x247;" horiz-adv-x="469" 
d="M441.5 500.5q34.5 -37.5 34.5 -91.5q0 -172 -254 -212l-25 -72q17 -9 50 -9q26 0 50 11t58 35l61 -106q-88 -76 -200 -76q-39 0 -68 7l-22 -63l-50 15l23 66q-43 24 -66.5 70t-23.5 113q0 104 32 186.5t95.5 130.5t155.5 49l17 49l50 -15l-13 -38q61 -12 95.5 -49.5z
M208 386.5q-18 -41.5 -27 -97.5q6 0 18 2l53 150q-26 -13 -44 -54.5zM318 404q0 22 -12 33l-46 -130q58 28 58 97z" />
    <glyph glyph-name="uni1EBD" unicode="&#x1ebd;" horiz-adv-x="469" 
d="M429.5 512q48.5 -42 46.5 -109q-4 -101 -85 -149.5t-200 -62.5v-14q0 -61 56 -61q26 0 50 11t58 35l61 -106q-88 -76 -203 -76q-96 0 -150 52t-54 156q0 105 32.5 188t97 130.5t158.5 47.5q84 0 132.5 -42zM275.5 336q22.5 32 22.5 68q0 28 -24 28q-25 0 -43.5 -37.5
t-28.5 -95.5q51 5 73.5 37zM326 631.5q-12 6.5 -30 18.5q-2 2 -10 7.5t-14 8t-12 2.5q-13 0 -23 -10.5t-24 -33.5l-77 46q25 57 62 94t74 37q19 0 33 -7t30 -20q9 -7 17.5 -12t16.5 -5q11 0 21 10t23 32l77 -43q-24 -57 -61.5 -94t-75.5 -37q-15 0 -27 6.5z" />
    <glyph glyph-name="uni01DD" unicode="&#x1dd;" horiz-adv-x="469" 
d="M406 502q54 -52 54 -156q0 -105 -32.5 -188t-97 -130.5t-158.5 -47.5q-84 0 -132.5 42t-46.5 109q4 101 85 149.5t200 62.5v14q0 61 -56 61q-26 0 -50 -11t-58 -35l-61 106q88 76 203 76q96 0 150 -52zM238.5 139.5q18.5 37.5 28.5 95.5q-51 -5 -73.5 -37t-22.5 -68
q0 -28 24 -28q25 0 43.5 37.5z" />
    <glyph glyph-name="uni0259" unicode="&#x259;" horiz-adv-x="469" 
d="M406 502q54 -52 54 -156q0 -105 -32.5 -188t-97 -130.5t-158.5 -47.5q-84 0 -132.5 42t-46.5 109q4 101 85 149.5t200 62.5v14q0 61 -56 61q-26 0 -50 -11t-58 -35l-61 106q88 76 203 76q96 0 150 -52zM238.5 139.5q18.5 37.5 28.5 95.5q-51 -5 -73.5 -37t-22.5 -68
q0 -28 24 -28q25 0 43.5 37.5z" />
    <glyph glyph-name="uni025A" unicode="&#x25a;" horiz-adv-x="719" 
d="M739 340q-50 -36 -112 -36q-58 0 -86.5 27.5t-36.5 75.5l-3 17l-44 -29q3 -27 3 -57q-2 -104 -34.5 -184.5t-96.5 -127t-157 -46.5q-84 0 -132.5 42t-46.5 109q4 101 85 149.5t200 62.5v14q0 61 -56 61q-26 0 -50 -11t-58 -35l-61 106q88 76 204 76q56 0 98.5 -18.5
t68.5 -54.5l83 53h145l-9 -64l-1 -10q0 -16 8 -24.5t21 -8.5q16 0 39 9zM238.5 139.5q18.5 37.5 28.5 95.5q-51 -5 -73.5 -37t-22.5 -68q0 -28 24 -28q25 0 43.5 37.5z" />
    <glyph glyph-name="uni0292" unicode="&#x292;" horiz-adv-x="437" 
d="M416 407l-160 -197q144 -23 144 -163q0 -84 -36 -146t-98.5 -95t-140.5 -33q-135 0 -199 110l110 88q23 -29 44 -42t47 -13q38 0 61 32.5t23 93.5q0 38 -16.5 53.5t-46.5 15.5h-87l15 104l148 181h-189l20 138h380z" />
    <glyph glyph-name="uni01EF" unicode="&#x1ef;" horiz-adv-x="437" 
d="M416 407l-160 -197q144 -23 144 -163q0 -84 -36 -146t-98.5 -95t-140.5 -33q-135 0 -199 110l110 88q23 -29 44 -42t47 -13q38 0 61 32.5t23 93.5q0 38 -16.5 53.5t-46.5 15.5h-87l15 104l148 181h-189l20 138h380zM393 824l60 -72l-142 -148h-110l-99 148l67 72l98 -97z
" />
    <glyph glyph-name="uni0293" unicode="&#x293;" horiz-adv-x="433" 
d="M413 407l-153 -186q66 -9 101.5 -50.5t35.5 -115.5q0 -95 -46.5 -162.5t-127.5 -97.5l17 -64l-86 -27l-15 72q-28 -2 -41 -2q-71 0 -115.5 37t-44.5 105q0 47 18.5 81t48.5 51t64 17q46 0 70 -25.5t41 -88.5q28 32 28 100q0 37 -17.5 53t-55.5 16h-77l14 95l151 181h-191
l20 138h380zM106 -83q-8 34 -13.5 46t-16.5 12q-19 0 -19 -31q0 -14 9 -20.5t31 -6.5h9z" />
    <glyph glyph-name="uni01B9" unicode="&#x1b9;" horiz-adv-x="439" 
d="M433 396h-195l108 -185l-16 -100l-2 1l1 -1h-86q-38 0 -61.5 -30.5t-23.5 -84.5q0 -79 58 -79q25 0 50 13t59 44l79 -95q-87 -105 -225 -105q-99 0 -156 57.5t-57 150.5q0 98 55 160t156 73l-122 192l19 127h380z" />
    <glyph glyph-name="uni01BA" unicode="&#x1ba;" horiz-adv-x="437" 
d="M7.5 -168q-35.5 36 -35.5 84q0 64 40.5 99t119.5 59q50 15 69 31.5t19 42.5q0 18 -12 25.5t-42 7.5h-92l15 95l128 129h-188l20 129h382l-18 -118l-138 -136h5q59 0 94 -33t35 -92q0 -83 -49.5 -128.5t-135.5 -69.5q-40 -11 -59 -19.5t-25 -16t-6 -18.5q0 -16 16 -31
l-48 -98q-59 22 -94.5 58z" />
    <glyph glyph-name="f" unicode="f" horiz-adv-x="316" 
d="M295.5 611q-13.5 -16 -18.5 -53l-3 -24h101l-40 -129h-79l-44 -332q-13 -94 -50 -152.5t-86.5 -89.5t-120.5 -57l-41 136q52 21 77 53.5t34 99.5l46 342h-52l18 129h51l5 35q12 87 68.5 141t150.5 54q44 0 80.5 -13t61.5 -33l-65 -108q-28 17 -56 17q-24 0 -37.5 -16z
" />
    <glyph glyph-name="uni1E1F" unicode="&#x1e1f;" horiz-adv-x="316" 
d="M295.5 611q-13.5 -16 -18.5 -53l-3 -24h101l-40 -129h-79l-44 -332q-13 -94 -50 -152.5t-86.5 -89.5t-120.5 -57l-41 136q52 21 77 53.5t34 99.5l46 342h-52l18 129h51l5 35q12 87 68.5 141t150.5 54q44 0 80.5 -13t61.5 -33l-65 -108q-28 17 -56 17q-24 0 -37.5 -16z
M242 818q-24 24 -24 64q0 51 33.5 84t82.5 33q44 0 68 -24t24 -64q0 -51 -33.5 -84t-82.5 -33q-44 0 -68 24z" />
    <glyph glyph-name="uni02A9" unicode="&#x2a9;" horiz-adv-x="723" 
d="M697 522.5q26 -31.5 26 -88.5q0 -18 -3 -39l-56 -395l-5 -35q-14 -96 -73.5 -143.5t-150.5 -47.5q-45 0 -76.5 12.5t-56.5 33.5l74 106q17 -9 27.5 -13t25.5 -4q19 0 29.5 11t12.5 30l7 50l49 358q1 5 1 13q0 12 -6 12q-7 0 -16.5 -17.5t-33.5 -71.5l-41 -294h-186
l56 405h-45l-44 -332q-13 -94 -50 -152.5t-86.5 -89.5t-120.5 -57l-41 136q52 21 77 53.5t34 99.5l46 342h-52l18 129h51l5 35q12 87 68.5 141t150.5 54q44 0 80.5 -13t61.5 -33l-65 -108q-28 17 -56 17q-24 0 -37.5 -16t-18.5 -53l-3 -24h207l1 -77q62 97 142 97
q47 0 73 -31.5z" />
    <glyph glyph-name="g" unicode="g" horiz-adv-x="485" 
d="M400.5 539.5q50.5 -14.5 95.5 -40.5l-65 -464q-19 -133 -81.5 -197t-180.5 -64q-101 0 -184 57l64 119q33 -19 59 -27.5t54 -8.5q34 0 55.5 18.5t28.5 67.5l9 63q-42 -64 -112 -64q-64 0 -98.5 51.5t-34.5 140.5q0 160 69 261.5t220 101.5q51 0 101.5 -14.5zM218.5 354
q-21.5 -69 -21.5 -168q0 -28 5 -39t16 -11t24 13t25 34l32 237q-9 3 -19 3q-40 0 -61.5 -69z" />
    <glyph glyph-name="uni01F5" unicode="&#x1f5;" horiz-adv-x="485" 
d="M400.5 539.5q50.5 -14.5 95.5 -40.5l-65 -464q-19 -133 -81.5 -197t-180.5 -64q-101 0 -184 57l64 119q33 -19 59 -27.5t54 -8.5q34 0 55.5 18.5t28.5 67.5l9 63q-42 -64 -112 -64q-64 0 -98.5 51.5t-34.5 140.5q0 160 69 261.5t220 101.5q51 0 101.5 -14.5zM218.5 354
q-21.5 -69 -21.5 -168q0 -28 5 -39t16 -11t24 13t25 34l32 237q-9 3 -19 3q-40 0 -61.5 -69zM387 844l60 -131l-226 -98l-46 87z" />
    <glyph glyph-name="uni0263" unicode="&#x263;" horiz-adv-x="438" 
d="M318.5 6.5q9.5 -37.5 9.5 -75.5q0 -74 -43.5 -115.5t-124.5 -41.5q-63 0 -97 31.5t-34 82.5q0 47 22 92t67 112l1 1l-96 441h195l5 -323l76 323h192l-200 -443l-1 -1q19 -46 28.5 -83.5zM200 -76q0 23 -11 69q-31 -52 -31 -86q0 -21 16 -21q26 0 26 38z" />
    <glyph glyph-name="gbreve" unicode="&#x11f;" horiz-adv-x="485" 
d="M400.5 539.5q50.5 -14.5 95.5 -40.5l-65 -464q-19 -133 -81.5 -197t-180.5 -64q-101 0 -184 57l64 119q33 -19 59 -27.5t54 -8.5q34 0 55.5 18.5t28.5 67.5l9 63q-42 -64 -112 -64q-64 0 -98.5 51.5t-34.5 140.5q0 160 69 261.5t220 101.5q51 0 101.5 -14.5zM218.5 354
q-21.5 -69 -21.5 -168q0 -28 5 -39t16 -11t24 13t25 34l32 237q-9 3 -19 3q-40 0 -61.5 -69zM200 674q-35 47 -35 121q0 17 1 25l94 14q1 -36 14.5 -57t39.5 -21t45 21.5t30 58.5l90 -19q-15 -83 -58.5 -136.5t-115.5 -53.5q-70 0 -105 47z" />
    <glyph glyph-name="gcaron" unicode="&#x1e7;" horiz-adv-x="485" 
d="M400.5 539.5q50.5 -14.5 95.5 -40.5l-65 -464q-19 -133 -81.5 -197t-180.5 -64q-101 0 -184 57l64 119q33 -19 59 -27.5t54 -8.5q34 0 55.5 18.5t28.5 67.5l9 63q-42 -64 -112 -64q-64 0 -98.5 51.5t-34.5 140.5q0 160 69 261.5t220 101.5q51 0 101.5 -14.5zM218.5 354
q-21.5 -69 -21.5 -168q0 -28 5 -39t16 -11t24 13t25 34l32 237q-9 3 -19 3q-40 0 -61.5 -69zM437 824l60 -72l-142 -148h-110l-99 148l67 72l98 -97z" />
    <glyph glyph-name="gcircumflex" unicode="&#x11d;" horiz-adv-x="485" 
d="M400.5 539.5q50.5 -14.5 95.5 -40.5l-65 -464q-19 -133 -81.5 -197t-180.5 -64q-101 0 -184 57l64 119q33 -19 59 -27.5t54 -8.5q34 0 55.5 18.5t28.5 67.5l9 63q-42 -64 -112 -64q-64 0 -98.5 51.5t-34.5 140.5q0 160 69 261.5t220 101.5q51 0 101.5 -14.5zM218.5 354
q-21.5 -69 -21.5 -168q0 -28 5 -39t16 -11t24 13t25 34l32 237q-9 3 -19 3q-40 0 -61.5 -69zM194 616l-60 72l142 148h110l108 -157l-76 -63l-98 97z" />
    <glyph glyph-name="gcommaaccent" unicode="&#x123;" horiz-adv-x="485" 
d="M400.5 539.5q50.5 -14.5 95.5 -40.5l-65 -464q-19 -133 -81.5 -197t-180.5 -64q-101 0 -184 57l64 119q33 -19 59 -27.5t54 -8.5q34 0 55.5 18.5t28.5 67.5l9 63q-42 -64 -112 -64q-64 0 -98.5 51.5t-34.5 140.5q0 160 69 261.5t220 101.5q51 0 101.5 -14.5zM218.5 354
q-21.5 -69 -21.5 -168q0 -28 5 -39t16 -11t24 13t25 34l32 237q-9 3 -19 3q-40 0 -61.5 -69zM241.5 608q-21.5 21 -21.5 55q0 25 8 46t29 57l56 97h86l-38 -117q30 -21 30 -57q0 -45 -26.5 -73.5t-66.5 -28.5q-35 0 -56.5 21z" />
    <glyph glyph-name="gdotaccent" unicode="&#x121;" horiz-adv-x="485" 
d="M400.5 539.5q50.5 -14.5 95.5 -40.5l-65 -464q-19 -133 -81.5 -197t-180.5 -64q-101 0 -184 57l64 119q33 -19 59 -27.5t54 -8.5q34 0 55.5 18.5t28.5 67.5l9 63q-42 -64 -112 -64q-64 0 -98.5 51.5t-34.5 140.5q0 160 69 261.5t220 101.5q51 0 101.5 -14.5zM218.5 354
q-21.5 -69 -21.5 -168q0 -28 5 -39t16 -11t24 13t25 34l32 237q-9 3 -19 3q-40 0 -61.5 -69zM238 644q-24 24 -24 64q0 51 33.5 84t82.5 33q44 0 68 -24t24 -64q0 -51 -33.5 -84t-82.5 -33q-44 0 -68 24z" />
    <glyph glyph-name="uni0260" unicode="&#x260;" horiz-adv-x="489" 
d="M652 725l-68 -112q-23 13 -42 13q-17 0 -23.5 -10.5t-10.5 -36.5l-7 -46l-70 -498q-19 -133 -81.5 -197t-180.5 -64q-101 0 -184 57l64 119q33 -19 59 -27.5t54 -8.5q34 0 55.5 18.5t28.5 67.5l9 63q-42 -64 -112 -64q-64 0 -98.5 51.5t-34.5 140.5q0 101 28.5 183
t88 131t148.5 49q19 0 42 -5l4 29q10 80 63.5 132.5t144.5 52.5q74 0 123 -38zM242 149q13 13 25 34l33 238q-14 2 -20 2q-40 0 -61.5 -69t-21.5 -168q0 -28 5 -39t16 -11t24 13z" />
    <glyph glyph-name="uni01BE" unicode="&#x1be;" horiz-adv-x="427" 
d="M389.5 366q20.5 -36 20.5 -95q0 -86 -32.5 -152t-91 -102t-133.5 -36q-122 0 -195 96l100 88q22 -25 40.5 -36t40.5 -11q38 0 59 39.5t21 107.5q0 47 -17 73.5t-57 39.5l-30 10l19 134h-50l15 103h49l17 119l187 19l-19 -138h76l-15 -103h-76l-12 -87l23 -12
q40 -21 60.5 -57z" />
    <glyph glyph-name="uni0294" unicode="&#x294;" horiz-adv-x="432" 
d="M119 357l19 9q62 29 89 71.5t27 110.5q0 38 -13 58t-37 20q-21 0 -42 -12t-46 -37l-75 92q45 48 93.5 71t110.5 23q59 0 106.5 -25.5t74.5 -72.5t27 -109q0 -93 -32 -150.5t-101 -88.5l-22 -10l-42 -307h-186z" />
    <glyph glyph-name="uni0296" unicode="&#x296;" horiz-adv-x="427" 
d="M352 763l-46 -328l23 -12q40 -21 60.5 -57t20.5 -95q0 -86 -32.5 -152t-91 -102t-133.5 -36q-122 0 -195 96l100 88q22 -25 40.5 -36t40.5 -11q38 0 59 39.5t21 107.5q0 47 -17 73.5t-57 39.5l-30 10l50 356z" />
    <glyph glyph-name="uni0295" unicode="&#x295;" horiz-adv-x="427" 
d="M98 0l42 310l-18 13q-39 29 -56.5 61t-17.5 91q0 82 34.5 148t94 103t132.5 37q62 0 107 -24t82 -72l-98 -88q-21 24 -39.5 35.5t-42.5 11.5q-36 0 -58.5 -38t-22.5 -108q0 -45 17.5 -71.5t58.5 -45.5l20 -9l-49 -354h-186z" />
    <glyph glyph-name="uni0242" unicode="&#x242;" horiz-adv-x="396" 
d="M83 206l26 10q49 18 74.5 50.5t25.5 86.5q0 30 -10.5 46.5t-26.5 16.5q-19 0 -36.5 -11.5t-38.5 -33.5l-70 94q82 88 187 88q82 0 133 -51t51 -134q0 -80 -27.5 -129.5t-82.5 -72.5l-26 -11l-21 -155h-186z" />
    <glyph glyph-name="uni02A1" unicode="&#x2a1;" horiz-adv-x="432" 
d="M298 307l-11 -82h73l-15 -103h-72l-17 -122h-186l17 122h-55l15 103h54l18 132l19 9q62 29 89 71.5t27 110.5q0 38 -13 58t-37 20q-21 0 -42 -12t-46 -37l-75 92q45 48 93.5 71t110.5 23q59 0 106.5 -25.5t74.5 -72.5t27 -109q0 -93 -32 -150.5t-101 -88.5z" />
    <glyph glyph-name="uni02A2" unicode="&#x2a2;" horiz-adv-x="427" 
d="M416 739q45 -24 82 -72l-98 -88q-21 24 -39.5 35.5t-42.5 11.5q-36 0 -58.5 -38t-22.5 -108q0 -45 17.5 -71.5t58.5 -45.5l20 -9l-18 -129h55l-15 -103h-54l-17 -122h-186l17 122h-73l15 103h71l12 85l-18 13q-39 29 -56.5 61t-17.5 91q0 82 34.5 148t94 103t132.5 37
q62 0 107 -24z" />
    <glyph glyph-name="uni0261" unicode="&#x261;" horiz-adv-x="485" 
d="M400.5 539.5q50.5 -14.5 95.5 -40.5l-65 -464q-19 -133 -81.5 -197t-180.5 -64q-101 0 -184 57l64 119q33 -19 59 -27.5t54 -8.5q34 0 55.5 18.5t28.5 67.5l9 63q-42 -64 -112 -64q-64 0 -98.5 51.5t-34.5 140.5q0 160 69 261.5t220 101.5q51 0 101.5 -14.5zM218.5 354
q-21.5 -69 -21.5 -168q0 -28 5 -39t16 -11t24 13t25 34l32 237q-9 3 -19 3q-40 0 -61.5 -69z" />
    <glyph glyph-name="uni01E5" unicode="&#x1e5;" horiz-adv-x="484" 
d="M425 7h38l-8 -63h-45q-29 -86 -87.5 -128t-154.5 -42q-101 0 -184 57l60 109q61 -36 117 -36t73 40h-82l8 63h86l12 86q-42 -64 -112 -64q-64 0 -98.5 51.5t-34.5 140.5t28 164t91.5 122t165.5 47q51 0 101.5 -14.5t95.5 -40.5l-65 -464q-1 -10 -5 -28zM245 179
q13 13 25 34l28 207q-9 3 -19 3q-39 0 -59 -63.5t-20 -143.5q0 -28 5 -39t16 -11t24 13z" />
    <glyph glyph-name="uni021D" unicode="&#x21d;" horiz-adv-x="412" 
d="M352.5 516q45.5 -38 45.5 -102q0 -56 -34.5 -90.5t-97.5 -49.5q58 0 88 -25.5t30 -71.5q0 -105 -93 -177.5t-288 -111.5l5 124q99 37 142 73t43 90q0 29 -34 29h-64l29 116h29q26 0 40.5 17.5t14.5 49.5q0 39 -30 39q-17 0 -34 -7t-41 -22l-66 95q43 32 89 47t101 15
q80 0 125.5 -38z" />
    <glyph glyph-name="h" unicode="h" horiz-adv-x="465" 
d="M439 522q26 -32 26 -88q0 -18 -3 -39l-56 -395h-186l49 358q1 5 1 13q0 12 -6 12q-7 0 -16.5 -17.5t-33.5 -71.5l-41 -294h-186l104 744l188 19l-41 -299q22 38 54.5 64t74.5 26q46 0 72 -32z" />
    <glyph glyph-name="hbar" unicode="&#x127;" horiz-adv-x="474" 
d="M448 522q26 -32 26 -88q0 -18 -3 -39l-56 -395h-186l49 358q1 5 1 13q0 12 -6 12q-7 0 -16.5 -17.5t-33.5 -71.5l-41 -294h-186l83 591h-35l14 103h35l7 50l188 19l-9 -69h99l-28 -103h-86l-17 -127q22 38 54.5 64t74.5 26q46 0 72 -32z" />
    <glyph glyph-name="uni021F" unicode="&#x21f;" horiz-adv-x="465" 
d="M439 522q26 -32 26 -88q0 -18 -3 -39l-56 -395h-186l49 358q1 5 1 13q0 12 -6 12q-7 0 -16.5 -17.5t-33.5 -71.5l-41 -294h-186l104 744l188 19l-41 -299q22 38 54.5 64t74.5 26q46 0 72 -32zM438 1006l65 -72l-142 -138h-110l-109 148l72 62l103 -87z" />
    <glyph glyph-name="hcircumflex" unicode="&#x125;" horiz-adv-x="465" 
d="M439 522q26 -32 26 -88q0 -18 -3 -39l-56 -395h-186l49 358q1 5 1 13q0 12 -6 12q-7 0 -16.5 -17.5t-33.5 -71.5l-41 -294h-186l104 744l188 19l-41 -299q22 38 54.5 64t74.5 26q46 0 72 -32zM195 804l-65 72l142 138h110l109 -148l-72 -62l-103 87z" />
    <glyph glyph-name="uni1E25" unicode="&#x1e25;" horiz-adv-x="465" 
d="M439 522q26 -32 26 -88q0 -18 -3 -39l-56 -395h-186l49 358q1 5 1 13q0 12 -6 12q-7 0 -16.5 -17.5t-33.5 -71.5l-41 -294h-186l104 744l188 19l-41 -299q22 38 54.5 64t74.5 26q46 0 72 -32zM254 -78q24 -24 24 -64q0 -51 -33.5 -84t-82.5 -33q-44 0 -68 24t-24 64
q0 51 33.5 84t82.5 33q44 0 68 -24z" />
    <glyph glyph-name="uni0267" unicode="&#x267;" horiz-adv-x="464" 
d="M438 522q26 -32 26 -88q0 -18 -3 -39l-56 -395l-5 -35q-14 -96 -73.5 -143.5t-150.5 -47.5q-45 0 -76.5 12.5t-56.5 33.5l74 106q17 -9 27.5 -13t25.5 -4q19 0 29.5 11t12.5 30l7 50l49 358q1 5 1 13q0 12 -6 12q-7 0 -16.5 -17.5t-33.5 -71.5l-41 -294h-186l75 533l8 56
q11 78 66.5 126t148.5 48q38 0 73.5 -10.5t61.5 -26.5l-66 -115q-34 15 -57 15q-19 0 -29.5 -13t-14.5 -41l-5 -39l-7 -67q19 36 51.5 62t74.5 26q46 0 72 -32z" />
    <glyph glyph-name="uni0266" unicode="&#x266;" horiz-adv-x="464" 
d="M438 522q26 -32 26 -88q0 -18 -3 -39l-56 -395h-186l49 358q1 5 1 13q0 12 -6 12q-7 0 -16.5 -17.5t-33.5 -71.5l-41 -294h-186l75 533l8 56q11 78 66.5 126t148.5 48q38 0 73.5 -10.5t61.5 -26.5l-66 -115q-34 15 -57 15q-19 0 -29.5 -13t-14.5 -41l-5 -39l-7 -67
q19 36 51.5 62t74.5 26q46 0 72 -32z" />
    <glyph glyph-name="uni0265" unicode="&#x265;" horiz-adv-x="462" 
d="M226 57q-22 -34 -51 -55.5t-73 -21.5q-48 0 -75 32.5t-27 89.5q0 18 3 37l56 395h186l-51 -362l-1 -11q0 -14 10 -14q8 0 19.5 13t22.5 33l47 341h186l-104 -742l-188 -19z" />
    <glyph glyph-name="uni02AE" unicode="&#x2ae;" horiz-adv-x="578" 
d="M594 534l-104 -742l-188 -19l40 284q-22 -34 -51 -55.5t-73 -21.5q-48 0 -74.5 33t-26.5 91q0 11 2 35l23 188l6 47l1 10q0 16 -9 25t-25 9q-15 0 -25 -3.5t-27 -11.5l-45 107q64 43 145 43q80 0 125 -42t45 -121q0 -11 -2 -35l-3 -28l-18 -155l-1 -11q0 -14 10 -14
q8 0 19.5 13t22.5 33l47 341h186z" />
    <glyph glyph-name="uni02AF" unicode="&#x2af;" horiz-adv-x="578" 
d="M643 -183q-64 -43 -145 -43q-80 0 -125 42t-45 121q0 11 2 35l3 28l6 51q-47 -71 -121 -71q-48 0 -74.5 33t-26.5 91q0 11 2 35l23 188l6 47l1 10q0 16 -9 25t-25 9q-15 0 -25 -3.5t-27 -11.5l-45 107q64 43 145 43q80 0 125 -42t45 -121q0 -11 -2 -35l-3 -28l-18 -155
l-1 -11q0 -14 10 -14q8 0 19.5 13t22.5 33l47 341h186l-75 -534l-6 -47l-1 -10q0 -16 9 -25t25 -9q15 0 25.5 3.5t26.5 11.5z" />
    <glyph glyph-name="uni0195" unicode="&#x195;" horiz-adv-x="702" 
d="M285.5 27.5q-44.5 46.5 -44.5 113.5q0 9 2 27l26 190q1 5 1 13q0 12 -6 12q-7 0 -16.5 -17.5t-33.5 -71.5l-41 -294h-186l104 744l188 19l-41 -299q22 38 54.5 64t74.5 26q46 0 72 -32t26 -88q0 -18 -3 -39l-33 -237q-2 -14 -2 -19q0 -22 17 -22q38 0 56 106.5t18 223.5
q0 31 -2 87h175q5 -53 5 -88q0 -147 -20.5 -246.5t-81 -159t-174.5 -59.5q-90 0 -134.5 46.5z" />
    <glyph glyph-name="i" unicode="i" horiz-adv-x="236" 
d="M248 534l-74 -534h-186l74 534h186zM103 644q-24 24 -24 64q0 51 33.5 84t82.5 33q44 0 68 -24t24 -64q0 -51 -33.5 -84t-82.5 -33q-44 0 -68 24z" />
    <glyph glyph-name="dotlessi" unicode="&#x131;" horiz-adv-x="236" 
d="M248 534l-74 -534h-186l74 534h186z" />
    <glyph glyph-name="iacute" unicode="&#xed;" horiz-adv-x="236" 
d="M248 534l-74 -534h-186l74 534h186zM252 844l60 -131l-226 -98l-46 87z" />
    <glyph glyph-name="ibreve" unicode="&#x12d;" horiz-adv-x="236" 
d="M248 534l-74 -534h-186l74 534h186zM65 674q-35 47 -35 121q0 17 1 25l94 14q1 -36 14.5 -57t39.5 -21t45 21.5t30 58.5l90 -19q-15 -83 -58.5 -136.5t-115.5 -53.5q-70 0 -105 47z" />
    <glyph glyph-name="uni01D0" unicode="&#x1d0;" horiz-adv-x="236" 
d="M248 534l-74 -534h-186l74 534h186zM302 824l60 -72l-142 -148h-110l-99 148l67 72l98 -97z" />
    <glyph glyph-name="icircumflex" unicode="&#xee;" horiz-adv-x="236" 
d="M248 534l-74 -534h-186l74 534h186zM59 616l-60 72l142 148h110l108 -157l-76 -63l-98 97z" />
    <glyph glyph-name="uni0209" unicode="&#x209;" horiz-adv-x="236" 
d="M248 534l-74 -534h-186l74 534h186zM91 874l61 -213l-99 -40l-90 201zM252 874l55 -215l-98 -34l-85 202z" />
    <glyph glyph-name="idieresis" unicode="&#xef;" horiz-adv-x="236" 
d="M248 534l-74 -534h-186l74 534h186zM6.5 656q-20.5 21 -20.5 56q0 43 29 72.5t70 29.5q38 0 58.5 -21t20.5 -56q0 -43 -29 -72.5t-71 -29.5q-37 0 -57.5 21zM218 656q-21 21 -21 56q0 43 29 72.5t70 29.5q37 0 58 -21t21 -56q0 -43 -29 -72.5t-70 -29.5q-37 0 -58 21z
" />
    <glyph glyph-name="uni1E2F" unicode="&#x1e2f;" horiz-adv-x="236" 
d="M248 534l-74 -534h-186l74 534h186zM261 977l87 -93l-174 -153l-62 57zM-18.5 611q-20.5 21 -20.5 56q0 43 29 72.5t71 29.5q37 0 57.5 -21t20.5 -56q0 -43 -29 -72.5t-71 -29.5q-37 0 -57.5 21zM209.5 611q-20.5 21 -20.5 56q0 43 29 72.5t71 29.5q37 0 57.5 -21
t20.5 -56q0 -43 -29 -72.5t-71 -29.5q-37 0 -57.5 21z" />
    <glyph glyph-name="i.loclTRK" horiz-adv-x="236" 
d="M248 534l-74 -534h-186l74 534h186zM103 644q-24 24 -24 64q0 51 33.5 84t82.5 33q44 0 68 -24t24 -64q0 -51 -33.5 -84t-82.5 -33q-44 0 -68 24z" />
    <glyph glyph-name="uni1ECB" unicode="&#x1ecb;" horiz-adv-x="236" 
d="M248 534l-74 -534h-186l74 534h186zM103 644q-24 24 -24 64q0 51 33.5 84t82.5 33q44 0 68 -24t24 -64q0 -51 -33.5 -84t-82.5 -33q-44 0 -68 24zM138 -78q24 -24 24 -64q0 -51 -33.5 -84t-82.5 -33q-44 0 -68 24t-24 64q0 51 33.5 84t82.5 33q44 0 68 -24z" />
    <glyph glyph-name="igrave" unicode="&#xec;" horiz-adv-x="236" 
d="M248 534l-74 -534h-186l74 534h186zM141 842l178 -143l-54 -81l-204 95z" />
    <glyph glyph-name="uni1EC9" unicode="&#x1ec9;" horiz-adv-x="236" 
d="M248 534l-74 -534h-186l74 534h186zM129 704q34 1 48 10.5t14 30.5q0 12 -6 17.5t-20 5.5q-21 0 -50 -13l-15 74q43 26 98 26q52 0 80.5 -26.5t28.5 -69.5q0 -42 -23.5 -70t-63.5 -37l-7 -50h-98z" />
    <glyph glyph-name="uni020B" unicode="&#x20b;" horiz-adv-x="236" 
d="M248 534l-74 -534h-186l74 534h186zM6 613q17 84 63 137t121 53q71 0 104.5 -46t33.5 -119q0 -18 -1 -27l-98 -14q-2 77 -52 77q-27 0 -46.5 -21t-31.5 -59z" />
    <glyph glyph-name="ij" unicode="&#x133;" horiz-adv-x="471" 
d="M248 534l-74 -534h-186l74 534h186zM103 644q-24 24 -24 64q0 51 33.5 84t82.5 33q44 0 68 -24t24 -64q0 -51 -33.5 -84t-82.5 -33q-44 0 -68 24zM122 -90q52 21 77 53.5t34 99.5l65 471h187l-65 -461q-14 -94 -51 -152.5t-86.5 -89.5t-119.5 -57zM340 644q-24 24 -24 64
q0 51 33.5 84t82.5 33q44 0 68 -24t24 -64q0 -51 -33.5 -84t-82.5 -33q-44 0 -68 24z" />
    <glyph glyph-name="imacron" unicode="&#x12b;" horiz-adv-x="236" 
d="M248 534l-74 -534h-186l74 534h186zM306 649h-274l20 130h274z" />
    <glyph glyph-name="iogonek" unicode="&#x12f;" horiz-adv-x="236" 
d="M263 801q24 -24 24 -64q0 -51 -33.5 -84t-82.5 -33q-44 0 -68 24t-24 64q0 51 33.5 84t82.5 33q44 0 68 -24zM62 534h186l-74 -534h-43q-60 -25 -82.5 -54.5t-22.5 -54.5q0 -32 37 -32q18 0 46 5l-26 -108q-29 -8 -63 -8q-53 0 -87.5 31t-34.5 85q0 86 91 142z" />
    <glyph glyph-name="uni0269" unicode="&#x269;" horiz-adv-x="252" 
d="M57 534h184l-49 -378v-8q0 -18 14 -18q5 0 13 2l11 -131q-47 -20 -101 -20q-63 0 -95.5 33t-32.5 93q0 22 2 33z" />
    <glyph glyph-name="uni0268" unicode="&#x268;" horiz-adv-x="289" 
d="M130 644q-24 24 -24 64q0 51 33.5 84t82.5 33q44 0 68 -24t24 -64q0 -51 -33.5 -84t-82.5 -33q-44 0 -68 24zM275 534l-26 -188h51l-19 -129h-50l-30 -217h-186l30 217h-52l19 129h51l26 188h186z" />
    <glyph glyph-name="itilde" unicode="&#x129;" horiz-adv-x="236" 
d="M248 534l-74 -534h-186l74 534h186zM193 631.5q-12 6.5 -30 18.5q-2 2 -10 7.5t-14 8t-12 2.5q-13 0 -23 -10.5t-24 -33.5l-77 46q25 57 62 94t74 37q19 0 33 -7t30 -20q9 -7 17.5 -12t16.5 -5q11 0 21 10t23 32l77 -43q-24 -57 -61.5 -94t-75.5 -37q-15 0 -27 6.5z" />
    <glyph glyph-name="j" unicode="j" horiz-adv-x="235" 
d="M-114 -90q52 21 77 53.5t34 99.5l65 471h187l-65 -461q-14 -94 -51 -152.5t-86.5 -89.5t-119.5 -57zM104 644q-24 24 -24 64q0 51 33.5 84t82.5 33q44 0 68 -24t24 -64q0 -51 -33.5 -84t-82.5 -33q-44 0 -68 24z" />
    <glyph glyph-name="uni0237" unicode="&#x237;" horiz-adv-x="235" 
d="M-114 -90q52 21 77 53.5t34 99.5l65 471h187l-65 -461q-14 -94 -51 -152.5t-86.5 -89.5t-119.5 -57z" />
    <glyph glyph-name="uni01F0" unicode="&#x1f0;" horiz-adv-x="235" 
d="M-114 -90q52 21 77 53.5t34 99.5l65 471h187l-65 -461q-14 -94 -51 -152.5t-86.5 -89.5t-119.5 -57zM303 824l60 -72l-142 -148h-110l-99 148l67 72l98 -97z" />
    <glyph glyph-name="jcircumflex" unicode="&#x135;" horiz-adv-x="235" 
d="M-114 -90q52 21 77 53.5t34 99.5l65 471h187l-65 -461q-14 -94 -51 -152.5t-86.5 -89.5t-119.5 -57zM60 616l-60 72l142 148h110l108 -157l-76 -63l-98 97z" />
    <glyph glyph-name="uni029D" unicode="&#x29d;" horiz-adv-x="351" 
d="M344 801q24 -24 24 -64q0 -51 -33.5 -84t-82.5 -33q-44 0 -68 24t-24 64q0 51 33.5 84t82.5 33q44 0 68 -24zM256 2l-2 -11q33 -10 64 -34l-38 -72q-21 12 -46 24q-26 -67 -75 -101t-128 -34q-63 0 -96 31t-33 86q0 63 37.5 99t98.5 36q21 0 35 -2l71 510h186zM45 -122
q9 12 13 39l4 27q-18 2 -24 2q-20 0 -30.5 -13.5t-10.5 -35.5q0 -31 24 -31q15 0 24 12z" />
    <glyph glyph-name="uni025F" unicode="&#x25f;" horiz-adv-x="295" 
d="M283 186h-49l-16 -113q-14 -94 -51 -152.5t-86.5 -89.5t-119.5 -57l-41 136q52 21 77 53.5t34 99.5l17 123h-53l19 131h52l30 217h187l-31 -217h50z" />
    <glyph glyph-name="uni0284" unicode="&#x284;" horiz-adv-x="347" 
d="M440 725l-68 -112q-23 13 -42 13q-17 0 -23.5 -10.5t-10.5 -36.5l-7 -45h1l-57 -403h50l-19 -131h-55q-20 -67 -56 -110.5t-80 -68.5t-105 -47l-41 136q38 16 60.5 36t35.5 54h-47l19 131h52l56 403l6 44q10 80 63.5 132.5t144.5 52.5q74 0 123 -38z" />
    <glyph glyph-name="uni0249" unicode="&#x249;" horiz-adv-x="295" 
d="M283 186h-49l-16 -113q-14 -94 -51 -152.5t-86.5 -89.5t-119.5 -57l-41 136q52 21 77 53.5t34 99.5l17 123h-53l19 131h52l30 217h187l-31 -217h50zM138 644q-24 24 -24 64q0 51 33.5 84t82.5 33q44 0 68 -24t24 -64q0 -51 -33.5 -84t-82.5 -33q-44 0 -68 24z" />
    <glyph glyph-name="k" unicode="k" horiz-adv-x="499" 
d="M242 480q33 38 69 55.5t80 17.5q57 0 92 -34t35 -89q0 -60 -27 -102.5t-87 -84.5l57 -243h-192l-47 256q62 29 85.5 62t23.5 72q0 17 -6.5 25.5t-18.5 8.5q-35 0 -85 -79l-47 -345h-187l104 744l189 19z" />
    <glyph glyph-name="uni01E9" unicode="&#x1e9;" horiz-adv-x="499" 
d="M242 480q33 38 69 55.5t80 17.5q57 0 92 -34t35 -89q0 -60 -27 -102.5t-87 -84.5l57 -243h-192l-47 256q62 29 85.5 62t23.5 72q0 17 -6.5 25.5t-18.5 8.5q-35 0 -85 -79l-47 -345h-187l104 744l189 19zM485 1006l65 -72l-142 -138h-110l-109 148l72 62l103 -87z" />
    <glyph glyph-name="kcommaaccent" unicode="&#x137;" horiz-adv-x="499" 
d="M242 480q33 38 69 55.5t80 17.5q57 0 92 -34t35 -89q0 -60 -27 -102.5t-87 -84.5l57 -243h-192l-47 256q62 29 85.5 62t23.5 72q0 17 -6.5 25.5t-18.5 8.5q-35 0 -85 -79l-47 -345h-187l104 744l189 19zM262.5 -84q21.5 -21 21.5 -55q0 -25 -8 -46t-29 -57l-56 -97h-86
l38 117q-30 21 -30 57q0 45 26.5 73.5t66.5 28.5q35 0 56.5 -21z" />
    <glyph glyph-name="kgreenlandic" unicode="&#x138;" horiz-adv-x="482" 
d="M249 534l-74 -534h-187l74 534h187zM535 534l-133 -250l62 -284h-195l-52 282l131 252h187z" />
    <glyph glyph-name="uni0199" unicode="&#x199;" horiz-adv-x="498" 
d="M490 327.5q-27 -42.5 -87 -84.5l57 -243h-192l-47 256q62 29 85.5 62t23.5 72q0 17 -6.5 25.5t-18.5 8.5q-35 0 -85 -79l-47 -345h-187l75 533l8 56q11 78 66.5 126t148.5 48q38 0 73.5 -10.5t61.5 -26.5l-66 -115q-34 15 -57 15q-19 0 -29.5 -13t-14.5 -41l-5 -39
l-6 -53q33 38 69 55.5t80 17.5q57 0 92 -34t35 -89q0 -60 -27 -102.5z" />
    <glyph glyph-name="uni029E" unicode="&#x29e;" horiz-adv-x="473" 
d="M-58 0l139 251l-62 283h196l44 -292l-127 -242h-190zM197 -226l106 760h186l-104 -742z" />
    <glyph glyph-name="l" unicode="l" horiz-adv-x="251" 
d="M191 156q-1 -4 -1 -10q0 -16 15 -16q5 0 13 2l11 -131q-47 -20 -101 -20q-63 0 -96 33t-33 92q0 16 3 34l84 604l187 19z" />
    <glyph glyph-name="lacute" unicode="&#x13a;" horiz-adv-x="251" 
d="M191 156q-1 -4 -1 -10q0 -16 15 -16q5 0 13 2l11 -131q-47 -20 -101 -20q-63 0 -96 33t-33 92q0 16 3 34l84 604l187 19zM284 1010l60 -131l-226 -88l-43 87z" />
    <glyph glyph-name="uni019B" unicode="&#x19b;" horiz-adv-x="455" 
d="M408 186.5q12 -79.5 40 -148.5l-174 -56q-20 66 -28 141t-8 174v47l-80 -363l-192 45l197 458l72 -14q0 50 -7 79l-39 -38l-80 63l62 56q-25 11 -69 19l33 114q52 -10 87.5 -22.5t61.5 -34.5l78 62l48 -88l-60 -51l-6 -4q35 -79 44 -226q8 -133 20 -212.5z" />
    <glyph glyph-name="uni019A" unicode="&#x19a;" horiz-adv-x="298" 
d="M223 156q-1 -4 -1 -10q0 -16 15 -16q5 0 13 2l11 -131q-47 -20 -101 -20q-63 0 -96 33t-33 92q0 16 3 34l23 167h-51l19 129h50l43 308l187 19l-44 -327h52l-19 -129h-51z" />
    <glyph glyph-name="uni026C" unicode="&#x26c;" horiz-adv-x="413" 
d="M316 156q-1 -4 -1 -10q0 -16 15 -16q5 0 13 2l11 -131q-47 -20 -101 -20q-63 0 -96 33t-33 92q0 16 3 34l13 95q-67 2 -101.5 33.5t-34.5 84.5q0 62 38.5 98t100.5 36q14 0 32 -4l36 261l187 19l-58 -428h1q27 3 52 7l3 -90q-30 -11 -67 -14h-2zM154 332l9 63q-9 3 -16 3
q-14 0 -21.5 -9.5t-7.5 -25.5q0 -31 36 -31z" />
    <glyph glyph-name="lcaron" unicode="&#x13e;" horiz-adv-x="351" 
d="M191 156q-1 -4 -1 -10q0 -16 15 -16q5 0 13 2l11 -131q-47 -20 -101 -20q-63 0 -96 33t-33 92q0 16 3 34l84 604l187 19zM310 759l126 -16l-73 -231l-91 8z" />
    <glyph glyph-name="uni1E3D" unicode="&#x1e3d;" horiz-adv-x="251" 
d="M191 156q-1 -4 -1 -10q0 -16 15 -16q5 0 13 2l11 -131q-47 -20 -101 -20q-63 0 -96 33t-33 92q0 16 3 34l84 604l187 19zM-32 -281l-60 72l142 148h110l108 -157l-76 -63l-98 97z" />
    <glyph glyph-name="lcommaaccent" unicode="&#x13c;" horiz-adv-x="251" 
d="M191 156q-1 -4 -1 -10q0 -16 15 -16q5 0 13 2l11 -131q-47 -20 -101 -20q-63 0 -96 33t-33 92q0 16 3 34l84 604l187 19zM158.5 -84q21.5 -21 21.5 -55q0 -25 -8 -46t-29 -57l-56 -97h-86l38 117q-30 21 -30 57q0 45 26.5 73.5t66.5 28.5q35 0 56.5 -21z" />
    <glyph glyph-name="uni0234" unicode="&#x234;" horiz-adv-x="425" 
d="M379.5 227q26.5 -28 26.5 -76q0 -85 -52.5 -127.5t-136.5 -42.5q-20 0 -29 1l-35 -71l-71 34l29 53q-51 19 -78 60t-27 98q0 18 3 37l77 551l188 19l-84 -605v-4q24 57 52.5 79t69.5 22t67.5 -28zM283.5 120.5q8.5 9.5 8.5 26.5q0 16 -11 16q-9 0 -16 -11.5t-16 -40.5h11
q15 0 23.5 9.5z" />
    <glyph glyph-name="ldot" unicode="&#x140;" horiz-adv-x="453" 
d="M191 156q-1 -4 -1 -10q0 -16 15 -16q5 0 13 2l11 -131q-47 -20 -101 -20q-63 0 -96 33t-33 92q0 16 3 34l84 604l187 19zM274 295q-24 24 -24 64q0 51 33.5 84t82.5 33q44 0 68 -24t24 -64q0 -51 -33.5 -84t-82.5 -33q-44 0 -68 24z" />
    <glyph glyph-name="uni1E37" unicode="&#x1e37;" horiz-adv-x="251" 
d="M191 156q-1 -4 -1 -10q0 -16 15 -16q5 0 13 2l11 -131q-47 -20 -101 -20q-63 0 -96 33t-33 92q0 16 3 34l84 604l187 19zM175 -78q24 -24 24 -64q0 -51 -33.5 -84t-82.5 -33q-44 0 -68 24t-24 64q0 51 33.5 84t82.5 33q44 0 68 -24z" />
    <glyph glyph-name="uni026E" unicode="&#x26e;" horiz-adv-x="620" 
d="M599 407l-160 -197q144 -23 144 -163q0 -84 -36 -146t-98.5 -95t-140.5 -33q-135 0 -199 110l110 88q23 -29 44 -42t47 -13q38 0 61 32.5t23 93.5q0 38 -16.5 53.5t-46.5 15.5h-87l15 104l148 181h-184l-32 -240q-1 -4 -1 -10q0 -16 15 -16q5 0 13 2l11 -131
q-47 -20 -101 -20q-63 0 -96 33t-33 92q0 16 3 34l84 604l187 19l-31 -229h376z" />
    <glyph glyph-name="uni026D" unicode="&#x26d;" horiz-adv-x="235" 
d="M297 -183q-64 -43 -145 -43q-80 0 -125 42t-45 121q0 11 2 35l3 28l104 744l188 19l-106 -763l-6 -47l-1 -10q0 -16 9 -25t25 -9q15 0 25.5 3.5t26.5 11.5z" />
    <glyph glyph-name="uni01C9" unicode="&#x1c9;" horiz-adv-x="486" 
d="M191 156q-1 -4 -1 -10q0 -16 15 -16q5 0 13 2l11 -131q-47 -20 -101 -20q-63 0 -96 33t-33 92q0 16 3 34l84 604l187 19zM137 -90q52 21 77 53.5t34 99.5l65 471h187l-65 -461q-14 -94 -51 -152.5t-86.5 -89.5t-119.5 -57zM355 644q-24 24 -24 64q0 51 33.5 84t82.5 33
q44 0 68 -24t24 -64q0 -51 -33.5 -84t-82.5 -33q-44 0 -68 24z" />
    <glyph glyph-name="uni026B" unicode="&#x26b;" horiz-adv-x="429" 
d="M290 156q-1 -4 -1 -10q0 -16 15 -16q5 0 13 2l11 -131q-47 -20 -101 -20q-63 0 -96 33t-33 92q0 16 3 34l25 182q-13 -5 -24 -16.5t-26 -32.5l-81 51q37 61 71.5 96.5t79.5 42.5l39 281l187 19l-48 -355q11 6 20.5 16.5t22.5 28.5l84 -49q-36 -59 -69.5 -94t-76.5 -44z
" />
    <glyph glyph-name="uni02AA" unicode="&#x2aa;" horiz-adv-x="589" 
d="M71.5 25.5q-62.5 44.5 -62.5 142.5q0 28 4 55l73 521l188 19l-77 -550q-2 -11 -2 -31q0 -40 21.5 -55t71.5 -15q56 0 81.5 13.5t25.5 40.5q0 18 -13 31.5t-51 33.5q-53 27 -73.5 57t-20.5 83q0 51 24.5 93t69 66t99.5 24q98 0 167 -69l-78 -98q-25 19 -40.5 27t-33.5 8
t-27 -9.5t-9 -27.5q0 -20 11.5 -32t47.5 -29q51 -24 76.5 -57t25.5 -86q0 -102 -81.5 -151t-228.5 -49q-126 0 -188.5 44.5z" />
    <glyph glyph-name="lslash" unicode="&#x142;" horiz-adv-x="317" 
d="M260 132l11 -131q-47 -20 -101 -20q-63 0 -96 33t-33 92q0 16 3 34l16 114l-37 -23l-29 102l84 53l50 358l187 19l-34 -251l43 27l26 -105l-87 -54l-30 -224q-1 -4 -1 -10q0 -16 15 -16q5 0 13 2z" />
    <glyph glyph-name="uni02AB" unicode="&#x2ab;" horiz-adv-x="628" 
d="M633 403l-195 -262h169l-37 -141h-353q-45 -19 -89 -19q-63 0 -96 33t-33 92q0 16 3 34l84 604l187 19l-82 -607q-1 -4 -1 -10q0 -16 15 -16q5 0 13 2l195 263h-146l21 139h364z" />
    <glyph glyph-name="m" unicode="m" horiz-adv-x="679" 
d="M653 522.5q26 -31.5 26 -88.5q0 -18 -3 -39l-56 -395h-186l49 358q1 7 1 17q0 13 -5 13q-6 0 -14 -18t-25 -68l-43 -302h-186l49 358q1 7 1 17q0 13 -5 13q-6 0 -14.5 -19t-26.5 -72l-41 -297h-186l74 534h162l1 -74q59 94 132 94q39 0 63.5 -22.5t32.5 -63.5
q56 86 127 86q47 0 73 -31.5z" />
    <glyph glyph-name="uni1E3F" unicode="&#x1e3f;" horiz-adv-x="679" 
d="M653 522.5q26 -31.5 26 -88.5q0 -18 -3 -39l-56 -395h-186l49 358q1 7 1 17q0 13 -5 13q-6 0 -14 -18t-25 -68l-43 -302h-186l49 358q1 7 1 17q0 13 -5 13q-6 0 -14.5 -19t-26.5 -72l-41 -297h-186l74 534h162l1 -74q59 94 132 94q39 0 63.5 -22.5t32.5 -63.5
q56 86 127 86q47 0 73 -31.5zM479 844l60 -131l-226 -98l-46 87z" />
    <glyph glyph-name="uni1E41" unicode="&#x1e41;" horiz-adv-x="679" 
d="M653 522.5q26 -31.5 26 -88.5q0 -18 -3 -39l-56 -395h-186l49 358q1 7 1 17q0 13 -5 13q-6 0 -14 -18t-25 -68l-43 -302h-186l49 358q1 7 1 17q0 13 -5 13q-6 0 -14.5 -19t-26.5 -72l-41 -297h-186l74 534h162l1 -74q59 94 132 94q39 0 63.5 -22.5t32.5 -63.5
q56 86 127 86q47 0 73 -31.5zM330 644q-24 24 -24 64q0 51 33.5 84t82.5 33q44 0 68 -24t24 -64q0 -51 -33.5 -84t-82.5 -33q-44 0 -68 24z" />
    <glyph glyph-name="uni0271" unicode="&#x271;" horiz-adv-x="679" 
d="M653 522.5q26 -31.5 26 -88.5q0 -18 -3 -39l-56 -395l-5 -35q-14 -96 -73.5 -143.5t-150.5 -47.5q-45 0 -76.5 12.5t-56.5 33.5l74 106q17 -9 27.5 -13t25.5 -4q19 0 29.5 11t12.5 30l7 50l49 358q1 7 1 17q0 13 -5 13q-6 0 -14 -18t-25 -68l-43 -302h-186l49 358
q1 7 1 17q0 13 -5 13q-6 0 -14.5 -19t-26.5 -72l-41 -297h-186l74 534h162l1 -74q59 94 132 94q39 0 63.5 -22.5t32.5 -63.5q56 86 127 86q47 0 73 -31.5z" />
    <glyph glyph-name="uni0270" unicode="&#x270;" horiz-adv-x="675" 
d="M691 534l-104 -742l-188 -18l39 284q-46 -78 -116 -78q-39 0 -63.5 22.5t-32.5 63.5q-56 -86 -127 -86q-47 0 -73 32t-26 88q0 18 3 39l56 395h186l-49 -358q-1 -7 -1 -17q0 -13 5 -13q6 0 15.5 15.5t20.5 46.5l46 326h186l-49 -358q-1 -7 -1 -17q0 -13 5 -13
q6 0 16.5 18t22.5 53l43 317h186z" />
    <glyph glyph-name="uni026F" unicode="&#x26f;" horiz-adv-x="679" 
d="M691 534l-74 -534h-162l-1 74q-59 -94 -132 -94q-39 0 -63.5 22.5t-32.5 63.5q-56 -86 -127 -86q-47 0 -73 32t-26 88q0 18 3 39l56 395h186l-49 -358q-1 -7 -1 -17q0 -13 5 -13q6 0 14 18t25 68l43 302h186l-49 -358q-1 -7 -1 -17q0 -13 5 -13q6 0 14.5 19t26.5 72
l41 297h186z" />
    <glyph glyph-name="n" unicode="n" horiz-adv-x="466" 
d="M440 522.5q26 -31.5 26 -88.5q0 -18 -3 -39l-56 -395h-186l49 358q1 5 1 13q0 12 -6 12q-7 0 -16.5 -17.5t-33.5 -71.5l-41 -294h-186l74 534h162l1 -77q62 97 142 97q47 0 73 -31.5z" />
    <glyph glyph-name="nacute" unicode="&#x144;" horiz-adv-x="466" 
d="M440 522.5q26 -31.5 26 -88.5q0 -18 -3 -39l-56 -395h-186l49 358q1 5 1 13q0 12 -6 12q-7 0 -16.5 -17.5t-33.5 -71.5l-41 -294h-186l74 534h162l1 -77q62 97 142 97q47 0 73 -31.5zM372 844l60 -131l-226 -98l-46 87z" />
    <glyph glyph-name="napostrophe" unicode="&#x149;" horiz-adv-x="586" 
d="M206 745.5q18 -17.5 18 -45.5q0 -20 -6.5 -37t-23.5 -48l-46 -80h-71l31 97q-24 16 -24 47q0 37 21.5 60.5t54.5 23.5q28 0 46 -17.5zM560 522q26 -32 26 -88q0 -18 -3 -39l-56 -395h-186l49 358q1 5 1 13q0 12 -6 12q-7 0 -16.5 -17.5t-33.5 -71.5l-41 -294h-186l74 534
h162l1 -77q62 97 142 97q47 0 73 -32z" />
    <glyph glyph-name="ncaron" unicode="&#x148;" horiz-adv-x="466" 
d="M440 522.5q26 -31.5 26 -88.5q0 -18 -3 -39l-56 -395h-186l49 358q1 5 1 13q0 12 -6 12q-7 0 -16.5 -17.5t-33.5 -71.5l-41 -294h-186l74 534h162l1 -77q62 97 142 97q47 0 73 -31.5zM422 824l60 -72l-142 -148h-110l-99 148l67 72l98 -97z" />
    <glyph glyph-name="uni1E4B" unicode="&#x1e4b;" horiz-adv-x="466" 
d="M440 522.5q26 -31.5 26 -88.5q0 -18 -3 -39l-56 -395h-186l49 358q1 5 1 13q0 12 -6 12q-7 0 -16.5 -17.5t-33.5 -71.5l-41 -294h-186l74 534h162l1 -77q62 97 142 97q47 0 73 -31.5zM48 -281l-60 72l142 148h110l108 -157l-76 -63l-98 97z" />
    <glyph glyph-name="ncommaaccent" unicode="&#x146;" horiz-adv-x="466" 
d="M440 522.5q26 -31.5 26 -88.5q0 -18 -3 -39l-56 -395h-186l49 358q1 5 1 13q0 12 -6 12q-7 0 -16.5 -17.5t-33.5 -71.5l-41 -294h-186l74 534h162l1 -77q62 97 142 97q47 0 73 -31.5zM238.5 -84q21.5 -21 21.5 -55q0 -25 -8 -46t-29 -57l-56 -97h-86l38 117
q-30 21 -30 57q0 45 26.5 73.5t66.5 28.5q35 0 56.5 -21z" />
    <glyph glyph-name="uni0235" unicode="&#x235;" horiz-adv-x="665" 
d="M619.5 227q26.5 -28 26.5 -76q0 -85 -52.5 -127.5t-136.5 -42.5q-20 0 -29 1l-35 -71l-71 34l29 53q-51 19 -77.5 59.5t-26.5 97.5q0 19 3 38l20 165q1 5 1 13q0 12 -6 12q-7 0 -16.5 -17.5t-33.5 -71.5l-41 -294h-186l74 534h162l1 -77q62 97 142 97q47 0 73 -31.5
t26 -88.5q0 -18 -3 -39l-30 -216q-2 -16 -2 -20q25 53 53 74.5t68 21.5q41 0 67.5 -28zM523.5 120.5q8.5 9.5 8.5 26.5q0 16 -11 16q-9 0 -16 -11.5t-16 -40.5h11q15 0 23.5 9.5z" />
    <glyph glyph-name="uni1E45" unicode="&#x1e45;" horiz-adv-x="466" 
d="M440 522.5q26 -31.5 26 -88.5q0 -18 -3 -39l-56 -395h-186l49 358q1 5 1 13q0 12 -6 12q-7 0 -16.5 -17.5t-33.5 -71.5l-41 -294h-186l74 534h162l1 -77q62 97 142 97q47 0 73 -31.5zM223 644q-24 24 -24 64q0 51 33.5 84t82.5 33q44 0 68 -24t24 -64q0 -51 -33.5 -84
t-82.5 -33q-44 0 -68 24z" />
    <glyph glyph-name="uni1E47" unicode="&#x1e47;" horiz-adv-x="466" 
d="M440 522.5q26 -31.5 26 -88.5q0 -18 -3 -39l-56 -395h-186l49 358q1 5 1 13q0 12 -6 12q-7 0 -16.5 -17.5t-33.5 -71.5l-41 -294h-186l74 534h162l1 -77q62 97 142 97q47 0 73 -31.5zM255 -78q24 -24 24 -64q0 -51 -33.5 -84t-82.5 -33q-44 0 -68 24t-24 64q0 51 33.5 84
t82.5 33q44 0 68 -24z" />
    <glyph glyph-name="uni01F9" unicode="&#x1f9;" horiz-adv-x="466" 
d="M440 522.5q26 -31.5 26 -88.5q0 -18 -3 -39l-56 -395h-186l49 358q1 5 1 13q0 12 -6 12q-7 0 -16.5 -17.5t-33.5 -71.5l-41 -294h-186l74 534h162l1 -77q62 97 142 97q47 0 73 -31.5zM261 842l178 -143l-54 -81l-204 95z" />
    <glyph glyph-name="eng" unicode="&#x14b;" horiz-adv-x="466" 
d="M440 522.5q26 -31.5 26 -88.5q0 -18 -3 -39l-56 -395l-5 -35q-14 -96 -73.5 -143.5t-150.5 -47.5q-45 0 -76.5 12.5t-56.5 33.5l74 106q17 -9 27.5 -13t25.5 -4q19 0 29.5 11t12.5 30l7 50l49 358q1 5 1 13q0 12 -6 12q-7 0 -16.5 -17.5t-33.5 -71.5l-41 -294h-186
l74 534h162l1 -77q62 97 142 97q47 0 73 -31.5z" />
    <glyph glyph-name="uni0272" unicode="&#x272;" horiz-adv-x="466" 
d="M440 522.5q26 -31.5 26 -88.5q0 -18 -3 -39l-56 -395h-186l49 358q1 5 1 13q0 12 -6 12q-7 0 -16.5 -17.5t-33.5 -71.5l-41 -294l-5 -35q-14 -96 -73.5 -143.5t-150.5 -47.5q-45 0 -76.5 12.5t-56.5 33.5l74 106q17 -9 27.5 -13t25.5 -4q19 0 29.5 11t12.5 30l7 50
l74 534h162l1 -77q62 97 142 97q47 0 73 -31.5z" />
    <glyph glyph-name="uni0273" unicode="&#x273;" horiz-adv-x="466" 
d="M531 -183q-64 -43 -145 -43q-80 0 -125 42t-45 121q0 11 2 35l3 28l49 358q1 5 1 13q0 12 -6 12q-7 0 -16.5 -17.5t-33.5 -71.5l-41 -294h-186l74 534h162l1 -77q62 97 142 97q47 0 73 -31.5t26 -88.5q0 -18 -3 -39l-56 -395l-6 -47l-1 -10q0 -16 9 -25t25 -9
q15 0 25.5 3.5t26.5 11.5z" />
    <glyph glyph-name="uni01CC" unicode="&#x1cc;" horiz-adv-x="701" 
d="M440 522.5q26 -31.5 26 -88.5q0 -18 -3 -39l-56 -395h-186l49 358q1 5 1 13q0 12 -6 12q-7 0 -16.5 -17.5t-33.5 -71.5l-41 -294h-186l74 534h162l1 -77q62 97 142 97q47 0 73 -31.5zM352 -90q52 21 77 53.5t34 99.5l65 471h187l-65 -461q-14 -94 -51 -152.5t-86.5 -89.5
t-119.5 -57zM570 644q-24 24 -24 64q0 51 33.5 84t82.5 33q44 0 68 -24t24 -64q0 -51 -33.5 -84t-82.5 -33q-44 0 -68 24z" />
    <glyph glyph-name="uni019E" unicode="&#x19e;" horiz-adv-x="466" 
d="M440 522.5q26 -31.5 26 -88.5q0 -18 -3 -39l-87 -602l-190 -20l84 585q1 6 1 14q0 11 -6 11q-7 0 -16.5 -17.5t-33.5 -71.5l-41 -294h-186l74 534h162l1 -77q62 97 142 97q47 0 73 -31.5z" />
    <glyph glyph-name="ntilde" unicode="&#xf1;" horiz-adv-x="466" 
d="M440 522.5q26 -31.5 26 -88.5q0 -18 -3 -39l-56 -395h-186l49 358q1 5 1 13q0 12 -6 12q-7 0 -16.5 -17.5t-33.5 -71.5l-41 -294h-186l74 534h162l1 -77q62 97 142 97q47 0 73 -31.5zM313 631.5q-12 6.5 -30 18.5q-2 2 -10 7.5t-14 8t-12 2.5q-13 0 -23 -10.5t-24 -33.5
l-77 46q25 57 62 94t74 37q19 0 33 -7t30 -20q9 -7 17.5 -12t16.5 -5q11 0 21 10t23 32l77 -43q-24 -57 -61.5 -94t-75.5 -37q-15 0 -27 6.5z" />
    <glyph glyph-name="o" unicode="o" horiz-adv-x="494" 
d="M63 34q-53 54 -53 162q0 99 31 180t93 129.5t150 48.5q94 0 147 -54.5t53 -162.5q0 -99 -31.5 -180t-93 -129t-149.5 -48q-94 0 -147 54zM264.5 157.5q16.5 41.5 24.5 100t8 109.5q0 28 -6.5 39t-20.5 11q-36 0 -54.5 -82.5t-18.5 -167.5q0 -28 6.5 -39.5t20.5 -11.5
q24 0 40.5 41.5z" />
    <glyph glyph-name="oacute" unicode="&#xf3;" horiz-adv-x="494" 
d="M63 34q-53 54 -53 162q0 99 31 180t93 129.5t150 48.5q94 0 147 -54.5t53 -162.5q0 -99 -31.5 -180t-93 -129t-149.5 -48q-94 0 -147 54zM264.5 157.5q16.5 41.5 24.5 100t8 109.5q0 28 -6.5 39t-20.5 11q-36 0 -54.5 -82.5t-18.5 -167.5q0 -28 6.5 -39.5t20.5 -11.5
q24 0 40.5 41.5zM379 844l60 -131l-226 -98l-46 87z" />
    <glyph glyph-name="uni0275" unicode="&#x275;" horiz-adv-x="494" 
d="M431 499.5q53 -54.5 53 -162.5q0 -99 -31.5 -180t-93 -129t-149.5 -48q-94 0 -147 54t-53 162q0 99 31 180t93 129.5t150 48.5q94 0 147 -54.5zM231 395q-18 -28 -29 -75h104q1 16 1 44q0 32 -8 45.5t-25 13.5q-25 0 -43 -28zM264 141.5q18 30.5 29 80.5h-104
q-2 -36 -2 -52q0 -32 8 -45.5t25 -13.5q26 0 44 30.5z" />
    <glyph glyph-name="obreve" unicode="&#x14f;" horiz-adv-x="494" 
d="M63 34q-53 54 -53 162q0 99 31 180t93 129.5t150 48.5q94 0 147 -54.5t53 -162.5q0 -99 -31.5 -180t-93 -129t-149.5 -48q-94 0 -147 54zM264.5 157.5q16.5 41.5 24.5 100t8 109.5q0 28 -6.5 39t-20.5 11q-36 0 -54.5 -82.5t-18.5 -167.5q0 -28 6.5 -39.5t20.5 -11.5
q24 0 40.5 41.5zM192 674q-35 47 -35 121q0 17 1 25l94 14q1 -36 14.5 -57t39.5 -21t45 21.5t30 58.5l90 -19q-15 -83 -58.5 -136.5t-115.5 -53.5q-70 0 -105 47z" />
    <glyph glyph-name="uni01D2" unicode="&#x1d2;" horiz-adv-x="494" 
d="M63 34q-53 54 -53 162q0 99 31 180t93 129.5t150 48.5q94 0 147 -54.5t53 -162.5q0 -99 -31.5 -180t-93 -129t-149.5 -48q-94 0 -147 54zM264.5 157.5q16.5 41.5 24.5 100t8 109.5q0 28 -6.5 39t-20.5 11q-36 0 -54.5 -82.5t-18.5 -167.5q0 -28 6.5 -39.5t20.5 -11.5
q24 0 40.5 41.5zM429 824l60 -72l-142 -148h-110l-99 148l67 72l98 -97z" />
    <glyph glyph-name="ocircumflex" unicode="&#xf4;" horiz-adv-x="494" 
d="M63 34q-53 54 -53 162q0 99 31 180t93 129.5t150 48.5q94 0 147 -54.5t53 -162.5q0 -99 -31.5 -180t-93 -129t-149.5 -48q-94 0 -147 54zM264.5 157.5q16.5 41.5 24.5 100t8 109.5q0 28 -6.5 39t-20.5 11q-36 0 -54.5 -82.5t-18.5 -167.5q0 -28 6.5 -39.5t20.5 -11.5
q24 0 40.5 41.5zM186 616l-60 72l142 148h110l108 -157l-76 -63l-98 97z" />
    <glyph glyph-name="uni1ED1" unicode="&#x1ed1;" horiz-adv-x="494" 
d="M539 988l87 -93l-174 -153l-62 57zM176 586l-65 72l142 138h110l109 -148l-72 -62l-103 87zM63 34q-53 54 -53 162q0 99 31 180t93 129.5t150 48.5q94 0 147 -54.5t53 -162.5q0 -99 -31.5 -180t-93 -129t-149.5 -48q-94 0 -147 54zM264.5 157.5q16.5 41.5 24.5 100
t8 109.5q0 28 -6.5 39t-20.5 11q-36 0 -54.5 -82.5t-18.5 -167.5q0 -28 6.5 -39.5t20.5 -11.5q24 0 40.5 41.5z" />
    <glyph glyph-name="uni1ED9" unicode="&#x1ed9;" horiz-adv-x="494" 
d="M63 34q-53 54 -53 162q0 99 31 180t93 129.5t150 48.5q94 0 147 -54.5t53 -162.5q0 -99 -31.5 -180t-93 -129t-149.5 -48q-94 0 -147 54zM264.5 157.5q16.5 41.5 24.5 100t8 109.5q0 28 -6.5 39t-20.5 11q-36 0 -54.5 -82.5t-18.5 -167.5q0 -28 6.5 -39.5t20.5 -11.5
q24 0 40.5 41.5zM186 616l-60 72l142 148h110l108 -157l-76 -63l-98 97zM269 -78q24 -24 24 -64q0 -51 -33.5 -84t-82.5 -33q-44 0 -68 24t-24 64q0 51 33.5 84t82.5 33q44 0 68 -24z" />
    <glyph glyph-name="uni1ED3" unicode="&#x1ed3;" horiz-adv-x="494" 
d="M130 985l95 -191l-78 -52l-129 161zM177 586l-65 72l142 138h110l109 -148l-72 -62l-103 87zM63 34q-53 54 -53 162q0 99 31 180t93 129.5t150 48.5q94 0 147 -54.5t53 -162.5q0 -99 -31.5 -180t-93 -129t-149.5 -48q-94 0 -147 54zM264.5 157.5q16.5 41.5 24.5 100
t8 109.5q0 28 -6.5 39t-20.5 11q-36 0 -54.5 -82.5t-18.5 -167.5q0 -28 6.5 -39.5t20.5 -11.5q24 0 40.5 41.5z" />
    <glyph glyph-name="uni1ED5" unicode="&#x1ed5;" horiz-adv-x="494" 
d="M63 34q-53 54 -53 162q0 99 31 180t93 129.5t150 48.5q94 0 147 -54.5t53 -162.5q0 -99 -31.5 -180t-93 -129t-149.5 -48q-94 0 -147 54zM264.5 157.5q16.5 41.5 24.5 100t8 109.5q0 28 -6.5 39t-20.5 11q-36 0 -54.5 -82.5t-18.5 -167.5q0 -28 6.5 -39.5t20.5 -11.5
q24 0 40.5 41.5zM179 586l-65 72l142 138h110l109 -148l-72 -62l-103 87zM424 874q34 1 48 10.5t14 30.5q0 12 -6 17.5t-20 5.5q-21 0 -50 -13l-15 74q43 26 98 26q52 0 80.5 -26.5t28.5 -69.5q0 -42 -23.5 -70t-63.5 -37l-7 -50h-98z" />
    <glyph glyph-name="uni1ED7" unicode="&#x1ed7;" horiz-adv-x="494" 
d="M340.5 828q-12.5 6 -28.5 17q-24 16 -35 16q-13 0 -23 -9t-23 -30l-76 41q26 51 62 84.5t72 33.5q19 0 31.5 -6t30.5 -18q20 -16 33 -16q10 0 20 9t23 29l75 -39q-24 -51 -60.5 -84.5t-73.5 -33.5q-15 0 -27.5 6zM176 585l-65 72l142 138h110l109 -148l-72 -62l-103 87z
M63 34q-53 54 -53 162q0 99 31 180t93 129.5t150 48.5q94 0 147 -54.5t53 -162.5q0 -99 -31.5 -180t-93 -129t-149.5 -48q-94 0 -147 54zM264.5 157.5q16.5 41.5 24.5 100t8 109.5q0 28 -6.5 39t-20.5 11q-36 0 -54.5 -82.5t-18.5 -167.5q0 -28 6.5 -39.5t20.5 -11.5
q24 0 40.5 41.5z" />
    <glyph glyph-name="uni020D" unicode="&#x20d;" horiz-adv-x="494" 
d="M63 34q-53 54 -53 162q0 99 31 180t93 129.5t150 48.5q94 0 147 -54.5t53 -162.5q0 -99 -31.5 -180t-93 -129t-149.5 -48q-94 0 -147 54zM264.5 157.5q16.5 41.5 24.5 100t8 109.5q0 28 -6.5 39t-20.5 11q-36 0 -54.5 -82.5t-18.5 -167.5q0 -28 6.5 -39.5t20.5 -11.5
q24 0 40.5 41.5zM218 874l61 -213l-99 -40l-90 201zM379 874l55 -215l-98 -34l-85 202z" />
    <glyph glyph-name="odieresis" unicode="&#xf6;" horiz-adv-x="494" 
d="M63 34q-53 54 -53 162q0 99 31 180t93 129.5t150 48.5q94 0 147 -54.5t53 -162.5q0 -99 -31.5 -180t-93 -129t-149.5 -48q-94 0 -147 54zM264.5 157.5q16.5 41.5 24.5 100t8 109.5q0 28 -6.5 39t-20.5 11q-36 0 -54.5 -82.5t-18.5 -167.5q0 -28 6.5 -39.5t20.5 -11.5
q24 0 40.5 41.5zM133.5 656q-20.5 21 -20.5 56q0 43 29 72.5t70 29.5q38 0 58.5 -21t20.5 -56q0 -43 -29 -72.5t-71 -29.5q-37 0 -57.5 21zM345 656q-21 21 -21 56q0 43 29 72.5t70 29.5q37 0 58 -21t21 -56q0 -43 -29 -72.5t-70 -29.5q-37 0 -58 21z" />
    <glyph glyph-name="uni022B" unicode="&#x22b;" horiz-adv-x="494" 
d="M63 34q-53 54 -53 162q0 99 31 180t93 129.5t150 48.5q94 0 147 -54.5t53 -162.5q0 -99 -31.5 -180t-93 -129t-149.5 -48q-94 0 -147 54zM264.5 157.5q16.5 41.5 24.5 100t8 109.5q0 28 -6.5 39t-20.5 11q-36 0 -54.5 -82.5t-18.5 -167.5q0 -28 6.5 -39.5t20.5 -11.5
q24 0 40.5 41.5zM127.5 612q-20.5 21 -20.5 56q0 43 29 72.5t70 29.5q38 0 58.5 -21t20.5 -56q0 -43 -29 -72.5t-71 -29.5q-37 0 -57.5 21zM339 612q-21 21 -21 56q0 43 29 72.5t70 29.5q37 0 58 -21t21 -56q0 -43 -29 -72.5t-70 -29.5q-37 0 -58 21zM453 808h-274l20 130
h274z" />
    <glyph glyph-name="uni022F" unicode="&#x22f;" horiz-adv-x="494" 
d="M63 34q-53 54 -53 162q0 99 31 180t93 129.5t150 48.5q94 0 147 -54.5t53 -162.5q0 -99 -31.5 -180t-93 -129t-149.5 -48q-94 0 -147 54zM264.5 157.5q16.5 41.5 24.5 100t8 109.5q0 28 -6.5 39t-20.5 11q-36 0 -54.5 -82.5t-18.5 -167.5q0 -28 6.5 -39.5t20.5 -11.5
q24 0 40.5 41.5zM230 644q-24 24 -24 64q0 51 33.5 84t82.5 33q44 0 68 -24t24 -64q0 -51 -33.5 -84t-82.5 -33q-44 0 -68 24z" />
    <glyph glyph-name="uni0231" unicode="&#x231;" horiz-adv-x="494" 
d="M63 34q-53 54 -53 162q0 99 31 180t93 129.5t150 48.5q94 0 147 -54.5t53 -162.5q0 -99 -31.5 -180t-93 -129t-149.5 -48q-94 0 -147 54zM264.5 157.5q16.5 41.5 24.5 100t8 109.5q0 28 -6.5 39t-20.5 11q-36 0 -54.5 -82.5t-18.5 -167.5q0 -28 6.5 -39.5t20.5 -11.5
q24 0 40.5 41.5zM222 612q-24 24 -24 64q0 51 33.5 84t82.5 33q44 0 68 -24t24 -64q0 -51 -33.5 -84t-82.5 -33q-44 0 -68 24zM454 826h-274l20 130h274z" />
    <glyph glyph-name="uni1ECD" unicode="&#x1ecd;" horiz-adv-x="494" 
d="M63 34q-53 54 -53 162q0 99 31 180t93 129.5t150 48.5q94 0 147 -54.5t53 -162.5q0 -99 -31.5 -180t-93 -129t-149.5 -48q-94 0 -147 54zM264.5 157.5q16.5 41.5 24.5 100t8 109.5q0 28 -6.5 39t-20.5 11q-36 0 -54.5 -82.5t-18.5 -167.5q0 -28 6.5 -39.5t20.5 -11.5
q24 0 40.5 41.5zM269 -78q24 -24 24 -64q0 -51 -33.5 -84t-82.5 -33q-44 0 -68 24t-24 64q0 51 33.5 84t82.5 33q44 0 68 -24z" />
    <glyph glyph-name="ograve" unicode="&#xf2;" horiz-adv-x="494" 
d="M63 34q-53 54 -53 162q0 99 31 180t93 129.5t150 48.5q94 0 147 -54.5t53 -162.5q0 -99 -31.5 -180t-93 -129t-149.5 -48q-94 0 -147 54zM264.5 157.5q16.5 41.5 24.5 100t8 109.5q0 28 -6.5 39t-20.5 11q-36 0 -54.5 -82.5t-18.5 -167.5q0 -28 6.5 -39.5t20.5 -11.5
q24 0 40.5 41.5zM268 842l178 -143l-54 -81l-204 95z" />
    <glyph glyph-name="uni1ECF" unicode="&#x1ecf;" horiz-adv-x="494" 
d="M63 34q-53 54 -53 162q0 99 31 180t93 129.5t150 48.5q94 0 147 -54.5t53 -162.5q0 -99 -31.5 -180t-93 -129t-149.5 -48q-94 0 -147 54zM264.5 157.5q16.5 41.5 24.5 100t8 109.5q0 28 -6.5 39t-20.5 11q-36 0 -54.5 -82.5t-18.5 -167.5q0 -28 6.5 -39.5t20.5 -11.5
q24 0 40.5 41.5zM256 704q34 1 48 10.5t14 30.5q0 12 -6 17.5t-20 5.5q-21 0 -50 -13l-15 74q43 26 98 26q52 0 80.5 -26.5t28.5 -69.5q0 -42 -23.5 -70t-63.5 -37l-7 -50h-98z" />
    <glyph glyph-name="ohorn" unicode="&#x1a1;" horiz-adv-x="552" 
d="M568.5 441q-30.5 -40 -88.5 -51q4 -21 4 -53q0 -99 -31.5 -180t-93 -129t-149.5 -48q-94 0 -147 54t-53 162q0 99 31 180t93 129.5t150 48.5q117 0 167 -81q33 14 33 77q0 26 -3 47l113 13q5 -27 5 -58q0 -71 -30.5 -111zM264.5 157.5q16.5 41.5 24.5 100t8 109.5
q0 28 -6.5 39t-20.5 11q-36 0 -54.5 -82.5t-18.5 -167.5q0 -28 6.5 -39.5t20.5 -11.5q24 0 40.5 41.5z" />
    </font>
</defs>
</svg>
