<?xml version="1.0" standalone="no"?>
<!DOCTYPE svg PUBLIC "-//W3C//DTD SVG 1.1//EN" "http://www.w3.org/Graphics/SVG/1.1/DTD/svg11.dtd" >
<svg>
<metadata>
Created by FontForge 20120731 at Fri May  5 10:59:58 2017
 By www-data
Digitized data copyright 2012-2016, The Mozilla Foundation and Telefonica S.A.
</metadata>
<defs>
<font id="FiraSansExtraCondensed-Black" horiz-adv-x="460" >
  <font-face 
    font-family="Fira Sans Extra Condensed Black"
    font-weight="900"
    font-stretch="ultra-condensed"
    units-per-em="1000"
    panose-1="2 11 10 3 5 0 0 2 0 4"
    ascent="800"
    descent="-200"
    x-height="534"
    cap-height="696"
    bbox="-673 -356 1360 1229"
    underline-thickness="50"
    underline-position="-50"
    unicode-range="U+000D-FEFF"
  />
<missing-glyph horiz-adv-x="666" 
d="M543 1050v-1400h-420v1400h420zM489 998h-311v-1296h311v1296zM409.5 419q25.5 -32 25.5 -83q0 -53 -22.5 -82t-72.5 -36v-45q0 -11 -7.5 -17.5t-17.5 -6.5t-17.5 6.5t-7.5 17.5v84q53 3 72 19.5t19 57.5q0 33 -13 51t-48 18q-29 0 -52 -11q-8 -3 -13 -3q-11 0 -17.5 6.5
t-6.5 16.5q0 19 29.5 29t63.5 10q60 0 85.5 -32zM340 110q10 -10 10 -25q0 -16 -10 -26.5t-25 -10.5t-25 10.5t-10 26.5q0 15 10 25t25 10t25 -10z" />
    <glyph glyph-name="fi" unicode="fi" horiz-adv-x="524" 
d="M378.5 752q45.5 -12 74.5 -30l-47 -118q-48 23 -95 23q-31 0 -43.5 -13t-12.5 -45v-35h242v-534h-190v405h-52v-405h-190v405h-65v129h65v46q0 79 53 131.5t163 52.5q52 0 97.5 -12z" />
    <glyph glyph-name="fl" unicode="fl" horiz-adv-x="565" 
d="M580 0q-44 -20 -97 -20q-75 0 -115.5 42.5t-40.5 116.5v488q-15 4 -28 4q-26 0 -35 -13t-9 -45v-39h57l-21 -129h-36v-405h-190v405h-65v129h65v45q0 51 22 93t67 67t109 25q41 0 94 -17l160 16v-614q0 -20 17 -20q6 0 14 2z" />
    <glyph glyph-name=".notdef" horiz-adv-x="666" 
d="M543 1050v-1400h-420v1400h420zM489 998h-311v-1296h311v1296zM409.5 419q25.5 -32 25.5 -83q0 -53 -22.5 -82t-72.5 -36v-45q0 -11 -7.5 -17.5t-17.5 -6.5t-17.5 6.5t-7.5 17.5v84q53 3 72 19.5t19 57.5q0 33 -13 51t-48 18q-29 0 -52 -11q-8 -3 -13 -3q-11 0 -17.5 6.5
t-6.5 16.5q0 19 29.5 29t63.5 10q60 0 85.5 -32zM340 110q10 -10 10 -25q0 -16 -10 -26.5t-25 -10.5t-25 10.5t-10 26.5q0 15 10 25t25 10t25 -10z" />
    <glyph glyph-name="nonmarkingreturn" unicode="&#xd;" horiz-adv-x="169" 
 />
    <glyph glyph-name="space" unicode=" " horiz-adv-x="169" 
 />
    <glyph glyph-name="A" unicode="A" horiz-adv-x="517" 
d="M338 0l-20 138h-121l-20 -138h-197l162 696h234l161 -696h-199zM217 276h81l-41 281z" />
    <glyph glyph-name="Aacute" unicode="&#xc1;" horiz-adv-x="517" 
d="M338 0l-20 138h-121l-20 -138h-197l162 696h234l161 -696h-199zM217 276h81l-41 281zM320 968l70 -131l-216 -88l-48 90z" />
    <glyph glyph-name="Abreve" unicode="&#x102;" horiz-adv-x="517" 
d="M338 0l-20 138h-121l-20 -138h-197l162 696h234l161 -696h-199zM217 276h81l-41 281zM144 796.5q-39 49.5 -45 131.5l95 17q15 -69 66 -69t64 69l96 -17q-6 -81 -45 -131t-115 -50q-77 0 -116 49.5z" />
    <glyph glyph-name="uni1EAE" unicode="&#x1eae;" horiz-adv-x="517" 
d="M338 0l-20 138h-121l-20 -138h-197l162 696h234l161 -696h-199zM217 276h81l-41 281zM145 784.5q-39 49.5 -45 131.5l95 17q15 -69 66 -69t64 69l96 -17q-6 -81 -45 -131t-115 -50q-77 0 -116 49.5zM325 1165l107 -93l-159 -153l-72 58z" />
    <glyph glyph-name="uni1EB6" unicode="&#x1eb6;" horiz-adv-x="517" 
d="M338 0l-20 138h-121l-20 -138h-197l162 696h234l161 -696h-199zM217 276h81l-41 281zM144 796.5q-39 49.5 -45 131.5l95 17q15 -69 66 -69t64 69l96 -17q-6 -81 -45 -131t-115 -50q-77 0 -116 49.5zM185 -230q-29 29 -29 73q0 45 29 74t74 29t74 -29t29 -74
q0 -44 -29 -73t-74 -29t-74 29z" />
    <glyph glyph-name="uni1EB0" unicode="&#x1eb0;" horiz-adv-x="517" 
d="M338 0l-20 138h-121l-20 -138h-197l162 696h234l161 -696h-199zM217 276h81l-41 281zM145 784.5q-39 49.5 -45 131.5l95 17q15 -69 66 -69t64 69l96 -17q-6 -81 -45 -131t-115 -50q-77 0 -116 49.5zM208 1165l124 -188l-72 -58l-159 153z" />
    <glyph glyph-name="uni1EB2" unicode="&#x1eb2;" horiz-adv-x="517" 
d="M338 0l-20 138h-121l-20 -138h-197l162 696h234l161 -696h-199zM217 276h81l-41 281zM144 784.5q-39 49.5 -45 131.5l95 17q15 -69 66 -69t64 69l96 -17q-6 -81 -45 -131t-115 -50q-77 0 -116 49.5zM210 1018q32 2 45 9.5t13 26.5q0 13 -7.5 20.5t-20.5 7.5
q-15 0 -25 -2.5t-27 -9.5l-26 73q42 26 103 26q56 0 86.5 -29.5t30.5 -76.5q0 -40 -18.5 -65t-53.5 -32v-40h-100v92z" />
    <glyph glyph-name="uni1EB4" unicode="&#x1eb4;" horiz-adv-x="517" 
d="M338 0l-20 138h-121l-20 -138h-197l162 696h234l161 -696h-199zM217 276h81l-41 281zM142 784.5q-39 49.5 -45 131.5l95 17q15 -69 66 -69t64 69l96 -17q-6 -81 -45 -131t-115 -50q-77 0 -116 49.5zM273.5 970.5q-14.5 5.5 -30.5 15.5q-9 5 -17.5 9t-15.5 4
q-14 0 -22.5 -7.5t-19.5 -26.5l-84 34q17 51 49.5 83t74.5 32q20 0 33 -5t32 -16q21 -14 34 -14t21.5 8t18.5 26l84 -34q-17 -51 -48.5 -82.5t-74.5 -31.5q-20 0 -34.5 5.5z" />
    <glyph glyph-name="uni01CD" unicode="&#x1cd;" horiz-adv-x="517" 
d="M338 0l-20 138h-121l-20 -138h-197l162 696h234l161 -696h-199zM217 276h81l-41 281zM374 955l62 -64l-122 -143h-111l-121 143l62 64l115 -85z" />
    <glyph glyph-name="Acircumflex" unicode="&#xc2;" horiz-adv-x="517" 
d="M338 0l-20 138h-121l-20 -138h-197l162 696h234l161 -696h-199zM217 276h81l-41 281zM144 759l-62 64l122 143h111l121 -143l-62 -64l-115 85z" />
    <glyph glyph-name="uni1EA4" unicode="&#x1ea4;" horiz-adv-x="517" 
d="M338 0l-20 138h-121l-20 -138h-197l162 696h234l161 -696h-199zM217 276h81l-41 281zM145 730l-62 64l122 143h111l121 -143l-62 -64l-115 85zM475 1129l107 -93l-159 -153l-72 58z" />
    <glyph glyph-name="uni1EAC" unicode="&#x1eac;" horiz-adv-x="517" 
d="M338 0l-20 138h-121l-20 -138h-197l162 696h234l161 -696h-199zM217 276h81l-41 281zM144 759l-62 64l122 143h111l121 -143l-62 -64l-115 85zM185 -230q-29 29 -29 73q0 45 29 74t74 29t74 -29t29 -74q0 -44 -29 -73t-74 -29t-74 29z" />
    <glyph glyph-name="uni1EA6" unicode="&#x1ea6;" horiz-adv-x="517" 
d="M338 0l-20 138h-121l-20 -138h-197l162 696h234l161 -696h-199zM217 276h81l-41 281zM143 730l-62 64l122 143h111l121 -143l-62 -64l-115 85zM45 1129l124 -188l-72 -58l-159 153z" />
    <glyph glyph-name="uni1EA8" unicode="&#x1ea8;" horiz-adv-x="517" 
d="M338 0l-20 138h-121l-20 -138h-197l162 696h234l161 -696h-199zM217 276h81l-41 281zM144 730l-62 64l122 143h111l121 -143l-62 -64l-115 85zM372 967q32 2 45 9.5t13 26.5q0 13 -7.5 20.5t-20.5 7.5q-15 0 -25 -2.5t-27 -9.5l-26 73q42 26 103 26q56 0 86.5 -29.5
t30.5 -76.5q0 -40 -18.5 -65t-53.5 -32v-40h-100v92z" />
    <glyph glyph-name="uni1EAA" unicode="&#x1eaa;" horiz-adv-x="517" 
d="M338 0l-20 138h-121l-20 -138h-197l162 696h234l161 -696h-199zM217 276h81l-41 281zM143 730l-62 64l122 143h111l121 -143l-62 -64l-115 85zM274.5 974.5q-14.5 5.5 -30.5 15.5q-9 5 -17.5 9t-15.5 4q-14 0 -22.5 -7.5t-19.5 -26.5l-84 34q17 51 49.5 83t74.5 32
q20 0 33 -5t32 -16q21 -14 34 -14t21.5 8t18.5 26l84 -34q-17 -51 -48.5 -82.5t-74.5 -31.5q-20 0 -34.5 5.5z" />
    <glyph glyph-name="uni0200" unicode="&#x200;" horiz-adv-x="517" 
d="M338 0l-20 138h-121l-20 -138h-197l162 696h234l161 -696h-199zM217 276h81l-41 281zM142 998l88 -209l-84 -42l-114 193zM308 998l82 -211l-87 -36l-108 194z" />
    <glyph glyph-name="Adieresis" unicode="&#xc4;" horiz-adv-x="517" 
d="M338 0l-20 138h-121l-20 -138h-197l162 696h234l161 -696h-199zM217 276h81l-41 281zM219.5 914q24.5 -26 24.5 -63q0 -39 -24 -64.5t-63 -25.5q-37 0 -62.5 26t-25.5 64q0 37 25.5 63t62.5 26q38 0 62.5 -26zM429.5 914q24.5 -26 24.5 -63q0 -39 -24 -64.5t-63 -25.5
q-37 0 -62.5 26t-25.5 64q0 37 25.5 63t62.5 26q38 0 62.5 -26z" />
    <glyph glyph-name="uni01DE" unicode="&#x1de;" horiz-adv-x="517" 
d="M338 0l-20 138h-121l-20 -138h-197l162 696h234l161 -696h-199zM217 276h81l-41 281zM217.5 898q24.5 -26 24.5 -63q0 -39 -24 -64.5t-63 -25.5q-37 0 -62.5 26t-25.5 64q0 37 25.5 63t62.5 26q38 0 62.5 -26zM427.5 898q24.5 -26 24.5 -63q0 -39 -24 -64.5t-63 -25.5
q-37 0 -62.5 26t-25.5 64q0 37 25.5 63t62.5 26q38 0 62.5 -26zM400 966h-280v126h280v-126z" />
    <glyph glyph-name="uni0226" unicode="&#x226;" horiz-adv-x="517" 
d="M338 0l-20 138h-121l-20 -138h-197l162 696h234l161 -696h-199zM217 276h81l-41 281zM333 922q29 -29 29 -73q0 -45 -29 -74t-74 -29t-74 29t-29 74q0 44 29 73t74 29t74 -29z" />
    <glyph glyph-name="uni1EA0" unicode="&#x1ea0;" horiz-adv-x="517" 
d="M338 0l-20 138h-121l-20 -138h-197l162 696h234l161 -696h-199zM217 276h81l-41 281zM185 -230q-29 29 -29 73q0 45 29 74t74 29t74 -29t29 -74q0 -44 -29 -73t-74 -29t-74 29z" />
    <glyph glyph-name="uni01E0" unicode="&#x1e0;" horiz-adv-x="517" 
d="M338 0l-20 138h-121l-20 -138h-197l162 696h234l161 -696h-199zM217 276h81l-41 281zM332 910q29 -29 29 -73q0 -45 -29 -74t-74 -29t-74 29t-29 74q0 44 29 73t74 29t74 -29zM399 966h-280v126h280v-126z" />
    <glyph glyph-name="Agrave" unicode="&#xc0;" horiz-adv-x="517" 
d="M338 0l-20 138h-121l-20 -138h-197l162 696h234l161 -696h-199zM217 276h81l-41 281zM199 967l194 -129l-48 -90l-216 88z" />
    <glyph glyph-name="uni1EA2" unicode="&#x1ea2;" horiz-adv-x="517" 
d="M338 0l-20 138h-121l-20 -138h-197l162 696h234l161 -696h-199zM217 276h81l-41 281zM209 856q32 2 45 9.5t13 26.5q0 13 -7.5 20.5t-20.5 7.5q-15 0 -25 -2.5t-27 -9.5l-26 73q42 26 103 26q56 0 86.5 -29.5t30.5 -76.5q0 -40 -18.5 -65t-53.5 -32v-40h-100v92z" />
    <glyph glyph-name="uni0202" unicode="&#x202;" horiz-adv-x="517" 
d="M338 0l-20 138h-121l-20 -138h-197l162 696h234l161 -696h-199zM217 276h81l-41 281zM375.5 914.5q38.5 -51.5 44.5 -140.5l-96 -16q-13 82 -64 82t-66 -82l-95 16q6 89 44.5 140.5t116.5 51.5q77 0 115.5 -51.5z" />
    <glyph glyph-name="uni2C6D" unicode="&#x2c6d;" horiz-adv-x="573" 
d="M554 139q7 -14 25 -21l-52 -137q-50 7 -82.5 22.5t-53.5 40.5q-26 -31 -59.5 -47t-81.5 -16q-110 0 -171.5 91.5t-61.5 266.5q0 122 28.5 207t78.5 127.5t116 42.5q80 0 132 -59l9 39h166v-519q0 -24 7 -38zM229 200.5q7 -47.5 21.5 -65.5t40.5 -18q31 0 58 24v409
q-15 13 -28 19t-31 6q-26 0 -40.5 -20t-21 -71t-6.5 -145q0 -91 7 -138.5z" />
    <glyph glyph-name="Amacron" unicode="&#x100;" horiz-adv-x="517" 
d="M338 0l-20 138h-121l-20 -138h-197l162 696h234l161 -696h-199zM217 276h81l-41 281zM399 777h-280v126h280v-126z" />
    <glyph glyph-name="Aogonek" unicode="&#x104;" horiz-adv-x="517" 
d="M356.5 -46.5q-19.5 -23.5 -19.5 -49.5q0 -23 11.5 -34t29.5 -11q22 0 49 8l-10 -111q-30 -8 -62 -8q-64 0 -105 32.5t-41 89.5q0 55 33 94t91 67l-15 107h-121l-20 -138h-197l162 696h234l161 -696h-108q-53 -23 -72.5 -46.5zM217 276h81l-41 281z" />
    <glyph glyph-name="Aring" unicode="&#xc5;" horiz-adv-x="517" 
d="M338 0l-20 138h-121l-20 -138h-197l162 696h234l161 -696h-199zM217 276h81l-41 281zM360 968q36 -40 36 -103t-36.5 -103.5t-99.5 -40.5q-64 0 -100.5 40.5t-36.5 103.5t36.5 103t100.5 40t100 -40zM236.5 903.5q-7.5 -11.5 -7.5 -38.5t7.5 -38.5t23.5 -11.5t23.5 11.5
t7.5 38.5t-7.5 38.5t-23.5 11.5t-23.5 -11.5z" />
    <glyph glyph-name="Aringacute" unicode="&#x1fa;" horiz-adv-x="517" 
d="M338 0l-20 138h-121l-20 -138h-197l162 696h234l161 -696h-199zM217 276h81l-41 281zM357 962q36 -40 36 -103t-36.5 -103.5t-99.5 -40.5q-64 0 -100.5 40.5t-36.5 103.5t36.5 103t100.5 40t100 -40zM233.5 897.5q-7.5 -11.5 -7.5 -38.5t7.5 -38.5t23.5 -11.5t23.5 11.5
t7.5 38.5t-7.5 38.5t-23.5 11.5t-23.5 -11.5zM319 1229l70 -131l-216 -88l-48 90z" />
    <glyph glyph-name="uni023A" unicode="&#x23a;" horiz-adv-x="517" 
d="M368 0l-26 138h-86l-46 -214l-56 12l43 202h-24l-26 -138h-167l162 696h176l13 62l56 -12l-11 -51l161 -695h-169zM197 266h28l49 229l-17 92zM284 266h34l-16 84z" />
    <glyph glyph-name="Atilde" unicode="&#xc3;" horiz-adv-x="517" 
d="M338 0l-20 138h-121l-20 -138h-197l162 696h234l161 -696h-199zM217 276h81l-41 281zM276 762.5q-14 6.5 -31 17.5q-2 1 -12.5 7.5t-20.5 6.5q-14 0 -22.5 -8.5t-19.5 -29.5l-84 38q17 57 49.5 92.5t74.5 35.5q20 0 34 -6.5t31 -17.5q9 -6 17.5 -10.5t16.5 -4.5
q13 0 21.5 9t18.5 29l84 -38q-17 -57 -49 -92t-74 -35q-20 0 -34 6.5z" />
    <glyph glyph-name="AE" unicode="&#xc6;" horiz-adv-x="721" 
d="M523 139h193v-139h-361l-11 139h-126l-31 -139h-213l221 696h494l-20 -137h-187l14 -141h185v-134h-172zM249 277h85l-22 278z" />
    <glyph glyph-name="AEacute" unicode="&#x1fc;" horiz-adv-x="721" 
d="M523 139h193v-139h-361l-11 139h-126l-31 -139h-213l221 696h494l-20 -137h-187l14 -141h185v-134h-172zM249 277h85l-22 278zM469 968l70 -131l-216 -88l-48 90z" />
    <glyph glyph-name="uni01E2" unicode="&#x1e2;" horiz-adv-x="721" 
d="M523 139h193v-139h-361l-11 139h-126l-31 -139h-213l221 696h494l-20 -137h-187l14 -141h185v-134h-172zM249 277h85l-22 278zM548 777h-280v126h280v-126z" />
    <glyph glyph-name="B" unicode="B" horiz-adv-x="521" 
d="M517 205q0 -108 -74 -156.5t-201 -48.5h-214v696h192q129 0 201 -45t72 -135q0 -58 -31.5 -95.5t-80.5 -51.5q136 -34 136 -164zM226 560v-135h11q34 0 46 17.5t12 53.5q0 64 -57 64h-12zM316 219q0 40 -15.5 60t-52.5 20h-22v-159h18q72 0 72 79z" />
    <glyph glyph-name="uni1E02" unicode="&#x1e02;" horiz-adv-x="521" 
d="M517 205q0 -108 -74 -156.5t-201 -48.5h-214v696h192q129 0 201 -45t72 -135q0 -58 -31.5 -95.5t-80.5 -51.5q136 -34 136 -164zM226 560v-135h11q34 0 46 17.5t12 53.5q0 64 -57 64h-12zM316 219q0 40 -15.5 60t-52.5 20h-22v-159h18q72 0 72 79zM318 922q29 -29 29 -73
q0 -45 -29 -74t-74 -29t-74 29t-29 74q0 44 29 73t74 29t74 -29z" />
    <glyph glyph-name="uni1E04" unicode="&#x1e04;" horiz-adv-x="521" 
d="M517 205q0 -108 -74 -156.5t-201 -48.5h-214v696h192q129 0 201 -45t72 -135q0 -58 -31.5 -95.5t-80.5 -51.5q136 -34 136 -164zM226 560v-135h11q34 0 46 17.5t12 53.5q0 64 -57 64h-12zM316 219q0 40 -15.5 60t-52.5 20h-22v-159h18q72 0 72 79zM188 -230
q-29 29 -29 73q0 45 29 74t74 29t74 -29t29 -74q0 -44 -29 -73t-74 -29t-74 29z" />
    <glyph glyph-name="uniA7B4" unicode="&#xa7b4;" horiz-adv-x="521" 
d="M517 205q0 -72 -33.5 -118t-85.5 -66.5t-110 -20.5q-22 0 -62 4v-219h-198v911h197q128 0 198 -45t70 -136q0 -58 -31.5 -95t-80.5 -51q136 -34 136 -164zM298 160q18 20 18 65q0 40 -11 57t-37 17h-14l8 126h5q28 0 28 66q0 34 -12 51.5t-41 17.5h-16v-419q6 -1 18 -1
q36 0 54 20z" />
    <glyph glyph-name="uni0181" unicode="&#x181;" horiz-adv-x="685" 
d="M681 205q0 -108 -74 -156.5t-201 -48.5h-214v558h-18q-15 0 -22.5 -9.5t-7.5 -25.5q0 -33 16 -66l-118 -50q-20 32 -31 64t-11 72q0 71 49 112t136 41h199q129 0 201 -45t72 -135q0 -58 -31.5 -95.5t-80.5 -51.5q136 -34 136 -164zM390 560v-135h11q34 0 46 17.5t12 53.5
q0 64 -57 64h-12zM480 219q0 40 -15.5 60t-52.5 20h-22v-159h18q72 0 72 79z" />
    <glyph glyph-name="uni0181.ss02" horiz-adv-x="514" 
d="M447 398.5q62 -55.5 62 -164.5q0 -115 -64.5 -174.5t-183.5 -59.5h-233v696h408l-18 -147h-192v-95h40q119 0 181 -55.5zM291.5 163q12.5 23 12.5 69q0 44 -13.5 66.5t-49.5 22.5h-15v-181h20q33 0 45.5 23z" />
    <glyph glyph-name="uni0243" unicode="&#x243;" horiz-adv-x="532" 
d="M528 205q0 -108 -74 -156.5t-201 -48.5h-214v180h-29v82h29v434h192q129 0 201 -45t72 -135q0 -58 -31.5 -95.5t-80.5 -51.5q136 -34 136 -164zM237 560v-135h11q34 0 46 17.5t12 53.5q0 64 -57 64h-12zM327 219q0 40 -15.5 60t-52.5 20h-22v-37h49v-82h-49v-40h18
q72 0 72 79z" />
    <glyph glyph-name="uni0182" unicode="&#x182;" horiz-adv-x="514" 
d="M447 398.5q62 -55.5 62 -164.5q0 -115 -64.5 -174.5t-183.5 -59.5h-233v696h408l-18 -147h-192v-95h40q119 0 181 -55.5zM291.5 163q12.5 23 12.5 69q0 44 -13.5 66.5t-49.5 22.5h-15v-181h20q33 0 45.5 23z" />
    <glyph glyph-name="C" unicode="C" horiz-adv-x="495" 
d="M494 635l-89 -106q-24 21 -45.5 32.5t-45.5 11.5q-47 0 -69.5 -52t-22.5 -171q0 -118 22.5 -169.5t68.5 -51.5q27 0 48.5 11.5t54.5 38.5l84 -104q-39 -42 -91 -68.5t-116 -26.5q-127 0 -201.5 93.5t-74.5 276.5q0 119 35 201t98 123.5t147 41.5q114 0 197 -81z" />
    <glyph glyph-name="Cacute" unicode="&#x106;" horiz-adv-x="495" 
d="M494 635l-89 -106q-24 21 -45.5 32.5t-45.5 11.5q-47 0 -69.5 -52t-22.5 -171q0 -118 22.5 -169.5t68.5 -51.5q27 0 48.5 11.5t54.5 38.5l84 -104q-39 -42 -91 -68.5t-116 -26.5q-127 0 -201.5 93.5t-74.5 276.5q0 119 35 201t98 123.5t147 41.5q114 0 197 -81zM367 968
l70 -131l-216 -88l-48 90z" />
    <glyph glyph-name="Cacute.loclPLK" horiz-adv-x="495" 
d="M494 635l-89 -106q-24 21 -45.5 32.5t-45.5 11.5q-47 0 -69.5 -52t-22.5 -171q0 -118 22.5 -169.5t68.5 -51.5q27 0 48.5 11.5t54.5 38.5l84 -104q-39 -42 -91 -68.5t-116 -26.5q-127 0 -201.5 93.5t-74.5 276.5q0 119 35 201t98 123.5t147 41.5q114 0 197 -81zM301 984
l137 -75l-127 -163l-82 47z" />
    <glyph glyph-name="Ccaron" unicode="&#x10c;" horiz-adv-x="495" 
d="M494 635l-89 -106q-24 21 -45.5 32.5t-45.5 11.5q-47 0 -69.5 -52t-22.5 -171q0 -118 22.5 -169.5t68.5 -51.5q27 0 48.5 11.5t54.5 38.5l84 -104q-39 -42 -91 -68.5t-116 -26.5q-127 0 -201.5 93.5t-74.5 276.5q0 119 35 201t98 123.5t147 41.5q114 0 197 -81zM421 955
l62 -64l-122 -143h-111l-121 143l62 64l115 -85z" />
    <glyph glyph-name="Ccedilla" unicode="&#xc7;" horiz-adv-x="495" 
d="M332 -17v-32q94 -16 94 -101q0 -54 -37.5 -88t-107.5 -34q-62 0 -111 33l39 78q28 -13 57 -13q32 0 32 26q0 16 -18.5 23t-59.5 7l12 104q-101 21 -158 112.5t-57 251.5q0 119 35 201t98 123.5t147 41.5q114 0 197 -81l-89 -106q-24 21 -45.5 32.5t-45.5 11.5
q-47 0 -69.5 -52t-22.5 -171q0 -118 22.5 -169.5t68.5 -51.5q27 0 48.5 11.5t54.5 38.5l84 -104q-71 -79 -168 -92z" />
    <glyph glyph-name="Ccircumflex" unicode="&#x108;" horiz-adv-x="495" 
d="M494 635l-89 -106q-24 21 -45.5 32.5t-45.5 11.5q-47 0 -69.5 -52t-22.5 -171q0 -118 22.5 -169.5t68.5 -51.5q27 0 48.5 11.5t54.5 38.5l84 -104q-39 -42 -91 -68.5t-116 -26.5q-127 0 -201.5 93.5t-74.5 276.5q0 119 35 201t98 123.5t147 41.5q114 0 197 -81zM191 759
l-62 64l122 143h111l121 -143l-62 -64l-115 85z" />
    <glyph glyph-name="Cdotaccent" unicode="&#x10a;" horiz-adv-x="495" 
d="M494 635l-89 -106q-24 21 -45.5 32.5t-45.5 11.5q-47 0 -69.5 -52t-22.5 -171q0 -118 22.5 -169.5t68.5 -51.5q27 0 48.5 11.5t54.5 38.5l84 -104q-39 -42 -91 -68.5t-116 -26.5q-127 0 -201.5 93.5t-74.5 276.5q0 119 35 201t98 123.5t147 41.5q114 0 197 -81zM380 922
q29 -29 29 -73q0 -45 -29 -74t-74 -29t-74 29t-29 74q0 44 29 73t74 29t74 -29z" />
    <glyph glyph-name="uniA7B3" unicode="&#xa7b3;" horiz-adv-x="506" 
d="M367 287l151 -463h-207l-63 332l-56 -332h-204l143 457l-134 415h206l47 -293l56 293h202z" />
    <glyph glyph-name="uni0187" unicode="&#x187;" horiz-adv-x="495" 
d="M622 826l-47 -113q-27 13 -48 13q-18 0 -25.5 -10.5t-7.5 -34.5v-46l-85 -100q-50 38 -95 38q-47 0 -69.5 -52t-22.5 -171q0 -118 22.5 -169.5t68.5 -51.5q27 0 48.5 11.5t54.5 38.5l84 -104q-39 -42 -91 -68.5t-116 -26.5q-127 0 -201.5 93.5t-74.5 276.5
q0 117 34.5 199.5t93 124.5t127.5 42q33 0 64 -12v3q0 74 42.5 115t114.5 41q70 0 129 -37z" />
    <glyph glyph-name="uni023B" unicode="&#x23b;" horiz-adv-x="495" 
d="M500 75q-39 -42 -91 -68.5t-116 -26.5q-30 0 -53 4l-13 -60l-59 12l14 66q-78 35 -121.5 122t-43.5 226q0 119 35 201t98 123.5t147 41.5q14 0 38 -2l10 44l59 -12l-10 -47q52 -18 100 -64l-89 -106q-22 21 -41 30l-90 -418q16 -12 39 -12q27 0 48.5 11.5t54.5 38.5z
M231 228l74 345q-43 -5 -63 -57t-20 -166q0 -74 9 -122z" />
    <glyph glyph-name="D" unicode="D" horiz-adv-x="558" 
d="M390.5 669.5q67.5 -26.5 109 -102.5t41.5 -216q0 -195 -80 -273t-222 -78h-211v696h203q92 0 159.5 -26.5zM226 557v-417h24q34 0 53 19t27.5 64.5t8.5 127.5t-8.5 126t-27 62t-50.5 18h-27z" />
    <glyph glyph-name="uni01F1" unicode="&#x1f1;" horiz-adv-x="997" 
d="M390.5 669.5q67.5 -26.5 109 -102.5t41.5 -216q0 -195 -80 -273t-222 -78h-211v696h203q92 0 159.5 -26.5zM226 557v-417h24q34 0 53 19t27.5 64.5t8.5 127.5t-8.5 126t-27 62t-50.5 18h-27zM985 696v-147l-231 -394h240l-18 -155h-440v145l230 401h-209v150h428z" />
    <glyph glyph-name="uni01C4" unicode="&#x1c4;" horiz-adv-x="997" 
d="M390.5 669.5q67.5 -26.5 109 -102.5t41.5 -216q0 -195 -80 -273t-222 -78h-211v696h203q92 0 159.5 -26.5zM226 557v-417h24q34 0 53 19t27.5 64.5t8.5 127.5t-8.5 126t-27 62t-50.5 18h-27zM985 696v-147l-231 -394h240l-18 -155h-440v145l230 401h-209v150h428z
M879 955l62 -64l-122 -143h-111l-121 143l62 64l115 -85z" />
    <glyph glyph-name="uni0189" unicode="&#x189;" horiz-adv-x="577" 
d="M409.5 669.5q67.5 -26.5 109 -102.5t41.5 -216q0 -195 -80 -273t-222 -78h-211v297h-37v112h37v287h203q92 0 159.5 -26.5zM322 159q19 19 27.5 64.5t8.5 127.5t-8.5 126t-27 62t-50.5 18h-27v-148h66v-112h-66v-157h24q34 0 53 19z" />
    <glyph glyph-name="Eth" unicode="&#xd0;" horiz-adv-x="577" 
d="M409.5 669.5q67.5 -26.5 109 -102.5t41.5 -216q0 -195 -80 -273t-222 -78h-211v297h-37v112h37v287h203q92 0 159.5 -26.5zM322 159q19 19 27.5 64.5t8.5 127.5t-8.5 126t-27 62t-50.5 18h-27v-148h66v-112h-66v-157h24q34 0 53 19z" />
    <glyph glyph-name="Dcaron" unicode="&#x10e;" horiz-adv-x="558" 
d="M390.5 669.5q67.5 -26.5 109 -102.5t41.5 -216q0 -195 -80 -273t-222 -78h-211v696h203q92 0 159.5 -26.5zM226 557v-417h24q34 0 53 19t27.5 64.5t8.5 127.5t-8.5 126t-27 62t-50.5 18h-27zM358 955l62 -64l-122 -143h-111l-121 143l62 64l115 -85z" />
    <glyph glyph-name="uni1E12" unicode="&#x1e12;" horiz-adv-x="558" 
d="M390.5 669.5q67.5 -26.5 109 -102.5t41.5 -216q0 -195 -80 -273t-222 -78h-211v696h203q92 0 159.5 -26.5zM226 557v-417h24q34 0 53 19t27.5 64.5t8.5 127.5t-8.5 126t-27 62t-50.5 18h-27zM145 -278l-62 64l122 153h111l121 -153l-62 -64l-115 95z" />
    <glyph glyph-name="Dcroat" unicode="&#x110;" horiz-adv-x="577" 
d="M409.5 669.5q67.5 -26.5 109 -102.5t41.5 -216q0 -195 -80 -273t-222 -78h-211v297h-37v112h37v287h203q92 0 159.5 -26.5zM322 159q19 19 27.5 64.5t8.5 127.5t-8.5 126t-27 62t-50.5 18h-27v-148h66v-112h-66v-157h24q34 0 53 19z" />
    <glyph glyph-name="uni1E0A" unicode="&#x1e0a;" horiz-adv-x="558" 
d="M390.5 669.5q67.5 -26.5 109 -102.5t41.5 -216q0 -195 -80 -273t-222 -78h-211v696h203q92 0 159.5 -26.5zM226 557v-417h24q34 0 53 19t27.5 64.5t8.5 127.5t-8.5 126t-27 62t-50.5 18h-27zM317 922q29 -29 29 -73q0 -45 -29 -74t-74 -29t-74 29t-29 74q0 44 29 73
t74 29t74 -29z" />
    <glyph glyph-name="uni1E0C" unicode="&#x1e0c;" horiz-adv-x="558" 
d="M390.5 669.5q67.5 -26.5 109 -102.5t41.5 -216q0 -195 -80 -273t-222 -78h-211v696h203q92 0 159.5 -26.5zM226 557v-417h24q34 0 53 19t27.5 64.5t8.5 127.5t-8.5 126t-27 62t-50.5 18h-27zM190 -230q-29 29 -29 73q0 45 29 74t74 29t74 -29t29 -74q0 -44 -29 -73
t-74 -29t-74 29z" />
    <glyph glyph-name="uni018A" unicode="&#x18a;" horiz-adv-x="722" 
d="M554.5 669.5q67.5 -26.5 109 -102.5t41.5 -216q0 -195 -80 -273t-222 -78h-211v558h-18q-15 0 -22.5 -9.5t-7.5 -25.5q0 -33 16 -66l-118 -50q-20 32 -31 64t-11 72q0 71 49 112t136 41h210q92 0 159.5 -26.5zM467 159q19 19 27.5 64.5t8.5 127.5t-8.5 126t-27 62
t-50.5 18h-27v-417h24q34 0 53 19z" />
    <glyph glyph-name="uni1E0E" unicode="&#x1e0e;" horiz-adv-x="558" 
d="M390.5 669.5q67.5 -26.5 109 -102.5t41.5 -216q0 -195 -80 -273t-222 -78h-211v696h203q92 0 159.5 -26.5zM226 557v-417h24q34 0 53 19t27.5 64.5t8.5 127.5t-8.5 126t-27 62t-50.5 18h-27zM405 -198h-280v126h280v-126z" />
    <glyph glyph-name="uni018B" unicode="&#x18b;" horiz-adv-x="514" 
d="M486 0h-224q-257 0 -257 229q0 108 63 166.5t184 58.5h36v95h-203v147h401v-696zM288 140v181h-11q-40 0 -53.5 -22t-13.5 -70q0 -47 13 -68t47 -21h18z" />
    <glyph glyph-name="uni01F2" unicode="&#x1f2;" horiz-adv-x="948" 
d="M390.5 669.5q67.5 -26.5 109 -102.5t41.5 -216q0 -195 -80 -273t-222 -78h-211v696h203q92 0 159.5 -26.5zM226 557v-417h24q34 0 53 19t27.5 64.5t8.5 127.5t-8.5 126t-27 62t-50.5 18h-27zM939 534v-131l-180 -262h186l-15 -141h-379v133l180 262h-164v139h372z" />
    <glyph glyph-name="uni01C5" unicode="&#x1c5;" horiz-adv-x="948" 
d="M390.5 669.5q67.5 -26.5 109 -102.5t41.5 -216q0 -195 -80 -273t-222 -78h-211v696h203q92 0 159.5 -26.5zM226 557v-417h24q34 0 53 19t27.5 64.5t8.5 127.5t-8.5 126t-27 62t-50.5 18h-27zM939 534v-131l-180 -262h186l-15 -141h-379v133l180 262h-164v139h372z
M870 823l62 -66l-121 -153h-112l-121 153l62 66l115 -96z" />
    <glyph glyph-name="E" unicode="E" horiz-adv-x="430" 
d="M425 696l-20 -137h-179v-139h158v-134h-158v-147h191v-139h-389v696h397z" />
    <glyph glyph-name="Eacute" unicode="&#xc9;" horiz-adv-x="430" 
d="M425 696l-20 -137h-179v-139h158v-134h-158v-147h191v-139h-389v696h397zM287 968l70 -131l-216 -88l-48 90z" />
    <glyph glyph-name="Ebreve" unicode="&#x114;" horiz-adv-x="430" 
d="M425 696l-20 -137h-179v-139h158v-134h-158v-147h191v-139h-389v696h397zM111 796.5q-39 49.5 -45 131.5l95 17q15 -69 66 -69t64 69l96 -17q-6 -81 -45 -131t-115 -50q-77 0 -116 49.5z" />
    <glyph glyph-name="Ecaron" unicode="&#x11a;" horiz-adv-x="430" 
d="M425 696l-20 -137h-179v-139h158v-134h-158v-147h191v-139h-389v696h397zM341 955l62 -64l-122 -143h-111l-121 143l62 64l115 -85z" />
    <glyph glyph-name="uni0228" unicode="&#x228;" horiz-adv-x="430" 
d="M226 139h191v-139h-150v-49q94 -16 94 -101q0 -54 -37.5 -88t-107.5 -34q-61 0 -111 33l39 78q28 -13 57 -13q32 0 32 26q0 16 -18.5 23t-59.5 7l13 118h-140v696h397l-20 -137h-179v-139h158v-134h-158v-147z" />
    <glyph glyph-name="Ecircumflex" unicode="&#xca;" horiz-adv-x="430" 
d="M425 696l-20 -137h-179v-139h158v-134h-158v-147h191v-139h-389v696h397zM111 759l-62 64l122 143h111l121 -143l-62 -64l-115 85z" />
    <glyph glyph-name="uni1EBE" unicode="&#x1ebe;" horiz-adv-x="430" 
d="M425 696l-20 -137h-179v-139h158v-134h-158v-147h191v-139h-389v696h397zM112 730l-62 64l122 143h111l121 -143l-62 -64l-115 85zM442 1129l107 -93l-159 -153l-72 58z" />
    <glyph glyph-name="uni1EC6" unicode="&#x1ec6;" horiz-adv-x="430" 
d="M425 696l-20 -137h-179v-139h158v-134h-158v-147h191v-139h-389v696h397zM111 759l-62 64l122 143h111l121 -143l-62 -64l-115 85zM148 -230q-29 29 -29 73q0 45 29 74t74 29t74 -29t29 -74q0 -44 -29 -73t-74 -29t-74 29z" />
    <glyph glyph-name="uni1EC0" unicode="&#x1ec0;" horiz-adv-x="430" 
d="M425 696l-20 -137h-179v-139h158v-134h-158v-147h191v-139h-389v696h397zM110 730l-62 64l122 143h111l121 -143l-62 -64l-115 85zM12 1129l124 -188l-72 -58l-159 153z" />
    <glyph glyph-name="uni1EC2" unicode="&#x1ec2;" horiz-adv-x="430" 
d="M425 696l-20 -137h-179v-139h158v-134h-158v-147h191v-139h-389v696h397zM111 730l-62 64l122 143h111l121 -143l-62 -64l-115 85zM339 967q32 2 45 9.5t13 26.5q0 13 -7.5 20.5t-20.5 7.5q-15 0 -25 -2.5t-27 -9.5l-26 73q42 26 103 26q56 0 86.5 -29.5t30.5 -76.5
q0 -40 -18.5 -65t-53.5 -32v-40h-100v92z" />
    <glyph glyph-name="uni1EC4" unicode="&#x1ec4;" horiz-adv-x="430" 
d="M425 696l-20 -137h-179v-139h158v-134h-158v-147h191v-139h-389v696h397zM110 730l-62 64l122 143h111l121 -143l-62 -64l-115 85zM241.5 974.5q-14.5 5.5 -30.5 15.5q-9 5 -17.5 9t-15.5 4q-14 0 -22.5 -7.5t-19.5 -26.5l-84 34q17 51 49.5 83t74.5 32q20 0 33 -5
t32 -16q21 -14 34 -14t21.5 8t18.5 26l84 -34q-17 -51 -48.5 -82.5t-74.5 -31.5q-20 0 -34.5 5.5z" />
    <glyph glyph-name="uni0204" unicode="&#x204;" horiz-adv-x="430" 
d="M425 696l-20 -137h-179v-139h158v-134h-158v-147h191v-139h-389v696h397zM109 998l88 -209l-84 -42l-114 193zM275 998l82 -211l-87 -36l-108 194z" />
    <glyph glyph-name="Edieresis" unicode="&#xcb;" horiz-adv-x="430" 
d="M425 696l-20 -137h-179v-139h158v-134h-158v-147h191v-139h-389v696h397zM186.5 914q24.5 -26 24.5 -63q0 -39 -24 -64.5t-63 -25.5q-37 0 -62.5 26t-25.5 64q0 37 25.5 63t62.5 26q38 0 62.5 -26zM396.5 914q24.5 -26 24.5 -63q0 -39 -24 -64.5t-63 -25.5
q-37 0 -62.5 26t-25.5 64q0 37 25.5 63t62.5 26q38 0 62.5 -26z" />
    <glyph glyph-name="Edotaccent" unicode="&#x116;" horiz-adv-x="430" 
d="M425 696l-20 -137h-179v-139h158v-134h-158v-147h191v-139h-389v696h397zM300 922q29 -29 29 -73q0 -45 -29 -74t-74 -29t-74 29t-29 74q0 44 29 73t74 29t74 -29z" />
    <glyph glyph-name="uni1EB8" unicode="&#x1eb8;" horiz-adv-x="430" 
d="M425 696l-20 -137h-179v-139h158v-134h-158v-147h191v-139h-389v696h397zM148 -230q-29 29 -29 73q0 45 29 74t74 29t74 -29t29 -74q0 -44 -29 -73t-74 -29t-74 29z" />
    <glyph glyph-name="Egrave" unicode="&#xc8;" horiz-adv-x="430" 
d="M425 696l-20 -137h-179v-139h158v-134h-158v-147h191v-139h-389v696h397zM166 967l194 -129l-48 -90l-216 88z" />
    <glyph glyph-name="uni1EBA" unicode="&#x1eba;" horiz-adv-x="430" 
d="M425 696l-20 -137h-179v-139h158v-134h-158v-147h191v-139h-389v696h397zM176 856q32 2 45 9.5t13 26.5q0 13 -7.5 20.5t-20.5 7.5q-15 0 -25 -2.5t-27 -9.5l-26 73q42 26 103 26q56 0 86.5 -29.5t30.5 -76.5q0 -40 -18.5 -65t-53.5 -32v-40h-100v92z" />
    <glyph glyph-name="uni0206" unicode="&#x206;" horiz-adv-x="430" 
d="M425 696l-20 -137h-179v-139h158v-134h-158v-147h191v-139h-389v696h397zM342.5 914.5q38.5 -51.5 44.5 -140.5l-96 -16q-13 82 -64 82t-66 -82l-95 16q6 89 44.5 140.5t116.5 51.5q77 0 115.5 -51.5z" />
    <glyph glyph-name="Emacron" unicode="&#x112;" horiz-adv-x="430" 
d="M425 696l-20 -137h-179v-139h158v-134h-158v-147h191v-139h-389v696h397zM366 777h-280v126h280v-126z" />
    <glyph glyph-name="Eogonek" unicode="&#x118;" horiz-adv-x="430" 
d="M226 139h191v-139h-32q-53 -23 -72.5 -46.5t-19.5 -49.5q0 -23 11.5 -34t29.5 -11q22 0 49 8l-10 -111q-30 -8 -62 -8q-64 0 -105 32.5t-41 89.5q0 78 72 130h-209v696h397l-20 -137h-179v-139h158v-134h-158v-147z" />
    <glyph glyph-name="uni0190" unicode="&#x190;" horiz-adv-x="462" 
d="M362 692.5q50 -23.5 92 -71.5l-86 -93q-52 49 -92 49q-55 0 -55 -70q0 -36 16 -54.5t54 -18.5h60l-22 -137h-44q-76 0 -76 -89q0 -44 18 -65t49 -21q25 0 47.5 12t52.5 40l99 -94q-40 -49 -94 -74t-131 -25q-73 0 -128.5 25.5t-86.5 73.5t-31 113q0 155 160 174
q-144 32 -144 163q0 54 30 96t82 66t116 24t114 -23.5z" />
    <glyph glyph-name="uni018E" unicode="&#x18e;" horiz-adv-x="430" 
d="M17 696h385v-696h-389v139h191v147h-158v134h158v139h-187v137z" />
    <glyph glyph-name="uni01A9" unicode="&#x1a9;" horiz-adv-x="412" 
d="M412 696v-139h-217l129 -181v-68l-135 -165h223v-143h-412v139l155 201l-155 217v139h412z" />
    <glyph glyph-name="uni0246" unicode="&#x246;" horiz-adv-x="430" 
d="M316 286l-28 -147h129v-139h-156l-14 -76l-59 12l12 64h-172v696h305l12 62l59 -10l-10 -52h31l-20 -137h-37l-26 -139h42v-134h-68zM226 559v-139h54l27 139h-81zM226 139h1l28 147h-29v-147z" />
    <glyph glyph-name="uni1EBC" unicode="&#x1ebc;" horiz-adv-x="430" 
d="M425 696l-20 -137h-179v-139h158v-134h-158v-147h191v-139h-389v696h397zM243 762.5q-14 6.5 -31 17.5q-2 1 -12.5 7.5t-20.5 6.5q-14 0 -22.5 -8.5t-19.5 -29.5l-84 38q17 57 49.5 92.5t74.5 35.5q20 0 34 -6.5t31 -17.5q9 -6 17.5 -10.5t16.5 -4.5q13 0 21.5 9t18.5 29
l84 -38q-17 -57 -49 -92t-74 -35q-20 0 -34 6.5z" />
    <glyph glyph-name="uni01B7" unicode="&#x1b7;" horiz-adv-x="474" 
d="M426 347q45 -50 45 -138q0 -64 -29.5 -116t-86.5 -82t-136 -30q-143 0 -222 108l100 88q29 -29 51.5 -41.5t51.5 -12.5q33 0 50.5 24.5t17.5 70.5q0 43 -20 61.5t-63 18.5h-81v104l131 155h-197v139h394v-134l-138 -158q87 -7 132 -57z" />
    <glyph glyph-name="uni01EE" unicode="&#x1ee;" horiz-adv-x="474" 
d="M426 347q45 -50 45 -138q0 -64 -29.5 -116t-86.5 -82t-136 -30q-143 0 -222 108l100 88q29 -29 51.5 -41.5t51.5 -12.5q33 0 50.5 24.5t17.5 70.5q0 43 -20 61.5t-63 18.5h-81v104l131 155h-197v139h394v-134l-138 -158q87 -7 132 -57zM350 955l62 -64l-122 -143h-111
l-121 143l62 64l115 -85z" />
    <glyph glyph-name="uni01B8" unicode="&#x1b8;" horiz-adv-x="474" 
d="M477 89q-37 -51 -93 -79.5t-129 -28.5q-79 0 -136 29.5t-86.5 81t-29.5 115.5q0 87 44.5 137t132.5 60l-138 158v134h394v-139h-197l131 -155v-104h-81q-43 0 -63 -20.5t-20 -65.5q0 -44 17.5 -66.5t50.5 -22.5q29 0 51.5 12.5t51.5 41.5z" />
    <glyph glyph-name="F" unicode="F" horiz-adv-x="405" 
d="M28 0v696h382l-20 -137h-164v-160h145v-138h-145v-261h-198z" />
    <glyph glyph-name="uni1E1E" unicode="&#x1e1e;" horiz-adv-x="405" 
d="M28 0v696h382l-20 -137h-164v-160h145v-138h-145v-261h-198zM301 922q29 -29 29 -73q0 -45 -29 -74t-74 -29t-74 29t-29 74q0 44 29 73t74 29t74 -29z" />
    <glyph glyph-name="uni0191" unicode="&#x191;" horiz-adv-x="405" 
d="M226 559v-160h145v-138h-145v-290q0 -98 -56 -147.5t-151 -49.5q-86 0 -143 45l61 110q16 -8 26.5 -11.5t25.5 -3.5q39 0 39 44v738h382l-20 -137h-164z" />
    <glyph glyph-name="G" unicode="G" horiz-adv-x="556" 
d="M438 691.5q54 -24.5 93 -65.5l-90 -95q-30 24 -55 35t-55 11q-40 0 -64 -20.5t-35.5 -70t-11.5 -138.5q0 -94 7.5 -142.5t23 -66.5t43.5 -18q26 0 51 16v136h-49l-18 134h251v-348q-48 -37 -110 -57.5t-120 -20.5q-149 0 -215.5 88.5t-66.5 279.5q0 124 38.5 206
t106.5 121.5t157 39.5q65 0 119 -24.5z" />
    <glyph glyph-name="uni01F4" unicode="&#x1f4;" horiz-adv-x="556" 
d="M438 691.5q54 -24.5 93 -65.5l-90 -95q-30 24 -55 35t-55 11q-40 0 -64 -20.5t-35.5 -70t-11.5 -138.5q0 -94 7.5 -142.5t23 -66.5t43.5 -18q26 0 51 16v136h-49l-18 134h251v-348q-48 -37 -110 -57.5t-120 -20.5q-149 0 -215.5 88.5t-66.5 279.5q0 124 38.5 206
t106.5 121.5t157 39.5q65 0 119 -24.5zM356 968l70 -131l-216 -88l-48 90z" />
    <glyph glyph-name="uni0194" unicode="&#x194;" horiz-adv-x="498" 
d="M347 103q30 -54 44 -100t14 -94q0 -65 -35.5 -100t-116.5 -35q-153 0 -153 135q0 43 13.5 86.5t46.5 107.5l-180 593h198l74 -471l73 471h193zM269.5 -45.5q-4.5 16.5 -16.5 51.5q-21 -55 -21 -87q0 -28 21 -28t21 29q0 18 -4.5 34.5z" />
    <glyph glyph-name="Gbreve" unicode="&#x11e;" horiz-adv-x="556" 
d="M438 691.5q54 -24.5 93 -65.5l-90 -95q-30 24 -55 35t-55 11q-40 0 -64 -20.5t-35.5 -70t-11.5 -138.5q0 -94 7.5 -142.5t23 -66.5t43.5 -18q26 0 51 16v136h-49l-18 134h251v-348q-48 -37 -110 -57.5t-120 -20.5q-149 0 -215.5 88.5t-66.5 279.5q0 124 38.5 206
t106.5 121.5t157 39.5q65 0 119 -24.5zM180 796.5q-39 49.5 -45 131.5l95 17q15 -69 66 -69t64 69l96 -17q-6 -81 -45 -131t-115 -50q-77 0 -116 49.5z" />
    <glyph glyph-name="Gcaron" unicode="&#x1e6;" horiz-adv-x="556" 
d="M438 691.5q54 -24.5 93 -65.5l-90 -95q-30 24 -55 35t-55 11q-40 0 -64 -20.5t-35.5 -70t-11.5 -138.5q0 -94 7.5 -142.5t23 -66.5t43.5 -18q26 0 51 16v136h-49l-18 134h251v-348q-48 -37 -110 -57.5t-120 -20.5q-149 0 -215.5 88.5t-66.5 279.5q0 124 38.5 206
t106.5 121.5t157 39.5q65 0 119 -24.5zM410 955l62 -64l-122 -143h-111l-121 143l62 64l115 -85z" />
    <glyph glyph-name="Gcircumflex" unicode="&#x11c;" horiz-adv-x="556" 
d="M438 691.5q54 -24.5 93 -65.5l-90 -95q-30 24 -55 35t-55 11q-40 0 -64 -20.5t-35.5 -70t-11.5 -138.5q0 -94 7.5 -142.5t23 -66.5t43.5 -18q26 0 51 16v136h-49l-18 134h251v-348q-48 -37 -110 -57.5t-120 -20.5q-149 0 -215.5 88.5t-66.5 279.5q0 124 38.5 206
t106.5 121.5t157 39.5q65 0 119 -24.5zM180 759l-62 64l122 143h111l121 -143l-62 -64l-115 85z" />
    <glyph glyph-name="Gcommaaccent" unicode="&#x122;" horiz-adv-x="556" 
d="M438 691.5q54 -24.5 93 -65.5l-90 -95q-30 24 -55 35t-55 11q-40 0 -64 -20.5t-35.5 -70t-11.5 -138.5q0 -94 7.5 -142.5t23 -66.5t43.5 -18q26 0 51 16v136h-49l-18 134h251v-348q-48 -37 -110 -57.5t-120 -20.5q-149 0 -215.5 88.5t-66.5 279.5q0 124 38.5 206
t106.5 121.5t157 39.5q65 0 119 -24.5zM359.5 -88q23.5 -25 23.5 -63q0 -20 -5 -37.5t-18 -49.5l-42 -101h-89l25 115q-41 25 -41 73q0 36 23.5 62t61.5 26t61.5 -25z" />
    <glyph glyph-name="Gdotaccent" unicode="&#x120;" horiz-adv-x="556" 
d="M438 691.5q54 -24.5 93 -65.5l-90 -95q-30 24 -55 35t-55 11q-40 0 -64 -20.5t-35.5 -70t-11.5 -138.5q0 -94 7.5 -142.5t23 -66.5t43.5 -18q26 0 51 16v136h-49l-18 134h251v-348q-48 -37 -110 -57.5t-120 -20.5q-149 0 -215.5 88.5t-66.5 279.5q0 124 38.5 206
t106.5 121.5t157 39.5q65 0 119 -24.5zM369 922q29 -29 29 -73q0 -45 -29 -74t-74 -29t-74 29t-29 74q0 44 29 73t74 29t74 -29z" />
    <glyph glyph-name="uni0193" unicode="&#x193;" horiz-adv-x="532" 
d="M659 826l-47 -113q-27 13 -48 13q-18 0 -25.5 -10.5t-7.5 -34.5v-55l-84 -89q-31 21 -58 30.5t-58 9.5q-40 0 -64 -20.5t-35.5 -70t-11.5 -138.5q0 -94 7.5 -142.5t23 -66.5t43.5 -18q26 0 51 16v136h-49l-18 134h251v-348q-48 -37 -110 -57.5t-120 -20.5
q-149 0 -215.5 88.5t-66.5 279.5q0 123 37.5 205.5t101.5 122t143 39.5q40 0 74 -13v4q0 74 42.5 115t114.5 41q70 0 129 -37z" />
    <glyph glyph-name="uni0241" unicode="&#x241;" horiz-adv-x="448" 
d="M116 336l30 12q50 20 69.5 50t19.5 86q0 43 -15.5 68t-42.5 25q-22 0 -42 -11t-49 -36l-91 90q84 96 212 96q107 0 169 -61.5t62 -166.5q0 -80 -23 -121t-78 -68l-24 -12v-287h-198z" />
    <glyph glyph-name="uni01E4" unicode="&#x1e4;" horiz-adv-x="577" 
d="M587 177h-58v-118q-49 -37 -110 -57.5t-121 -20.5q-149 0 -215 88.5t-66 279.5q0 181 82 273.5t220 92.5q66 0 119.5 -24t92.5 -66l-93 -97q-31 25 -54.5 36.5t-52.5 11.5q-40 0 -64 -21.5t-35.5 -71t-11.5 -135.5q0 -94 7.5 -142.5t24 -66.5t47.5 -18q33 0 66 19v37h-72
v94h72v48h-72l-15 111h251v-159h58v-94z" />
    <glyph glyph-name="uni021C" unicode="&#x21c;" horiz-adv-x="441" 
d="M316 692q50 -24 78 -67t28 -99q0 -65 -36 -108.5t-119 -60.5q89 -10 129.5 -48.5t40.5 -114.5q0 -106 -90.5 -188t-287.5 -125l-15 141q76 28 116.5 54.5t56.5 56t16 71.5q0 43 -20 63t-66 20h-56l21 137h39q38 0 54 19t16 59q0 75 -51 75q-40 0 -98 -49l-85 93
q84 95 214 95q65 0 115 -24z" />
    <glyph glyph-name="H" unicode="H" horiz-adv-x="548" 
d="M322 0v284h-96v-284h-198v696h198v-260h96v260h198v-696h-198z" />
    <glyph glyph-name="Hbar" unicode="&#x126;" horiz-adv-x="562" 
d="M562 599v-103h-35v-496h-198v284h-96v-284h-198v496h-35v103h35v97h198v-97h96v97h198v-97h35zM329 436v60h-96v-60h96z" />
    <glyph glyph-name="uni021E" unicode="&#x21e;" horiz-adv-x="548" 
d="M322 0v284h-96v-284h-198v696h198v-260h96v260h198v-696h-198zM390 955l62 -64l-122 -143h-111l-121 143l62 64l115 -85z" />
    <glyph glyph-name="Hcircumflex" unicode="&#x124;" horiz-adv-x="548" 
d="M322 0v284h-96v-284h-198v696h198v-260h96v260h198v-696h-198zM160 759l-62 64l122 143h111l121 -143l-62 -64l-115 85z" />
    <glyph glyph-name="uni1E24" unicode="&#x1e24;" horiz-adv-x="548" 
d="M322 0v284h-96v-284h-198v696h198v-260h96v260h198v-696h-198zM201 -230q-29 29 -29 73q0 45 29 74t74 29t74 -29t29 -74q0 -44 -29 -73t-74 -29t-74 29z" />
    <glyph glyph-name="uniA7AA" unicode="&#xa7aa;" horiz-adv-x="712" 
d="M684 696v-696h-198v284h-96v-284h-198v558h-18q-15 0 -22.5 -9.5t-7.5 -25.5q0 -33 16 -66l-118 -50q-20 32 -31 64t-11 72q0 71 49 112t136 41h205v-260h96v260h198z" />
    <glyph glyph-name="uniA78D" unicode="&#xa78d;" horiz-adv-x="526" 
d="M498 696v-696h-198v243q-23 -24 -51 -35t-66 -11q-81 0 -129.5 56t-48.5 156v287h194v-267q0 -52 12 -71.5t38 -19.5q17 0 29 6.5t22 19.5v332h198z" />
    <glyph glyph-name="uniA78D.ss02" horiz-adv-x="501" 
d="M275 0v234l-269 -1v463h198v-310h71v310h198v-696h-198z" />
    <glyph glyph-name="uni01F6" unicode="&#x1f6;" horiz-adv-x="779" 
d="M757.5 385.5q6.5 -63.5 6.5 -134.5q0 -146 -67.5 -208t-171.5 -62q-91 0 -147 47.5t-56 140.5v115h-96v-284h-198v696h198v-260h96v260h198v-537q0 -25 5 -33.5t16 -8.5q18 0 25.5 29.5t7.5 112.5q0 95 -20 275h185q12 -85 18.5 -148.5z" />
    <glyph glyph-name="I" unicode="I" horiz-adv-x="254" 
d="M226 696v-696h-198v696h198z" />
    <glyph glyph-name="IJ" unicode="&#x132;" horiz-adv-x="531" 
d="M226 696v-696h-198v696h198zM504 110q0 -88 -32 -146.5t-79.5 -91t-110.5 -57.5l-53 139q35 17 51.5 37.5t21 48t4.5 77.5v579h198v-586z" />
    <glyph glyph-name="Iacute" unicode="&#xcd;" horiz-adv-x="254" 
d="M226 696v-696h-198v696h198zM188 968l70 -131l-216 -88l-48 90z" />
    <glyph glyph-name="Ibreve" unicode="&#x12c;" horiz-adv-x="254" 
d="M226 696v-696h-198v696h198zM12 796.5q-39 49.5 -45 131.5l95 17q15 -69 66 -69t64 69l96 -17q-6 -81 -45 -131t-115 -50q-77 0 -116 49.5z" />
    <glyph glyph-name="uni01CF" unicode="&#x1cf;" horiz-adv-x="254" 
d="M226 696v-696h-198v696h198zM242 955l62 -64l-122 -143h-111l-121 143l62 64l115 -85z" />
    <glyph glyph-name="Icircumflex" unicode="&#xce;" horiz-adv-x="254" 
d="M226 696v-696h-198v696h198zM12 759l-62 64l122 143h111l121 -143l-62 -64l-115 85z" />
    <glyph glyph-name="uni0208" unicode="&#x208;" horiz-adv-x="254" 
d="M226 696v-696h-198v696h198zM10 998l88 -209l-84 -42l-114 193zM176 998l82 -211l-87 -36l-108 194z" />
    <glyph glyph-name="Idieresis" unicode="&#xcf;" horiz-adv-x="254" 
d="M226 696v-696h-198v696h198zM87.5 914q24.5 -26 24.5 -63q0 -39 -24 -64.5t-63 -25.5q-37 0 -62.5 26t-25.5 64q0 37 25.5 63t62.5 26q38 0 62.5 -26zM297.5 914q24.5 -26 24.5 -63q0 -39 -24 -64.5t-63 -25.5q-37 0 -62.5 26t-25.5 64q0 37 25.5 63t62.5 26
q38 0 62.5 -26z" />
    <glyph glyph-name="uni1E2E" unicode="&#x1e2e;" horiz-adv-x="254" 
d="M226 696v-696h-198v696h198zM185 1136l107 -93l-159 -153l-72 58zM73.5 902q24.5 -26 24.5 -63q0 -39 -24 -64.5t-63 -25.5q-37 0 -62.5 26t-25.5 64q0 37 25.5 63t62.5 26q38 0 62.5 -26zM305.5 902q24.5 -26 24.5 -63q0 -39 -24 -64.5t-63 -25.5q-37 0 -62.5 26
t-25.5 64q0 37 25.5 63t62.5 26q38 0 62.5 -26z" />
    <glyph glyph-name="Idotaccent" unicode="&#x130;" horiz-adv-x="254" 
d="M226 696v-696h-198v696h198zM201 922q29 -29 29 -73q0 -45 -29 -74t-74 -29t-74 29t-29 74q0 44 29 73t74 29t74 -29z" />
    <glyph glyph-name="uni1ECA" unicode="&#x1eca;" horiz-adv-x="254" 
d="M226 696v-696h-198v696h198zM53 -230q-29 29 -29 73q0 45 29 74t74 29t74 -29t29 -74q0 -44 -29 -73t-74 -29t-74 29z" />
    <glyph glyph-name="Igrave" unicode="&#xcc;" horiz-adv-x="254" 
d="M226 696v-696h-198v696h198zM67 967l194 -129l-48 -90l-216 88z" />
    <glyph glyph-name="uni1EC8" unicode="&#x1ec8;" horiz-adv-x="254" 
d="M226 696v-696h-198v696h198zM77 856q32 2 45 9.5t13 26.5q0 13 -7.5 20.5t-20.5 7.5q-15 0 -25 -2.5t-27 -9.5l-26 73q42 26 103 26q56 0 86.5 -29.5t30.5 -76.5q0 -40 -18.5 -65t-53.5 -32v-40h-100v92z" />
    <glyph glyph-name="uni020A" unicode="&#x20a;" horiz-adv-x="254" 
d="M226 696v-696h-198v696h198zM243.5 914.5q38.5 -51.5 44.5 -140.5l-96 -16q-13 82 -64 82t-66 -82l-95 16q6 89 44.5 140.5t116.5 51.5q77 0 115.5 -51.5z" />
    <glyph glyph-name="Imacron" unicode="&#x12a;" horiz-adv-x="254" 
d="M226 696v-696h-198v696h198zM267 777h-280v126h280v-126z" />
    <glyph glyph-name="Iogonek" unicode="&#x12e;" horiz-adv-x="254" 
d="M226 696v-696h-50q-53 -23 -72.5 -46.5t-19.5 -49.5q0 -23 11.5 -34t29.5 -11q22 0 49 8l-10 -111q-30 -8 -62 -8q-64 0 -105 32.5t-41 89.5q0 78 72 130v696h198z" />
    <glyph glyph-name="uni0196" unicode="&#x196;" horiz-adv-x="353" 
d="M368 26q-57 -45 -143 -45q-95 0 -151 49.5t-56 147.5v518h198v-531q0 -44 39 -44q15 0 25.5 3.5t26.5 11.5z" />
    <glyph glyph-name="uni0197" unicode="&#x197;" horiz-adv-x="294" 
d="M294 432v-144h-48v-288h-198v288h-48v144h48v264h198v-264h48z" />
    <glyph glyph-name="Itilde" unicode="&#x128;" horiz-adv-x="254" 
d="M226 696v-696h-198v696h198zM144 762.5q-14 6.5 -31 17.5q-2 1 -12.5 7.5t-20.5 6.5q-14 0 -22.5 -8.5t-19.5 -29.5l-84 38q17 57 49.5 92.5t74.5 35.5q20 0 34 -6.5t31 -17.5q9 -6 17.5 -10.5t16.5 -4.5q13 0 21.5 9t18.5 29l84 -38q-17 -57 -49 -92t-74 -35
q-20 0 -34 6.5z" />
    <glyph glyph-name="J" unicode="J" horiz-adv-x="277" 
d="M250 110q0 -88 -32 -146.5t-79.5 -91t-110.5 -57.5l-53 139q35 17 51.5 37.5t21 48t4.5 77.5v579h198v-586z" />
    <glyph glyph-name="Jcircumflex" unicode="&#x134;" horiz-adv-x="277" 
d="M250 110q0 -88 -32 -146.5t-79.5 -91t-110.5 -57.5l-53 139q35 17 51.5 37.5t21 48t4.5 77.5v579h198v-586zM36 759l-62 64l122 143h111l121 -143l-62 -64l-115 85z" />
    <glyph glyph-name="uniA7B2" unicode="&#xa7b2;" horiz-adv-x="329" 
d="M346 -114q-29 18 -61 31q-42 -144 -214 -144q-67 0 -104 33t-37 90q0 62 39 96t110 34l21 -1v671h198v-674v-19q52 -19 86 -45zM90 -121q10 14 10 46v20q-5 1 -22 1q-26 0 -37 -10.5t-11 -32.5q0 -20 7 -29t21 -9q22 0 32 14z" />
    <glyph glyph-name="uni0248" unicode="&#x248;" horiz-adv-x="298" 
d="M298 271h-48v-161q0 -88 -32 -146.5t-79.5 -91t-110.5 -57.5l-53 139q35 17 51.5 37.5t21 48t4.5 77.5v154h-48v144h48v281h198v-281h48v-144z" />
    <glyph glyph-name="K" unicode="K" horiz-adv-x="568" 
d="M226 696v-696h-198v696h198zM573 696l-148 -310l163 -386h-213l-144 371l151 325h191z" />
    <glyph glyph-name="uni01E8" unicode="&#x1e8;" horiz-adv-x="568" 
d="M226 696v-696h-198v696h198zM573 696l-148 -310l163 -386h-213l-144 371l151 325h191zM394 955l62 -64l-122 -143h-111l-121 143l62 64l115 -85z" />
    <glyph glyph-name="Kcommaaccent" unicode="&#x136;" horiz-adv-x="568" 
d="M226 696v-696h-198v696h198zM573 696l-148 -310l163 -386h-213l-144 371l151 325h191zM342.5 -88q23.5 -25 23.5 -63q0 -20 -5 -37.5t-18 -49.5l-42 -101h-89l25 115q-41 25 -41 73q0 36 23.5 62t61.5 26t61.5 -25z" />
    <glyph glyph-name="uni0198" unicode="&#x198;" horiz-adv-x="572" 
d="M231 371l69 193q20 55 41 87t53 48.5t81 16.5q65 0 117 -34l-45 -111q-18 8 -32 8q-16 0 -24.5 -9t-16.5 -31l-55 -154l169 -385h-213zM226 696v-696h-198v696h198z" />
    <glyph glyph-name="L" unicode="L" horiz-adv-x="438" 
d="M226 696v-544h210l-20 -152h-388v696h198z" />
    <glyph glyph-name="uni01C7" unicode="&#x1c7;" horiz-adv-x="690" 
d="M226 696v-544h210l-20 -152h-388v696h198zM663 110q0 -88 -32 -146.5t-79.5 -91t-110.5 -57.5l-53 139q35 17 51.5 37.5t21 48t4.5 77.5v579h198v-586z" />
    <glyph glyph-name="Lacute" unicode="&#x139;" horiz-adv-x="438" 
d="M226 696v-544h210l-20 -152h-388v696h198zM188 968l70 -131l-216 -88l-48 90z" />
    <glyph glyph-name="uni023D" unicode="&#x23d;" horiz-adv-x="458" 
d="M246 152h210l-20 -152h-388v291h-48v144h48v261h198v-261h48v-144h-48v-139z" />
    <glyph glyph-name="uniA7AD" unicode="&#xa7ad;" horiz-adv-x="563" 
d="M561 152l-20 -152h-388v249q-78 2 -115.5 38.5t-37.5 98.5q0 59 32 91.5t85 32.5q21 0 36 -5v191h198v-341q29 2 93 13l16 -98q-50 -13 -109 -17v-101h210zM153 351v63q-10 3 -17 3q-23 0 -23 -28q0 -38 40 -38z" />
    <glyph glyph-name="Lcaron" unicode="&#x13d;" horiz-adv-x="438" 
d="M226 696v-544h210l-20 -152h-388v696h198zM351 464l50 231l-131 20l-22 -235z" />
    <glyph glyph-name="uni1E3C" unicode="&#x1e3c;" horiz-adv-x="438" 
d="M226 696v-544h210l-20 -152h-388v696h198zM103 -278l-62 64l122 153h111l121 -153l-62 -64l-115 95z" />
    <glyph glyph-name="Lcommaaccent" unicode="&#x13b;" horiz-adv-x="438" 
d="M226 696v-544h210l-20 -152h-388v696h198zM282.5 -88q23.5 -25 23.5 -63q0 -20 -5 -37.5t-18 -49.5l-42 -101h-89l25 115q-41 25 -41 73q0 36 23.5 62t61.5 26t61.5 -25z" />
    <glyph glyph-name="Ldot" unicode="&#x13f;" horiz-adv-x="438" 
d="M226 696v-544h210l-20 -152h-388v696h198zM415 479q29 -29 29 -73q0 -45 -29 -74t-74 -29t-74 29t-29 74q0 44 29 73t74 29t74 -29z" />
    <glyph glyph-name="uni1E36" unicode="&#x1e36;" horiz-adv-x="438" 
d="M226 696v-544h210l-20 -152h-388v696h198zM148 -230q-29 29 -29 73q0 45 29 74t74 29t74 -29t29 -74q0 -44 -29 -73t-74 -29t-74 29z" />
    <glyph glyph-name="uni01C8" unicode="&#x1c8;" horiz-adv-x="667" 
d="M226 696v-544h210l-20 -152h-388v696h198zM640 55q0 -114 -58.5 -178t-159.5 -103l-66 138q48 28 71 57t23 83v482h190v-479zM619 796q29 -29 29 -73q0 -45 -29 -74t-74 -29t-74 29t-29 74q0 44 29 73t74 29t74 -29z" />
    <glyph glyph-name="Lslash" unicode="&#x141;" horiz-adv-x="492" 
d="M280 152h210l-20 -152h-388v208l-30 -21l-58 100l80 59l8 6v344h198v-205l67 47l59 -99l-126 -90v-197z" />
    <glyph glyph-name="M" unicode="M" horiz-adv-x="672" 
d="M662 0h-187l1 252q0 140 4 275l-52 -456h-186l-55 456q7 -158 7 -275v-252h-184l39 696h240l49 -455l42 455h243z" />
    <glyph glyph-name="uni1E3E" unicode="&#x1e3e;" horiz-adv-x="672" 
d="M662 0h-187l1 252q0 140 4 275l-52 -456h-186l-55 456q7 -158 7 -275v-252h-184l39 696h240l49 -455l42 455h243zM396 968l70 -131l-216 -88l-48 90z" />
    <glyph glyph-name="uni1E40" unicode="&#x1e40;" horiz-adv-x="672" 
d="M662 0h-187l1 252q0 140 4 275l-52 -456h-186l-55 456q7 -158 7 -275v-252h-184l39 696h240l49 -455l42 455h243zM409 922q29 -29 29 -73q0 -45 -29 -74t-74 -29t-74 29t-29 74q0 44 29 73t74 29t74 -29z" />
    <glyph glyph-name="uni019C" unicode="&#x19c;" horiz-adv-x="747" 
d="M719 696v-696h-174l-12 52q-30 -37 -60 -54t-67 -17q-41 0 -71.5 22t-46.5 60q-31 -43 -62.5 -62.5t-70.5 -19.5q-62 0 -99.5 49t-37.5 121v545h198v-534q0 -38 19 -38q17 0 35 40v532h197v-534q0 -38 17 -38q10 0 18.5 10.5t18.5 33.5v528h198z" />
    <glyph glyph-name="N" unicode="N" horiz-adv-x="541" 
d="M513 0h-239l-105 525l3 -24q10 -74 16 -137.5t6 -139.5v-224h-166v696h238l106 -526q-13 88 -19.5 148.5t-6.5 142.5v235h167v-696z" />
    <glyph glyph-name="uni01CA" unicode="&#x1ca;" horiz-adv-x="818" 
d="M513 0h-239l-105 525l3 -24q10 -74 16 -137.5t6 -139.5v-224h-166v696h238l106 -526q-13 88 -19.5 148.5t-6.5 142.5v235h167v-696zM791 110q0 -88 -32 -146.5t-79.5 -91t-110.5 -57.5l-53 139q35 17 51.5 37.5t21 48t4.5 77.5v579h198v-586z" />
    <glyph glyph-name="Nacute" unicode="&#x143;" horiz-adv-x="541" 
d="M513 0h-239l-105 525l3 -24q10 -74 16 -137.5t6 -139.5v-224h-166v696h238l106 -526q-13 88 -19.5 148.5t-6.5 142.5v235h167v-696zM329 968l70 -131l-216 -88l-48 90z" />
    <glyph glyph-name="Nacute.loclPLK" horiz-adv-x="541" 
d="M513 0h-239l-105 525l3 -24q10 -74 16 -137.5t6 -139.5v-224h-166v696h238l106 -526q-13 88 -19.5 148.5t-6.5 142.5v235h167v-696zM263 984l137 -75l-127 -163l-82 47z" />
    <glyph glyph-name="Ncaron" unicode="&#x147;" horiz-adv-x="541" 
d="M513 0h-239l-105 525l3 -24q10 -74 16 -137.5t6 -139.5v-224h-166v696h238l106 -526q-13 88 -19.5 148.5t-6.5 142.5v235h167v-696zM383 955l62 -64l-122 -143h-111l-121 143l62 64l115 -85z" />
    <glyph glyph-name="uni1E4A" unicode="&#x1e4a;" horiz-adv-x="541" 
d="M513 0h-239l-105 525l3 -24q10 -74 16 -137.5t6 -139.5v-224h-166v696h238l106 -526q-13 88 -19.5 148.5t-6.5 142.5v235h167v-696zM151 -278l-62 64l122 153h111l121 -153l-62 -64l-115 95z" />
    <glyph glyph-name="Ncommaaccent" unicode="&#x145;" horiz-adv-x="541" 
d="M513 0h-239l-105 525l3 -24q10 -74 16 -137.5t6 -139.5v-224h-166v696h238l106 -526q-13 88 -19.5 148.5t-6.5 142.5v235h167v-696zM330.5 -88q23.5 -25 23.5 -63q0 -20 -5 -37.5t-18 -49.5l-42 -101h-89l25 115q-41 25 -41 73q0 36 23.5 62t61.5 26t61.5 -25z" />
    <glyph glyph-name="uni1E44" unicode="&#x1e44;" horiz-adv-x="541" 
d="M513 0h-239l-105 525l3 -24q10 -74 16 -137.5t6 -139.5v-224h-166v696h238l106 -526q-13 88 -19.5 148.5t-6.5 142.5v235h167v-696zM342 922q29 -29 29 -73q0 -45 -29 -74t-74 -29t-74 29t-29 74q0 44 29 73t74 29t74 -29z" />
    <glyph glyph-name="uni1E46" unicode="&#x1e46;" horiz-adv-x="541" 
d="M513 0h-239l-105 525l3 -24q10 -74 16 -137.5t6 -139.5v-224h-166v696h238l106 -526q-13 88 -19.5 148.5t-6.5 142.5v235h167v-696zM196 -230q-29 29 -29 73q0 45 29 74t74 29t74 -29t29 -74q0 -44 -29 -73t-74 -29t-74 29z" />
    <glyph glyph-name="uni01F8" unicode="&#x1f8;" horiz-adv-x="541" 
d="M513 0h-239l-105 525l3 -24q10 -74 16 -137.5t6 -139.5v-224h-166v696h238l106 -526q-13 88 -19.5 148.5t-6.5 142.5v235h167v-696zM208 967l194 -129l-48 -90l-216 88z" />
    <glyph glyph-name="Eng" unicode="&#x14a;" horiz-adv-x="541" 
d="M513 696v-725q0 -98 -56 -147.5t-151 -49.5q-86 0 -143 45l61 110q16 -8 26.5 -11.5t25.5 -3.5q39 0 39 44v42h-41l-105 525l3 -24q10 -74 16 -137.5t6 -139.5v-224h-166v696h238l106 -526q-13 88 -19.5 148.5t-6.5 142.5v235h167z" />
    <glyph glyph-name="Eng.ss01" horiz-adv-x="534" 
d="M474.5 670q36.5 -46 36.5 -125v-574q0 -98 -56 -147.5t-151 -49.5q-86 0 -143 45l61 110q16 -8 26.5 -11.5t25.5 -3.5q39 0 39 44v557q0 33 -5.5 45t-20.5 12t-29.5 -11.5t-31.5 -34.5v-526h-198v696h174l12 -51q35 38 71 54.5t82 16.5q71 0 107.5 -46z" />
    <glyph glyph-name="uni019D" unicode="&#x19d;" horiz-adv-x="541" 
d="M513 696v-696h-239l-105 525l3 -24q10 -74 16 -137.5t6 -139.5v-254q0 -95 -50.5 -145.5t-134.5 -50.5q-79 0 -134 45l61 98q19 -9 28.5 -12.5t24.5 -3.5q39 0 39 55v740h238l106 -526q-13 88 -19.5 148.5t-6.5 142.5v235h167z" />
    <glyph glyph-name="uni019D.ss01" horiz-adv-x="534" 
d="M474.5 670q36.5 -46 36.5 -125v-545h-198v515q0 33 -5.5 45t-20.5 12t-29.5 -11.5t-31.5 -34.5v-555q0 -98 -56 -147.5t-151 -49.5q-86 0 -143 45l61 110q16 -8 26.5 -11.5t25.5 -3.5q39 0 39 44v738h174l12 -51q35 38 71 54.5t82 16.5q71 0 107.5 -46z" />
    <glyph glyph-name="uni01CB" unicode="&#x1cb;" horiz-adv-x="785" 
d="M513 0h-239l-105 525l3 -24q10 -74 16 -137.5t6 -139.5v-224h-166v696h238l106 -526q-13 88 -19.5 148.5t-6.5 142.5v235h167v-696zM758 55q0 -114 -58.5 -178t-159.5 -103l-66 138q48 28 71 57t23 83v482h190v-479zM737 796q29 -29 29 -73q0 -45 -29 -74t-74 -29t-74 29
t-29 74q0 44 29 73t74 29t74 -29z" />
    <glyph glyph-name="uni0220" unicode="&#x220;" horiz-adv-x="534" 
d="M474.5 670q36.5 -46 36.5 -125v-760h-198v730q0 33 -5.5 45t-20.5 12t-29.5 -11.5t-31.5 -34.5v-526h-198v696h174l12 -51q35 38 71 54.5t82 16.5q71 0 107.5 -46z" />
    <glyph glyph-name="Ntilde" unicode="&#xd1;" horiz-adv-x="541" 
d="M513 0h-239l-105 525l3 -24q10 -74 16 -137.5t6 -139.5v-224h-166v696h238l106 -526q-13 88 -19.5 148.5t-6.5 142.5v235h167v-696zM285 762.5q-14 6.5 -31 17.5q-2 1 -12.5 7.5t-20.5 6.5q-14 0 -22.5 -8.5t-19.5 -29.5l-84 38q17 57 49.5 92.5t74.5 35.5q20 0 34 -6.5
t31 -17.5q9 -6 17.5 -10.5t16.5 -4.5q13 0 21.5 9t18.5 29l84 -38q-17 -57 -49 -92t-74 -35q-20 0 -34 6.5z" />
    <glyph glyph-name="O" unicode="O" horiz-adv-x="585" 
d="M568 349q0 -182 -70 -275.5t-206 -93.5t-205.5 92.5t-69.5 276.5q0 181 69.5 274t205.5 93q276 0 276 -367zM250 553.5q-15 -21.5 -21.5 -69.5t-6.5 -135q0 -90 6 -138.5t21 -69.5t43 -21q29 0 44 21t21 69t6 139q0 86 -6.5 134.5t-22 70t-42.5 21.5t-42 -21.5z" />
    <glyph glyph-name="uni0222" unicode="&#x222;" horiz-adv-x="552" 
d="M535 222q0 -70 -31.5 -125t-90.5 -85.5t-137 -30.5q-79 0 -137.5 29.5t-90 84t-31.5 127.5q0 134 108 181q-38 20 -58.5 50.5t-20.5 69.5v173h198v-195q0 -18 6 -28t26 -10q19 0 25 10.5t6 27.5v195h198v-173q0 -37 -20.5 -67.5t-58.5 -50.5q109 -46 109 -183z
M316.5 144.5q13.5 23.5 13.5 80.5q0 104 -54 104q-26 0 -40 -24.5t-14 -79.5q0 -56 13.5 -80t40.5 -24t40.5 23.5z" />
    <glyph glyph-name="Oacute" unicode="&#xd3;" horiz-adv-x="585" 
d="M568 349q0 -182 -70 -275.5t-206 -93.5t-205.5 92.5t-69.5 276.5q0 181 69.5 274t205.5 93q276 0 276 -367zM250 553.5q-15 -21.5 -21.5 -69.5t-6.5 -135q0 -90 6 -138.5t21 -69.5t43 -21q29 0 44 21t21 69t6 139q0 86 -6.5 134.5t-22 70t-42.5 21.5t-42 -21.5zM353 968
l70 -131l-216 -88l-48 90z" />
    <glyph glyph-name="Oacute.loclPLK" horiz-adv-x="585" 
d="M568 349q0 -182 -70 -275.5t-206 -93.5t-205.5 92.5t-69.5 276.5q0 181 69.5 274t205.5 93q276 0 276 -367zM250 553.5q-15 -21.5 -21.5 -69.5t-6.5 -135q0 -90 6 -138.5t21 -69.5t43 -21q29 0 44 21t21 69t6 139q0 86 -6.5 134.5t-22 70t-42.5 21.5t-42 -21.5zM287 984
l137 -75l-127 -163l-82 47z" />
    <glyph glyph-name="Obreve" unicode="&#x14e;" horiz-adv-x="585" 
d="M568 349q0 -182 -70 -275.5t-206 -93.5t-205.5 92.5t-69.5 276.5q0 181 69.5 274t205.5 93q276 0 276 -367zM250 553.5q-15 -21.5 -21.5 -69.5t-6.5 -135q0 -90 6 -138.5t21 -69.5t43 -21q29 0 44 21t21 69t6 139q0 86 -6.5 134.5t-22 70t-42.5 21.5t-42 -21.5z
M177 796.5q-39 49.5 -45 131.5l95 17q15 -69 66 -69t64 69l96 -17q-6 -81 -45 -131t-115 -50q-77 0 -116 49.5z" />
    <glyph glyph-name="uni01D1" unicode="&#x1d1;" horiz-adv-x="585" 
d="M568 349q0 -182 -70 -275.5t-206 -93.5t-205.5 92.5t-69.5 276.5q0 181 69.5 274t205.5 93q276 0 276 -367zM250 553.5q-15 -21.5 -21.5 -69.5t-6.5 -135q0 -90 6 -138.5t21 -69.5t43 -21q29 0 44 21t21 69t6 139q0 86 -6.5 134.5t-22 70t-42.5 21.5t-42 -21.5zM407 955
l62 -64l-122 -143h-111l-121 143l62 64l115 -85z" />
    <glyph glyph-name="uni019F" unicode="&#x19f;" horiz-adv-x="585" 
d="M568 349q0 -182 -70 -275.5t-206 -93.5t-205.5 92.5t-69.5 276.5q0 181 69.5 274t205.5 93q276 0 276 -367zM235.5 536.5q-17.5 -38.5 -20.5 -133.5h155q-3 95 -21 133.5t-57 38.5t-56.5 -38.5zM336.5 136.5q16.5 16.5 24 55t9.5 107.5h-155q2 -68 9.5 -106.5t23.5 -55.5
t44 -17t44.5 16.5z" />
    <glyph glyph-name="Ocircumflex" unicode="&#xd4;" horiz-adv-x="585" 
d="M568 349q0 -182 -70 -275.5t-206 -93.5t-205.5 92.5t-69.5 276.5q0 181 69.5 274t205.5 93q276 0 276 -367zM250 553.5q-15 -21.5 -21.5 -69.5t-6.5 -135q0 -90 6 -138.5t21 -69.5t43 -21q29 0 44 21t21 69t6 139q0 86 -6.5 134.5t-22 70t-42.5 21.5t-42 -21.5zM177 759
l-62 64l122 143h111l121 -143l-62 -64l-115 85z" />
    <glyph glyph-name="uni1ED0" unicode="&#x1ed0;" horiz-adv-x="585" 
d="M568 349q0 -182 -70 -275.5t-206 -93.5t-205.5 92.5t-69.5 276.5q0 181 69.5 274t205.5 93q276 0 276 -367zM250 553.5q-15 -21.5 -21.5 -69.5t-6.5 -135q0 -90 6 -138.5t21 -69.5t43 -21q29 0 44 21t21 69t6 139q0 86 -6.5 134.5t-22 70t-42.5 21.5t-42 -21.5zM178 730
l-62 64l122 143h111l121 -143l-62 -64l-115 85zM508 1129l107 -93l-159 -153l-72 58z" />
    <glyph glyph-name="uni1ED8" unicode="&#x1ed8;" horiz-adv-x="585" 
d="M568 349q0 -182 -70 -275.5t-206 -93.5t-205.5 92.5t-69.5 276.5q0 181 69.5 274t205.5 93q276 0 276 -367zM250 553.5q-15 -21.5 -21.5 -69.5t-6.5 -135q0 -90 6 -138.5t21 -69.5t43 -21q29 0 44 21t21 69t6 139q0 86 -6.5 134.5t-22 70t-42.5 21.5t-42 -21.5zM177 759
l-62 64l122 143h111l121 -143l-62 -64l-115 85zM218 -230q-29 29 -29 73q0 45 29 74t74 29t74 -29t29 -74q0 -44 -29 -73t-74 -29t-74 29z" />
    <glyph glyph-name="uni1ED2" unicode="&#x1ed2;" horiz-adv-x="585" 
d="M568 349q0 -182 -70 -275.5t-206 -93.5t-205.5 92.5t-69.5 276.5q0 181 69.5 274t205.5 93q276 0 276 -367zM250 553.5q-15 -21.5 -21.5 -69.5t-6.5 -135q0 -90 6 -138.5t21 -69.5t43 -21q29 0 44 21t21 69t6 139q0 86 -6.5 134.5t-22 70t-42.5 21.5t-42 -21.5zM176 730
l-62 64l122 143h111l121 -143l-62 -64l-115 85zM78 1129l124 -188l-72 -58l-159 153z" />
    <glyph glyph-name="uni1ED4" unicode="&#x1ed4;" horiz-adv-x="585" 
d="M568 349q0 -182 -70 -275.5t-206 -93.5t-205.5 92.5t-69.5 276.5q0 181 69.5 274t205.5 93q276 0 276 -367zM250 553.5q-15 -21.5 -21.5 -69.5t-6.5 -135q0 -90 6 -138.5t21 -69.5t43 -21q29 0 44 21t21 69t6 139q0 86 -6.5 134.5t-22 70t-42.5 21.5t-42 -21.5zM177 730
l-62 64l122 143h111l121 -143l-62 -64l-115 85zM405 967q32 2 45 9.5t13 26.5q0 13 -7.5 20.5t-20.5 7.5q-15 0 -25 -2.5t-27 -9.5l-26 73q42 26 103 26q56 0 86.5 -29.5t30.5 -76.5q0 -40 -18.5 -65t-53.5 -32v-40h-100v92z" />
    <glyph glyph-name="uni1ED6" unicode="&#x1ed6;" horiz-adv-x="585" 
d="M568 349q0 -182 -70 -275.5t-206 -93.5t-205.5 92.5t-69.5 276.5q0 181 69.5 274t205.5 93q276 0 276 -367zM250 553.5q-15 -21.5 -21.5 -69.5t-6.5 -135q0 -90 6 -138.5t21 -69.5t43 -21q29 0 44 21t21 69t6 139q0 86 -6.5 134.5t-22 70t-42.5 21.5t-42 -21.5zM176 730
l-62 64l122 143h111l121 -143l-62 -64l-115 85zM307.5 974.5q-14.5 5.5 -30.5 15.5q-9 5 -17.5 9t-15.5 4q-14 0 -22.5 -7.5t-19.5 -26.5l-84 34q17 51 49.5 83t74.5 32q20 0 33 -5t32 -16q21 -14 34 -14t21.5 8t18.5 26l84 -34q-17 -51 -48.5 -82.5t-74.5 -31.5
q-20 0 -34.5 5.5z" />
    <glyph glyph-name="uni020C" unicode="&#x20c;" horiz-adv-x="585" 
d="M568 349q0 -182 -70 -275.5t-206 -93.5t-205.5 92.5t-69.5 276.5q0 181 69.5 274t205.5 93q276 0 276 -367zM250 553.5q-15 -21.5 -21.5 -69.5t-6.5 -135q0 -90 6 -138.5t21 -69.5t43 -21q29 0 44 21t21 69t6 139q0 86 -6.5 134.5t-22 70t-42.5 21.5t-42 -21.5zM175 998
l88 -209l-84 -42l-114 193zM341 998l82 -211l-87 -36l-108 194z" />
    <glyph glyph-name="Odieresis" unicode="&#xd6;" horiz-adv-x="585" 
d="M568 349q0 -182 -70 -275.5t-206 -93.5t-205.5 92.5t-69.5 276.5q0 181 69.5 274t205.5 93q276 0 276 -367zM250 553.5q-15 -21.5 -21.5 -69.5t-6.5 -135q0 -90 6 -138.5t21 -69.5t43 -21q29 0 44 21t21 69t6 139q0 86 -6.5 134.5t-22 70t-42.5 21.5t-42 -21.5z
M252.5 914q24.5 -26 24.5 -63q0 -39 -24 -64.5t-63 -25.5q-37 0 -62.5 26t-25.5 64q0 37 25.5 63t62.5 26q38 0 62.5 -26zM462.5 914q24.5 -26 24.5 -63q0 -39 -24 -64.5t-63 -25.5q-37 0 -62.5 26t-25.5 64q0 37 25.5 63t62.5 26q38 0 62.5 -26z" />
    <glyph glyph-name="uni022A" unicode="&#x22a;" horiz-adv-x="585" 
d="M568 349q0 -182 -70 -275.5t-206 -93.5t-205.5 92.5t-69.5 276.5q0 181 69.5 274t205.5 93q276 0 276 -367zM250 553.5q-15 -21.5 -21.5 -69.5t-6.5 -135q0 -90 6 -138.5t21 -69.5t43 -21q29 0 44 21t21 69t6 139q0 86 -6.5 134.5t-22 70t-42.5 21.5t-42 -21.5z
M250.5 898q24.5 -26 24.5 -63q0 -39 -24 -64.5t-63 -25.5q-37 0 -62.5 26t-25.5 64q0 37 25.5 63t62.5 26q38 0 62.5 -26zM460.5 898q24.5 -26 24.5 -63q0 -39 -24 -64.5t-63 -25.5q-37 0 -62.5 26t-25.5 64q0 37 25.5 63t62.5 26q38 0 62.5 -26zM433 966h-280v126h280v-126
z" />
    <glyph glyph-name="uni022E" unicode="&#x22e;" horiz-adv-x="585" 
d="M568 349q0 -182 -70 -275.5t-206 -93.5t-205.5 92.5t-69.5 276.5q0 181 69.5 274t205.5 93q276 0 276 -367zM250 553.5q-15 -21.5 -21.5 -69.5t-6.5 -135q0 -90 6 -138.5t21 -69.5t43 -21q29 0 44 21t21 69t6 139q0 86 -6.5 134.5t-22 70t-42.5 21.5t-42 -21.5zM366 922
q29 -29 29 -73q0 -45 -29 -74t-74 -29t-74 29t-29 74q0 44 29 73t74 29t74 -29z" />
    <glyph glyph-name="uni0230" unicode="&#x230;" horiz-adv-x="585" 
d="M568 349q0 -182 -70 -275.5t-206 -93.5t-205.5 92.5t-69.5 276.5q0 181 69.5 274t205.5 93q276 0 276 -367zM250 553.5q-15 -21.5 -21.5 -69.5t-6.5 -135q0 -90 6 -138.5t21 -69.5t43 -21q29 0 44 21t21 69t6 139q0 86 -6.5 134.5t-22 70t-42.5 21.5t-42 -21.5zM365 910
q29 -29 29 -73q0 -45 -29 -74t-74 -29t-74 29t-29 74q0 44 29 73t74 29t74 -29zM432 966h-280v126h280v-126z" />
    <glyph glyph-name="uni1ECC" unicode="&#x1ecc;" horiz-adv-x="585" 
d="M568 349q0 -182 -70 -275.5t-206 -93.5t-205.5 92.5t-69.5 276.5q0 181 69.5 274t205.5 93q276 0 276 -367zM250 553.5q-15 -21.5 -21.5 -69.5t-6.5 -135q0 -90 6 -138.5t21 -69.5t43 -21q29 0 44 21t21 69t6 139q0 86 -6.5 134.5t-22 70t-42.5 21.5t-42 -21.5zM218 -230
q-29 29 -29 73q0 45 29 74t74 29t74 -29t29 -74q0 -44 -29 -73t-74 -29t-74 29z" />
    <glyph glyph-name="Ograve" unicode="&#xd2;" horiz-adv-x="585" 
d="M568 349q0 -182 -70 -275.5t-206 -93.5t-205.5 92.5t-69.5 276.5q0 181 69.5 274t205.5 93q276 0 276 -367zM250 553.5q-15 -21.5 -21.5 -69.5t-6.5 -135q0 -90 6 -138.5t21 -69.5t43 -21q29 0 44 21t21 69t6 139q0 86 -6.5 134.5t-22 70t-42.5 21.5t-42 -21.5zM232 967
l194 -129l-48 -90l-216 88z" />
    <glyph glyph-name="uni1ECE" unicode="&#x1ece;" horiz-adv-x="585" 
d="M568 349q0 -182 -70 -275.5t-206 -93.5t-205.5 92.5t-69.5 276.5q0 181 69.5 274t205.5 93q276 0 276 -367zM250 553.5q-15 -21.5 -21.5 -69.5t-6.5 -135q0 -90 6 -138.5t21 -69.5t43 -21q29 0 44 21t21 69t6 139q0 86 -6.5 134.5t-22 70t-42.5 21.5t-42 -21.5zM242 856
q32 2 45 9.5t13 26.5q0 13 -7.5 20.5t-20.5 7.5q-15 0 -25 -2.5t-27 -9.5l-26 73q42 26 103 26q56 0 86.5 -29.5t30.5 -76.5q0 -40 -18.5 -65t-53.5 -32v-40h-100v92z" />
    <glyph glyph-name="Ohorn" unicode="&#x1a0;" horiz-adv-x="630" 
d="M613 593.5q-27 -33.5 -75 -43.5q30 -81 30 -201q0 -182 -70 -275.5t-206 -93.5t-205.5 92.5t-69.5 276.5q0 181 69.5 274t205.5 93q130 0 199 -82q18 2 25 13.5t7 34.5q0 25 -2.5 40t-7.5 36l112 15q7 -22 11 -42t4 -49q0 -55 -27 -88.5zM336 141q15 21 21 69t6 139
q0 86 -6.5 134.5t-22 70t-42.5 21.5t-42 -21.5t-21.5 -69.5t-6.5 -135q0 -90 6 -138.5t21 -69.5t43 -21q29 0 44 21z" />
    <glyph glyph-name="uni1EDA" unicode="&#x1eda;" horiz-adv-x="630" 
d="M423 837l-216 -88l-48 90l194 129zM613 593.5q-27 -33.5 -75 -43.5q30 -81 30 -201q0 -182 -70 -275.5t-206 -93.5t-205.5 92.5t-69.5 276.5q0 181 69.5 274t205.5 93q130 0 199 -82q18 2 25 13.5t7 34.5q0 25 -2.5 40t-7.5 36l112 15q7 -22 11 -42t4 -49
q0 -55 -27 -88.5zM336 141q15 21 21 69t6 139q0 86 -6.5 134.5t-22 70t-42.5 21.5t-42 -21.5t-21.5 -69.5t-6.5 -135q0 -90 6 -138.5t21 -69.5t43 -21q29 0 44 21z" />
    <glyph glyph-name="uni1EE2" unicode="&#x1ee2;" horiz-adv-x="630" 
d="M613 593.5q-27 -33.5 -75 -43.5q30 -81 30 -201q0 -182 -70 -275.5t-206 -93.5t-205.5 92.5t-69.5 276.5q0 181 69.5 274t205.5 93q130 0 199 -82q18 2 25 13.5t7 34.5q0 25 -2.5 40t-7.5 36l112 15q7 -22 11 -42t4 -49q0 -55 -27 -88.5zM336 141q15 21 21 69t6 139
q0 86 -6.5 134.5t-22 70t-42.5 21.5t-42 -21.5t-21.5 -69.5t-6.5 -135q0 -90 6 -138.5t21 -69.5t43 -21q29 0 44 21zM366 -83q29 -29 29 -74q0 -44 -29 -73t-74 -29t-74 29t-29 73q0 45 29 74t74 29t74 -29z" />
    <glyph glyph-name="uni1EDC" unicode="&#x1edc;" horiz-adv-x="630" 
d="M426 838l-48 -90l-216 88l70 131zM613 593.5q-27 -33.5 -75 -43.5q30 -81 30 -201q0 -182 -70 -275.5t-206 -93.5t-205.5 92.5t-69.5 276.5q0 181 69.5 274t205.5 93q130 0 199 -82q18 2 25 13.5t7 34.5q0 25 -2.5 40t-7.5 36l112 15q7 -22 11 -42t4 -49q0 -55 -27 -88.5
zM336 141q15 21 21 69t6 139q0 86 -6.5 134.5t-22 70t-42.5 21.5t-42 -21.5t-21.5 -69.5t-6.5 -135q0 -90 6 -138.5t21 -69.5t43 -21q29 0 44 21z" />
    <glyph glyph-name="uni1EDE" unicode="&#x1ede;" horiz-adv-x="630" 
d="M247 917.5q-10 -2.5 -27 -9.5l-26 73q42 26 103 26q56 0 86.5 -29.5t30.5 -76.5q0 -40 -18.5 -65t-53.5 -32v-40h-100v92q32 2 45 9.5t13 26.5q0 13 -7.5 20.5t-20.5 7.5q-15 0 -25 -2.5zM613 593.5q-27 -33.5 -75 -43.5q30 -81 30 -201q0 -182 -70 -275.5t-206 -93.5
t-205.5 92.5t-69.5 276.5q0 181 69.5 274t205.5 93q130 0 199 -82q18 2 25 13.5t7 34.5q0 25 -2.5 40t-7.5 36l112 15q7 -22 11 -42t4 -49q0 -55 -27 -88.5zM336 141q15 21 21 69t6 139q0 86 -6.5 134.5t-22 70t-42.5 21.5t-42 -21.5t-21.5 -69.5t-6.5 -135q0 -90 6 -138.5
t21 -69.5t43 -21q29 0 44 21z" />
    <glyph glyph-name="uni1EE0" unicode="&#x1ee0;" horiz-adv-x="630" 
d="M222.5 785.5q-8.5 -8.5 -19.5 -29.5l-84 38q17 57 49.5 92.5t74.5 35.5q20 0 34 -6.5t31 -17.5q9 -6 17.5 -10.5t16.5 -4.5q13 0 21.5 9t18.5 29l84 -38q-17 -57 -49 -92t-74 -35q-20 0 -34 6.5t-31 17.5q-2 1 -12.5 7.5t-20.5 6.5q-14 0 -22.5 -8.5zM613 593.5
q-27 -33.5 -75 -43.5q30 -81 30 -201q0 -182 -70 -275.5t-206 -93.5t-205.5 92.5t-69.5 276.5q0 181 69.5 274t205.5 93q130 0 199 -82q18 2 25 13.5t7 34.5q0 25 -2.5 40t-7.5 36l112 15q7 -22 11 -42t4 -49q0 -55 -27 -88.5zM336 141q15 21 21 69t6 139q0 86 -6.5 134.5
t-22 70t-42.5 21.5t-42 -21.5t-21.5 -69.5t-6.5 -135q0 -90 6 -138.5t21 -69.5t43 -21q29 0 44 21z" />
    <glyph glyph-name="Ohungarumlaut" unicode="&#x150;" horiz-adv-x="585" 
d="M568 349q0 -182 -70 -275.5t-206 -93.5t-205.5 92.5t-69.5 276.5q0 181 69.5 274t205.5 93q276 0 276 -367zM250 553.5q-15 -21.5 -21.5 -69.5t-6.5 -135q0 -90 6 -138.5t21 -69.5t43 -21q29 0 44 21t21 69t6 139q0 86 -6.5 134.5t-22 70t-42.5 21.5t-42 -21.5zM251 998
l113 -53l-108 -194l-87 36zM417 998l110 -58l-114 -193l-84 42z" />
    <glyph glyph-name="uni01A2" unicode="&#x1a2;" horiz-adv-x="826" 
d="M742.5 663q55.5 -52 55.5 -145v-732h-198v744q0 50 -36 50q-20 0 -35 -8q39 -85 39 -223q0 -182 -70 -275.5t-206 -93.5t-205.5 92.5t-69.5 276.5q0 181 69.5 274t205.5 93q98 0 160 -46q64 45 147 45q88 0 143.5 -52zM336 141q15 21 21 69t6 139q0 86 -6.5 134.5t-22 70
t-42.5 21.5t-42 -21.5t-21.5 -69.5t-6.5 -135q0 -90 6 -138.5t21 -69.5t43 -21q29 0 44 21z" />
    <glyph glyph-name="uni020E" unicode="&#x20e;" horiz-adv-x="585" 
d="M568 349q0 -182 -70 -275.5t-206 -93.5t-205.5 92.5t-69.5 276.5q0 181 69.5 274t205.5 93q276 0 276 -367zM250 553.5q-15 -21.5 -21.5 -69.5t-6.5 -135q0 -90 6 -138.5t21 -69.5t43 -21q29 0 44 21t21 69t6 139q0 86 -6.5 134.5t-22 70t-42.5 21.5t-42 -21.5z
M408.5 914.5q38.5 -51.5 44.5 -140.5l-96 -16q-13 82 -64 82t-66 -82l-95 16q6 89 44.5 140.5t116.5 51.5q77 0 115.5 -51.5z" />
    <glyph glyph-name="Omacron" unicode="&#x14c;" horiz-adv-x="585" 
d="M568 349q0 -182 -70 -275.5t-206 -93.5t-205.5 92.5t-69.5 276.5q0 181 69.5 274t205.5 93q276 0 276 -367zM250 553.5q-15 -21.5 -21.5 -69.5t-6.5 -135q0 -90 6 -138.5t21 -69.5t43 -21q29 0 44 21t21 69t6 139q0 86 -6.5 134.5t-22 70t-42.5 21.5t-42 -21.5zM432 777
h-280v126h280v-126z" />
    <glyph glyph-name="uni1E52" unicode="&#x1e52;" horiz-adv-x="585" 
d="M568 349q0 -182 -70 -275.5t-206 -93.5t-205.5 92.5t-69.5 276.5q0 181 69.5 274t205.5 93q276 0 276 -367zM250 553.5q-15 -21.5 -21.5 -69.5t-6.5 -135q0 -90 6 -138.5t21 -69.5t43 -21q29 0 44 21t21 69t6 139q0 86 -6.5 134.5t-22 70t-42.5 21.5t-42 -21.5zM432 763
h-280v126h280v-126zM347 1136l70 -131l-216 -88l-48 90z" />
    <glyph glyph-name="uni1E50" unicode="&#x1e50;" horiz-adv-x="585" 
d="M232 1132l194 -129l-48 -90l-216 88zM432 763h-280v126h280v-126zM568 349q0 -182 -70 -275.5t-206 -93.5t-205.5 92.5t-69.5 276.5q0 181 69.5 274t205.5 93q276 0 276 -367zM250 553.5q-15 -21.5 -21.5 -69.5t-6.5 -135q0 -90 6 -138.5t21 -69.5t43 -21q29 0 44 21
t21 69t6 139q0 86 -6.5 134.5t-22 70t-42.5 21.5t-42 -21.5z" />
    <glyph glyph-name="uniA7B6" unicode="&#xa7b6;" horiz-adv-x="776" 
d="M729 514.5q17 -93.5 17 -210.5q0 -171 -48.5 -247t-143.5 -76q-69 0 -107.5 29t-56.5 94q-28 -123 -154 -123q-72 0 -117 32.5t-67 103t-22 187.5t17 210t48 182h181q-2 -14 -11 -58q-18 -99 -27.5 -168t-9.5 -155q0 -78 4 -119.5t12.5 -58t23.5 -16.5q26 0 26 38v240
h196v-240q0 -19 5.5 -28.5t19.5 -9.5q15 0 22 15.5t9 54.5t2 124q0 106 -14.5 186.5t-43.5 194.5h190q32 -88 49 -181.5z" />
    <glyph glyph-name="uni01EA" unicode="&#x1ea;" horiz-adv-x="585" 
d="M329.5 -47.5q-18.5 -23.5 -18.5 -48.5q0 -23 11.5 -34t29.5 -11q22 0 49 8l-10 -111q-30 -8 -62 -8q-64 0 -105 32.5t-41 89.5q0 66 53 114q-109 18 -164 109.5t-55 255.5q0 181 69.5 274t205.5 93q276 0 276 -367q0 -142 -42.5 -230.5t-126.5 -120.5
q-51 -22 -69.5 -45.5zM250 553.5q-15 -21.5 -21.5 -69.5t-6.5 -135q0 -90 6 -138.5t21 -69.5t43 -21q29 0 44 21t21 69t6 139q0 86 -6.5 134.5t-22 70t-42.5 21.5t-42 -21.5z" />
    <glyph glyph-name="uni01EC" unicode="&#x1ec;" horiz-adv-x="585" 
d="M432 903v-126h-280v126h280zM329.5 -47.5q-18.5 -23.5 -18.5 -48.5q0 -23 11.5 -34t29.5 -11q22 0 49 8l-10 -111q-30 -8 -62 -8q-64 0 -105 32.5t-41 89.5q0 66 53 114q-109 18 -164 109.5t-55 255.5q0 181 69.5 274t205.5 93q276 0 276 -367q0 -142 -42.5 -230.5
t-126.5 -120.5q-51 -22 -69.5 -45.5zM250 553.5q-15 -21.5 -21.5 -69.5t-6.5 -135q0 -90 6 -138.5t21 -69.5t43 -21q29 0 44 21t21 69t6 139q0 86 -6.5 134.5t-22 70t-42.5 21.5t-42 -21.5z" />
    <glyph glyph-name="uni0186" unicode="&#x186;" horiz-adv-x="495" 
d="M403 624.5q75 -91.5 75 -274.5t-74.5 -276t-206.5 -93q-60 0 -112.5 27t-89.5 68l86 104q31 -26 53.5 -38t50.5 -12q45 0 66.5 48.5t21.5 171.5q0 85 -9 133.5t-27 69t-48 20.5q-27 0 -48.5 -11t-45.5 -33l-93 106q40 40 88.5 60.5t111.5 20.5q126 0 201 -91.5z" />
    <glyph glyph-name="Oslash" unicode="&#xd8;" horiz-adv-x="585" 
d="M568 349q0 -181 -70 -274.5t-206 -93.5h-18l-30 -119l-142 38l33 125q-118 85 -118 324q0 181 69.5 273.5t205.5 92.5h19l30 117l143 -39l-34 -122q118 -83 118 -322zM240.5 557.5q-17.5 -21.5 -24.5 -70t-7 -138.5q0 -121 9 -166l82 396h-8q-34 0 -51.5 -21.5zM345 137
q18 21 24.5 69.5t6.5 142.5q0 100 -10 149l-81 -382h7q35 0 53 21z" />
    <glyph glyph-name="Oslashacute" unicode="&#x1fe;" horiz-adv-x="585" 
d="M568 349q0 -181 -70 -274.5t-206 -93.5h-18l-30 -119l-142 38l33 125q-118 85 -118 324q0 181 69.5 273.5t205.5 92.5h19l30 117l143 -39l-34 -122q118 -83 118 -322zM240.5 557.5q-17.5 -21.5 -24.5 -70t-7 -138.5q0 -121 9 -166l82 396h-8q-34 0 -51.5 -21.5zM345 137
q18 21 24.5 69.5t6.5 142.5q0 100 -10 149l-81 -382h7q35 0 53 21zM355 1010l70 -131l-216 -88l-48 90z" />
    <glyph glyph-name="Otilde" unicode="&#xd5;" horiz-adv-x="585" 
d="M568 349q0 -182 -70 -275.5t-206 -93.5t-205.5 92.5t-69.5 276.5q0 181 69.5 274t205.5 93q276 0 276 -367zM250 553.5q-15 -21.5 -21.5 -69.5t-6.5 -135q0 -90 6 -138.5t21 -69.5t43 -21q29 0 44 21t21 69t6 139q0 86 -6.5 134.5t-22 70t-42.5 21.5t-42 -21.5z
M309 762.5q-14 6.5 -31 17.5q-2 1 -12.5 7.5t-20.5 6.5q-14 0 -22.5 -8.5t-19.5 -29.5l-84 38q17 57 49.5 92.5t74.5 35.5q20 0 34 -6.5t31 -17.5q9 -6 17.5 -10.5t16.5 -4.5q13 0 21.5 9t18.5 29l84 -38q-17 -57 -49 -92t-74 -35q-20 0 -34 6.5z" />
    <glyph glyph-name="uni1E4C" unicode="&#x1e4c;" horiz-adv-x="585" 
d="M568 349q0 -182 -70 -275.5t-206 -93.5t-205.5 92.5t-69.5 276.5q0 181 69.5 274t205.5 93q276 0 276 -367zM250 553.5q-15 -21.5 -21.5 -69.5t-6.5 -135q0 -90 6 -138.5t21 -69.5t43 -21q29 0 44 21t21 69t6 139q0 86 -6.5 134.5t-22 70t-42.5 21.5t-42 -21.5z
M309 766.5q-14 6.5 -31 17.5q-2 1 -12.5 7.5t-20.5 6.5q-14 0 -22.5 -8.5t-19.5 -29.5l-84 38q17 57 49.5 92.5t74.5 35.5q20 0 34 -6.5t31 -17.5q9 -6 17.5 -10.5t16.5 -4.5q13 0 21.5 9t18.5 29l84 -38q-17 -57 -49 -92t-74 -35q-20 0 -34 6.5zM354 1160l70 -131l-216 -88
l-48 90z" />
    <glyph glyph-name="uni022C" unicode="&#x22c;" horiz-adv-x="585" 
d="M568 349q0 -182 -70 -275.5t-206 -93.5t-205.5 92.5t-69.5 276.5q0 181 69.5 274t205.5 93q276 0 276 -367zM250 553.5q-15 -21.5 -21.5 -69.5t-6.5 -135q0 -90 6 -138.5t21 -69.5t43 -21q29 0 44 21t21 69t6 139q0 86 -6.5 134.5t-22 70t-42.5 21.5t-42 -21.5z
M309 766.5q-14 6.5 -31 17.5q-2 1 -12.5 7.5t-20.5 6.5q-14 0 -22.5 -8.5t-19.5 -29.5l-84 38q17 57 49.5 92.5t74.5 35.5q20 0 34 -6.5t31 -17.5q9 -6 17.5 -10.5t16.5 -4.5q13 0 21.5 9t18.5 29l84 -38q-17 -57 -49 -92t-74 -35q-20 0 -34 6.5zM437 965h-280v126h280v-126
z" />
    <glyph glyph-name="OE" unicode="&#x152;" horiz-adv-x="759" 
d="M502 139h244v-139h-372q-43 -20 -98 -20q-124 0 -191.5 95.5t-67.5 273.5q0 177 67.5 272t191.5 95q56 0 99 -20h379l-20 -137h-235q34 -60 45 -139h169v-134h-168q-10 -87 -43 -147zM321.5 141q13.5 21 19 69.5t5.5 138.5q0 87 -6 136t-19.5 69.5t-36.5 20.5
q-24 0 -37 -20.5t-19 -69t-6 -136.5q0 -89 5.5 -138t19 -70t37.5 -21t37.5 21z" />
    <glyph glyph-name="P" unicode="P" horiz-adv-x="514" 
d="M438 636.5q71 -59.5 71 -173.5q0 -119 -66 -181t-186 -62h-31v-220h-198v696h204q135 0 206 -59.5zM292.5 383q15.5 24 15.5 80q0 50 -14.5 73t-54.5 23h-13v-200h10q41 0 56.5 24z" />
    <glyph glyph-name="uni1E54" unicode="&#x1e54;" horiz-adv-x="514" 
d="M438 636.5q71 -59.5 71 -173.5q0 -119 -66 -181t-186 -62h-31v-220h-198v696h204q135 0 206 -59.5zM292.5 383q15.5 24 15.5 80q0 50 -14.5 73t-54.5 23h-13v-200h10q41 0 56.5 24zM323 968l70 -131l-216 -88l-48 90z" />
    <glyph glyph-name="uni1E56" unicode="&#x1e56;" horiz-adv-x="514" 
d="M438 636.5q71 -59.5 71 -173.5q0 -119 -66 -181t-186 -62h-31v-220h-198v696h204q135 0 206 -59.5zM292.5 383q15.5 24 15.5 80q0 50 -14.5 73t-54.5 23h-13v-200h10q41 0 56.5 24zM336 922q29 -29 29 -73q0 -45 -29 -74t-74 -29t-74 29t-29 74q0 44 29 73t74 29t74 -29z
" />
    <glyph glyph-name="uni01A4" unicode="&#x1a4;" horiz-adv-x="678" 
d="M602 636.5q71 -59.5 71 -173.5q0 -119 -66 -181t-186 -62h-31v-220h-198v558h-18q-15 0 -22.5 -9.5t-7.5 -25.5q0 -33 16 -66l-118 -50q-20 32 -31 64t-11 72q0 71 49 112t136 41h211q135 0 206 -59.5zM456.5 383q15.5 24 15.5 80q0 50 -14.5 73t-54.5 23h-13v-200h10
q41 0 56.5 24z" />
    <glyph glyph-name="Thorn" unicode="&#xde;" horiz-adv-x="514" 
d="M441.5 532q67.5 -59 67.5 -174q0 -124 -64 -187t-178 -63h-41v-108h-198v696h198v-105h26q122 0 189.5 -59zM297 272.5q16 26.5 16 85.5q0 52 -17.5 74.5t-51.5 22.5h-18v-209h20q35 0 51 26.5z" />
    <glyph glyph-name="Q" unicode="Q" horiz-adv-x="585" 
d="M532.5 31.5q42.5 -15.5 82.5 -52.5l-115 -147q-36 65 -92 108.5t-131 43.5q-125 0 -192.5 93.5t-67.5 271.5q0 179 70 273t205 94q136 0 206 -93t70 -274q0 -121 -40 -190t-106 -112q68 0 110.5 -15.5zM228 211.5q6 -48.5 21 -69.5t43 -21q29 0 44 20.5t21 69t6 138.5
q0 88 -6.5 136.5t-21.5 69t-43 20.5t-42.5 -20.5t-21 -68.5t-6.5 -137t6 -137.5z" />
    <glyph glyph-name="uni024A" unicode="&#x24a;" horiz-adv-x="572" 
d="M696 -181q-57 -45 -143 -45q-95 0 -151 49.5t-56 147.5v46q-48 -36 -106 -36q-65 0 -115 41t-79 121.5t-29 195.5q0 122 28.5 207t78.5 127.5t116 42.5q72 0 123 -49l4 29h177v-738q0 -44 39 -44q15 0 25.5 3.5t26.5 11.5zM346 138v415q-25 22 -56 22q-26 0 -40.5 -20
t-21 -71t-6.5 -145q0 -91 7 -138.5t21.5 -65.5t40.5 -18q30 0 55 21z" />
    <glyph glyph-name="R" unicode="R" horiz-adv-x="527" 
d="M244 251h-18v-251h-198v696h213q270 0 270 -220q0 -59 -22 -108t-73 -79l136 -289h-208zM226 384h18q37 0 52 21.5t15 70.5q0 44 -17 64.5t-53 20.5h-15v-177z" />
    <glyph glyph-name="Racute" unicode="&#x154;" horiz-adv-x="527" 
d="M244 251h-18v-251h-198v696h213q270 0 270 -220q0 -59 -22 -108t-73 -79l136 -289h-208zM226 384h18q37 0 52 21.5t15 70.5q0 44 -17 64.5t-53 20.5h-15v-177zM318 968l70 -131l-216 -88l-48 90z" />
    <glyph glyph-name="Rcaron" unicode="&#x158;" horiz-adv-x="527" 
d="M244 251h-18v-251h-198v696h213q270 0 270 -220q0 -59 -22 -108t-73 -79l136 -289h-208zM226 384h18q37 0 52 21.5t15 70.5q0 44 -17 64.5t-53 20.5h-15v-177zM372 955l62 -64l-122 -143h-111l-121 143l62 64l115 -85z" />
    <glyph glyph-name="Rcommaaccent" unicode="&#x156;" horiz-adv-x="527" 
d="M244 251h-18v-251h-198v696h213q270 0 270 -220q0 -59 -22 -108t-73 -79l136 -289h-208zM226 384h18q37 0 52 21.5t15 70.5q0 44 -17 64.5t-53 20.5h-15v-177zM324.5 -88q23.5 -25 23.5 -63q0 -20 -5 -37.5t-18 -49.5l-42 -101h-89l25 115q-41 25 -41 73q0 36 23.5 62
t61.5 26t61.5 -25z" />
    <glyph glyph-name="uni0210" unicode="&#x210;" horiz-adv-x="527" 
d="M244 251h-18v-251h-198v696h213q270 0 270 -220q0 -59 -22 -108t-73 -79l136 -289h-208zM226 384h18q37 0 52 21.5t15 70.5q0 44 -17 64.5t-53 20.5h-15v-177zM140 998l88 -209l-84 -42l-114 193zM306 998l82 -211l-87 -36l-108 194z" />
    <glyph glyph-name="uni1E5A" unicode="&#x1e5a;" horiz-adv-x="527" 
d="M244 251h-18v-251h-198v696h213q270 0 270 -220q0 -59 -22 -108t-73 -79l136 -289h-208zM226 384h18q37 0 52 21.5t15 70.5q0 44 -17 64.5t-53 20.5h-15v-177zM190 -230q-29 29 -29 73q0 45 29 74t74 29t74 -29t29 -74q0 -44 -29 -73t-74 -29t-74 29z" />
    <glyph glyph-name="uni0212" unicode="&#x212;" horiz-adv-x="527" 
d="M244 251h-18v-251h-198v696h213q270 0 270 -220q0 -59 -22 -108t-73 -79l136 -289h-208zM226 384h18q37 0 52 21.5t15 70.5q0 44 -17 64.5t-53 20.5h-15v-177zM373.5 914.5q38.5 -51.5 44.5 -140.5l-96 -16q-13 82 -64 82t-66 -82l-95 16q6 89 44.5 140.5t116.5 51.5
q77 0 115.5 -51.5z" />
    <glyph glyph-name="uni024C" unicode="&#x24c;" horiz-adv-x="537" 
d="M254 251h-18v-251h-198v251h-28v133h28v312h213q270 0 270 -220q0 -59 -22 -108t-73 -79l136 -289h-208zM236 384h18q37 0 52 21.5t15 70.5q0 44 -17 64.5t-53 20.5h-15v-177z" />
    <glyph glyph-name="uni2C64" unicode="&#x2c64;" horiz-adv-x="527" 
d="M290.5 -82.5q10.5 3.5 26.5 11.5l61 -110q-57 -45 -143 -45q-95 0 -151 49.5t-56 147.5v725h213q270 0 270 -220q0 -59 -22 -108t-73 -79l136 -289h-208l-100 251h-18v-293q0 -44 39 -44q15 0 25.5 3.5zM226 561v-177h18q37 0 52 21.5t15 70.5q0 44 -17 64.5t-53 20.5
h-15z" />
    <glyph glyph-name="uni2C64.ss01" horiz-adv-x="387" 
d="M290.5 -82.5q10.5 3.5 26.5 11.5l61 -110q-57 -45 -143 -45q-95 0 -151 49.5t-56 147.5v725h174l13 -85q18 48 51 75t76 27q19 0 30.5 -2t24.5 -7l-27 -187q-28 7 -53 7q-40 0 -60.5 -27.5t-30.5 -75.5v-463q0 -44 39 -44q15 0 25.5 3.5z" />
    <glyph glyph-name="S" unicode="S" horiz-adv-x="494" 
d="M376 692.5q54 -23.5 97 -70.5l-82 -100q-59 53 -114 53q-29 0 -43 -15t-14 -40t19 -41t78 -43q62 -29 97.5 -57.5t53.5 -69t18 -101.5q0 -67 -30.5 -119t-87.5 -80.5t-134 -28.5q-82 0 -139.5 28t-102.5 75l92 103q36 -32 67.5 -48t65.5 -16q64 0 64 68q0 31 -19 52
t-65 42q-101 45 -141 94t-40 124q0 65 30.5 113.5t84 74.5t120.5 26q71 0 125 -23.5z" />
    <glyph glyph-name="Sacute" unicode="&#x15a;" horiz-adv-x="494" 
d="M376 692.5q54 -23.5 97 -70.5l-82 -100q-59 53 -114 53q-29 0 -43 -15t-14 -40t19 -41t78 -43q62 -29 97.5 -57.5t53.5 -69t18 -101.5q0 -67 -30.5 -119t-87.5 -80.5t-134 -28.5q-82 0 -139.5 28t-102.5 75l92 103q36 -32 67.5 -48t65.5 -16q64 0 64 68q0 31 -19 52
t-65 42q-101 45 -141 94t-40 124q0 65 30.5 113.5t84 74.5t120.5 26q71 0 125 -23.5zM319 968l70 -131l-216 -88l-48 90z" />
    <glyph glyph-name="Sacute.loclPLK" horiz-adv-x="494" 
d="M376 692.5q54 -23.5 97 -70.5l-82 -100q-59 53 -114 53q-29 0 -43 -15t-14 -40t19 -41t78 -43q62 -29 97.5 -57.5t53.5 -69t18 -101.5q0 -67 -30.5 -119t-87.5 -80.5t-134 -28.5q-82 0 -139.5 28t-102.5 75l92 103q36 -32 67.5 -48t65.5 -16q64 0 64 68q0 31 -19 52
t-65 42q-101 45 -141 94t-40 124q0 65 30.5 113.5t84 74.5t120.5 26q71 0 125 -23.5zM253 984l137 -75l-127 -163l-82 47z" />
    <glyph glyph-name="uniA78B" unicode="&#xa78b;" horiz-adv-x="243" 
d="M54 328l-19 368h173l-19 -368h-135z" />
    <glyph glyph-name="Scaron" unicode="&#x160;" horiz-adv-x="494" 
d="M376 692.5q54 -23.5 97 -70.5l-82 -100q-59 53 -114 53q-29 0 -43 -15t-14 -40t19 -41t78 -43q62 -29 97.5 -57.5t53.5 -69t18 -101.5q0 -67 -30.5 -119t-87.5 -80.5t-134 -28.5q-82 0 -139.5 28t-102.5 75l92 103q36 -32 67.5 -48t65.5 -16q64 0 64 68q0 31 -19 52
t-65 42q-101 45 -141 94t-40 124q0 65 30.5 113.5t84 74.5t120.5 26q71 0 125 -23.5zM373 955l62 -64l-122 -143h-111l-121 143l62 64l115 -85z" />
    <glyph glyph-name="Scedilla" unicode="&#x15e;" horiz-adv-x="494" 
d="M434.5 60q-51.5 -60 -142.5 -75v-34q94 -16 94 -101q0 -54 -37.5 -88t-107.5 -34q-61 0 -111 33l39 78q28 -13 57 -13q32 0 32 26q0 16 -18.5 23t-59.5 7l11 100q-116 12 -199 101l92 103q36 -32 67.5 -48t65.5 -16q64 0 64 68q0 31 -19 52t-65 42q-101 45 -141 94
t-40 124q0 65 30.5 113.5t84 74.5t120.5 26q71 0 125 -23.5t97 -70.5l-82 -100q-59 53 -114 53q-29 0 -43 -15t-14 -40t19 -41t78 -43q62 -29 97.5 -57.5t53.5 -69t18 -101.5q0 -88 -51.5 -148z" />
    <glyph glyph-name="Scircumflex" unicode="&#x15c;" horiz-adv-x="494" 
d="M376 692.5q54 -23.5 97 -70.5l-82 -100q-59 53 -114 53q-29 0 -43 -15t-14 -40t19 -41t78 -43q62 -29 97.5 -57.5t53.5 -69t18 -101.5q0 -67 -30.5 -119t-87.5 -80.5t-134 -28.5q-82 0 -139.5 28t-102.5 75l92 103q36 -32 67.5 -48t65.5 -16q64 0 64 68q0 31 -19 52
t-65 42q-101 45 -141 94t-40 124q0 65 30.5 113.5t84 74.5t120.5 26q71 0 125 -23.5zM143 759l-62 64l122 143h111l121 -143l-62 -64l-115 85z" />
    <glyph glyph-name="Scommaaccent" unicode="&#x218;" horiz-adv-x="494" 
d="M376 692.5q54 -23.5 97 -70.5l-82 -100q-59 53 -114 53q-29 0 -43 -15t-14 -40t19 -41t78 -43q62 -29 97.5 -57.5t53.5 -69t18 -101.5q0 -67 -30.5 -119t-87.5 -80.5t-134 -28.5q-82 0 -139.5 28t-102.5 75l92 103q36 -32 67.5 -48t65.5 -16q64 0 64 68q0 31 -19 52
t-65 42q-101 45 -141 94t-40 124q0 65 30.5 113.5t84 74.5t120.5 26q71 0 125 -23.5zM306.5 -88q23.5 -25 23.5 -63q0 -20 -5 -37.5t-18 -49.5l-42 -101h-89l25 115q-41 25 -41 73q0 36 23.5 62t61.5 26t61.5 -25z" />
    <glyph glyph-name="uni1E60" unicode="&#x1e60;" horiz-adv-x="494" 
d="M376 692.5q54 -23.5 97 -70.5l-82 -100q-59 53 -114 53q-29 0 -43 -15t-14 -40t19 -41t78 -43q62 -29 97.5 -57.5t53.5 -69t18 -101.5q0 -67 -30.5 -119t-87.5 -80.5t-134 -28.5q-82 0 -139.5 28t-102.5 75l92 103q36 -32 67.5 -48t65.5 -16q64 0 64 68q0 31 -19 52
t-65 42q-101 45 -141 94t-40 124q0 65 30.5 113.5t84 74.5t120.5 26q71 0 125 -23.5zM332 922q29 -29 29 -73q0 -45 -29 -74t-74 -29t-74 29t-29 74q0 44 29 73t74 29t74 -29z" />
    <glyph glyph-name="uni1E62" unicode="&#x1e62;" horiz-adv-x="494" 
d="M376 692.5q54 -23.5 97 -70.5l-82 -100q-59 53 -114 53q-29 0 -43 -15t-14 -40t19 -41t78 -43q62 -29 97.5 -57.5t53.5 -69t18 -101.5q0 -67 -30.5 -119t-87.5 -80.5t-134 -28.5q-82 0 -139.5 28t-102.5 75l92 103q36 -32 67.5 -48t65.5 -16q64 0 64 68q0 31 -19 52
t-65 42q-101 45 -141 94t-40 124q0 65 30.5 113.5t84 74.5t120.5 26q71 0 125 -23.5zM172 -230q-29 29 -29 73q0 45 29 74t74 29t74 -29t29 -74q0 -44 -29 -73t-74 -29t-74 29z" />
    <glyph glyph-name="uni1E9E" unicode="&#x1e9e;" horiz-adv-x="567" 
d="M393 698q61 -18 133 -53v-82l-105 -168q63 -16 102.5 -62.5t39.5 -134.5q0 -71 -29.5 -120.5t-78.5 -73.5t-106 -24q-67 0 -116 28l55 123q12 -6 29 -6q20 0 30.5 17.5t10.5 58.5q0 48 -19.5 73.5t-74.5 34.5v92l98 162q-45 12 -81 12q-31 0 -43 -15.5t-12 -49.5v-510
h-198v504q0 96 58.5 154t168.5 58q77 0 138 -18z" />
    <glyph glyph-name="uni018F" unicode="&#x18f;" horiz-adv-x="534" 
d="M450.5 627q66.5 -89 66.5 -277q0 -369 -258 -369q-134 0 -193 90.5t-59 268.5q0 32 6 74h306q-1 89 -21.5 125t-63.5 36q-35 0 -60.5 -12.5t-50.5 -35.5l-84 98q46 46 98 68.5t118 22.5q129 0 195.5 -89zM293 134q12 13 18.5 48t7.5 101h-124q0 -95 15.5 -128.5
t48.5 -33.5q22 0 34 13z" />
    <glyph glyph-name="T" unicode="T" horiz-adv-x="463" 
d="M471 696l-20 -147h-121v-549h-198v549h-131v147h470z" />
    <glyph glyph-name="Tbar" unicode="&#x166;" horiz-adv-x="463" 
d="M451 549h-121v-158h86v-104h-86v-287h-198v287h-87v104h87v158h-131v147h470z" />
    <glyph glyph-name="Tcaron" unicode="&#x164;" horiz-adv-x="463" 
d="M471 696l-20 -147h-121v-549h-198v549h-131v147h470zM346 955l62 -64l-122 -143h-111l-121 143l62 64l115 -85z" />
    <glyph glyph-name="uni0162" unicode="&#x162;" horiz-adv-x="463" 
d="M400 -78q24 -27 24 -72q0 -54 -37.5 -88t-106.5 -34q-32 0 -62 9.5t-50 23.5l40 83q28 -18 52 -18q19 0 27.5 6t8.5 21q0 16 -19 22.5t-59 6.5l13 118h-99v549h-131v147h470l-20 -147h-121v-593q46 -7 70 -34z" />
    <glyph glyph-name="uni1E70" unicode="&#x1e70;" horiz-adv-x="463" 
d="M471 696l-20 -147h-121v-549h-198v549h-131v147h470zM112 -278l-62 64l122 153h111l121 -153l-62 -64l-115 95z" />
    <glyph glyph-name="uni021A" unicode="&#x21a;" horiz-adv-x="463" 
d="M471 696l-20 -147h-121v-549h-198v549h-131v147h470zM291.5 -88q23.5 -25 23.5 -63q0 -20 -5 -37.5t-18 -49.5l-42 -101h-89l25 115q-41 25 -41 73q0 36 23.5 62t61.5 26t61.5 -25z" />
    <glyph glyph-name="uni023E" unicode="&#x23e;" horiz-adv-x="467" 
d="M475 737l-19 -41h15l-20 -138h-59l-77 -166v-392h-168v30l-49 -106l-47 22l96 207v405h-146v138h398l29 63zM315 515l20 43h-20v-43z" />
    <glyph glyph-name="uni1E6A" unicode="&#x1e6a;" horiz-adv-x="463" 
d="M471 696l-20 -147h-121v-549h-198v549h-131v147h470zM305 922q29 -29 29 -73q0 -45 -29 -74t-74 -29t-74 29t-29 74q0 44 29 73t74 29t74 -29z" />
    <glyph glyph-name="uni1E6C" unicode="&#x1e6c;" horiz-adv-x="463" 
d="M471 696l-20 -147h-121v-549h-198v549h-131v147h470zM157 -230q-29 29 -29 73q0 45 29 74t74 29t74 -29t29 -74q0 -44 -29 -73t-74 -29t-74 29z" />
    <glyph glyph-name="uni01AC" unicode="&#x1ac;" horiz-adv-x="527" 
d="M535 696l-20 -147h-121v-549h-198v549h-13q-22 0 -31 -9t-9 -28q0 -25 11 -52l-121 -52q-33 58 -33 126q0 74 50.5 117t136.5 45h348z" />
    <glyph glyph-name="uni1E6E" unicode="&#x1e6e;" horiz-adv-x="463" 
d="M471 696l-20 -147h-121v-549h-198v549h-131v147h470zM372 -198h-280v126h280v-126z" />
    <glyph glyph-name="uni01BC" unicode="&#x1bc;" horiz-adv-x="478" 
d="M408 563h-194v-125q23 14 42.5 19.5t41.5 5.5q71 0 116.5 -58.5t45.5 -171.5q0 -77 -30.5 -134t-87 -88t-133.5 -31q-130 0 -209 110l101 90q25 -30 46.5 -45t51.5 -15q35 0 52.5 26.5t17.5 83.5q0 61 -13.5 83.5t-40.5 22.5q-14 0 -27 -5.5t-30 -18.5h-121v384h391z" />
    <glyph glyph-name="uni0184" unicode="&#x184;" horiz-adv-x="544" 
d="M477.5 410.5q61.5 -56.5 61.5 -169.5q0 -120 -64.5 -180.5t-183.5 -60.5h-233v476l-66 55q58 64 103 165h161v-229h40q120 0 181.5 -56.5zM321.5 164q12.5 24 12.5 75q0 48 -13 71t-50 23h-15v-193h21q32 0 44.5 24z" />
    <glyph glyph-name="uni01A7" unicode="&#x1a7;" horiz-adv-x="485" 
d="M373.5 690.5q52.5 -25.5 81 -73t28.5 -110.5q0 -75 -41.5 -124t-144.5 -89q-49 -19 -66.5 -42t-17.5 -60q0 -66 63 -66q30 0 59 15.5t64 45.5l94 -103q-42 -46 -101.5 -74.5t-137.5 -28.5q-75 0 -130.5 27.5t-85.5 78.5t-30 119q0 84 38 132.5t132 86.5q58 23 80 43.5
t22 53.5q0 53 -51 53q-61 0 -118 -51l-85 98q44 45 101.5 69.5t124.5 24.5q69 0 121.5 -25.5z" />
    <glyph glyph-name="uni01AE" unicode="&#x1ae;" horiz-adv-x="474" 
d="M482 -181q-57 -45 -143 -45q-95 0 -151 49.5t-56 147.5v578h-131v147h470l-20 -147h-121v-591q0 -44 39 -44q15 0 25.5 3.5t26.5 11.5z" />
    <glyph glyph-name="U" unicode="U" horiz-adv-x="535" 
d="M517 210q0 -101 -63 -165t-186 -64q-124 0 -187 61.5t-63 167.5v486h198v-480q0 -50 11.5 -71.5t40.5 -21.5t40 22t11 71v480h198v-486z" />
    <glyph glyph-name="Uacute" unicode="&#xda;" horiz-adv-x="535" 
d="M517 210q0 -101 -63 -165t-186 -64q-124 0 -187 61.5t-63 167.5v486h198v-480q0 -50 11.5 -71.5t40.5 -21.5t40 22t11 71v480h198v-486zM328 968l70 -131l-216 -88l-48 90z" />
    <glyph glyph-name="uni0244" unicode="&#x244;" horiz-adv-x="569" 
d="M569 496h-35v-286q0 -101 -63 -165t-186 -64q-124 0 -187 61.5t-63 167.5v286h-35v103h35v97h198v-97h103v97h198v-97h35v-103zM336 496h-103v-280q0 -50 11.5 -71.5t40.5 -21.5t40 22t11 71v280z" />
    <glyph glyph-name="Ubreve" unicode="&#x16c;" horiz-adv-x="535" 
d="M517 210q0 -101 -63 -165t-186 -64q-124 0 -187 61.5t-63 167.5v486h198v-480q0 -50 11.5 -71.5t40.5 -21.5t40 22t11 71v480h198v-486zM152 796.5q-39 49.5 -45 131.5l95 17q15 -69 66 -69t64 69l96 -17q-6 -81 -45 -131t-115 -50q-77 0 -116 49.5z" />
    <glyph glyph-name="uni01D3" unicode="&#x1d3;" horiz-adv-x="535" 
d="M517 210q0 -101 -63 -165t-186 -64q-124 0 -187 61.5t-63 167.5v486h198v-480q0 -50 11.5 -71.5t40.5 -21.5t40 22t11 71v480h198v-486zM382 955l62 -64l-122 -143h-111l-121 143l62 64l115 -85z" />
    <glyph glyph-name="Ucircumflex" unicode="&#xdb;" horiz-adv-x="535" 
d="M517 210q0 -101 -63 -165t-186 -64q-124 0 -187 61.5t-63 167.5v486h198v-480q0 -50 11.5 -71.5t40.5 -21.5t40 22t11 71v480h198v-486zM152 759l-62 64l122 143h111l121 -143l-62 -64l-115 85z" />
    <glyph glyph-name="uni0214" unicode="&#x214;" horiz-adv-x="535" 
d="M517 210q0 -101 -63 -165t-186 -64q-124 0 -187 61.5t-63 167.5v486h198v-480q0 -50 11.5 -71.5t40.5 -21.5t40 22t11 71v480h198v-486zM150 998l88 -209l-84 -42l-114 193zM316 998l82 -211l-87 -36l-108 194z" />
    <glyph glyph-name="Udieresis" unicode="&#xdc;" horiz-adv-x="535" 
d="M517 210q0 -101 -63 -165t-186 -64q-124 0 -187 61.5t-63 167.5v486h198v-480q0 -50 11.5 -71.5t40.5 -21.5t40 22t11 71v480h198v-486zM227.5 914q24.5 -26 24.5 -63q0 -39 -24 -64.5t-63 -25.5q-37 0 -62.5 26t-25.5 64q0 37 25.5 63t62.5 26q38 0 62.5 -26zM437.5 914
q24.5 -26 24.5 -63q0 -39 -24 -64.5t-63 -25.5q-37 0 -62.5 26t-25.5 64q0 37 25.5 63t62.5 26q38 0 62.5 -26z" />
    <glyph glyph-name="uni01D7" unicode="&#x1d7;" horiz-adv-x="535" 
d="M517 210q0 -101 -63 -165t-186 -64q-124 0 -187 61.5t-63 167.5v486h198v-480q0 -50 11.5 -71.5t40.5 -21.5t40 22t11 71v480h198v-486zM325 1136l107 -93l-159 -153l-72 58zM213.5 902q24.5 -26 24.5 -63q0 -39 -24 -64.5t-63 -25.5q-37 0 -62.5 26t-25.5 64
q0 37 25.5 63t62.5 26q38 0 62.5 -26zM445.5 902q24.5 -26 24.5 -63q0 -39 -24 -64.5t-63 -25.5q-37 0 -62.5 26t-25.5 64q0 37 25.5 63t62.5 26q38 0 62.5 -26z" />
    <glyph glyph-name="uni01D9" unicode="&#x1d9;" horiz-adv-x="535" 
d="M517 210q0 -101 -63 -165t-186 -64q-124 0 -187 61.5t-63 167.5v486h198v-480q0 -50 11.5 -71.5t40.5 -21.5t40 22t11 71v480h198v-486zM387 1132l62 -64l-122 -143h-111l-121 143l62 64l115 -85zM213.5 902q24.5 -26 24.5 -63q0 -39 -24 -64.5t-63 -25.5q-37 0 -62.5 26
t-25.5 64q0 37 25.5 63t62.5 26q38 0 62.5 -26zM445.5 902q24.5 -26 24.5 -63q0 -39 -24 -64.5t-63 -25.5q-37 0 -62.5 26t-25.5 64q0 37 25.5 63t62.5 26q38 0 62.5 -26z" />
    <glyph glyph-name="uni01DB" unicode="&#x1db;" horiz-adv-x="535" 
d="M517 210q0 -101 -63 -165t-186 -64q-124 0 -187 61.5t-63 167.5v486h198v-480q0 -50 11.5 -71.5t40.5 -21.5t40 22t11 71v480h198v-486zM216 1136l124 -188l-72 -58l-159 153zM213.5 902q24.5 -26 24.5 -63q0 -39 -24 -64.5t-63 -25.5q-37 0 -62.5 26t-25.5 64
q0 37 25.5 63t62.5 26q38 0 62.5 -26zM445.5 902q24.5 -26 24.5 -63q0 -39 -24 -64.5t-63 -25.5q-37 0 -62.5 26t-25.5 64q0 37 25.5 63t62.5 26q38 0 62.5 -26z" />
    <glyph glyph-name="uni01D5" unicode="&#x1d5;" horiz-adv-x="535" 
d="M517 210q0 -101 -63 -165t-186 -64q-124 0 -187 61.5t-63 167.5v486h198v-480q0 -50 11.5 -71.5t40.5 -21.5t40 22t11 71v480h198v-486zM225.5 898q24.5 -26 24.5 -63q0 -39 -24 -64.5t-63 -25.5q-37 0 -62.5 26t-25.5 64q0 37 25.5 63t62.5 26q38 0 62.5 -26zM435.5 898
q24.5 -26 24.5 -63q0 -39 -24 -64.5t-63 -25.5q-37 0 -62.5 26t-25.5 64q0 37 25.5 63t62.5 26q38 0 62.5 -26zM408 966h-280v126h280v-126z" />
    <glyph glyph-name="uni1EE4" unicode="&#x1ee4;" horiz-adv-x="535" 
d="M517 210q0 -101 -63 -165t-186 -64q-124 0 -187 61.5t-63 167.5v486h198v-480q0 -50 11.5 -71.5t40.5 -21.5t40 22t11 71v480h198v-486zM193 -230q-29 29 -29 73q0 45 29 74t74 29t74 -29t29 -74q0 -44 -29 -73t-74 -29t-74 29z" />
    <glyph glyph-name="Ugrave" unicode="&#xd9;" horiz-adv-x="535" 
d="M517 210q0 -101 -63 -165t-186 -64q-124 0 -187 61.5t-63 167.5v486h198v-480q0 -50 11.5 -71.5t40.5 -21.5t40 22t11 71v480h198v-486zM207 967l194 -129l-48 -90l-216 88z" />
    <glyph glyph-name="uni1EE6" unicode="&#x1ee6;" horiz-adv-x="535" 
d="M517 210q0 -101 -63 -165t-186 -64q-124 0 -187 61.5t-63 167.5v486h198v-480q0 -50 11.5 -71.5t40.5 -21.5t40 22t11 71v480h198v-486zM217 856q32 2 45 9.5t13 26.5q0 13 -7.5 20.5t-20.5 7.5q-15 0 -25 -2.5t-27 -9.5l-26 73q42 26 103 26q56 0 86.5 -29.5t30.5 -76.5
q0 -40 -18.5 -65t-53.5 -32v-40h-100v92z" />
    <glyph glyph-name="Uhorn" unicode="&#x1af;" horiz-adv-x="651" 
d="M622 580.5q-39 -34.5 -105 -34.5v-336q0 -101 -63 -165t-186 -64q-124 0 -187 61.5t-63 167.5v486h198v-480q0 -50 11.5 -71.5t40.5 -21.5t40 22t11 71v480h198v-61q15 4 21 14.5t6 32.5q0 25 -2.5 40t-7.5 36l112 15q7 -22 11 -42t4 -49q0 -67 -39 -101.5z" />
    <glyph glyph-name="uni1EE8" unicode="&#x1ee8;" horiz-adv-x="651" 
d="M398 837l-216 -88l-48 90l194 129zM622 580.5q-39 -34.5 -105 -34.5v-336q0 -101 -63 -165t-186 -64q-124 0 -187 61.5t-63 167.5v486h198v-480q0 -50 11.5 -71.5t40.5 -21.5t40 22t11 71v480h198v-61q15 4 21 14.5t6 32.5q0 25 -2.5 40t-7.5 36l112 15q7 -22 11 -42
t4 -49q0 -67 -39 -101.5z" />
    <glyph glyph-name="uni1EF0" unicode="&#x1ef0;" horiz-adv-x="651" 
d="M622 580.5q-39 -34.5 -105 -34.5v-336q0 -101 -63 -165t-186 -64q-124 0 -187 61.5t-63 167.5v486h198v-480q0 -50 11.5 -71.5t40.5 -21.5t40 22t11 71v480h198v-61q15 4 21 14.5t6 32.5q0 25 -2.5 40t-7.5 36l112 15q7 -22 11 -42t4 -49q0 -67 -39 -101.5zM341 -83
q29 -29 29 -74q0 -44 -29 -73t-74 -29t-74 29t-29 73q0 45 29 74t74 29t74 -29z" />
    <glyph glyph-name="uni1EEA" unicode="&#x1eea;" horiz-adv-x="651" 
d="M401 838l-48 -90l-216 88l70 131zM622 580.5q-39 -34.5 -105 -34.5v-336q0 -101 -63 -165t-186 -64q-124 0 -187 61.5t-63 167.5v486h198v-480q0 -50 11.5 -71.5t40.5 -21.5t40 22t11 71v480h198v-61q15 4 21 14.5t6 32.5q0 25 -2.5 40t-7.5 36l112 15q7 -22 11 -42
t4 -49q0 -67 -39 -101.5z" />
    <glyph glyph-name="uni1EEC" unicode="&#x1eec;" horiz-adv-x="651" 
d="M222 917.5q-10 -2.5 -27 -9.5l-26 73q42 26 103 26q56 0 86.5 -29.5t30.5 -76.5q0 -40 -18.5 -65t-53.5 -32v-40h-100v92q32 2 45 9.5t13 26.5q0 13 -7.5 20.5t-20.5 7.5q-15 0 -25 -2.5zM622 580.5q-39 -34.5 -105 -34.5v-336q0 -101 -63 -165t-186 -64
q-124 0 -187 61.5t-63 167.5v486h198v-480q0 -50 11.5 -71.5t40.5 -21.5t40 22t11 71v480h198v-61q15 4 21 14.5t6 32.5q0 25 -2.5 40t-7.5 36l112 15q7 -22 11 -42t4 -49q0 -67 -39 -101.5z" />
    <glyph glyph-name="uni1EEE" unicode="&#x1eee;" horiz-adv-x="651" 
d="M197.5 785.5q-8.5 -8.5 -19.5 -29.5l-84 38q17 57 49.5 92.5t74.5 35.5q20 0 34 -6.5t31 -17.5q9 -6 17.5 -10.5t16.5 -4.5q13 0 21.5 9t18.5 29l84 -38q-17 -57 -49 -92t-74 -35q-20 0 -34 6.5t-31 17.5q-2 1 -12.5 7.5t-20.5 6.5q-14 0 -22.5 -8.5zM622 580.5
q-39 -34.5 -105 -34.5v-336q0 -101 -63 -165t-186 -64q-124 0 -187 61.5t-63 167.5v486h198v-480q0 -50 11.5 -71.5t40.5 -21.5t40 22t11 71v480h198v-61q15 4 21 14.5t6 32.5q0 25 -2.5 40t-7.5 36l112 15q7 -22 11 -42t4 -49q0 -67 -39 -101.5z" />
    <glyph glyph-name="Uhungarumlaut" unicode="&#x170;" horiz-adv-x="535" 
d="M517 210q0 -101 -63 -165t-186 -64q-124 0 -187 61.5t-63 167.5v486h198v-480q0 -50 11.5 -71.5t40.5 -21.5t40 22t11 71v480h198v-486zM226 998l113 -53l-108 -194l-87 36zM392 998l110 -58l-114 -193l-84 42z" />
    <glyph glyph-name="uni0216" unicode="&#x216;" horiz-adv-x="535" 
d="M517 210q0 -101 -63 -165t-186 -64q-124 0 -187 61.5t-63 167.5v486h198v-480q0 -50 11.5 -71.5t40.5 -21.5t40 22t11 71v480h198v-486zM383.5 914.5q38.5 -51.5 44.5 -140.5l-96 -16q-13 82 -64 82t-66 -82l-95 16q6 89 44.5 140.5t116.5 51.5q77 0 115.5 -51.5z" />
    <glyph glyph-name="Umacron" unicode="&#x16a;" horiz-adv-x="535" 
d="M517 210q0 -101 -63 -165t-186 -64q-124 0 -187 61.5t-63 167.5v486h198v-480q0 -50 11.5 -71.5t40.5 -21.5t40 22t11 71v480h198v-486zM407 777h-280v126h280v-126z" />
    <glyph glyph-name="Uogonek" unicode="&#x172;" horiz-adv-x="535" 
d="M517 696v-486q0 -73 -34 -128.5t-100 -81.5q-52 -22 -72 -47.5t-20 -48.5q0 -22 11 -33.5t29 -11.5q23 0 50 8l-10 -111q-30 -8 -64 -8q-60 0 -100 33.5t-40 90.5q0 71 71 110q-109 8 -164.5 68.5t-55.5 159.5v486h198v-480q0 -50 11.5 -71.5t40.5 -21.5t40 22t11 71v480
h198z" />
    <glyph glyph-name="uni01B1" unicode="&#x1b1;" horiz-adv-x="565" 
d="M78.5 65q-71.5 84 -71.5 231q0 94 28 158.5t82 104.5h-93v137h224v-127q-19 -52 -27.5 -110.5t-8.5 -162.5q0 -68 6.5 -105.5t21.5 -53.5t42 -16q28 0 43 16t21.5 53.5t6.5 105.5q0 106 -8 165t-28 108v127h224v-137h-94q55 -40 83 -104t28 -159q0 -147 -71.5 -231
t-204.5 -84q-132 0 -203.5 84z" />
    <glyph glyph-name="Uring" unicode="&#x16e;" horiz-adv-x="535" 
d="M517 210q0 -101 -63 -165t-186 -64q-124 0 -187 61.5t-63 167.5v486h198v-480q0 -50 11.5 -71.5t40.5 -21.5t40 22t11 71v480h198v-486zM368 968q36 -40 36 -103t-36.5 -103.5t-99.5 -40.5q-64 0 -100.5 40.5t-36.5 103.5t36.5 103t100.5 40t100 -40zM244.5 903.5
q-7.5 -11.5 -7.5 -38.5t7.5 -38.5t23.5 -11.5t23.5 11.5t7.5 38.5t-7.5 38.5t-23.5 11.5t-23.5 -11.5z" />
    <glyph glyph-name="Utilde" unicode="&#x168;" horiz-adv-x="535" 
d="M517 210q0 -101 -63 -165t-186 -64q-124 0 -187 61.5t-63 167.5v486h198v-480q0 -50 11.5 -71.5t40.5 -21.5t40 22t11 71v480h198v-486zM284 762.5q-14 6.5 -31 17.5q-2 1 -12.5 7.5t-20.5 6.5q-14 0 -22.5 -8.5t-19.5 -29.5l-84 38q17 57 49.5 92.5t74.5 35.5
q20 0 34 -6.5t31 -17.5q9 -6 17.5 -10.5t16.5 -4.5q13 0 21.5 9t18.5 29l84 -38q-17 -57 -49 -92t-74 -35q-20 0 -34 6.5z" />
    <glyph glyph-name="uni1E78" unicode="&#x1e78;" horiz-adv-x="535" 
d="M517 210q0 -101 -63 -165t-186 -64q-124 0 -187 61.5t-63 167.5v486h198v-480q0 -50 11.5 -71.5t40.5 -21.5t40 22t11 71v480h198v-486zM284 766.5q-14 6.5 -31 17.5q-2 1 -12.5 7.5t-20.5 6.5q-14 0 -22.5 -8.5t-19.5 -29.5l-84 38q17 57 49.5 92.5t74.5 35.5
q20 0 34 -6.5t31 -17.5q9 -6 17.5 -10.5t16.5 -4.5q13 0 21.5 9t18.5 29l84 -38q-17 -57 -49 -92t-74 -35q-20 0 -34 6.5zM329 1160l70 -131l-216 -88l-48 90z" />
    <glyph glyph-name="V" unicode="V" horiz-adv-x="498" 
d="M518 696l-133 -696h-261l-144 696h198l79 -556l68 556h193z" />
    <glyph glyph-name="uni01B2" unicode="&#x1b2;" horiz-adv-x="535" 
d="M476 673.5q41 -42.5 41 -122.5v-284q0 -91 -33.5 -155.5t-94 -97.5t-140.5 -33q-71 0 -123.5 27.5t-80 76.5t-27.5 111v500h198v-512q0 -29 10 -45t30 -16q26 0 44.5 32t18.5 96v302q0 10 -4.5 16.5t-12.5 6.5q-7 0 -14 -3l-23 126q45 17 96 17q74 0 115 -42.5z" />
    <glyph glyph-name="uni0245" unicode="&#x245;" horiz-adv-x="517" 
d="M376 696l161 -696h-204l-76 557l-75 -557h-202l162 696h234z" />
    <glyph glyph-name="W" unicode="W" horiz-adv-x="726" 
d="M726 696l-73 -696h-257l-34 511l-42 -511h-252l-68 696h188l29 -552l47 552h201l40 -552l40 552h181z" />
    <glyph glyph-name="Wacute" unicode="&#x1e82;" horiz-adv-x="726" 
d="M726 696l-73 -696h-257l-34 511l-42 -511h-252l-68 696h188l29 -552l47 552h201l40 -552l40 552h181zM427 968l70 -131l-216 -88l-48 90z" />
    <glyph glyph-name="Wcircumflex" unicode="&#x174;" horiz-adv-x="726" 
d="M726 696l-73 -696h-257l-34 511l-42 -511h-252l-68 696h188l29 -552l47 552h201l40 -552l40 552h181zM251 759l-62 64l122 143h111l121 -143l-62 -64l-115 85z" />
    <glyph glyph-name="Wdieresis" unicode="&#x1e84;" horiz-adv-x="726" 
d="M726 696l-73 -696h-257l-34 511l-42 -511h-252l-68 696h188l29 -552l47 552h201l40 -552l40 552h181zM326.5 914q24.5 -26 24.5 -63q0 -39 -24 -64.5t-63 -25.5q-37 0 -62.5 26t-25.5 64q0 37 25.5 63t62.5 26q38 0 62.5 -26zM536.5 914q24.5 -26 24.5 -63
q0 -39 -24 -64.5t-63 -25.5q-37 0 -62.5 26t-25.5 64q0 37 25.5 63t62.5 26q38 0 62.5 -26z" />
    <glyph glyph-name="Wgrave" unicode="&#x1e80;" horiz-adv-x="726" 
d="M726 696l-73 -696h-257l-34 511l-42 -511h-252l-68 696h188l29 -552l47 552h201l40 -552l40 552h181zM306 967l194 -129l-48 -90l-216 88z" />
    <glyph glyph-name="uni2C72" unicode="&#x2c72;" horiz-adv-x="791" 
d="M68 0h252l42 511l34 -511h257l40 530q2 28 10 38.5t26 10.5q19 0 37 -8l45 111q-52 34 -117 34q-74 0 -116 -41.5t-48 -139.5l-25 -391l-40 552h-201l-47 -552l-29 552h-188z" />
    <glyph glyph-name="uni01F7" unicode="&#x1f7;" horiz-adv-x="514" 
d="M431 691.5q36 -24.5 57 -68.5t21 -102q0 -81 -29.5 -135.5t-78 -89.5t-124.5 -70l-51 -23v-203h-198v696h198v-34q50 54 124 54q45 0 81 -24.5zM290 409.5q18 37.5 18 97.5q0 39 -10 55t-28 16q-24 0 -44 -23v-217q46 34 64 71.5z" />
    <glyph glyph-name="X" unicode="X" horiz-adv-x="514" 
d="M371 375l155 -375h-206l-68 244l-60 -244h-204l147 369l-138 327h206l51 -205l60 205h203z" />
    <glyph glyph-name="Y" unicode="Y" horiz-adv-x="526" 
d="M544 696l-182 -438v-258h-198v257l-182 439h206l77 -289l79 289h200z" />
    <glyph glyph-name="Yacute" unicode="&#xdd;" horiz-adv-x="526" 
d="M544 696l-182 -438v-258h-198v257l-182 439h206l77 -289l79 289h200zM324 968l70 -131l-216 -88l-48 90z" />
    <glyph glyph-name="Ycircumflex" unicode="&#x176;" horiz-adv-x="526" 
d="M544 696l-182 -438v-258h-198v257l-182 439h206l77 -289l79 289h200zM148 759l-62 64l122 143h111l121 -143l-62 -64l-115 85z" />
    <glyph glyph-name="Ydieresis" unicode="&#x178;" horiz-adv-x="526" 
d="M544 696l-182 -438v-258h-198v257l-182 439h206l77 -289l79 289h200zM223.5 914q24.5 -26 24.5 -63q0 -39 -24 -64.5t-63 -25.5q-37 0 -62.5 26t-25.5 64q0 37 25.5 63t62.5 26q38 0 62.5 -26zM433.5 914q24.5 -26 24.5 -63q0 -39 -24 -64.5t-63 -25.5q-37 0 -62.5 26
t-25.5 64q0 37 25.5 63t62.5 26q38 0 62.5 -26z" />
    <glyph glyph-name="uni1EF4" unicode="&#x1ef4;" horiz-adv-x="526" 
d="M544 696l-182 -438v-258h-198v257l-182 439h206l77 -289l79 289h200zM189 -230q-29 29 -29 73q0 45 29 74t74 29t74 -29t29 -74q0 -44 -29 -73t-74 -29t-74 29z" />
    <glyph glyph-name="Ygrave" unicode="&#x1ef2;" horiz-adv-x="526" 
d="M544 696l-182 -438v-258h-198v257l-182 439h206l77 -289l79 289h200zM203 967l194 -129l-48 -90l-216 88z" />
    <glyph glyph-name="uni01B3" unicode="&#x1b3;" horiz-adv-x="559" 
d="M164 257l-182 439h206l78 -288l35 147q21 88 57 124.5t104 36.5q65 0 117 -34l-45 -111q-18 8 -37 8q-18 0 -27.5 -10.5t-18.5 -38.5l-89 -273v-257h-198v257z" />
    <glyph glyph-name="uni1EF6" unicode="&#x1ef6;" horiz-adv-x="526" 
d="M544 696l-182 -438v-258h-198v257l-182 439h206l77 -289l79 289h200zM213 856q32 2 45 9.5t13 26.5q0 13 -7.5 20.5t-20.5 7.5q-15 0 -25 -2.5t-27 -9.5l-26 73q42 26 103 26q56 0 86.5 -29.5t30.5 -76.5q0 -40 -18.5 -65t-53.5 -32v-40h-100v92z" />
    <glyph glyph-name="uni0232" unicode="&#x232;" horiz-adv-x="526" 
d="M544 696l-182 -438v-258h-198v257l-182 439h206l77 -289l79 289h200zM403 777h-280v126h280v-126z" />
    <glyph glyph-name="uni01A6" unicode="&#x1a6;" horiz-adv-x="535" 
d="M252 139h-26v-139h-198v696h198v-112h23q270 0 270 -220q0 -59 -22 -108t-73 -79l136 -289h-208zM226 272h26q37 0 52 21.5t15 70.5q0 44 -17 64.5t-53 20.5h-23v-177z" />
    <glyph glyph-name="uni024E" unicode="&#x24e;" horiz-adv-x="526" 
d="M512 620h32v-103h-74l-108 -259v-258h-198v257l-108 260h-74v103h32l-32 76h196l22 -76h131l23 76h190zM265 397l36 120h-71z" />
    <glyph glyph-name="uni1EF8" unicode="&#x1ef8;" horiz-adv-x="526" 
d="M544 696l-182 -438v-258h-198v257l-182 439h206l77 -289l79 289h200zM280 762.5q-14 6.5 -31 17.5q-2 1 -12.5 7.5t-20.5 6.5q-14 0 -22.5 -8.5t-19.5 -29.5l-84 38q17 57 49.5 92.5t74.5 35.5q20 0 34 -6.5t31 -17.5q9 -6 17.5 -10.5t16.5 -4.5q13 0 21.5 9t18.5 29
l84 -38q-17 -57 -49 -92t-74 -35q-20 0 -34 6.5z" />
    <glyph glyph-name="Z" unicode="Z" horiz-adv-x="464" 
d="M452 696v-147l-231 -394h240l-18 -155h-440v145l230 401h-209v150h428z" />
    <glyph glyph-name="Zacute" unicode="&#x179;" horiz-adv-x="464" 
d="M452 696v-147l-231 -394h240l-18 -155h-440v145l230 401h-209v150h428zM292 968l70 -131l-216 -88l-48 90z" />
    <glyph glyph-name="Zacute.loclPLK" horiz-adv-x="464" 
d="M452 696v-147l-231 -394h240l-18 -155h-440v145l230 401h-209v150h428zM226 984l137 -75l-127 -163l-82 47z" />
    <glyph glyph-name="Zcaron" unicode="&#x17d;" horiz-adv-x="464" 
d="M452 696v-147l-231 -394h240l-18 -155h-440v145l230 401h-209v150h428zM346 955l62 -64l-122 -143h-111l-121 143l62 64l115 -85z" />
    <glyph glyph-name="Zdotaccent" unicode="&#x17b;" horiz-adv-x="464" 
d="M452 696v-147l-231 -394h240l-18 -155h-440v145l230 401h-209v150h428zM305 922q29 -29 29 -73q0 -45 -29 -74t-74 -29t-74 29t-29 74q0 44 29 73t74 29t74 -29z" />
    <glyph glyph-name="uni1E92" unicode="&#x1e92;" horiz-adv-x="464" 
d="M452 696v-147l-231 -394h240l-18 -155h-440v145l230 401h-209v150h428zM148 -230q-29 29 -29 73q0 45 29 74t74 29t74 -29t29 -74q0 -44 -29 -73t-74 -29t-74 29z" />
    <glyph glyph-name="uni0224" unicode="&#x224;" horiz-adv-x="456" 
d="M453 155v-184q0 -98 -55 -147.5t-147 -49.5q-49 0 -84 11.5t-64 33.5l61 110q15 -8 27.5 -11.5t29.5 -3.5q44 0 44 44v43l-262 -1v145l230 401h-209v150h428v-147l-231 -394h232z" />
    <glyph glyph-name="uni01B5" unicode="&#x1b5;" horiz-adv-x="464" 
d="M201 155h260l-18 -155h-440v135l92 151h-61v115h131l88 145h-229v150h428v-137l-98 -158h62v-115h-134z" />
    <glyph glyph-name="uni0299" unicode="&#x299;" horiz-adv-x="466" 
d="M421.5 253q30.5 -34 30.5 -89q0 -83 -57 -123.5t-162 -40.5h-206v531q112 23 206 23t148.5 -39.5t54.5 -106.5q0 -44 -27.5 -73.5t-79.5 -40.5q62 -7 92.5 -41zM217 440v-112h8q15 0 23 10.5t8 44.5q0 37 -6 47.5t-20 10.5q-7 0 -13 -1zM255.5 128q7.5 12 7.5 51
q0 35 -7 47t-27 12h-12v-122h14q17 0 24.5 12z" />
    <glyph glyph-name="uni0262" unicode="&#x262;" horiz-adv-x="483" 
d="M457 477l-84 -93q-26 20 -48 29.5t-46 9.5q-29 0 -44 -14t-21 -46.5t-6 -93.5q0 -68 5.5 -101.5t16 -43.5t27.5 -10q18 0 40 8v76h-37l-17 120h222v-267q-42 -31 -96.5 -49.5t-117.5 -18.5q-124 0 -180.5 67.5t-56.5 219.5q0 138 67.5 211t180.5 73q120 0 195 -77z" />
    <glyph glyph-name="uni029B" unicode="&#x29b;" horiz-adv-x="483" 
d="M585 726l-47 -113q-27 13 -48 13q-18 0 -25.5 -10.5t-7.5 -34.5v-104l-77 -89q-52 35 -99 35q-30 0 -45.5 -14t-21.5 -46.5t-6 -93.5q0 -68 5.5 -101.5t16 -43.5t27.5 -10q19 0 40 8v76h-37l-17 120h222v-267q-42 -31 -96.5 -49.5t-117.5 -18.5q-124 0 -180.5 67.5
t-56.5 219.5q0 92 30 156t81.5 96t116.5 32q31 0 57 -8v61q0 74 42.5 115t114.5 41q70 0 129 -37z" />
    <glyph glyph-name="uni029C" unicode="&#x29c;" horiz-adv-x="487" 
d="M270 0v202h-53v-202h-190v534h190v-197h53v197h190v-534h-190z" />
    <glyph glyph-name="uni026A" unicode="&#x26a;" horiz-adv-x="282" 
d="M277 405h-41v-272h41v-133h-272v133h41v272h-41v129h272v-129z" />
    <glyph glyph-name="uni029F" unicode="&#x29f;" horiz-adv-x="387" 
d="M217 534v-391h170l-18 -143h-342v534h190z" />
    <glyph glyph-name="uni0274" unicode="&#x274;" horiz-adv-x="488" 
d="M461 0h-221l-79 375q10 -66 15.5 -123t5.5 -130v-122h-155v534h218l82 -374q-11 77 -16 130t-5 123v121h155v-534z" />
    <glyph glyph-name="uni0276" unicode="&#x276;" horiz-adv-x="652" 
d="M441 127h197v-127h-295q-46 -19 -96 -19q-108 0 -170.5 71t-62.5 216q0 138 63 212t171 74q25 0 49.5 -5.5t41.5 -14.5h308l-19 -126h-188q20 -35 29 -78h142v-120h-141q-9 -46 -29 -83zM276 129.5q8 12.5 11 43.5t3 95q0 60 -3.5 91.5t-12 44.5t-24.5 13t-25 -13
t-13 -45t-4 -91q0 -62 4 -94.5t13 -44.5t25 -12q18 0 26 12.5z" />
    <glyph glyph-name="uni0280" unicode="&#x280;" horiz-adv-x="454" 
d="M220 174h-14v-174h-179v534h195q108 0 164 -46t56 -137q0 -102 -69 -146l96 -205h-187zM206 282h11q20 0 28.5 15.5t8.5 56.5q0 37 -8 50.5t-24 13.5h-16v-136z" />
    <glyph glyph-name="uni0281" unicode="&#x281;" horiz-adv-x="454" 
d="M442 183q0 -91 -56 -137t-164 -46h-195v534h179v-174h14l62 174h187l-96 -205q69 -44 69 -146zM246 129.5q8 13.5 8 50.5q0 41 -8.5 56.5t-28.5 15.5h-11v-136h16q16 0 24 13.5z" />
    <glyph glyph-name="uni028F" unicode="&#x28f;" horiz-adv-x="444" 
d="M466 534l-149 -344v-190h-190v189l-149 345h195l51 -230l52 230h190z" />
    <glyph glyph-name="a" unicode="a" 
d="M434.5 124.5q4.5 -10.5 18.5 -17.5l-38 -123q-48 4 -79 20t-48 50q-49 -74 -135 -74q-67 0 -106.5 46.5t-39.5 123.5q0 88 55.5 135t162.5 47h20v15q0 45 -10.5 60t-44.5 15q-41 0 -111 -26l-41 116q41 20 93 31t98 11q102 0 151.5 -46.5t49.5 -149.5v-199
q0 -24 4.5 -34.5zM232 120.5q8 7.5 13 19.5v92h-4q-27 0 -39 -15.5t-12 -48.5q0 -27 7 -41t19 -14q8 0 16 7.5z" />
    <glyph glyph-name="a.ss04" horiz-adv-x="507" 
d="M481.5 141q6.5 -14 25.5 -26l-53 -135q-53 8 -85.5 25.5t-53.5 48.5q-48 -74 -128 -74q-173 0 -173 289q0 89 23 153.5t64 98t92 33.5q65 0 108 -54l8 34h166v-352q0 -27 6.5 -41zM265.5 125.5q10.5 9.5 19.5 27.5v245q-8 11 -15.5 15.5t-18.5 4.5q-20 0 -31.5 -31
t-11.5 -119q0 -65 5 -98.5t13 -43.5t19 -10q10 0 20.5 9.5z" />
    <glyph glyph-name="aacute" unicode="&#xe1;" 
d="M434.5 124.5q4.5 -10.5 18.5 -17.5l-38 -123q-48 4 -79 20t-48 50q-49 -74 -135 -74q-67 0 -106.5 46.5t-39.5 123.5q0 88 55.5 135t162.5 47h20v15q0 45 -10.5 60t-44.5 15q-41 0 -111 -26l-41 116q41 20 93 31t98 11q102 0 151.5 -46.5t49.5 -149.5v-199
q0 -24 4.5 -34.5zM232 120.5q8 7.5 13 19.5v92h-4q-27 0 -39 -15.5t-12 -48.5q0 -27 7 -41t19 -14q8 0 16 7.5zM282 844l72 -131l-216 -98l-50 90z" />
    <glyph glyph-name="abreve" unicode="&#x103;" 
d="M434.5 124.5q4.5 -10.5 18.5 -17.5l-38 -123q-48 4 -79 20t-48 50q-49 -74 -135 -74q-67 0 -106.5 46.5t-39.5 123.5q0 88 55.5 135t162.5 47h20v15q0 45 -10.5 60t-44.5 15q-41 0 -111 -26l-41 116q41 20 93 31t98 11q102 0 151.5 -46.5t49.5 -149.5v-199
q0 -24 4.5 -34.5zM232 120.5q8 7.5 13 19.5v92h-4q-27 0 -39 -15.5t-12 -48.5q0 -27 7 -41t19 -14q8 0 16 7.5zM116.5 678.5q-38.5 51.5 -44.5 140.5l95 16q15 -82 66 -82t64 82l96 -16q-6 -89 -44.5 -140.5t-115.5 -51.5q-78 0 -116.5 51.5z" />
    <glyph glyph-name="uni1EAF" unicode="&#x1eaf;" 
d="M434.5 124.5q4.5 -10.5 18.5 -17.5l-38 -123q-48 4 -79 20t-48 50q-49 -74 -135 -74q-67 0 -106.5 46.5t-39.5 123.5q0 88 55.5 135t162.5 47h20v15q0 45 -10.5 60t-44.5 15q-41 0 -111 -26l-41 116q41 20 93 31t98 11q102 0 151.5 -46.5t49.5 -149.5v-199
q0 -24 4.5 -34.5zM232 120.5q8 7.5 13 19.5v92h-4q-27 0 -39 -15.5t-12 -48.5q0 -27 7 -41t19 -14q8 0 16 7.5zM118 652.5q-39 49.5 -45 131.5l95 17q15 -69 66 -69t64 69l96 -17q-6 -81 -45 -131t-115 -50q-77 0 -116 49.5zM298 1033l107 -93l-159 -153l-72 58z" />
    <glyph glyph-name="uni1EB7" unicode="&#x1eb7;" 
d="M434.5 124.5q4.5 -10.5 18.5 -17.5l-38 -123q-48 4 -79 20t-48 50q-49 -74 -135 -74q-67 0 -106.5 46.5t-39.5 123.5q0 88 55.5 135t162.5 47h20v15q0 45 -10.5 60t-44.5 15q-41 0 -111 -26l-41 116q41 20 93 31t98 11q102 0 151.5 -46.5t49.5 -149.5v-199
q0 -24 4.5 -34.5zM232 120.5q8 7.5 13 19.5v92h-4q-27 0 -39 -15.5t-12 -48.5q0 -27 7 -41t19 -14q8 0 16 7.5zM116.5 678.5q-38.5 51.5 -44.5 140.5l95 16q15 -82 66 -82t64 82l96 -16q-6 -89 -44.5 -140.5t-115.5 -51.5q-78 0 -116.5 51.5zM160 -230q-29 29 -29 73
q0 45 29 74t74 29t74 -29t29 -74q0 -44 -29 -73t-74 -29t-74 29z" />
    <glyph glyph-name="uni1EB1" unicode="&#x1eb1;" 
d="M434.5 124.5q4.5 -10.5 18.5 -17.5l-38 -123q-48 4 -79 20t-48 50q-49 -74 -135 -74q-67 0 -106.5 46.5t-39.5 123.5q0 88 55.5 135t162.5 47h20v15q0 45 -10.5 60t-44.5 15q-41 0 -111 -26l-41 116q41 20 93 31t98 11q102 0 151.5 -46.5t49.5 -149.5v-199
q0 -24 4.5 -34.5zM232 120.5q8 7.5 13 19.5v92h-4q-27 0 -39 -15.5t-12 -48.5q0 -27 7 -41t19 -14q8 0 16 7.5zM123 652.5q-39 49.5 -45 131.5l95 17q15 -69 66 -69t64 69l96 -17q-6 -81 -45 -131t-115 -50q-77 0 -116 49.5zM181 1033l124 -188l-72 -58l-159 153z" />
    <glyph glyph-name="uni1EB3" unicode="&#x1eb3;" 
d="M434.5 124.5q4.5 -10.5 18.5 -17.5l-38 -123q-48 4 -79 20t-48 50q-49 -74 -135 -74q-67 0 -106.5 46.5t-39.5 123.5q0 88 55.5 135t162.5 47h20v15q0 45 -10.5 60t-44.5 15q-41 0 -111 -26l-41 116q41 20 93 31t98 11q102 0 151.5 -46.5t49.5 -149.5v-199
q0 -24 4.5 -34.5zM232 120.5q8 7.5 13 19.5v92h-4q-27 0 -39 -15.5t-12 -48.5q0 -27 7 -41t19 -14q8 0 16 7.5zM123 652.5q-39 49.5 -45 131.5l95 17q15 -69 66 -69t64 69l96 -17q-6 -81 -45 -131t-115 -50q-77 0 -116 49.5zM188 896q32 2 45 9.5t13 26.5q0 13 -7.5 20.5
t-20.5 7.5q-15 0 -25 -2.5t-27 -9.5l-26 73q42 26 103 26q56 0 86.5 -29.5t30.5 -76.5q0 -40 -18.5 -65t-53.5 -32v-50h-100v102z" />
    <glyph glyph-name="uni1EB5" unicode="&#x1eb5;" 
d="M434.5 124.5q4.5 -10.5 18.5 -17.5l-38 -123q-48 4 -79 20t-48 50q-49 -74 -135 -74q-67 0 -106.5 46.5t-39.5 123.5q0 88 55.5 135t162.5 47h20v15q0 45 -10.5 60t-44.5 15q-41 0 -111 -26l-41 116q41 20 93 31t98 11q102 0 151.5 -46.5t49.5 -149.5v-199
q0 -24 4.5 -34.5zM232 120.5q8 7.5 13 19.5v92h-4q-27 0 -39 -15.5t-12 -48.5q0 -27 7 -41t19 -14q8 0 16 7.5zM117 652.5q-39 49.5 -45 131.5l95 17q15 -69 66 -69t64 69l96 -17q-6 -81 -45 -131t-115 -50q-77 0 -116 49.5zM248.5 838.5q-14.5 5.5 -30.5 15.5q-9 5 -17.5 9
t-15.5 4q-14 0 -22.5 -7.5t-19.5 -26.5l-84 34q17 51 49.5 83t74.5 32q20 0 33 -5t32 -16q21 -14 34 -14t21.5 8t18.5 26l84 -34q-17 -51 -48.5 -82.5t-74.5 -31.5q-20 0 -34.5 5.5z" />
    <glyph glyph-name="uni01CE" unicode="&#x1ce;" 
d="M434.5 124.5q4.5 -10.5 18.5 -17.5l-38 -123q-48 4 -79 20t-48 50q-49 -74 -135 -74q-67 0 -106.5 46.5t-39.5 123.5q0 88 55.5 135t162.5 47h20v15q0 45 -10.5 60t-44.5 15q-41 0 -111 -26l-41 116q41 20 93 31t98 11q102 0 151.5 -46.5t49.5 -149.5v-199
q0 -24 4.5 -34.5zM232 120.5q8 7.5 13 19.5v92h-4q-27 0 -39 -15.5t-12 -48.5q0 -27 7 -41t19 -14q8 0 16 7.5zM347 823l62 -66l-121 -153h-112l-121 153l62 66l115 -96z" />
    <glyph glyph-name="acircumflex" unicode="&#xe2;" 
d="M434.5 124.5q4.5 -10.5 18.5 -17.5l-38 -123q-48 4 -79 20t-48 50q-49 -74 -135 -74q-67 0 -106.5 46.5t-39.5 123.5q0 88 55.5 135t162.5 47h20v15q0 45 -10.5 60t-44.5 15q-41 0 -111 -26l-41 116q41 20 93 31t98 11q102 0 151.5 -46.5t49.5 -149.5v-199
q0 -24 4.5 -34.5zM232 120.5q8 7.5 13 19.5v92h-4q-27 0 -39 -15.5t-12 -48.5q0 -27 7 -41t19 -14q8 0 16 7.5zM117 619l-62 64l122 153h111l121 -153l-62 -64l-115 95z" />
    <glyph glyph-name="uni1EA5" unicode="&#x1ea5;" 
d="M434.5 124.5q4.5 -10.5 18.5 -17.5l-38 -123q-48 4 -79 20t-48 50q-49 -74 -135 -74q-67 0 -106.5 46.5t-39.5 123.5q0 88 55.5 135t162.5 47h20v15q0 45 -10.5 60t-44.5 15q-41 0 -111 -26l-41 116q41 20 93 31t98 11q102 0 151.5 -46.5t49.5 -149.5v-199
q0 -24 4.5 -34.5zM232 120.5q8 7.5 13 19.5v92h-4q-27 0 -39 -15.5t-12 -48.5q0 -27 7 -41t19 -14q8 0 16 7.5zM118 589l-62 64l122 143h111l121 -143l-62 -64l-115 85zM448 988l107 -93l-159 -153l-72 58z" />
    <glyph glyph-name="uni1EAD" unicode="&#x1ead;" 
d="M434.5 124.5q4.5 -10.5 18.5 -17.5l-38 -123q-48 4 -79 20t-48 50q-49 -74 -135 -74q-67 0 -106.5 46.5t-39.5 123.5q0 88 55.5 135t162.5 47h20v15q0 45 -10.5 60t-44.5 15q-41 0 -111 -26l-41 116q41 20 93 31t98 11q102 0 151.5 -46.5t49.5 -149.5v-199
q0 -24 4.5 -34.5zM232 120.5q8 7.5 13 19.5v92h-4q-27 0 -39 -15.5t-12 -48.5q0 -27 7 -41t19 -14q8 0 16 7.5zM117 619l-62 64l122 153h111l121 -153l-62 -64l-115 95zM160 -230q-29 29 -29 73q0 45 29 74t74 29t74 -29t29 -74q0 -44 -29 -73t-74 -29t-74 29z" />
    <glyph glyph-name="uni1EA7" unicode="&#x1ea7;" 
d="M434.5 124.5q4.5 -10.5 18.5 -17.5l-38 -123q-48 4 -79 20t-48 50q-49 -74 -135 -74q-67 0 -106.5 46.5t-39.5 123.5q0 88 55.5 135t162.5 47h20v15q0 45 -10.5 60t-44.5 15q-41 0 -111 -26l-41 116q41 20 93 31t98 11q102 0 151.5 -46.5t49.5 -149.5v-199
q0 -24 4.5 -34.5zM232 120.5q8 7.5 13 19.5v92h-4q-27 0 -39 -15.5t-12 -48.5q0 -27 7 -41t19 -14q8 0 16 7.5zM114 589l-62 64l122 143h111l121 -143l-62 -64l-115 85zM16 988l124 -188l-72 -58l-159 153z" />
    <glyph glyph-name="uni1EA9" unicode="&#x1ea9;" 
d="M434.5 124.5q4.5 -10.5 18.5 -17.5l-38 -123q-48 4 -79 20t-48 50q-49 -74 -135 -74q-67 0 -106.5 46.5t-39.5 123.5q0 88 55.5 135t162.5 47h20v15q0 45 -10.5 60t-44.5 15q-41 0 -111 -26l-41 116q41 20 93 31t98 11q102 0 151.5 -46.5t49.5 -149.5v-199
q0 -24 4.5 -34.5zM232 120.5q8 7.5 13 19.5v92h-4q-27 0 -39 -15.5t-12 -48.5q0 -27 7 -41t19 -14q8 0 16 7.5zM117 589l-62 64l122 143h111l121 -143l-62 -64l-115 85zM320 874q32 2 45 9.5t13 26.5q0 13 -7.5 20.5t-20.5 7.5q-15 0 -25 -2.5t-27 -9.5l-26 73q42 26 103 26
q56 0 86.5 -29.5t30.5 -76.5q0 -40 -18.5 -65t-53.5 -32v-50h-100v102z" />
    <glyph glyph-name="uni1EAB" unicode="&#x1eab;" 
d="M434.5 124.5q4.5 -10.5 18.5 -17.5l-38 -123q-48 4 -79 20t-48 50q-49 -74 -135 -74q-67 0 -106.5 46.5t-39.5 123.5q0 88 55.5 135t162.5 47h20v15q0 45 -10.5 60t-44.5 15q-41 0 -111 -26l-41 116q41 20 93 31t98 11q102 0 151.5 -46.5t49.5 -149.5v-199
q0 -24 4.5 -34.5zM232 120.5q8 7.5 13 19.5v92h-4q-27 0 -39 -15.5t-12 -48.5q0 -27 7 -41t19 -14q8 0 16 7.5zM116 588l-62 64l122 143h111l121 -143l-62 -64l-115 85zM247.5 832.5q-14.5 5.5 -30.5 15.5q-9 5 -17.5 9t-15.5 4q-14 0 -22.5 -7.5t-19.5 -26.5l-84 34
q17 51 49.5 83t74.5 32q20 0 33 -5t32 -16q21 -14 34 -14t21.5 8t18.5 26l84 -34q-17 -51 -48.5 -82.5t-74.5 -31.5q-20 0 -34.5 5.5z" />
    <glyph glyph-name="uni0201" unicode="&#x201;" 
d="M434.5 124.5q4.5 -10.5 18.5 -17.5l-38 -123q-48 4 -79 20t-48 50q-49 -74 -135 -74q-67 0 -106.5 46.5t-39.5 123.5q0 88 55.5 135t162.5 47h20v15q0 45 -10.5 60t-44.5 15q-41 0 -111 -26l-41 116q41 20 93 31t98 11q102 0 151.5 -46.5t49.5 -149.5v-199
q0 -24 4.5 -34.5zM232 120.5q8 7.5 13 19.5v92h-4q-27 0 -39 -15.5t-12 -48.5q0 -27 7 -41t19 -14q8 0 16 7.5zM126 872l88 -209l-84 -42l-114 193zM292 872l82 -211l-87 -36l-108 194z" />
    <glyph glyph-name="adieresis" unicode="&#xe4;" 
d="M434.5 124.5q4.5 -10.5 18.5 -17.5l-38 -123q-48 4 -79 20t-48 50q-49 -74 -135 -74q-67 0 -106.5 46.5t-39.5 123.5q0 88 55.5 135t162.5 47h20v15q0 45 -10.5 60t-44.5 15q-41 0 -111 -26l-41 116q41 20 93 31t98 11q102 0 151.5 -46.5t49.5 -149.5v-199
q0 -24 4.5 -34.5zM232 120.5q8 7.5 13 19.5v92h-4q-27 0 -39 -15.5t-12 -48.5q0 -27 7 -41t19 -14q8 0 16 7.5zM189.5 788q24.5 -26 24.5 -63q0 -39 -24 -64.5t-63 -25.5q-37 0 -62.5 26t-25.5 64q0 37 25.5 63t62.5 26q38 0 62.5 -26zM399.5 788q24.5 -26 24.5 -63
q0 -39 -24 -64.5t-63 -25.5q-37 0 -62.5 26t-25.5 64q0 37 25.5 63t62.5 26q38 0 62.5 -26z" />
    <glyph glyph-name="uni01DF" unicode="&#x1df;" 
d="M434.5 124.5q4.5 -10.5 18.5 -17.5l-38 -123q-48 4 -79 20t-48 50q-49 -74 -135 -74q-67 0 -106.5 46.5t-39.5 123.5q0 88 55.5 135t162.5 47h20v15q0 45 -10.5 60t-44.5 15q-41 0 -111 -26l-41 116q41 20 93 31t98 11q102 0 151.5 -46.5t49.5 -149.5v-199
q0 -24 4.5 -34.5zM232 120.5q8 7.5 13 19.5v92h-4q-27 0 -39 -15.5t-12 -48.5q0 -27 7 -41t19 -14q8 0 16 7.5zM190.5 744q24.5 -26 24.5 -63q0 -39 -24 -64.5t-63 -25.5q-37 0 -62.5 26t-25.5 64q0 37 25.5 63t62.5 26q38 0 62.5 -26zM400.5 744q24.5 -26 24.5 -63
q0 -39 -24 -64.5t-63 -25.5q-37 0 -62.5 26t-25.5 64q0 37 25.5 63t62.5 26q38 0 62.5 -26zM373 810h-280v126h280v-126z" />
    <glyph glyph-name="uni0227" unicode="&#x227;" 
d="M434.5 124.5q4.5 -10.5 18.5 -17.5l-38 -123q-48 4 -79 20t-48 50q-49 -74 -135 -74q-67 0 -106.5 46.5t-39.5 123.5q0 88 55.5 135t162.5 47h20v15q0 45 -10.5 60t-44.5 15q-41 0 -111 -26l-41 116q41 20 93 31t98 11q102 0 151.5 -46.5t49.5 -149.5v-199
q0 -24 4.5 -34.5zM232 120.5q8 7.5 13 19.5v92h-4q-27 0 -39 -15.5t-12 -48.5q0 -27 7 -41t19 -14q8 0 16 7.5zM306 796q29 -29 29 -73q0 -45 -29 -74t-74 -29t-74 29t-29 74q0 44 29 73t74 29t74 -29z" />
    <glyph glyph-name="uni1EA1" unicode="&#x1ea1;" 
d="M434.5 124.5q4.5 -10.5 18.5 -17.5l-38 -123q-48 4 -79 20t-48 50q-49 -74 -135 -74q-67 0 -106.5 46.5t-39.5 123.5q0 88 55.5 135t162.5 47h20v15q0 45 -10.5 60t-44.5 15q-41 0 -111 -26l-41 116q41 20 93 31t98 11q102 0 151.5 -46.5t49.5 -149.5v-199
q0 -24 4.5 -34.5zM232 120.5q8 7.5 13 19.5v92h-4q-27 0 -39 -15.5t-12 -48.5q0 -27 7 -41t19 -14q8 0 16 7.5zM160 -230q-29 29 -29 73q0 45 29 74t74 29t74 -29t29 -74q0 -44 -29 -73t-74 -29t-74 29z" />
    <glyph glyph-name="uni01E1" unicode="&#x1e1;" 
d="M434.5 124.5q4.5 -10.5 18.5 -17.5l-38 -123q-48 4 -79 20t-48 50q-49 -74 -135 -74q-67 0 -106.5 46.5t-39.5 123.5q0 88 55.5 135t162.5 47h20v15q0 45 -10.5 60t-44.5 15q-41 0 -111 -26l-41 116q41 20 93 31t98 11q102 0 151.5 -46.5t49.5 -149.5v-199
q0 -24 4.5 -34.5zM232 120.5q8 7.5 13 19.5v92h-4q-27 0 -39 -15.5t-12 -48.5q0 -27 7 -41t19 -14q8 0 16 7.5zM304 764q29 -29 29 -73q0 -45 -29 -74t-74 -29t-74 29t-29 74q0 44 29 73t74 29t74 -29zM372 828h-280v126h280v-126z" />
    <glyph glyph-name="agrave" unicode="&#xe0;" 
d="M434.5 124.5q4.5 -10.5 18.5 -17.5l-38 -123q-48 4 -79 20t-48 50q-49 -74 -135 -74q-67 0 -106.5 46.5t-39.5 123.5q0 88 55.5 135t162.5 47h20v15q0 45 -10.5 60t-44.5 15q-41 0 -111 -26l-41 116q41 20 93 31t98 11q102 0 151.5 -46.5t49.5 -149.5v-199
q0 -24 4.5 -34.5zM232 120.5q8 7.5 13 19.5v92h-4q-27 0 -39 -15.5t-12 -48.5q0 -27 7 -41t19 -14q8 0 16 7.5zM179 844l194 -139l-50 -90l-216 98z" />
    <glyph glyph-name="uni1EA3" unicode="&#x1ea3;" 
d="M434.5 124.5q4.5 -10.5 18.5 -17.5l-38 -123q-48 4 -79 20t-48 50q-49 -74 -135 -74q-67 0 -106.5 46.5t-39.5 123.5q0 88 55.5 135t162.5 47h20v15q0 45 -10.5 60t-44.5 15q-41 0 -111 -26l-41 116q41 20 93 31t98 11q102 0 151.5 -46.5t49.5 -149.5v-199
q0 -24 4.5 -34.5zM232 120.5q8 7.5 13 19.5v92h-4q-27 0 -39 -15.5t-12 -48.5q0 -27 7 -41t19 -14q8 0 16 7.5zM184 704q32 2 45 9.5t13 26.5q0 13 -7.5 20.5t-20.5 7.5q-15 0 -25 -2.5t-27 -9.5l-26 73q42 26 103 26q56 0 86.5 -29.5t30.5 -76.5q0 -40 -18.5 -65t-53.5 -32
v-50h-100v102z" />
    <glyph glyph-name="uni0203" unicode="&#x203;" 
d="M434.5 124.5q4.5 -10.5 18.5 -17.5l-38 -123q-48 4 -79 20t-48 50q-49 -74 -135 -74q-67 0 -106.5 46.5t-39.5 123.5q0 88 55.5 135t162.5 47h20v15q0 45 -10.5 60t-44.5 15q-41 0 -111 -26l-41 116q41 20 93 31t98 11q102 0 151.5 -46.5t49.5 -149.5v-199
q0 -24 4.5 -34.5zM232 120.5q8 7.5 13 19.5v92h-4q-27 0 -39 -15.5t-12 -48.5q0 -27 7 -41t19 -14q8 0 16 7.5zM348.5 752.5q38.5 -51.5 44.5 -140.5l-96 -16q-13 82 -64 82t-66 -82l-95 16q6 89 44.5 140.5t116.5 51.5q77 0 115.5 -51.5z" />
    <glyph glyph-name="uni0251" unicode="&#x251;" horiz-adv-x="507" 
d="M481.5 141q6.5 -14 25.5 -26l-53 -135q-53 8 -85.5 25.5t-53.5 48.5q-48 -74 -128 -74q-173 0 -173 289q0 89 23 153.5t64 98t92 33.5q65 0 108 -54l8 34h166v-352q0 -27 6.5 -41zM265.5 125.5q10.5 9.5 19.5 27.5v245q-8 11 -15.5 15.5t-18.5 4.5q-20 0 -31.5 -31
t-11.5 -119q0 -65 5 -98.5t13 -43.5t19 -10q10 0 20.5 9.5z" />
    <glyph glyph-name="uni0252" unicode="&#x252;" horiz-adv-x="507" 
d="M493 265q0 -89 -23 -153.5t-64 -98t-92 -33.5q-65 0 -108 54l-8 -34h-166v352q0 27 -6.5 41t-25.5 26l53 135q53 -8 85.5 -25.5t53.5 -48.5q48 74 128 74q173 0 173 -289zM287.5 147q11.5 31 11.5 119q0 65 -5 98.5t-13 43.5t-19 10q-10 0 -20.5 -9.5t-19.5 -27.5v-245
q8 -11 15.5 -15.5t18.5 -4.5q20 0 31.5 31z" />
    <glyph glyph-name="amacron" unicode="&#x101;" 
d="M434.5 124.5q4.5 -10.5 18.5 -17.5l-38 -123q-48 4 -79 20t-48 50q-49 -74 -135 -74q-67 0 -106.5 46.5t-39.5 123.5q0 88 55.5 135t162.5 47h20v15q0 45 -10.5 60t-44.5 15q-41 0 -111 -26l-41 116q41 20 93 31t98 11q102 0 151.5 -46.5t49.5 -149.5v-199
q0 -24 4.5 -34.5zM232 120.5q8 7.5 13 19.5v92h-4q-27 0 -39 -15.5t-12 -48.5q0 -27 7 -41t19 -14q8 0 16 7.5zM372 651h-280v126h280v-126z" />
    <glyph glyph-name="aogonek" unicode="&#x105;" 
d="M342.5 -62.5q-19.5 -23.5 -19.5 -49.5q0 -23 11.5 -34t29.5 -11q22 0 49 8l-10 -111q-30 -8 -62 -8q-64 0 -105 32.5t-41 89.5q0 55 33 94t91 67q-19 14 -31 39q-49 -74 -135 -74q-67 0 -106.5 46.5t-39.5 123.5q0 88 55.5 135t162.5 47h20v15q0 45 -10.5 60t-44.5 15
q-41 0 -111 -26l-41 116q41 20 93 31t98 11q102 0 151.5 -46.5t49.5 -149.5v-199q0 -24 4.5 -34.5t18.5 -17.5l-38 -123q-53 -23 -72.5 -46.5zM232 120.5q8 7.5 13 19.5v92h-4q-27 0 -39 -15.5t-12 -48.5q0 -27 7 -41t19 -14q8 0 16 7.5z" />
    <glyph glyph-name="aring" unicode="&#xe5;" 
d="M434.5 124.5q4.5 -10.5 18.5 -17.5l-38 -123q-48 4 -79 20t-48 50q-49 -74 -135 -74q-67 0 -106.5 46.5t-39.5 123.5q0 88 55.5 135t162.5 47h20v15q0 45 -10.5 60t-44.5 15q-41 0 -111 -26l-41 116q41 20 93 31t98 11q102 0 151.5 -46.5t49.5 -149.5v-199
q0 -24 4.5 -34.5zM232 120.5q8 7.5 13 19.5v92h-4q-27 0 -39 -15.5t-12 -48.5q0 -27 7 -41t19 -14q8 0 16 7.5zM332 842q36 -40 36 -103t-36.5 -103.5t-99.5 -40.5q-64 0 -100.5 40.5t-36.5 103.5t36.5 103t100.5 40t100 -40zM208.5 777.5q-7.5 -11.5 -7.5 -38.5t7.5 -38.5
t23.5 -11.5t23.5 11.5t7.5 38.5t-7.5 38.5t-23.5 11.5t-23.5 -11.5z" />
    <glyph glyph-name="aringacute" unicode="&#x1fb;" 
d="M365 957l-216 -88l-48 90l194 129zM132.5 613.5q-36.5 40.5 -36.5 103.5t36.5 103t100.5 40t100 -40t36 -103t-36.5 -103.5t-99.5 -40.5q-64 0 -100.5 40.5zM209.5 755.5q-7.5 -11.5 -7.5 -38.5t7.5 -38.5t23.5 -11.5t23.5 11.5t7.5 38.5t-7.5 38.5t-23.5 11.5
t-23.5 -11.5zM434.5 124.5q4.5 -10.5 18.5 -17.5l-38 -123q-48 4 -79 20t-48 50q-49 -74 -135 -74q-67 0 -106.5 46.5t-39.5 123.5q0 88 55.5 135t162.5 47h20v15q0 45 -10.5 60t-44.5 15q-41 0 -111 -26l-41 116q41 20 93 31t98 11q102 0 151.5 -46.5t49.5 -149.5v-199
q0 -24 4.5 -34.5zM232 120.5q8 7.5 13 19.5v92h-4q-27 0 -39 -15.5t-12 -48.5q0 -27 7 -41t19 -14q8 0 16 7.5z" />
    <glyph glyph-name="uni2C65" unicode="&#x2c65;" 
d="M434.5 124.5q4.5 -10.5 18.5 -17.5l-38 -123q-48 4 -79 20t-48 50q-36 -53 -91 -68l-11 -62l-52 11l8 45q-62 4 -98.5 50t-36.5 120q0 164 198 172l20 109q-4 1 -15 1q-36 0 -65.5 -6.5t-65.5 -19.5l-41 106q41 20 93 31t98 11h19l9 49l52 -11l-8 -45q65 -14 97 -60
t32 -129v-199q0 -24 4.5 -34.5zM272 392l-13 -70h16v25q0 27 -3 45zM275 145v87h-32l-23 -125q24 7 55 38zM168 118l19 105q-15 -8 -21 -22t-6 -36q0 -34 8 -47z" />
    <glyph glyph-name="atilde" unicode="&#xe3;" 
d="M434.5 124.5q4.5 -10.5 18.5 -17.5l-38 -123q-48 4 -79 20t-48 50q-49 -74 -135 -74q-67 0 -106.5 46.5t-39.5 123.5q0 88 55.5 135t162.5 47h20v15q0 45 -10.5 60t-44.5 15q-41 0 -111 -26l-41 116q41 20 93 31t98 11q102 0 151.5 -46.5t49.5 -149.5v-199
q0 -24 4.5 -34.5zM232 120.5q8 7.5 13 19.5v92h-4q-27 0 -39 -15.5t-12 -48.5q0 -27 7 -41t19 -14q8 0 16 7.5zM248 636.5q-14 6.5 -31 17.5q-2 1 -12.5 7.5t-20.5 6.5q-14 0 -22.5 -8.5t-19.5 -29.5l-84 38q17 57 49.5 92.5t74.5 35.5q20 0 34 -6.5t31 -17.5
q9 -6 17.5 -10.5t16.5 -4.5q13 0 21.5 9t18.5 29l84 -38q-17 -57 -49 -92t-74 -35q-20 0 -34 6.5z" />
    <glyph glyph-name="uni0250" unicode="&#x250;" 
d="M381 138l41 -116q-41 -20 -93 -31t-98 -11q-102 0 -151.5 46.5t-49.5 149.5v199q0 24 -4.5 34.5t-18.5 17.5l38 123q48 -4 79 -20t48 -50q49 74 135 74q67 0 106.5 -46.5t39.5 -123.5q0 -88 -55.5 -135t-162.5 -47h-20v-15q0 -45 10.5 -60t44.5 -15q41 0 111 26z
M228 413.5q-8 -7.5 -13 -19.5v-92h4q27 0 39 15.5t12 48.5q0 27 -7 41t-19 14q-8 0 -16 -7.5z" />
    <glyph glyph-name="ae" unicode="&#xe6;" horiz-adv-x="719" 
d="M706 213h-263q5 -57 23.5 -77t55.5 -20q20 0 42.5 10.5t52.5 31.5l75 -100q-35 -35 -82.5 -56.5t-105.5 -21.5q-61 0 -108.5 22.5t-79.5 61.5q-59 -84 -151 -84q-72 0 -115 47.5t-43 122.5q0 83 57 128.5t169 45.5h20v21q0 32 -4.5 48t-15.5 22.5t-34 6.5q-19 0 -50 -7.5
t-63 -19.5l-40 117q90 42 180 42q51 0 83.5 -15t52.5 -45q57 60 141 60q60 0 107 -31t73.5 -94t26.5 -155q0 -25 -4 -61zM530 328q0 105 -44 105q-22 0 -32 -23.5t-12 -89.5h88v8zM248.5 126q12.5 12 21.5 31q-9 33 -12 67h-7q-53 0 -53 -60q0 -28 6 -39t20 -11
q12 0 24.5 12z" />
    <glyph glyph-name="aeacute" unicode="&#x1fd;" horiz-adv-x="719" 
d="M706 213h-263q5 -57 23.5 -77t55.5 -20q20 0 42.5 10.5t52.5 31.5l75 -100q-35 -35 -82.5 -56.5t-105.5 -21.5q-61 0 -108.5 22.5t-79.5 61.5q-59 -84 -151 -84q-72 0 -115 47.5t-43 122.5q0 83 57 128.5t169 45.5h20v21q0 32 -4.5 48t-15.5 22.5t-34 6.5q-19 0 -50 -7.5
t-63 -19.5l-40 117q90 42 180 42q51 0 83.5 -15t52.5 -45q57 60 141 60q60 0 107 -31t73.5 -94t26.5 -155q0 -25 -4 -61zM530 328q0 105 -44 105q-22 0 -32 -23.5t-12 -89.5h88v8zM248.5 126q12.5 12 21.5 31q-9 33 -12 67h-7q-53 0 -53 -60q0 -28 6 -39t20 -11
q12 0 24.5 12zM406 844l72 -131l-216 -98l-50 90z" />
    <glyph glyph-name="uni01E3" unicode="&#x1e3;" horiz-adv-x="719" 
d="M706 213h-263q5 -57 23.5 -77t55.5 -20q20 0 42.5 10.5t52.5 31.5l75 -100q-35 -35 -82.5 -56.5t-105.5 -21.5q-61 0 -108.5 22.5t-79.5 61.5q-59 -84 -151 -84q-72 0 -115 47.5t-43 122.5q0 83 57 128.5t169 45.5h20v21q0 32 -4.5 48t-15.5 22.5t-34 6.5q-19 0 -50 -7.5
t-63 -19.5l-40 117q90 42 180 42q51 0 83.5 -15t52.5 -45q57 60 141 60q60 0 107 -31t73.5 -94t26.5 -155q0 -25 -4 -61zM530 328q0 105 -44 105q-22 0 -32 -23.5t-12 -89.5h88v8zM248.5 126q12.5 12 21.5 31q-9 33 -12 67h-7q-53 0 -53 -60q0 -28 6 -39t20 -11
q12 0 24.5 12zM496 651h-280v126h280v-126z" />
    <glyph glyph-name="b" unicode="b" horiz-adv-x="505" 
d="M491 266q0 -132 -47 -209t-130 -77q-35 0 -63.5 17t-47.5 48l-7 -45h-169v744l190 20v-271q19 28 49.5 44.5t66.5 16.5q158 0 158 -288zM287 146.5q11 31.5 11 119.5q0 93 -9.5 122t-26.5 29q-22 0 -45 -42v-228q16 -32 37 -32q22 0 33 31.5z" />
    <glyph glyph-name="uni1E03" unicode="&#x1e03;" horiz-adv-x="505" 
d="M491 266q0 -132 -47 -209t-130 -77q-35 0 -63.5 17t-47.5 48l-7 -45h-169v744l190 20v-271q19 28 49.5 44.5t66.5 16.5q158 0 158 -288zM287 146.5q11 31.5 11 119.5q0 93 -9.5 122t-26.5 29q-22 0 -45 -42v-228q16 -32 37 -32q22 0 33 31.5zM347 970q29 -29 29 -73
q0 -45 -29 -74t-74 -29t-74 29t-29 74q0 44 29 73t74 29t74 -29z" />
    <glyph glyph-name="uni1E05" unicode="&#x1e05;" horiz-adv-x="505" 
d="M491 266q0 -132 -47 -209t-130 -77q-35 0 -63.5 17t-47.5 48l-7 -45h-169v744l190 20v-271q19 28 49.5 44.5t66.5 16.5q158 0 158 -288zM287 146.5q11 31.5 11 119.5q0 93 -9.5 122t-26.5 29q-22 0 -45 -42v-228q16 -32 37 -32q22 0 33 31.5zM185 -230q-29 29 -29 73
q0 45 29 74t74 29t74 -29t29 -74q0 -44 -29 -73t-74 -29t-74 29z" />
    <glyph glyph-name="uniA7B5" unicode="&#xa7b5;" horiz-adv-x="516" 
d="M505 209q0 -71 -24 -122.5t-66.5 -78.5t-98.5 -27q-62 0 -109 30v-212l-180 -26v775q0 107 61 161.5t157 54.5q105 0 158.5 -52.5t53.5 -141.5q0 -69 -25 -108t-89 -56q162 -18 162 -197zM297.5 146q17.5 22 17.5 82q0 58 -19.5 82.5t-43.5 24.5h-18l8 125h4
q13 0 19.5 21t6.5 72q0 48 -7 64.5t-24 16.5q-19 0 -26.5 -17.5t-7.5 -66.5v-419q15 -7 42 -7q31 0 48.5 22z" />
    <glyph glyph-name="uni0253" unicode="&#x253;" horiz-adv-x="505" 
d="M491 266q0 -132 -47 -209t-130 -77q-35 0 -63.5 17t-47.5 48l-7 -45h-169v578q0 51 22.5 93t67.5 67t111 25q38 0 74 -10t63 -26l-52 -116q-27 15 -54 15q-22 0 -32 -13t-10 -42v-78q19 28 49.5 44.5t66.5 16.5q158 0 158 -288zM287 146.5q11 31.5 11 119.5
q0 93 -9.5 122t-26.5 29q-22 0 -45 -42v-228q16 -32 37 -32q22 0 33 31.5z" />
    <glyph glyph-name="uni02AD" unicode="&#x2ad;" horiz-adv-x="333" 
d="M30 400v173h273v-173h-106v81h-61v-81h-106zM30 -1v173h273v-173h-106v81h-61v-81h-106z" />
    <glyph glyph-name="uni0298" unicode="&#x298;" horiz-adv-x="679" 
d="M510.5 672.5q72.5 -43.5 112 -126t39.5 -197.5q0 -110 -39.5 -193.5t-112.5 -129t-170 -45.5q-98 0 -171 44t-112.5 127t-39.5 197q0 110 40 193t113 128.5t170 45.5q98 0 170.5 -43.5zM237 534q-35 -56 -35 -185q0 -130 34.5 -186.5t104.5 -56.5t103.5 56.5t33.5 186.5
q0 126 -37 183.5t-100 57.5q-69 0 -104 -56zM399 395q23 -23 23 -59q0 -35 -23 -58.5t-60 -23.5q-36 0 -59 23.5t-23 58.5t23 58.5t59 23.5q37 0 60 -23z" />
    <glyph glyph-name="uni02AC" unicode="&#x2ac;" horiz-adv-x="386" 
d="M361 669l-44 -269h-100l-20 194l-24 -194h-96l-52 269h67l35 -210l25 210h92l25 -211l28 211h64zM361 269l-44 -269h-100l-20 194l-24 -194h-96l-52 269h67l35 -210l25 210h92l25 -211l28 211h64z" />
    <glyph glyph-name="uni0180" unicode="&#x180;" horiz-adv-x="510" 
d="M496 266q0 -132 -47 -209t-130 -77q-35 0 -63.5 17t-47.5 48l-7 -45h-169v593h-36v103h36v48l190 20v-68h93v-103h-93v-100q19 28 49.5 44.5t66.5 16.5q158 0 158 -288zM292 146.5q11 31.5 11 119.5q0 93 -9.5 122t-26.5 29q-22 0 -45 -42v-228q16 -32 37 -32
q22 0 33 31.5z" />
    <glyph glyph-name="uni0183" unicode="&#x183;" horiz-adv-x="505" 
d="M491 266q0 -132 -47 -209t-130 -77q-35 0 -63.5 17t-47.5 48l-7 -45h-169v744h363l-19 -134h-154v-117q19 28 49.5 44.5t66.5 16.5q158 0 158 -288zM287 146.5q11 31.5 11 119.5q0 93 -9.5 122t-26.5 29q-22 0 -45 -42v-228q16 -32 37 -32q22 0 33 31.5z" />
    <glyph glyph-name="c" unicode="c" horiz-adv-x="407" 
d="M422 484l-76 -103q-38 31 -71 31q-22 0 -36 -12t-21 -44t-7 -93q0 -81 16.5 -109.5t47.5 -28.5q16 0 31 6t35 21l81 -107q-68 -65 -162 -65q-117 0 -181.5 72.5t-64.5 210.5q0 89 30 155t85 101t129 35q96 0 164 -70z" />
    <glyph glyph-name="cacute" unicode="&#x107;" horiz-adv-x="407" 
d="M422 484l-76 -103q-38 31 -71 31q-22 0 -36 -12t-21 -44t-7 -93q0 -81 16.5 -109.5t47.5 -28.5q16 0 31 6t35 21l81 -107q-68 -65 -162 -65q-117 0 -181.5 72.5t-64.5 210.5q0 89 30 155t85 101t129 35q96 0 164 -70zM303 844l72 -131l-216 -98l-50 90z" />
    <glyph glyph-name="cacute.loclPLK" horiz-adv-x="407" 
d="M422 484l-76 -103q-38 31 -71 31q-22 0 -36 -12t-21 -44t-7 -93q0 -81 16.5 -109.5t47.5 -28.5q16 0 31 6t35 21l81 -107q-68 -65 -162 -65q-117 0 -181.5 72.5t-64.5 210.5q0 89 30 155t85 101t129 35q96 0 164 -70zM247 826l137 -76l-126 -166l-82 47z" />
    <glyph glyph-name="ccaron" unicode="&#x10d;" horiz-adv-x="407" 
d="M422 484l-76 -103q-38 31 -71 31q-22 0 -36 -12t-21 -44t-7 -93q0 -81 16.5 -109.5t47.5 -28.5q16 0 31 6t35 21l81 -107q-68 -65 -162 -65q-117 0 -181.5 72.5t-64.5 210.5q0 89 30 155t85 101t129 35q96 0 164 -70zM368 823l62 -66l-121 -153h-112l-121 153l62 66
l115 -96z" />
    <glyph glyph-name="ccedilla" unicode="&#xe7;" horiz-adv-x="407" 
d="M291 -18v-31q94 -16 94 -101q0 -54 -37.5 -88t-107.5 -34q-61 0 -111 33l39 78q28 -13 57 -13q32 0 32 26q0 16 -18.5 23t-59.5 7l12 105q-85 20 -131 90t-46 186q0 89 30 155t85 101t129 35q96 0 164 -70l-76 -103q-38 31 -71 31q-22 0 -36 -12t-21 -44t-7 -93
q0 -81 16.5 -109.5t47.5 -28.5q16 0 31 6t35 21l81 -107q-58 -55 -131 -63z" />
    <glyph glyph-name="ccircumflex" unicode="&#x109;" horiz-adv-x="407" 
d="M422 484l-76 -103q-38 31 -71 31q-22 0 -36 -12t-21 -44t-7 -93q0 -81 16.5 -109.5t47.5 -28.5q16 0 31 6t35 21l81 -107q-68 -65 -162 -65q-117 0 -181.5 72.5t-64.5 210.5q0 89 30 155t85 101t129 35q96 0 164 -70zM138 619l-62 64l122 153h111l121 -153l-62 -64
l-115 95z" />
    <glyph glyph-name="uni0255" unicode="&#x255;" horiz-adv-x="433" 
d="M412 231.5q33 -33.5 33 -92.5q0 -78 -48.5 -118t-120.5 -40q-30 0 -57 5l-28 -75l-81 33l31 71q-61 32 -94 96.5t-33 151.5q0 89 30 155t85 101t129 35q96 0 164 -70l-76 -103q-38 31 -71 31q-22 0 -36 -12t-21 -44t-7 -93q0 -46 5 -78q36 80 113 80q50 0 83 -33.5z
M328 145q0 26 -16 26q-12 0 -23 -14t-19 -43q15 -3 31 -3q27 0 27 34z" />
    <glyph glyph-name="cdotaccent" unicode="&#x10b;" horiz-adv-x="407" 
d="M422 484l-76 -103q-38 31 -71 31q-22 0 -36 -12t-21 -44t-7 -93q0 -81 16.5 -109.5t47.5 -28.5q16 0 31 6t35 21l81 -107q-68 -65 -162 -65q-117 0 -181.5 72.5t-64.5 210.5q0 89 30 155t85 101t129 35q96 0 164 -70zM327 796q29 -29 29 -73q0 -45 -29 -74t-74 -29
t-74 29t-29 74q0 44 29 73t74 29t74 -29z" />
    <glyph glyph-name="uni0188" unicode="&#x188;" horiz-adv-x="407" 
d="M550 726l-47 -113q-27 13 -48 13q-18 0 -25.5 -10.5t-7.5 -34.5v-97l-76 -103q-38 31 -71 31q-22 0 -36 -12t-21 -44t-7 -93q0 -81 16.5 -109.5t47.5 -28.5q16 0 31 6t35 21l81 -107q-68 -65 -162 -65q-117 0 -181.5 72.5t-64.5 210.5q0 88 28.5 154t77 101.5t108.5 35.5
q13 0 36 -5v58q0 74 42.5 115t114.5 41q70 0 129 -37z" />
    <glyph glyph-name="uni0297" unicode="&#x297;" horiz-adv-x="423" 
d="M438 484l-76 -107q-40 32 -75 32q-26 0 -41 -20.5t-23 -75t-8 -153.5q0 -98 8 -150t23 -70t39 -18q18 0 33 6t35 21l81 -110q-68 -65 -162 -65q-254 0 -254 386q0 194 67 294t189 100q96 0 164 -70z" />
    <glyph glyph-name="uni023C" unicode="&#x23c;" horiz-adv-x="407" 
d="M306 131q15 6 35 21l81 -107q-68 -65 -162 -65q-17 0 -26 1l-12 -57l-52 11l12 55q-81 22 -124.5 91t-43.5 182q0 89 30 155t85 101t129 35q25 0 44 -4l11 53l52 -11l-12 -58q37 -18 69 -50l-76 -103q-18 14 -23 16l-58 -271q3 -1 10 -1q16 0 31 6zM221 172l51 240
q-32 -1 -46.5 -32t-14.5 -117q0 -58 10 -91z" />
    <glyph glyph-name="d" unicode="d" horiz-adv-x="506" 
d="M479 744v-744h-169l-5 50q-23 -33 -51.5 -51.5t-71.5 -18.5q-82 0 -125 74t-43 215q0 87 23.5 151.5t65.5 99t96 34.5t90 -42v251zM289 152v241q-8 13 -15.5 19t-16.5 6q-49 0 -49 -150q0 -92 11.5 -122t30.5 -30q23 0 39 36z" />
    <glyph glyph-name="eth" unicode="&#xf0;" horiz-adv-x="504" 
d="M446 504.5q39 -95.5 39 -221.5q0 -84 -26.5 -152.5t-80 -109t-131.5 -40.5q-67 0 -120 30t-83 87t-30 135q0 74 25.5 130.5t65.5 87t82 30.5q31 0 55 -9.5t46 -28.5q-13 43 -27.5 72t-42.5 56l-40 -49l-110 53l46 53q-32 11 -64 18l35 116q53 -9 121 -33l64 79l96 -72
l-49 -64q90 -72 129 -167.5zM285 141.5q9 25.5 9 91.5v95q-20 24 -42 24q-24 0 -36 -27.5t-12 -89.5q0 -70 11 -94.5t36 -24.5t34 25.5z" />
    <glyph glyph-name="uni0238" unicode="&#x238;" horiz-adv-x="735" 
d="M685 483q36 -70 36 -217q0 -136 -45.5 -210.5t-123.5 -74.5q-29 0 -56.5 18t-45.5 50l-8 -49h-148l-8 53q-42 -72 -113 -72q-79 0 -119 74t-40 214q0 90 21.5 154t59 97t83.5 33q29 0 53.5 -13.5t41.5 -39.5v244l190 19v-275q19 29 49 47t65 18q72 0 108 -70zM273 146
v250q-12 21 -29 21q-16 0 -26 -30.5t-10 -118.5q0 -66 4 -99t10.5 -42.5t16.5 -9.5q17 0 34 29zM518 145.5q9 29.5 9 120.5q0 65 -4 97.5t-10 42.5t-16 10q-19 0 -34 -32v-242q13 -26 30 -26q16 0 25 29.5z" />
    <glyph glyph-name="dcaron" unicode="&#x10f;" horiz-adv-x="643" 
d="M479 744v-744h-169l-5 50q-23 -33 -51.5 -51.5t-71.5 -18.5q-82 0 -125 74t-43 215q0 87 23.5 151.5t65.5 99t96 34.5t90 -42v251zM289 152v241q-8 13 -15.5 19t-16.5 6q-49 0 -49 -150q0 -92 11.5 -122t30.5 -30q23 0 39 36zM608 512l50 231l-131 20l-22 -235z" />
    <glyph glyph-name="uni1E13" unicode="&#x1e13;" horiz-adv-x="506" 
d="M479 744v-744h-169l-5 50q-23 -33 -51.5 -51.5t-71.5 -18.5q-82 0 -125 74t-43 215q0 87 23.5 151.5t65.5 99t96 34.5t90 -42v251zM289 152v241q-8 13 -15.5 19t-16.5 6q-49 0 -49 -150q0 -92 11.5 -122t30.5 -30q23 0 39 36zM140 -278l-62 64l122 153h111l121 -153
l-62 -64l-115 95z" />
    <glyph glyph-name="dcroat" unicode="&#x111;" horiz-adv-x="510" 
d="M514 696v-103h-35v-593h-169l-5 50q-23 -33 -51.5 -51.5t-71.5 -18.5q-82 0 -125 74t-43 215q0 87 23.5 151.5t65.5 99t96 34.5t90 -42v81h-93v103h93v67l190 -19v-48h35zM289 152v241q-8 13 -15.5 19t-16.5 6q-49 0 -49 -150q0 -92 11.5 -122t30.5 -30q23 0 39 36z" />
    <glyph glyph-name="uni0221" unicode="&#x221;" horiz-adv-x="694" 
d="M664.5 222.5q29.5 -32.5 29.5 -90.5q0 -75 -50 -113t-126 -38q-19 0 -29 1l-29 -71l-78 33l24 57q-50 20 -81 63q-29 -40 -63 -62t-80 -22q-82 0 -125 74t-43 215q0 87 23.5 151.5t65.5 99t96 34.5t90 -42v251l190 -19v-550q0 -18 1 -26q23 48 48.5 67.5t61.5 19.5
q45 0 74.5 -32.5zM291 157q-2 24 -2 38v198q-8 13 -15.5 19t-16.5 6q-49 0 -49 -150q0 -92 11.5 -122t30.5 -30q23 0 41 41zM569 117.5q7 6.5 7 24.5q0 20 -11 20q-8 0 -13.5 -9.5t-17.5 -40.5q4 -1 14 -1q14 0 21 6.5z" />
    <glyph glyph-name="uni1E0B" unicode="&#x1e0b;" horiz-adv-x="506" 
d="M479 744v-744h-169l-5 50q-23 -33 -51.5 -51.5t-71.5 -18.5q-82 0 -125 74t-43 215q0 87 23.5 151.5t65.5 99t96 34.5t90 -42v251zM289 152v241q-8 13 -15.5 19t-16.5 6q-49 0 -49 -150q0 -92 11.5 -122t30.5 -30q23 0 39 36zM322 970q29 -29 29 -73q0 -45 -29 -74
t-74 -29t-74 29t-29 74q0 44 29 73t74 29t74 -29z" />
    <glyph glyph-name="uni1E0D" unicode="&#x1e0d;" horiz-adv-x="506" 
d="M479 744v-744h-169l-5 50q-23 -33 -51.5 -51.5t-71.5 -18.5q-82 0 -125 74t-43 215q0 87 23.5 151.5t65.5 99t96 34.5t90 -42v251zM289 152v241q-8 13 -15.5 19t-16.5 6q-49 0 -49 -150q0 -92 11.5 -122t30.5 -30q23 0 39 36zM185 -230q-29 29 -29 73q0 45 29 74t74 29
t74 -29t29 -74q0 -44 -29 -73t-74 -29t-74 29z" />
    <glyph glyph-name="uni018D" unicode="&#x18d;" horiz-adv-x="493" 
d="M449.5 169q-29.5 -54 -99.5 -89q53 -33 69 -65t16 -79q0 -71 -51 -117t-155 -46q-52 0 -99 19t-75 45l77 91q43 -27 83 -27q22 0 33 10.5t11 27.5q0 21 -11.5 34t-52.5 34q-68 35 -107 71t-56.5 83.5t-17.5 118.5q0 135 62.5 204t170.5 69q111 0 171.5 -64t60.5 -191
q0 -75 -29.5 -129zM217.5 184q9.5 -28 42.5 -52q20 27 24.5 58.5t3.5 87.5v26q0 67 -9 90t-31 23q-16 0 -24.5 -11t-12 -42t-3.5 -93q0 -59 9.5 -87z" />
    <glyph glyph-name="uni02A4" unicode="&#x2a4;" horiz-adv-x="903" 
d="M900 11q0 -68 -29 -122t-84.5 -85t-133.5 -31q-142 0 -216 109l96 91q33 -31 55.5 -44t50.5 -13q34 0 51 24.5t17 77.5q0 50 -21 71.5t-64 21.5h-78v104l123 181h-188v-396h-169l-5 50q-23 -33 -51.5 -51.5t-71.5 -18.5q-82 0 -125 74t-43 215q0 87 23.5 151.5t65.5 99
t96 34.5t90 -42v251l190 -19v-210h387v-127l-135 -193q169 -22 169 -203zM289 152v241q-8 13 -15.5 19t-16.5 6q-49 0 -49 -150q0 -92 11.5 -122t30.5 -30q23 0 39 36z" />
    <glyph glyph-name="uni0257" unicode="&#x257;" horiz-adv-x="506" 
d="M607 726l-47 -113q-27 13 -48 13q-18 0 -25.5 -10.5t-7.5 -34.5v-581h-169l-5 50q-23 -33 -51 -51.5t-71 -18.5q-85 0 -127 73.5t-42 215.5q0 87 23.5 151.5t65.5 99t96 34.5t90 -42v65q0 85 48 135.5t141 50.5q70 0 129 -37zM289 152v241q-8 13 -15.5 19t-16.5 6
q-49 0 -49 -150q0 -92 11.5 -122t30.5 -30q23 0 39 36z" />
    <glyph glyph-name="uni1E0F" unicode="&#x1e0f;" horiz-adv-x="506" 
d="M479 744v-744h-169l-5 50q-23 -33 -51.5 -51.5t-71.5 -18.5q-82 0 -125 74t-43 215q0 87 23.5 151.5t65.5 99t96 34.5t90 -42v251zM289 152v241q-8 13 -15.5 19t-16.5 6q-49 0 -49 -150q0 -92 11.5 -122t30.5 -30q23 0 39 36zM400 -198h-280v126h280v-126z" />
    <glyph glyph-name="uni0256" unicode="&#x256;" horiz-adv-x="506" 
d="M632 -181q-58 -45 -145 -45q-89 0 -143.5 48.5t-54.5 142.5v64q-44 -49 -106 -49q-85 0 -127 73.5t-42 215.5q0 87 23.5 151.5t65.5 99t96 34.5t90 -42v251l190 -19v-791q0 -44 39 -44q26 0 52 15zM289 152v241q-8 13 -15.5 19t-16.5 6q-49 0 -49 -150q0 -92 11.5 -122
t30.5 -30q23 0 39 36z" />
    <glyph glyph-name="uni018C" unicode="&#x18c;" horiz-adv-x="506" 
d="M479 0h-169l-5 50q-23 -33 -51 -51.5t-71 -18.5q-84 0 -126.5 72t-42.5 207q0 82 23.5 144.5t65.5 96.5t96 34t90 -42v118h-163v134h353v-744zM289 152v221q-8 13 -15.5 19t-16.5 6q-49 0 -49 -140q0 -85 11.5 -113.5t30.5 -28.5q23 0 39 36z" />
    <glyph glyph-name="uni01F3" unicode="&#x1f3;" horiz-adv-x="906" 
d="M479 744v-744h-169l-5 50q-23 -33 -51.5 -51.5t-71.5 -18.5q-82 0 -125 74t-43 215q0 87 23.5 151.5t65.5 99t96 34.5t90 -42v251zM289 152v241q-8 13 -15.5 19t-16.5 6q-49 0 -49 -150q0 -92 11.5 -122t30.5 -30q23 0 39 36zM897 534v-131l-180 -262h186l-15 -141h-379
v133l180 262h-164v139h372z" />
    <glyph glyph-name="uni02A3" unicode="&#x2a3;" horiz-adv-x="866" 
d="M863 141l-15 -141h-538l-5 50q-23 -33 -51.5 -51.5t-71.5 -18.5q-82 0 -125 74t-43 215q0 87 23.5 151.5t65.5 99t96 34.5t90 -42v251l190 -19v-210h378v-131l-180 -262h186zM289 152v241q-8 13 -15.5 19t-16.5 6q-49 0 -49 -150q0 -92 11.5 -122t30.5 -30q23 0 39 36z
M479 148l170 247h-170v-247z" />
    <glyph glyph-name="uni01C6" unicode="&#x1c6;" horiz-adv-x="906" 
d="M479 744v-744h-169l-5 50q-23 -33 -51.5 -51.5t-71.5 -18.5q-82 0 -125 74t-43 215q0 87 23.5 151.5t65.5 99t96 34.5t90 -42v251zM289 152v241q-8 13 -15.5 19t-16.5 6q-49 0 -49 -150q0 -92 11.5 -122t30.5 -30q23 0 39 36zM897 534v-131l-180 -262h186l-15 -141h-379
v133l180 262h-164v139h372zM828 823l62 -66l-121 -153h-112l-121 153l62 66l115 -96z" />
    <glyph glyph-name="uni02A5" unicode="&#x2a5;" horiz-adv-x="999" 
d="M976 256.5q34 -34.5 34 -94.5q0 -163 -195 -162h-2q-5 -31 -5 -94v-37h-96q0 77 6 131h-408l-5 50q-23 -33 -51.5 -51.5t-71.5 -18.5q-82 0 -125 74t-43 215q0 87 23.5 151.5t65.5 99t96 34.5t90 -42v251l190 -19v-210h377v-122l-180 -271h62q23 81 59.5 115.5t90.5 34.5
t88 -34.5zM289 152v241q-8 13 -15.5 19t-16.5 6q-49 0 -49 -150q0 -92 11.5 -122t30.5 -30q23 0 39 36zM479 149l169 246h-169v-246zM891 174q0 23 -20 23q-30 0 -40 -56h26q34 0 34 33z" />
    <glyph glyph-name="e" unicode="e" horiz-adv-x="480" 
d="M467 213h-265q5 -58 22.5 -78t51.5 -20q25 0 49 10.5t54 32.5l75 -100q-35 -35 -84 -56.5t-109 -21.5q-123 0 -185 76.5t-62 208.5q0 131 59 210t171 79q104 0 165.5 -71t61.5 -209q0 -25 -4 -61zM286 328q0 57 -8 82t-32 25q-22 0 -32.5 -23.5t-12.5 -91.5h85v8z" />
    <glyph glyph-name="eacute" unicode="&#xe9;" horiz-adv-x="480" 
d="M467 213h-265q5 -58 22.5 -78t51.5 -20q25 0 49 10.5t54 32.5l75 -100q-35 -35 -84 -56.5t-109 -21.5q-123 0 -185 76.5t-62 208.5q0 131 59 210t171 79q104 0 165.5 -71t61.5 -209q0 -25 -4 -61zM286 328q0 57 -8 82t-32 25q-22 0 -32.5 -23.5t-12.5 -91.5h85v8z
M296 844l72 -131l-216 -98l-50 90z" />
    <glyph glyph-name="ebreve" unicode="&#x115;" horiz-adv-x="480" 
d="M467 213h-265q5 -58 22.5 -78t51.5 -20q25 0 49 10.5t54 32.5l75 -100q-35 -35 -84 -56.5t-109 -21.5q-123 0 -185 76.5t-62 208.5q0 131 59 210t171 79q104 0 165.5 -71t61.5 -209q0 -25 -4 -61zM286 328q0 57 -8 82t-32 25q-22 0 -32.5 -23.5t-12.5 -91.5h85v8z
M130.5 678.5q-38.5 51.5 -44.5 140.5l95 16q15 -82 66 -82t64 82l96 -16q-6 -89 -44.5 -140.5t-115.5 -51.5q-78 0 -116.5 51.5z" />
    <glyph glyph-name="ecaron" unicode="&#x11b;" horiz-adv-x="480" 
d="M467 213h-265q5 -58 22.5 -78t51.5 -20q25 0 49 10.5t54 32.5l75 -100q-35 -35 -84 -56.5t-109 -21.5q-123 0 -185 76.5t-62 208.5q0 131 59 210t171 79q104 0 165.5 -71t61.5 -209q0 -25 -4 -61zM286 328q0 57 -8 82t-32 25q-22 0 -32.5 -23.5t-12.5 -91.5h85v8z
M361 823l62 -66l-121 -153h-112l-121 153l62 66l115 -96z" />
    <glyph glyph-name="uni0229" unicode="&#x229;" horiz-adv-x="480" 
d="M467 213h-265q5 -58 22.5 -78t51.5 -20q25 0 49 10.5t54 32.5l75 -100q-60 -60 -147 -74v-33q94 -16 94 -101q0 -54 -37.5 -88t-107.5 -34q-61 0 -111 33l39 78q28 -13 57 -13q32 0 32 26q0 16 -18.5 23t-59.5 7l11 102q-96 17 -144 91t-48 190q0 131 59 210t171 79
q104 0 165.5 -71t61.5 -209q0 -25 -4 -61zM286 328q0 57 -8 82t-32 25q-22 0 -32.5 -23.5t-12.5 -91.5h85v8z" />
    <glyph glyph-name="ecircumflex" unicode="&#xea;" horiz-adv-x="480" 
d="M467 213h-265q5 -58 22.5 -78t51.5 -20q25 0 49 10.5t54 32.5l75 -100q-35 -35 -84 -56.5t-109 -21.5q-123 0 -185 76.5t-62 208.5q0 131 59 210t171 79q104 0 165.5 -71t61.5 -209q0 -25 -4 -61zM286 328q0 57 -8 82t-32 25q-22 0 -32.5 -23.5t-12.5 -91.5h85v8z
M131 619l-62 64l122 153h111l121 -153l-62 -64l-115 95z" />
    <glyph glyph-name="uni1EBF" unicode="&#x1ebf;" horiz-adv-x="480" 
d="M467 213h-265q5 -58 22.5 -78t51.5 -20q25 0 49 10.5t54 32.5l75 -100q-35 -35 -84 -56.5t-109 -21.5q-123 0 -185 76.5t-62 208.5q0 131 59 210t171 79q104 0 165.5 -71t61.5 -209q0 -25 -4 -61zM286 328q0 57 -8 82t-32 25q-22 0 -32.5 -23.5t-12.5 -91.5h85v8z
M132 589l-62 64l122 143h111l121 -143l-62 -64l-115 85zM462 988l107 -93l-159 -153l-72 58z" />
    <glyph glyph-name="uni1EC7" unicode="&#x1ec7;" horiz-adv-x="480" 
d="M467 213h-265q5 -58 22.5 -78t51.5 -20q25 0 49 10.5t54 32.5l75 -100q-35 -35 -84 -56.5t-109 -21.5q-123 0 -185 76.5t-62 208.5q0 131 59 210t171 79q104 0 165.5 -71t61.5 -209q0 -25 -4 -61zM286 328q0 57 -8 82t-32 25q-22 0 -32.5 -23.5t-12.5 -91.5h85v8z
M131 619l-62 64l122 153h111l121 -153l-62 -64l-115 95zM178 -230q-29 29 -29 73q0 45 29 74t74 29t74 -29t29 -74q0 -44 -29 -73t-74 -29t-74 29z" />
    <glyph glyph-name="uni1EC1" unicode="&#x1ec1;" horiz-adv-x="480" 
d="M467 213h-265q5 -58 22.5 -78t51.5 -20q25 0 49 10.5t54 32.5l75 -100q-35 -35 -84 -56.5t-109 -21.5q-123 0 -185 76.5t-62 208.5q0 131 59 210t171 79q104 0 165.5 -71t61.5 -209q0 -25 -4 -61zM286 328q0 57 -8 82t-32 25q-22 0 -32.5 -23.5t-12.5 -91.5h85v8z
M128 589l-62 64l122 143h111l121 -143l-62 -64l-115 85zM30 988l124 -188l-72 -58l-159 153z" />
    <glyph glyph-name="uni1EC3" unicode="&#x1ec3;" horiz-adv-x="480" 
d="M467 213h-265q5 -58 22.5 -78t51.5 -20q25 0 49 10.5t54 32.5l75 -100q-35 -35 -84 -56.5t-109 -21.5q-123 0 -185 76.5t-62 208.5q0 131 59 210t171 79q104 0 165.5 -71t61.5 -209q0 -25 -4 -61zM286 328q0 57 -8 82t-32 25q-22 0 -32.5 -23.5t-12.5 -91.5h85v8z
M131 589l-62 64l122 143h111l121 -143l-62 -64l-115 85zM334 874q32 2 45 9.5t13 26.5q0 13 -7.5 20.5t-20.5 7.5q-15 0 -25 -2.5t-27 -9.5l-26 73q42 26 103 26q56 0 86.5 -29.5t30.5 -76.5q0 -40 -18.5 -65t-53.5 -32v-50h-100v102z" />
    <glyph glyph-name="uni1EC5" unicode="&#x1ec5;" horiz-adv-x="480" 
d="M467 213h-265q5 -58 22.5 -78t51.5 -20q25 0 49 10.5t54 32.5l75 -100q-35 -35 -84 -56.5t-109 -21.5q-123 0 -185 76.5t-62 208.5q0 131 59 210t171 79q104 0 165.5 -71t61.5 -209q0 -25 -4 -61zM286 328q0 57 -8 82t-32 25q-22 0 -32.5 -23.5t-12.5 -91.5h85v8z
M130 588l-62 64l122 143h111l121 -143l-62 -64l-115 85zM261.5 832.5q-14.5 5.5 -30.5 15.5q-9 5 -17.5 9t-15.5 4q-14 0 -22.5 -7.5t-19.5 -26.5l-84 34q17 51 49.5 83t74.5 32q20 0 33 -5t32 -16q21 -14 34 -14t21.5 8t18.5 26l84 -34q-17 -51 -48.5 -82.5t-74.5 -31.5
q-20 0 -34.5 5.5z" />
    <glyph glyph-name="uni0205" unicode="&#x205;" horiz-adv-x="480" 
d="M467 213h-265q5 -58 22.5 -78t51.5 -20q25 0 49 10.5t54 32.5l75 -100q-35 -35 -84 -56.5t-109 -21.5q-123 0 -185 76.5t-62 208.5q0 131 59 210t171 79q104 0 165.5 -71t61.5 -209q0 -25 -4 -61zM286 328q0 57 -8 82t-32 25q-22 0 -32.5 -23.5t-12.5 -91.5h85v8z
M140 872l88 -209l-84 -42l-114 193zM306 872l82 -211l-87 -36l-108 194z" />
    <glyph glyph-name="edieresis" unicode="&#xeb;" horiz-adv-x="480" 
d="M467 213h-265q5 -58 22.5 -78t51.5 -20q25 0 49 10.5t54 32.5l75 -100q-35 -35 -84 -56.5t-109 -21.5q-123 0 -185 76.5t-62 208.5q0 131 59 210t171 79q104 0 165.5 -71t61.5 -209q0 -25 -4 -61zM286 328q0 57 -8 82t-32 25q-22 0 -32.5 -23.5t-12.5 -91.5h85v8z
M203.5 788q24.5 -26 24.5 -63q0 -39 -24 -64.5t-63 -25.5q-37 0 -62.5 26t-25.5 64q0 37 25.5 63t62.5 26q38 0 62.5 -26zM413.5 788q24.5 -26 24.5 -63q0 -39 -24 -64.5t-63 -25.5q-37 0 -62.5 26t-25.5 64q0 37 25.5 63t62.5 26q38 0 62.5 -26z" />
    <glyph glyph-name="edotaccent" unicode="&#x117;" horiz-adv-x="480" 
d="M467 213h-265q5 -58 22.5 -78t51.5 -20q25 0 49 10.5t54 32.5l75 -100q-35 -35 -84 -56.5t-109 -21.5q-123 0 -185 76.5t-62 208.5q0 131 59 210t171 79q104 0 165.5 -71t61.5 -209q0 -25 -4 -61zM286 328q0 57 -8 82t-32 25q-22 0 -32.5 -23.5t-12.5 -91.5h85v8z
M320 796q29 -29 29 -73q0 -45 -29 -74t-74 -29t-74 29t-29 74q0 44 29 73t74 29t74 -29z" />
    <glyph glyph-name="uni1EB9" unicode="&#x1eb9;" horiz-adv-x="480" 
d="M467 213h-265q5 -58 22.5 -78t51.5 -20q25 0 49 10.5t54 32.5l75 -100q-35 -35 -84 -56.5t-109 -21.5q-123 0 -185 76.5t-62 208.5q0 131 59 210t171 79q104 0 165.5 -71t61.5 -209q0 -25 -4 -61zM286 328q0 57 -8 82t-32 25q-22 0 -32.5 -23.5t-12.5 -91.5h85v8z
M178 -230q-29 29 -29 73q0 45 29 74t74 29t74 -29t29 -74q0 -44 -29 -73t-74 -29t-74 29z" />
    <glyph glyph-name="egrave" unicode="&#xe8;" horiz-adv-x="480" 
d="M467 213h-265q5 -58 22.5 -78t51.5 -20q25 0 49 10.5t54 32.5l75 -100q-35 -35 -84 -56.5t-109 -21.5q-123 0 -185 76.5t-62 208.5q0 131 59 210t171 79q104 0 165.5 -71t61.5 -209q0 -25 -4 -61zM286 328q0 57 -8 82t-32 25q-22 0 -32.5 -23.5t-12.5 -91.5h85v8z
M193 844l194 -139l-50 -90l-216 98z" />
    <glyph glyph-name="uni1EBB" unicode="&#x1ebb;" horiz-adv-x="480" 
d="M467 213h-265q5 -58 22.5 -78t51.5 -20q25 0 49 10.5t54 32.5l75 -100q-35 -35 -84 -56.5t-109 -21.5q-123 0 -185 76.5t-62 208.5q0 131 59 210t171 79q104 0 165.5 -71t61.5 -209q0 -25 -4 -61zM286 328q0 57 -8 82t-32 25q-22 0 -32.5 -23.5t-12.5 -91.5h85v8z
M198 704q32 2 45 9.5t13 26.5q0 13 -7.5 20.5t-20.5 7.5q-15 0 -25 -2.5t-27 -9.5l-26 73q42 26 103 26q56 0 86.5 -29.5t30.5 -76.5q0 -40 -18.5 -65t-53.5 -32v-50h-100v102z" />
    <glyph glyph-name="uni0207" unicode="&#x207;" horiz-adv-x="480" 
d="M467 213h-265q5 -58 22.5 -78t51.5 -20q25 0 49 10.5t54 32.5l75 -100q-35 -35 -84 -56.5t-109 -21.5q-123 0 -185 76.5t-62 208.5q0 131 59 210t171 79q104 0 165.5 -71t61.5 -209q0 -25 -4 -61zM286 328q0 57 -8 82t-32 25q-22 0 -32.5 -23.5t-12.5 -91.5h85v8z
M362.5 752.5q38.5 -51.5 44.5 -140.5l-96 -16q-13 82 -64 82t-66 -82l-95 16q6 89 44.5 140.5t116.5 51.5q77 0 115.5 -51.5z" />
    <glyph glyph-name="emacron" unicode="&#x113;" horiz-adv-x="480" 
d="M467 213h-265q5 -58 22.5 -78t51.5 -20q25 0 49 10.5t54 32.5l75 -100q-35 -35 -84 -56.5t-109 -21.5q-123 0 -185 76.5t-62 208.5q0 131 59 210t171 79q104 0 165.5 -71t61.5 -209q0 -25 -4 -61zM286 328q0 57 -8 82t-32 25q-22 0 -32.5 -23.5t-12.5 -91.5h85v8z
M386 651h-280v126h280v-126z" />
    <glyph glyph-name="eogonek" unicode="&#x119;" horiz-adv-x="480" 
d="M467 213h-265q5 -58 22.5 -78t51.5 -20q25 0 49 10.5t54 32.5l75 -100q-37 -37 -85 -57q-71 -37 -71 -86q0 -22 11 -33.5t29 -11.5q23 0 50 8l-10 -111q-30 -8 -64 -8q-60 0 -100 33.5t-40 90.5q0 61 53 99q-106 10 -159.5 85.5t-53.5 197.5q0 131 59 210t171 79
q104 0 165.5 -71t61.5 -209q0 -25 -4 -61zM286 328q0 57 -8 82t-32 25q-22 0 -32.5 -23.5t-12.5 -91.5h85v8z" />
    <glyph glyph-name="uni025B" unicode="&#x25b;" horiz-adv-x="417" 
d="M326 537.5q49 -16.5 89 -49.5l-69 -92q-49 30 -86 30q-18 0 -29 -12.5t-11 -35.5q0 -25 10.5 -37t34.5 -12h50l-17 -114h-40q-28 0 -39 -13t-11 -38q0 -26 11 -39t38 -13q19 0 40.5 7t52.5 26l75 -100q-80 -64 -204 -64q-90 0 -148.5 43t-58.5 120q0 58 32 92t104 48
q-64 14 -92 44.5t-28 76.5q0 67 54.5 108t140.5 41q52 0 101 -16.5z" />
    <glyph glyph-name="uni029A" unicode="&#x29a;" horiz-adv-x="495" 
d="M75.5 26q-61.5 45 -61.5 126q0 59 30.5 90.5t97.5 41.5q-108 28 -108 119q0 43 25 77.5t71 54t106 19.5q117 0 181 -74t64 -212q0 -141 -62.5 -214t-175.5 -73q-106 0 -167.5 45zM277 125q11 13 15 45t4 98q0 62 -4.5 96t-14.5 48t-28 14q-30 0 -30 -47q0 -26 4.5 -37.5
t21.5 -11.5h5l10 -116h-20q-21 0 -29 -11t-8 -37q0 -29 8 -41.5t32 -12.5q23 0 34 13z" />
    <glyph glyph-name="uni025C" unicode="&#x25c;" horiz-adv-x="417" 
d="M331.5 512.5q52.5 -41.5 52.5 -108.5q0 -92 -116 -120q70 -10 102.5 -41.5t32.5 -90.5q0 -84 -58.5 -127.5t-162.5 -43.5q-115 0 -190 63l82 99q31 -19 49 -25t41 -6q25 0 35.5 13t10.5 39t-12 38.5t-40 12.5h-60l10 114h38q26 0 36.5 13t10.5 40q0 21 -10 32.5t-27 11.5
q-29 0 -69 -27l-84 92q80 63 194 63q82 0 134.5 -41.5z" />
    <glyph glyph-name="uni025E" unicode="&#x25e;" horiz-adv-x="495" 
d="M76.5 54q-62.5 73 -62.5 214q0 138 64 212t181 74q60 0 106 -19.5t71 -54t25 -77.5q0 -91 -108 -119q67 -10 97.5 -41.5t30.5 -90.5q0 -81 -61.5 -126t-167.5 -45q-113 0 -175.5 73zM284 124.5q8 12.5 8 41.5q0 26 -8 37t-29 11h-20l10 116h5q17 0 21.5 11.5t4.5 37.5
q0 47 -30 47q-18 0 -28 -14t-14.5 -48t-4.5 -96q0 -66 4 -98t15 -45t34 -13q24 0 32 12.5z" />
    <glyph glyph-name="uni025D" unicode="&#x25d;" horiz-adv-x="702" 
d="M708 341q-48 -37 -112 -37q-58 0 -92.5 28t-45.5 75l-4 17l-75 -54q-18 -64 -111 -86q70 -10 102.5 -41.5t32.5 -90.5q0 -84 -58.5 -127.5t-162.5 -43.5q-115 0 -190 63l82 99q31 -19 49 -25t41 -6q25 0 35.5 13t10.5 39t-12 38.5t-40 12.5h-60l10 114h38q26 0 36.5 13
t10.5 40q0 21 -10 32.5t-27 11.5q-29 0 -69 -27l-84 92q80 63 194 63q56 0 99.5 -20t66.5 -56l81 56h148v-68q0 -18 8 -26.5t21 -8.5q16 0 27.5 5t13.5 6z" />
    <glyph glyph-name="uni0258" unicode="&#x258;" horiz-adv-x="480" 
d="M411 481q55 -73 55 -216q0 -136 -62 -210.5t-189 -74.5q-58 0 -106.5 21t-82.5 55l75 102q30 -22 54 -32.5t49 -10.5q34 0 51.5 20t22.5 78h-265q-4 36 -4 61q0 137 63.5 208.5t168.5 71.5q115 0 170 -73zM194 320h85q-1 50 -5.5 74.5t-13 32.5t-23.5 8
q-24 0 -33.5 -25.5t-9.5 -81.5v-8z" />
    <glyph glyph-name="uni0283" unicode="&#x283;" horiz-adv-x="241" 
d="M345 726l-47 -113q-27 13 -48 13q-18 0 -25.5 -10.5t-7.5 -34.5v-616q0 -94 -54.5 -142.5t-143.5 -48.5q-87 0 -145 45l62 105q26 -15 52 -15q39 0 39 44v624q0 85 48 135.5t141 50.5q70 0 129 -37z" />
    <glyph glyph-name="uni0286" unicode="&#x286;" horiz-adv-x="313" 
d="M289 -8q40 -13 71 -34l-36 -68q-17 8 -45 20q-36 -136 -195 -136q-70 0 -106 32.5t-36 90.5q0 63 36.5 95.5t99.5 32.5q15 0 21 -1v553q0 85 48 135.5t141 50.5q70 0 129 -37l-47 -113q-27 13 -48 13q-18 0 -25.5 -10.5t-7.5 -34.5v-579v-10zM99 -86v31q-7 1 -22 1
q-39 0 -39 -43q0 -37 28 -37q33 0 33 48z" />
    <glyph glyph-name="uni01AA" unicode="&#x1aa;" horiz-adv-x="423" 
d="M549 -181q-58 -45 -145 -45q-89 0 -143.5 48.5t-54.5 142.5v435q-25 -10 -53 -10q-73 0 -115.5 50t-42.5 135q0 86 50 137t143 51q65 0 112 -25t71.5 -67t24.5 -92v-626q0 -44 39 -44q26 0 52 15zM206 519v69q0 27 -6 37t-21 10q-16 0 -23.5 -12.5t-7.5 -44.5
q0 -34 9.5 -47.5t28.5 -13.5q8 0 20 2z" />
    <glyph glyph-name="uni0285" unicode="&#x285;" horiz-adv-x="437" 
d="M454 26q-58 -45 -145 -45q-89 0 -143.5 48.5t-54.5 142.5v199q0 24 -7.5 34.5t-25.5 10.5q-21 0 -48 -13l-47 113q59 37 129 37q93 0 141 -50.5t48 -135.5v-207q0 -44 39 -44q26 0 52 15z" />
    <glyph glyph-name="uni0247" unicode="&#x247;" horiz-adv-x="480" 
d="M263 217l-22 -102q15 -3 35 -3q25 0 49 10.5t54 32.5l75 -97q-35 -35 -84 -56.5t-109 -21.5q-25 0 -48 3l-13 -59l-52 11l13 62q-73 27 -110 97t-37 171q0 131 59 210t171 79q12 0 36 -2l11 51l52 -11l-11 -53q66 -26 102.5 -93t36.5 -172q0 -21 -4 -57h-204zM197 413.5
q-16 -26.5 -20 -97.5h53l26 124h-10q-33 0 -49 -26.5zM304 409l-20 -93h32v8q0 58 -12 85zM208 217h-30q3 -42 16 -68z" />
    <glyph glyph-name="uni1EBD" unicode="&#x1ebd;" horiz-adv-x="480" 
d="M467 213h-265q5 -58 22.5 -78t51.5 -20q25 0 49 10.5t54 32.5l75 -100q-35 -35 -84 -56.5t-109 -21.5q-123 0 -185 76.5t-62 208.5q0 131 59 210t171 79q104 0 165.5 -71t61.5 -209q0 -25 -4 -61zM286 328q0 57 -8 82t-32 25q-22 0 -32.5 -23.5t-12.5 -91.5h85v8z
M262 636.5q-14 6.5 -31 17.5q-2 1 -12.5 7.5t-20.5 6.5q-14 0 -22.5 -8.5t-19.5 -29.5l-84 38q17 57 49.5 92.5t74.5 35.5q20 0 34 -6.5t31 -17.5q9 -6 17.5 -10.5t16.5 -4.5q13 0 21.5 9t18.5 29l84 -38q-17 -57 -49 -92t-74 -35q-20 0 -34 6.5z" />
    <glyph glyph-name="uni01DD" unicode="&#x1dd;" horiz-adv-x="478" 
d="M406.5 479.5q57.5 -74.5 57.5 -211.5q0 -133 -58.5 -210t-172.5 -77q-105 0 -164.5 69t-59.5 209q0 24 4 62h276q-3 57 -20 79.5t-50 22.5q-28 0 -53.5 -8.5t-55.5 -28.5l-73 97q40 35 86.5 53t107.5 18q118 0 175.5 -74.5zM274 132q13 21 15 80h-107v-7q0 -51 13 -72.5
t40 -21.5q26 0 39 21z" />
    <glyph glyph-name="uni0259" unicode="&#x259;" horiz-adv-x="478" 
d="M406.5 479.5q57.5 -74.5 57.5 -211.5q0 -133 -58.5 -210t-172.5 -77q-105 0 -164.5 69t-59.5 209q0 24 4 62h276q-3 57 -20 79.5t-50 22.5q-28 0 -53.5 -8.5t-55.5 -28.5l-73 97q40 35 86.5 53t107.5 18q118 0 175.5 -74.5zM274 132q13 21 15 80h-107v-7q0 -51 13 -72.5
t40 -21.5q26 0 39 21z" />
    <glyph glyph-name="uni025A" unicode="&#x25a;" horiz-adv-x="745" 
d="M751 341q-48 -37 -112 -37q-58 0 -92.5 28t-45.5 75l-4 17l-47 -34q14 -56 14 -122q0 -133 -58.5 -210t-172.5 -77q-105 0 -164.5 69t-59.5 209q0 24 4 62h276q-3 57 -20 79.5t-50 22.5q-28 0 -53.5 -8.5t-55.5 -28.5l-73 97q40 35 86.5 53t107.5 18q115 0 176 -75l80 55
h148v-68q0 -18 8 -26.5t21 -8.5q16 0 27.5 5t13.5 6zM274 132q13 21 15 80h-107v-7q0 -51 13 -72.5t40 -21.5q26 0 39 21z" />
    <glyph glyph-name="uni0292" unicode="&#x292;" horiz-adv-x="444" 
d="M441 11q0 -68 -29 -122t-84.5 -85t-133.5 -31q-142 0 -216 109l96 91q33 -31 55.5 -44t50.5 -13q34 0 51 24.5t17 77.5q0 50 -21 71.5t-64 21.5h-78v104l123 181h-189v138h388v-127l-135 -193q169 -22 169 -203z" />
    <glyph glyph-name="uni01EF" unicode="&#x1ef;" horiz-adv-x="444" 
d="M441 11q0 -68 -29 -122t-84.5 -85t-133.5 -31q-142 0 -216 109l96 91q33 -31 55.5 -44t50.5 -13q34 0 51 24.5t17 77.5q0 50 -21 71.5t-64 21.5h-78v104l123 181h-189v138h388v-127l-135 -193q169 -22 169 -203zM328 823l62 -66l-121 -153h-112l-121 153l62 66l115 -96z
" />
    <glyph glyph-name="uni0293" unicode="&#x293;" horiz-adv-x="444" 
d="M404 -121q-37 -58 -109 -85l25 -56l-78 -34l-27 72q-28 -2 -45 -2q-80 0 -131.5 42.5t-51.5 122.5q0 61 32.5 94t79.5 33q45 0 74.5 -25.5t57.5 -91.5q17 28 17 79q0 92 -75 92h-88v104l123 172h-189v138h388v-127l-133 -183q167 -19 167 -209q0 -78 -37 -136zM116 -76
q11 -7 44 -7q-14 35 -22 46.5t-17 11.5q-8 0 -12 -6t-4 -20q0 -18 11 -25z" />
    <glyph glyph-name="uni01B9" unicode="&#x1b9;" horiz-adv-x="444" 
d="M466 -118q-74 -109 -219 -109q-76 0 -131.5 31t-84 85t-28.5 122q0 181 169 203l-135 193v127h388v-138h-189l123 -181v-104h-78q-42 0 -63.5 -22.5t-21.5 -73.5q0 -99 68 -99q28 0 50.5 13t54.5 44z" />
    <glyph glyph-name="uni01BA" unicode="&#x1ba;" horiz-adv-x="452" 
d="M64.5 -164q-42.5 40 -42.5 96q0 54 34 87t103 53q53 15 71 29t18 40q0 22 -14 31t-51 9h-91v95l116 129h-193v129h390v-118l-126 -132h5q70 0 111.5 -40t41.5 -110q0 -76 -42.5 -113.5t-118.5 -60.5q-39 -12 -56.5 -19t-23.5 -13.5t-6 -17.5q0 -19 22 -35l-35 -101
q-70 22 -112.5 62z" />
    <glyph glyph-name="f" unicode="f" horiz-adv-x="321" 
d="M243 578v-44h91l-21 -129h-70v-405h-190v405h-53v129h53v35q0 90 50.5 142.5t148.5 52.5q74 0 139 -36l-48 -116q-33 15 -58 15q-42 0 -42 -49z" />
    <glyph glyph-name="uni1E1F" unicode="&#x1e1f;" horiz-adv-x="321" 
d="M243 578v-44h91l-21 -129h-70v-405h-190v405h-53v129h53v35q0 90 50.5 142.5t148.5 52.5q74 0 139 -36l-48 -116q-33 15 -58 15q-42 0 -42 -49zM303 970q29 -29 29 -73q0 -45 -29 -74t-74 -29t-74 29t-29 74q0 44 29 73t74 29t74 -29z" />
    <glyph glyph-name="uni02A9" unicode="&#x2a9;" horiz-adv-x="749" 
d="M693 513.5q32 -40.5 32 -110.5v-438q0 -94 -54.5 -142.5t-143.5 -48.5q-87 0 -145 45l62 105q26 -15 52 -15q39 0 39 44v432q0 25 -11 25q-12 0 -37 -43v-367h-190v404h-54v-404h-190v404h-53v129h53v36q0 90 50.5 142.5t148.5 52.5q74 0 139 -36l-48 -116q-33 15 -58 15
q-42 0 -42 -49v-45h54v1h166l13 -53q27 38 57.5 55.5t71.5 17.5q56 0 88 -40.5z" />
    <glyph glyph-name="g" unicode="g" horiz-adv-x="467" 
d="M477 499q-37 -23 -124 -23q48 -20 70 -53t22 -87q0 -51 -25 -91t-72 -63t-110 -23q-21 0 -45 4q-12 -7 -12 -23q0 -15 9 -21.5t36 -6.5h51q94 0 145.5 -42.5t51.5 -113.5q0 -84 -66.5 -133.5t-188.5 -49.5q-92 0 -143.5 21.5t-71 60t-19.5 95.5h170q0 -31 13 -45t52 -14
q36 0 50 14t14 38q0 23 -12 34t-39 11h-42q-83 0 -121 28.5t-38 78.5q0 32 16 58.5t42 44.5q-45 29 -64.5 64.5t-19.5 90.5q0 96 59.5 148t168.5 50q40 0 74.5 10t60 24t65.5 40zM201 414.5q-10 -16.5 -10 -57.5q0 -44 9.5 -60.5t28.5 -16.5q20 0 29 17.5t9 62.5q0 41 -9 56
t-28 15t-29 -16.5z" />
    <glyph glyph-name="g.ss04" horiz-adv-x="506" 
d="M479 534v-546q0 -104 -64 -159t-177 -55q-62 0 -106 14.5t-78 37.5l58 111q25 -13 50 -20.5t58 -7.5q69 0 69 65v74q-40 -47 -99 -47q-84 0 -130 73t-46 205q0 82 25 144.5t68 96.5t95 34q31 0 58 -14t45 -39l8 33h166zM269.5 147.5q10.5 10.5 19.5 31.5v217
q-18 22 -35 22q-22 0 -34 -31t-12 -109q0 -86 11 -113.5t30 -27.5q10 0 20.5 10.5z" />
    <glyph glyph-name="uni01F5" unicode="&#x1f5;" horiz-adv-x="467" 
d="M477 499q-37 -23 -124 -23q48 -20 70 -53t22 -87q0 -51 -25 -91t-72 -63t-110 -23q-21 0 -45 4q-12 -7 -12 -23q0 -15 9 -21.5t36 -6.5h51q94 0 145.5 -42.5t51.5 -113.5q0 -84 -66.5 -133.5t-188.5 -49.5q-92 0 -143.5 21.5t-71 60t-19.5 95.5h170q0 -31 13 -45t52 -14
q36 0 50 14t14 38q0 23 -12 34t-39 11h-42q-83 0 -121 28.5t-38 78.5q0 32 16 58.5t42 44.5q-45 29 -64.5 64.5t-19.5 90.5q0 96 59.5 148t168.5 50q40 0 74.5 10t60 24t65.5 40zM201 414.5q-10 -16.5 -10 -57.5q0 -44 9.5 -60.5t28.5 -16.5q20 0 29 17.5t9 62.5q0 41 -9 56
t-28 15t-29 -16.5zM287 844l72 -131l-216 -98l-50 90z" />
    <glyph glyph-name="uni0263" unicode="&#x263;" horiz-adv-x="456" 
d="M318 91q34 -59 48.5 -100t14.5 -85q0 -132 -150 -132q-77 0 -113.5 35t-36.5 97q0 42 13.5 82.5t48.5 102.5l-158 443h194l52 -327l57 327h183zM247.5 -54.5q-4.5 16.5 -16.5 47.5q-21 -50 -21 -82q0 -25 21 -25t21 26q0 17 -4.5 33.5z" />
    <glyph glyph-name="gbreve" unicode="&#x11f;" horiz-adv-x="467" 
d="M477 499q-37 -23 -124 -23q48 -20 70 -53t22 -87q0 -51 -25 -91t-72 -63t-110 -23q-21 0 -45 4q-12 -7 -12 -23q0 -15 9 -21.5t36 -6.5h51q94 0 145.5 -42.5t51.5 -113.5q0 -84 -66.5 -133.5t-188.5 -49.5q-92 0 -143.5 21.5t-71 60t-19.5 95.5h170q0 -31 13 -45t52 -14
q36 0 50 14t14 38q0 23 -12 34t-39 11h-42q-83 0 -121 28.5t-38 78.5q0 32 16 58.5t42 44.5q-45 29 -64.5 64.5t-19.5 90.5q0 96 59.5 148t168.5 50q40 0 74.5 10t60 24t65.5 40zM201 414.5q-10 -16.5 -10 -57.5q0 -44 9.5 -60.5t28.5 -16.5q20 0 29 17.5t9 62.5q0 41 -9 56
t-28 15t-29 -16.5zM121.5 678.5q-38.5 51.5 -44.5 140.5l95 16q15 -82 66 -82t64 82l96 -16q-6 -89 -44.5 -140.5t-115.5 -51.5q-78 0 -116.5 51.5z" />
    <glyph glyph-name="gcaron" unicode="&#x1e7;" horiz-adv-x="467" 
d="M477 499q-37 -23 -124 -23q48 -20 70 -53t22 -87q0 -51 -25 -91t-72 -63t-110 -23q-21 0 -45 4q-12 -7 -12 -23q0 -15 9 -21.5t36 -6.5h51q94 0 145.5 -42.5t51.5 -113.5q0 -84 -66.5 -133.5t-188.5 -49.5q-92 0 -143.5 21.5t-71 60t-19.5 95.5h170q0 -31 13 -45t52 -14
q36 0 50 14t14 38q0 23 -12 34t-39 11h-42q-83 0 -121 28.5t-38 78.5q0 32 16 58.5t42 44.5q-45 29 -64.5 64.5t-19.5 90.5q0 96 59.5 148t168.5 50q40 0 74.5 10t60 24t65.5 40zM201 414.5q-10 -16.5 -10 -57.5q0 -44 9.5 -60.5t28.5 -16.5q20 0 29 17.5t9 62.5q0 41 -9 56
t-28 15t-29 -16.5zM352 823l62 -66l-121 -153h-112l-121 153l62 66l115 -96z" />
    <glyph glyph-name="gcircumflex" unicode="&#x11d;" horiz-adv-x="467" 
d="M477 499q-37 -23 -124 -23q48 -20 70 -53t22 -87q0 -51 -25 -91t-72 -63t-110 -23q-21 0 -45 4q-12 -7 -12 -23q0 -15 9 -21.5t36 -6.5h51q94 0 145.5 -42.5t51.5 -113.5q0 -84 -66.5 -133.5t-188.5 -49.5q-92 0 -143.5 21.5t-71 60t-19.5 95.5h170q0 -31 13 -45t52 -14
q36 0 50 14t14 38q0 23 -12 34t-39 11h-42q-83 0 -121 28.5t-38 78.5q0 32 16 58.5t42 44.5q-45 29 -64.5 64.5t-19.5 90.5q0 96 59.5 148t168.5 50q40 0 74.5 10t60 24t65.5 40zM201 414.5q-10 -16.5 -10 -57.5q0 -44 9.5 -60.5t28.5 -16.5q20 0 29 17.5t9 62.5q0 41 -9 56
t-28 15t-29 -16.5zM122 619l-62 64l122 153h111l121 -153l-62 -64l-115 95z" />
    <glyph glyph-name="gcommaaccent" unicode="&#x123;" horiz-adv-x="467" 
d="M477 499q-37 -23 -124 -23q48 -20 70 -53t22 -87q0 -51 -25 -91t-72 -63t-110 -23q-21 0 -45 4q-12 -7 -12 -23q0 -15 9 -21.5t36 -6.5h51q94 0 145.5 -42.5t51.5 -113.5q0 -84 -66.5 -133.5t-188.5 -49.5q-92 0 -143.5 21.5t-71 60t-19.5 95.5h170q0 -31 13 -45t52 -14
q36 0 50 14t14 38q0 23 -12 34t-39 11h-42q-83 0 -121 28.5t-38 78.5q0 32 16 58.5t42 44.5q-45 29 -64.5 64.5t-19.5 90.5q0 96 59.5 148t168.5 50q40 0 74.5 10t60 24t65.5 40zM201 414.5q-10 -16.5 -10 -57.5q0 -44 9.5 -60.5t28.5 -16.5q20 0 29 17.5t9 62.5q0 41 -9 56
t-28 15t-29 -16.5zM171.5 599q-23.5 25 -23.5 63q0 20 5 37.5t18 49.5l42 101h89l-25 -115q41 -25 41 -73q0 -36 -23.5 -62t-61.5 -26t-61.5 25z" />
    <glyph glyph-name="gdotaccent" unicode="&#x121;" horiz-adv-x="467" 
d="M477 499q-37 -23 -124 -23q48 -20 70 -53t22 -87q0 -51 -25 -91t-72 -63t-110 -23q-21 0 -45 4q-12 -7 -12 -23q0 -15 9 -21.5t36 -6.5h51q94 0 145.5 -42.5t51.5 -113.5q0 -84 -66.5 -133.5t-188.5 -49.5q-92 0 -143.5 21.5t-71 60t-19.5 95.5h170q0 -31 13 -45t52 -14
q36 0 50 14t14 38q0 23 -12 34t-39 11h-42q-83 0 -121 28.5t-38 78.5q0 32 16 58.5t42 44.5q-45 29 -64.5 64.5t-19.5 90.5q0 96 59.5 148t168.5 50q40 0 74.5 10t60 24t65.5 40zM201 414.5q-10 -16.5 -10 -57.5q0 -44 9.5 -60.5t28.5 -16.5q20 0 29 17.5t9 62.5q0 41 -9 56
t-28 15t-29 -16.5zM311 796q29 -29 29 -73q0 -45 -29 -74t-74 -29t-74 29t-29 74q0 44 29 73t74 29t74 -29z" />
    <glyph glyph-name="uni0260" unicode="&#x260;" horiz-adv-x="506" 
d="M607 726l-47 -113q-27 13 -48 13q-18 0 -25.5 -10.5t-7.5 -34.5v-593q0 -104 -64 -159t-177 -55q-62 0 -106 14.5t-78 37.5l58 111q25 -13 50 -20.5t58 -7.5q69 0 69 65v74q-40 -47 -99 -47q-84 0 -130 73t-46 205q0 82 25 144.5t68 96.5t95 34q50 0 87 -35v58
q0 85 48 135.5t141 50.5q70 0 129 -37zM269.5 147.5q10.5 10.5 19.5 31.5v217q-18 22 -35 22q-22 0 -34 -31t-12 -109q0 -86 11 -113.5t30 -27.5q10 0 20.5 10.5z" />
    <glyph glyph-name="uni01BE" unicode="&#x1be;" horiz-adv-x="434" 
d="M392.5 359.5q27.5 -47.5 27.5 -132.5q0 -122 -62.5 -184t-167.5 -62q-62 0 -112 24t-93 71l90 88q23 -24 43 -35t43 -11q66 0 66 109q0 68 -21 101t-77 50l-30 9v135h-56v103h56v119l190 20v-139h64v-103h-64v-85l20 -8q56 -22 83.5 -69.5z" />
    <glyph glyph-name="uni0294" unicode="&#x294;" horiz-adv-x="425" 
d="M104 357l19 9q38 18 59 35.5t30.5 44.5t9.5 71q0 109 -66 109q-23 0 -43 -11t-43 -35l-90 88q86 95 208 95q104 0 165.5 -61.5t61.5 -181.5q0 -84 -26 -131t-83 -76l-12 -6v-307h-190v357z" />
    <glyph glyph-name="uni0296" unicode="&#x296;" horiz-adv-x="434" 
d="M289 764v-327l20 -8q56 -22 83.5 -69.5t27.5 -132.5q0 -122 -62.5 -184t-167.5 -62q-62 0 -112 24t-93 71l90 88q23 -24 43 -35t43 -11q66 0 66 109q0 68 -21 101t-77 50l-30 9v357z" />
    <glyph glyph-name="uni0295" unicode="&#x295;" horiz-adv-x="425" 
d="M131 0v307l-12 6q-57 29 -83 76t-26 131q0 120 62.5 181.5t167.5 61.5q62 0 112 -24t93 -71l-90 -88q-23 24 -43 35t-43 11q-66 0 -66 -109q0 -44 9.5 -71t30.5 -44.5t59 -35.5l19 -9v-357h-190z" />
    <glyph glyph-name="uni0242" unicode="&#x242;" horiz-adv-x="400" 
d="M85 206l25 11q43 19 65 46.5t22 76.5q0 41 -14 59t-37 18q-19 0 -36 -9t-37 -29l-83 86q73 89 189 89q62 0 110 -26t74.5 -74t26.5 -112q0 -68 -23.5 -110.5t-69.5 -65.5l-22 -11v-155h-190v206z" />
    <glyph glyph-name="uni02A1" unicode="&#x2a1;" horiz-adv-x="425" 
d="M294 225h70v-103h-70v-122h-190v122h-53v103h53v132l19 9q38 18 59 35.5t30.5 44.5t9.5 71q0 109 -66 109q-23 0 -43 -11t-43 -35l-90 88q86 95 208 95q104 0 165.5 -61.5t61.5 -181.5q0 -84 -26 -131t-83 -76l-12 -6v-82z" />
    <glyph glyph-name="uni02A2" unicode="&#x2a2;" horiz-adv-x="425" 
d="M321 225h55v-103h-55v-122h-190v122h-68v103h68v82l-12 6q-57 29 -83 76t-26 131q0 120 62.5 181.5t167.5 61.5q62 0 112 -24t93 -71l-90 -88q-23 24 -43 35t-43 11q-66 0 -66 -109q0 -44 9.5 -71t30.5 -44.5t59 -35.5l19 -9v-132z" />
    <glyph glyph-name="uni0261" unicode="&#x261;" horiz-adv-x="506" 
d="M479 534v-546q0 -104 -64 -159t-177 -55q-62 0 -106 14.5t-78 37.5l58 111q25 -13 50 -20.5t58 -7.5q69 0 69 65v74q-40 -47 -99 -47q-84 0 -130 73t-46 205q0 82 25 144.5t68 96.5t95 34q31 0 58 -14t45 -39l8 33h166zM269.5 147.5q10.5 10.5 19.5 31.5v217
q-18 22 -35 22q-22 0 -34 -31t-12 -109q0 -86 11 -113.5t30 -27.5q10 0 20.5 10.5z" />
    <glyph glyph-name="uni01E5" unicode="&#x1e5;" horiz-adv-x="467" 
d="M524 -83h-54q-15 -67 -79.5 -105.5t-171.5 -38.5q-92 0 -143.5 21.5t-71 60t-19.5 95.5h170q0 -35 14.5 -48.5t60.5 -13.5q36 0 54.5 6.5t25.5 22.5h-80v58h78q-8 15 -26 21.5t-49 6.5h-42q-84 0 -121.5 23.5t-37.5 68.5q0 32 16 58.5t42 44.5q-45 29 -64.5 64.5
t-19.5 90.5q0 96 59.5 148t168.5 50q40 0 74.5 10t60 24t65.5 40l43 -126q-37 -23 -124 -23q48 -20 70 -53t22 -87q0 -51 -25 -91t-72 -63t-110 -23q-21 0 -45 4q-12 -7 -12 -23q0 -15 9 -21.5t36 -6.5h51q87 0 138 -37t58 -100h51v-58zM201 414.5q-10 -16.5 -10 -57.5
q0 -44 9.5 -60.5t28.5 -16.5q20 0 29 17.5t9 62.5q0 41 -9 56t-28 15t-29 -16.5z" />
    <glyph glyph-name="uni021D" unicode="&#x21d;" horiz-adv-x="406" 
d="M320 512.5q53 -41.5 53 -113.5q0 -97 -116 -125q70 -6 102.5 -35t32.5 -84q0 -89 -89.5 -158t-258.5 -106l-15 121q92 38 131 71.5t39 77.5q0 23 -10 33t-32 10h-62l10 116h30q24 0 35.5 13t11.5 44q0 26 -8 37.5t-25 11.5q-18 0 -34.5 -6.5t-40.5 -21.5l-82 93
q80 63 190 63q85 0 138 -41.5z" />
    <glyph glyph-name="h" unicode="h" horiz-adv-x="479" 
d="M423 513.5q32 -40.5 32 -110.5v-403h-190v385q0 25 -11 25q-12 0 -37 -43v-367h-190v744l190 20v-277q26 36 54 51.5t64 15.5q56 0 88 -40.5z" />
    <glyph glyph-name="hbar" unicode="&#x127;" horiz-adv-x="484" 
d="M428 513.5q32 -40.5 32 -110.5v-403h-190v385q0 25 -11 25q-12 0 -37 -43v-367h-190v593h-36v103h36v48l190 20v-68h93v-103h-93v-106q26 36 54 51.5t64 15.5q56 0 88 -40.5z" />
    <glyph glyph-name="uni021F" unicode="&#x21f;" horiz-adv-x="479" 
d="M423 513.5q32 -40.5 32 -110.5v-403h-190v385q0 25 -11 25q-12 0 -37 -43v-367h-190v744l190 20v-277q26 36 54 51.5t64 15.5q56 0 88 -40.5zM354 1003l62 -64l-122 -143h-111l-121 143l62 64l115 -85z" />
    <glyph glyph-name="hcircumflex" unicode="&#x125;" horiz-adv-x="479" 
d="M423 513.5q32 -40.5 32 -110.5v-403h-190v385q0 25 -11 25q-12 0 -37 -43v-367h-190v744l190 20v-277q26 36 54 51.5t64 15.5q56 0 88 -40.5zM124 807l-62 64l122 143h111l121 -143l-62 -64l-115 85z" />
    <glyph glyph-name="uni1E25" unicode="&#x1e25;" horiz-adv-x="479" 
d="M423 513.5q32 -40.5 32 -110.5v-403h-190v385q0 25 -11 25q-12 0 -37 -43v-367h-190v744l190 20v-277q26 36 54 51.5t64 15.5q56 0 88 -40.5zM168 -230q-29 29 -29 73q0 45 29 74t74 29t74 -29t29 -74q0 -44 -29 -73t-74 -29t-74 29z" />
    <glyph glyph-name="uni0267" unicode="&#x267;" horiz-adv-x="479" 
d="M423.5 512q31.5 -42 31.5 -119v-428q0 -94 -54.5 -142.5t-143.5 -48.5q-87 0 -145 45l62 105q26 -15 52 -15q39 0 39 44v422q0 35 -11 35q-12 0 -37 -43v-367h-190v578q0 51 22.5 93t67.5 67t111 25q38 0 74 -10t63 -26l-52 -116q-27 15 -54 15q-22 0 -32 -13t-10 -42
v-84q26 36 54 51.5t64 15.5q57 0 88.5 -42z" />
    <glyph glyph-name="uni0266" unicode="&#x266;" horiz-adv-x="479" 
d="M423.5 512q31.5 -42 31.5 -119v-393h-190v375q0 35 -11 35q-12 0 -37 -43v-367h-190v578q0 51 22.5 93t67.5 67t111 25q38 0 74 -10t63 -26l-52 -116q-27 15 -54 15q-22 0 -32 -13t-10 -42v-84q26 36 54 51.5t64 15.5q57 0 88.5 -42z" />
    <glyph glyph-name="uni0265" unicode="&#x265;" horiz-adv-x="479" 
d="M452 534v-760l-190 19v254q-26 -36 -54 -51.5t-64 -15.5q-56 0 -88 40.5t-32 110.5v403h190v-385q0 -25 11 -25q12 0 37 43v367h190z" />
    <glyph glyph-name="uni02AE" unicode="&#x2ae;" horiz-adv-x="590" 
d="M563 534v-760l-190 19v254q-26 -36 -54 -51.5t-64 -15.5q-56 0 -88 40.5t-32 110.5v244q0 44 -39 44q-26 0 -52 -15l-62 105q58 45 145 45q89 0 143.5 -48.5t54.5 -142.5v-214q0 -25 11 -25q12 0 37 43v367h190z" />
    <glyph glyph-name="uni02AF" unicode="&#x2af;" horiz-adv-x="590" 
d="M716 -181q-58 -45 -145 -45q-89 0 -143.5 48.5t-54.5 142.5v82q-26 -36 -54 -51.5t-64 -15.5q-56 0 -88 40.5t-32 110.5v244q0 44 -39 44q-26 0 -52 -15l-62 105q58 45 145 45q89 0 143.5 -48.5t54.5 -142.5v-214q0 -25 11 -25q12 0 37 43v367h190v-581q0 -44 39 -44
q26 0 52 15z" />
    <glyph glyph-name="uni0195" unicode="&#x195;" horiz-adv-x="714" 
d="M692.5 385.5q6.5 -63.5 6.5 -134.5q0 -146 -67 -208t-170 -62q-91 0 -144 47t-53 141v216q0 25 -11 25q-12 0 -37 -43v-367h-190v744l190 20v-277q26 36 54 51.5t64 15.5q56 0 88 -40.5t32 -110.5v-244q0 -25 5 -33.5t16 -8.5q18 0 25.5 29.5t7.5 112.5q0 95 -20 275h185
q12 -85 18.5 -148.5z" />
    <glyph glyph-name="i" unicode="i" horiz-adv-x="244" 
d="M217 534v-534h-190v534h190zM196 796q29 -29 29 -73q0 -45 -29 -74t-74 -29t-74 29t-29 74q0 44 29 73t74 29t74 -29z" />
    <glyph glyph-name="dotlessi" unicode="&#x131;" horiz-adv-x="244" 
d="M217 534v-534h-190v534h190z" />
    <glyph glyph-name="iacute" unicode="&#xed;" horiz-adv-x="244" 
d="M217 534v-534h-190v534h190zM172 844l72 -131l-216 -98l-50 90z" />
    <glyph glyph-name="ibreve" unicode="&#x12d;" horiz-adv-x="244" 
d="M217 534v-534h-190v534h190zM6.5 678.5q-38.5 51.5 -44.5 140.5l95 16q15 -82 66 -82t64 82l96 -16q-6 -89 -44.5 -140.5t-115.5 -51.5q-78 0 -116.5 51.5z" />
    <glyph glyph-name="uni01D0" unicode="&#x1d0;" horiz-adv-x="244" 
d="M217 534v-534h-190v534h190zM237 823l62 -66l-121 -153h-112l-121 153l62 66l115 -96z" />
    <glyph glyph-name="icircumflex" unicode="&#xee;" horiz-adv-x="244" 
d="M217 534v-534h-190v534h190zM7 619l-62 64l122 153h111l121 -153l-62 -64l-115 95z" />
    <glyph glyph-name="uni0209" unicode="&#x209;" horiz-adv-x="244" 
d="M217 534v-534h-190v534h190zM16 872l88 -209l-84 -42l-114 193zM182 872l82 -211l-87 -36l-108 194z" />
    <glyph glyph-name="idieresis" unicode="&#xef;" horiz-adv-x="244" 
d="M217 534v-534h-190v534h190zM79.5 788q24.5 -26 24.5 -63q0 -39 -24 -64.5t-63 -25.5q-37 0 -62.5 26t-25.5 64q0 37 25.5 63t62.5 26q38 0 62.5 -26zM289.5 788q24.5 -26 24.5 -63q0 -39 -24 -64.5t-63 -25.5q-37 0 -62.5 26t-25.5 64q0 37 25.5 63t62.5 26
q38 0 62.5 -26z" />
    <glyph glyph-name="uni1E2F" unicode="&#x1e2f;" horiz-adv-x="244" 
d="M217 534v-534h-190v534h190zM180 977l107 -93l-159 -153l-72 58zM68.5 743q24.5 -26 24.5 -63q0 -39 -24 -64.5t-63 -25.5q-37 0 -62.5 26t-25.5 64q0 37 25.5 63t62.5 26q38 0 62.5 -26zM300.5 743q24.5 -26 24.5 -63q0 -39 -24 -64.5t-63 -25.5q-37 0 -62.5 26
t-25.5 64q0 37 25.5 63t62.5 26q38 0 62.5 -26z" />
    <glyph glyph-name="i.loclTRK" horiz-adv-x="244" 
d="M217 534v-534h-190v534h190zM196 796q29 -29 29 -73q0 -45 -29 -74t-74 -29t-74 29t-29 74q0 44 29 73t74 29t74 -29z" />
    <glyph glyph-name="uni1ECB" unicode="&#x1ecb;" horiz-adv-x="244" 
d="M217 534v-534h-190v534h190zM196 796q29 -29 29 -73q0 -45 -29 -74t-74 -29t-74 29t-29 74q0 44 29 73t74 29t74 -29zM48 -230q-29 29 -29 73q0 45 29 74t74 29t74 -29t29 -74q0 -44 -29 -73t-74 -29t-74 29z" />
    <glyph glyph-name="igrave" unicode="&#xec;" horiz-adv-x="244" 
d="M217 534v-534h-190v534h190zM69 844l194 -139l-50 -90l-216 98z" />
    <glyph glyph-name="uni1EC9" unicode="&#x1ec9;" horiz-adv-x="244" 
d="M217 534v-534h-190v534h190zM74 704q32 2 45 9.5t13 26.5q0 13 -7.5 20.5t-20.5 7.5q-15 0 -25 -2.5t-27 -9.5l-26 73q42 26 103 26q56 0 86.5 -29.5t30.5 -76.5q0 -40 -18.5 -65t-53.5 -32v-50h-100v102z" />
    <glyph glyph-name="uni020B" unicode="&#x20b;" horiz-adv-x="244" 
d="M217 534v-534h-190v534h190zM238.5 752.5q38.5 -51.5 44.5 -140.5l-96 -16q-13 82 -64 82t-66 -82l-95 16q6 89 44.5 140.5t116.5 51.5q77 0 115.5 -51.5z" />
    <glyph glyph-name="ij" unicode="&#x133;" horiz-adv-x="488" 
d="M217 534v-534h-190v534h190zM196 796q29 -29 29 -73q0 -45 -29 -74t-74 -29t-74 29t-29 74q0 44 29 73t74 29t74 -29zM461 55q0 -114 -58.5 -178t-159.5 -103l-66 138q48 28 71 57t23 83v482h190v-479zM440 796q29 -29 29 -73q0 -45 -29 -74t-74 -29t-74 29t-29 74
q0 44 29 73t74 29t74 -29z" />
    <glyph glyph-name="imacron" unicode="&#x12b;" horiz-adv-x="244" 
d="M217 534v-534h-190v534h190zM262 651h-280v126h280v-126z" />
    <glyph glyph-name="iogonek" unicode="&#x12f;" horiz-adv-x="244" 
d="M48 649q-29 29 -29 74q0 44 29 73t74 29t74 -29t29 -73q0 -45 -29 -74t-74 -29t-74 29zM27 534h190v-534h-43q-53 -23 -72.5 -46.5t-19.5 -49.5q0 -23 11.5 -34t29.5 -11q22 0 49 8l-10 -111q-30 -8 -62 -8q-64 0 -105 32.5t-41 89.5q0 77 73 131v533z" />
    <glyph glyph-name="uni0269" unicode="&#x269;" horiz-adv-x="260" 
d="M62.5 22.5q-40.5 42.5 -40.5 116.5v395h190v-386q0 -19 17 -19q6 0 14 2l32 -131q-44 -20 -97 -20q-75 0 -115.5 42.5z" />
    <glyph glyph-name="uni0268" unicode="&#x268;" horiz-adv-x="294" 
d="M73 649q-29 29 -29 74q0 44 29 73t74 29t74 -29t29 -73q0 -45 -29 -74t-74 -29t-74 29zM294 346v-129h-52v-217h-190v217h-52v129h52v188h190v-188h52z" />
    <glyph glyph-name="itilde" unicode="&#x129;" horiz-adv-x="244" 
d="M217 534v-534h-190v534h190zM138 636.5q-14 6.5 -31 17.5q-2 1 -12.5 7.5t-20.5 6.5q-14 0 -22.5 -8.5t-19.5 -29.5l-84 38q17 57 49.5 92.5t74.5 35.5q20 0 34 -6.5t31 -17.5q9 -6 17.5 -10.5t16.5 -4.5q13 0 21.5 9t18.5 29l84 -38q-17 -57 -49 -92t-74 -35
q-20 0 -34 6.5z" />
    <glyph glyph-name="j" unicode="j" horiz-adv-x="244" 
d="M217 55q0 -114 -58.5 -178t-159.5 -103l-66 138q48 28 71 57t23 83v482h190v-479zM196 796q29 -29 29 -73q0 -45 -29 -74t-74 -29t-74 29t-29 74q0 44 29 73t74 29t74 -29z" />
    <glyph glyph-name="uni0237" unicode="&#x237;" horiz-adv-x="244" 
d="M217 55q0 -114 -58.5 -178t-159.5 -103l-66 138q48 28 71 57t23 83v482h190v-479z" />
    <glyph glyph-name="uni01F0" unicode="&#x1f0;" horiz-adv-x="244" 
d="M217 55q0 -114 -58.5 -178t-159.5 -103l-66 138q48 28 71 57t23 83v482h190v-479zM237 823l62 -66l-121 -153h-112l-121 153l62 66l115 -96z" />
    <glyph glyph-name="jcircumflex" unicode="&#x135;" horiz-adv-x="244" 
d="M217 55q0 -114 -58.5 -178t-159.5 -103l-66 138q48 28 71 57t23 83v482h190v-479zM7 619l-62 64l122 153h111l121 -153l-62 -64l-115 95z" />
    <glyph glyph-name="uni029D" unicode="&#x29d;" horiz-adv-x="316" 
d="M324 -110q-17 8 -45 20q-36 -136 -195 -136q-70 0 -106 32.5t-36 90.5q0 63 36.5 95.5t99.5 32.5q15 0 21 -1v510h190v-532v-10q40 -13 71 -34zM99 -86v31q-7 1 -22 1q-39 0 -39 -43q0 -37 28 -37q33 0 33 48zM268 796q29 -29 29 -73q0 -45 -29 -74t-74 -29t-74 29
t-29 74q0 44 29 73t74 29t74 -29z" />
    <glyph glyph-name="uni025F" unicode="&#x25f;" horiz-adv-x="296" 
d="M296 196h-52v-141q0 -114 -58.5 -178t-159.5 -103l-66 138q48 28 71 57t23 83v144h-52v130h52v208h190v-208h52v-130z" />
    <glyph glyph-name="uni0284" unicode="&#x284;" horiz-adv-x="297" 
d="M296 130v-130h-56q-14 -88 -70 -140t-144 -86l-66 138q35 20 56 39.5t31 48.5h-44v130h51v447q0 85 48 135.5t141 50.5q70 0 129 -37l-47 -113q-27 13 -48 13q-18 0 -25.5 -10.5t-7.5 -34.5v-451h52z" />
    <glyph glyph-name="uni0249" unicode="&#x249;" horiz-adv-x="296" 
d="M296 196h-52v-141q0 -114 -58.5 -178t-159.5 -103l-66 138q48 28 71 57t23 83v144h-52v130h52v208h190v-208h52v-130zM223 796q29 -29 29 -73q0 -45 -29 -74t-74 -29t-74 29t-29 74q0 44 29 73t74 29t74 -29z" />
    <glyph glyph-name="k" unicode="k" horiz-adv-x="502" 
d="M217 764v-764h-190v744zM509 534l-107 -234l110 -300h-197l-95 292l111 242h178z" />
    <glyph glyph-name="uni01E9" unicode="&#x1e9;" horiz-adv-x="502" 
d="M217 764v-764h-190v744zM509 534l-107 -234l110 -300h-197l-95 292l111 242h178zM380 1003l62 -64l-122 -143h-111l-121 143l62 64l115 -85z" />
    <glyph glyph-name="kcommaaccent" unicode="&#x137;" horiz-adv-x="502" 
d="M217 764v-764h-190v744zM509 534l-107 -234l110 -300h-197l-95 292l111 242h178zM311.5 -88q23.5 -25 23.5 -63q0 -20 -5 -37.5t-18 -49.5l-42 -101h-89l25 115q-41 25 -41 73q0 36 23.5 62t61.5 26t61.5 -25z" />
    <glyph glyph-name="kgreenlandic" unicode="&#x138;" horiz-adv-x="502" 
d="M217 534v-534h-190v534h190zM509 534l-107 -234l110 -300h-197l-95 292l111 242h178z" />
    <glyph glyph-name="uni0199" unicode="&#x199;" horiz-adv-x="502" 
d="M227 613q-10 -13 -10 -42v-571h-190v578q0 51 22.5 93t67.5 67t111 25q38 0 74 -10t63 -26l-52 -116q-27 15 -54 15q-22 0 -32 -13zM402 300l110 -300h-197l-95 292l111 242h178z" />
    <glyph glyph-name="uni029E" unicode="&#x29e;" horiz-adv-x="502" 
d="M-7 0l107 234l-110 300h197l95 -292l-111 -242h-178zM285 -207v741h190v-760z" />
    <glyph glyph-name="l" unicode="l" horiz-adv-x="260" 
d="M62.5 22.5q-40.5 42.5 -40.5 116.5v605l190 20v-615q0 -20 17 -20q6 0 14 2l32 -131q-44 -20 -97 -20q-75 0 -115.5 42.5z" />
    <glyph glyph-name="lacute" unicode="&#x13a;" horiz-adv-x="260" 
d="M62.5 22.5q-40.5 42.5 -40.5 116.5v605l190 20v-615q0 -20 17 -20q6 0 14 2l32 -131q-44 -20 -97 -20q-75 0 -115.5 42.5zM178 1016l70 -131l-216 -88l-48 90z" />
    <glyph glyph-name="uni019B" unicode="&#x19b;" horiz-adv-x="473" 
d="M428.5 197q23.5 -88 64.5 -158l-182 -58q-29 75 -44 152.5t-30 213.5l-49 -366l-188 36l127 476h86q-5 33 -18 67l-48 -49l-82 63l61 56q-22 11 -76 26l20 106q100 -15 161 -51l66 57l68 -78l-57 -49q48 -68 66 -177q31 -179 54.5 -267z" />
    <glyph glyph-name="uni019A" unicode="&#x19a;" horiz-adv-x="305" 
d="M305 0q-44 -20 -97 -20q-75 0 -115.5 42.5t-40.5 116.5v168h-52v129h52v308l190 20v-328h52v-129h-52v-158q0 -20 17 -20q6 0 14 2z" />
    <glyph glyph-name="uni026C" unicode="&#x26c;" horiz-adv-x="409" 
d="M365 131l32 -131q-44 -20 -97 -20q-75 0 -115.5 42.5t-40.5 116.5v96q-79 2 -116.5 37t-37.5 96q0 56 32 87.5t87 31.5q22 0 35 -4v261l190 20v-429q30 3 49 8l16 -90q-25 -11 -65 -14v-90q0 -20 17 -20q6 0 14 2zM144 332v64q-6 2 -16 2q-24 0 -24 -28q0 -38 40 -38z
" />
    <glyph glyph-name="lcaron" unicode="&#x13e;" horiz-adv-x="375" 
d="M62.5 22.5q-40.5 42.5 -40.5 116.5v605l190 20v-615q0 -20 17 -20q6 0 14 2l32 -131q-44 -20 -97 -20q-75 0 -115.5 42.5zM340 512l50 231l-131 20l-22 -235z" />
    <glyph glyph-name="uni1E3D" unicode="&#x1e3d;" horiz-adv-x="260" 
d="M62.5 22.5q-40.5 42.5 -40.5 116.5v605l190 20v-615q0 -20 17 -20q6 0 14 2l32 -131q-44 -20 -97 -20q-75 0 -115.5 42.5zM41 -278l-62 64l122 153h111l121 -153l-62 -64l-115 95z" />
    <glyph glyph-name="lcommaaccent" unicode="&#x13c;" horiz-adv-x="260" 
d="M62.5 22.5q-40.5 42.5 -40.5 116.5v605l190 20v-615q0 -20 17 -20q6 0 14 2l32 -131q-44 -20 -97 -20q-75 0 -115.5 42.5zM220.5 -88q23.5 -25 23.5 -63q0 -20 -5 -37.5t-18 -49.5l-42 -101h-89l25 115q-41 25 -41 73q0 36 23.5 62t61.5 26t61.5 -25z" />
    <glyph glyph-name="uni0234" unicode="&#x234;" horiz-adv-x="427" 
d="M397.5 222.5q29.5 -32.5 29.5 -90.5q0 -75 -50 -113t-126 -38q-19 0 -29 1l-29 -71l-78 33l24 57q-54 23 -85.5 70.5t-31.5 123.5v549l190 19v-569q0 -18 1 -26q23 48 48.5 67.5t61.5 19.5q45 0 74.5 -32.5zM302 117.5q7 6.5 7 24.5q0 20 -11 20q-8 0 -13.5 -9.5
t-17.5 -40.5q4 -1 14 -1q14 0 21 6.5z" />
    <glyph glyph-name="ldot" unicode="&#x140;" horiz-adv-x="461" 
d="M62.5 22.5q-40.5 42.5 -40.5 116.5v605l190 20v-615q0 -20 17 -20q6 0 14 2l32 -131q-44 -20 -97 -20q-75 0 -115.5 42.5zM422 450q29 -29 29 -73q0 -45 -29 -74t-74 -29t-74 29t-29 74q0 44 29 73t74 29t74 -29z" />
    <glyph glyph-name="uni1E37" unicode="&#x1e37;" horiz-adv-x="260" 
d="M62.5 22.5q-40.5 42.5 -40.5 116.5v605l190 20v-615q0 -20 17 -20q6 0 14 2l32 -131q-44 -20 -97 -20q-75 0 -115.5 42.5zM86 -230q-29 29 -29 73q0 45 29 74t74 29t74 -29t29 -74q0 -44 -29 -73t-74 -29t-74 29z" />
    <glyph glyph-name="uni026E" unicode="&#x26e;" horiz-adv-x="625" 
d="M622 11q0 -68 -29 -122t-84.5 -85t-133.5 -31q-119 0 -190 77l90 105q23 -21 42.5 -30t43.5 -9q34 0 51 24.5t17 77.5q0 50 -21 71.5t-64 21.5h-68v104l113 181h-177v-247q0 -20 17 -20q6 0 14 2l32 -131q-44 -20 -97 -20q-75 0 -115.5 42.5t-40.5 116.5v605l190 20v-230
h376v-127l-128 -194q162 -24 162 -202z" />
    <glyph glyph-name="uni026D" unicode="&#x26d;" horiz-adv-x="244" 
d="M370 -181q-58 -45 -145 -45q-89 0 -143.5 48.5t-54.5 142.5v779l190 19v-810q0 -44 39 -44q26 0 52 15z" />
    <glyph glyph-name="uni01C9" unicode="&#x1c9;" horiz-adv-x="504" 
d="M62.5 22.5q-40.5 42.5 -40.5 116.5v605l190 20v-615q0 -20 17 -20q6 0 14 2l32 -131q-44 -20 -97 -20q-75 0 -115.5 42.5zM477 55q0 -114 -58.5 -178t-159.5 -103l-66 138q48 28 71 57t23 83v482h190v-479zM456 796q29 -29 29 -73q0 -45 -29 -74t-74 -29t-74 29t-29 74
q0 44 29 73t74 29t74 -29z" />
    <glyph glyph-name="uni026B" unicode="&#x26b;" horiz-adv-x="433" 
d="M397 311.5q-31 -35.5 -76 -41.5v-121q0 -20 17 -20q6 0 14 2l32 -131q-44 -20 -97 -20q-75 0 -115.5 42.5t-40.5 116.5v180q-11 -5 -19.5 -15.5t-19.5 -28.5l-90 47q25 56 55.5 91.5t73.5 43.5v287l190 20v-357q11 5 19 14t22 30l93 -46q-27 -58 -58 -93.5z" />
    <glyph glyph-name="uni02AA" unicode="&#x2aa;" horiz-adv-x="597" 
d="M130 10q-63 29 -85.5 76.5t-22.5 115.5v542l190 19v-559q0 -49 24.5 -70.5t83.5 -21.5q52 0 77.5 10.5t25.5 33.5q0 15 -5.5 23.5t-20.5 17.5t-49 24q-55 25 -83 60.5t-28 97.5q0 77 46.5 125.5t132.5 48.5q46 0 87.5 -16.5t71.5 -45.5l-58 -99q-20 13 -42 21t-40 8
q-31 0 -31 -30q0 -13 5.5 -21t20.5 -16.5t51 -23.5q58 -25 86 -63t28 -96q0 -93 -72 -141.5t-213 -48.5q-117 0 -180 29z" />
    <glyph glyph-name="lslash" unicode="&#x142;" horiz-adv-x="340" 
d="M291 131l32 -131q-44 -20 -97 -20q-75 0 -115.5 42.5t-40.5 116.5v113l-26 -18l-59 95l85 61v354l190 20v-247l32 21l60 -95l-92 -62v-232q0 -20 17 -20q6 0 14 2z" />
    <glyph glyph-name="uni02AB" unicode="&#x2ab;" horiz-adv-x="639" 
d="M636 141l-15 -141h-346q-44 -20 -97 -20q-75 0 -115.5 42.5t-40.5 116.5v605l190 20v-615q0 -20 17 -20q7 0 13 2l180 264h-164v139h372v-131l-180 -262h186z" />
    <glyph glyph-name="m" unicode="m" horiz-adv-x="695" 
d="M639.5 513q31.5 -41 31.5 -110v-403h-186v386q0 13 -2.5 19t-9.5 6q-15 0 -32 -36v-375h-184v386q0 13 -2.5 19t-9.5 6q-15 0 -32 -36v-375h-186v534h166l11 -56q27 39 57.5 57.5t67.5 18.5q34 0 60 -20.5t40 -58.5q27 41 57.5 60t69.5 19q52 0 83.5 -41z" />
    <glyph glyph-name="uni1E3F" unicode="&#x1e3f;" horiz-adv-x="695" 
d="M639.5 513q31.5 -41 31.5 -110v-403h-186v386q0 13 -2.5 19t-9.5 6q-15 0 -32 -36v-375h-184v386q0 13 -2.5 19t-9.5 6q-15 0 -32 -36v-375h-186v534h166l11 -56q27 39 57.5 57.5t67.5 18.5q34 0 60 -20.5t40 -58.5q27 41 57.5 60t69.5 19q52 0 83.5 -41zM397 844
l72 -131l-216 -98l-50 90z" />
    <glyph glyph-name="uni1E41" unicode="&#x1e41;" horiz-adv-x="695" 
d="M639.5 513q31.5 -41 31.5 -110v-403h-186v386q0 13 -2.5 19t-9.5 6q-15 0 -32 -36v-375h-184v386q0 13 -2.5 19t-9.5 6q-15 0 -32 -36v-375h-186v534h166l11 -56q27 39 57.5 57.5t67.5 18.5q34 0 60 -20.5t40 -58.5q27 41 57.5 60t69.5 19q52 0 83.5 -41zM421 796
q29 -29 29 -73q0 -45 -29 -74t-74 -29t-74 29t-29 74q0 44 29 73t74 29t74 -29z" />
    <glyph glyph-name="uni0271" unicode="&#x271;" horiz-adv-x="695" 
d="M639.5 513q31.5 -41 31.5 -110v-432q0 -97 -53.5 -147t-142.5 -50q-86 0 -143 45l62 105q29 -15 52 -15q39 0 39 44v433q0 13 -2.5 19t-9.5 6q-15 0 -32 -36v-375h-184v386q0 13 -2.5 19t-9.5 6q-15 0 -32 -36v-375h-186v534h166l11 -56q27 39 57.5 57.5t67.5 18.5
q34 0 60 -20.5t40 -58.5q27 41 57.5 60t69.5 19q52 0 83.5 -41z" />
    <glyph glyph-name="uni0270" unicode="&#x270;" horiz-adv-x="695" 
d="M668 534v-760l-190 19v246q-25 -30 -52 -44.5t-60 -14.5q-34 0 -60 20.5t-40 58.5q-27 -41 -57.5 -60t-69.5 -19q-52 0 -83.5 41t-31.5 110v403h186v-386q0 -13 2.5 -19t9.5 -6q15 0 32 36v375h184v-386q0 -13 2.5 -19t9.5 -6q15 0 32 36v375h186z" />
    <glyph glyph-name="uni026F" unicode="&#x26f;" horiz-adv-x="695" 
d="M668 534v-534h-166l-11 56q-27 -39 -57.5 -57.5t-67.5 -18.5q-34 0 -60 20.5t-40 58.5q-27 -41 -57.5 -60t-69.5 -19q-52 0 -83.5 41t-31.5 110v403h186v-386q0 -13 2.5 -19t9.5 -6q15 0 32 36v375h184v-386q0 -13 2.5 -19t9.5 -6q15 0 32 36v375h186z" />
    <glyph glyph-name="n" unicode="n" horiz-adv-x="479" 
d="M423 513.5q32 -40.5 32 -110.5v-403h-190v385q0 25 -11 25q-12 0 -37 -43v-367h-190v534h166l13 -53q27 38 57.5 55.5t71.5 17.5q56 0 88 -40.5z" />
    <glyph glyph-name="nacute" unicode="&#x144;" horiz-adv-x="479" 
d="M423 513.5q32 -40.5 32 -110.5v-403h-190v385q0 25 -11 25q-12 0 -37 -43v-367h-190v534h166l13 -53q27 38 57.5 55.5t71.5 17.5q56 0 88 -40.5zM293 844l72 -131l-216 -98l-50 90z" />
    <glyph glyph-name="nacute.loclPLK" horiz-adv-x="479" 
d="M423 513.5q32 -40.5 32 -110.5v-403h-190v385q0 25 -11 25q-12 0 -37 -43v-367h-190v534h166l13 -53q27 38 57.5 55.5t71.5 17.5q56 0 88 -40.5zM237 826l137 -76l-126 -166l-82 47z" />
    <glyph glyph-name="napostrophe" unicode="&#x149;" horiz-adv-x="607" 
d="M146.5 742.5q18.5 -20.5 18.5 -52.5q0 -18 -4.5 -32.5t-15.5 -41.5l-33 -81h-72l15 93q-30 25 -30 62q0 31 19 52t51 21q33 0 51.5 -20.5zM551 513.5q32 -40.5 32 -110.5v-403h-190v385q0 25 -11 25q-12 0 -37 -43v-367h-190v534h166l13 -53q27 38 57.5 55.5t71.5 17.5
q56 0 88 -40.5z" />
    <glyph glyph-name="ncaron" unicode="&#x148;" horiz-adv-x="479" 
d="M423 513.5q32 -40.5 32 -110.5v-403h-190v385q0 25 -11 25q-12 0 -37 -43v-367h-190v534h166l13 -53q27 38 57.5 55.5t71.5 17.5q56 0 88 -40.5zM358 823l62 -66l-121 -153h-112l-121 153l62 66l115 -96z" />
    <glyph glyph-name="uni1E4B" unicode="&#x1e4b;" horiz-adv-x="479" 
d="M423 513.5q32 -40.5 32 -110.5v-403h-190v385q0 25 -11 25q-12 0 -37 -43v-367h-190v534h166l13 -53q27 38 57.5 55.5t71.5 17.5q56 0 88 -40.5zM120 -278l-62 64l122 153h111l121 -153l-62 -64l-115 95z" />
    <glyph glyph-name="ncommaaccent" unicode="&#x146;" horiz-adv-x="479" 
d="M423 513.5q32 -40.5 32 -110.5v-403h-190v385q0 25 -11 25q-12 0 -37 -43v-367h-190v534h166l13 -53q27 38 57.5 55.5t71.5 17.5q56 0 88 -40.5zM299.5 -88q23.5 -25 23.5 -63q0 -20 -5 -37.5t-18 -49.5l-42 -101h-89l25 115q-41 25 -41 73q0 36 23.5 62t61.5 26
t61.5 -25z" />
    <glyph glyph-name="uni0235" unicode="&#x235;" horiz-adv-x="670" 
d="M640.5 222.5q29.5 -32.5 29.5 -90.5q0 -75 -50 -113t-126 -38q-19 0 -29 1l-29 -71l-78 33l24 57q-54 23 -85.5 70.5t-31.5 123.5v190q0 25 -11 25q-12 0 -37 -43v-367h-190v534h166l13 -53q27 38 57.5 55.5t71.5 17.5q56 0 88 -40.5t32 -110.5v-209q0 -18 1 -26
q23 48 48.5 67.5t61.5 19.5q45 0 74.5 -32.5zM545 117.5q7 6.5 7 24.5q0 20 -11 20q-8 0 -13.5 -9.5t-17.5 -40.5q4 -1 14 -1q14 0 21 6.5z" />
    <glyph glyph-name="uni1E45" unicode="&#x1e45;" horiz-adv-x="479" 
d="M423 513.5q32 -40.5 32 -110.5v-403h-190v385q0 25 -11 25q-12 0 -37 -43v-367h-190v534h166l13 -53q27 38 57.5 55.5t71.5 17.5q56 0 88 -40.5zM317 796q29 -29 29 -73q0 -45 -29 -74t-74 -29t-74 29t-29 74q0 44 29 73t74 29t74 -29z" />
    <glyph glyph-name="uni1E47" unicode="&#x1e47;" horiz-adv-x="479" 
d="M423 513.5q32 -40.5 32 -110.5v-403h-190v385q0 25 -11 25q-12 0 -37 -43v-367h-190v534h166l13 -53q27 38 57.5 55.5t71.5 17.5q56 0 88 -40.5zM165 -230q-29 29 -29 73q0 45 29 74t74 29t74 -29t29 -74q0 -44 -29 -73t-74 -29t-74 29z" />
    <glyph glyph-name="uni01F9" unicode="&#x1f9;" horiz-adv-x="479" 
d="M423 513.5q32 -40.5 32 -110.5v-403h-190v385q0 25 -11 25q-12 0 -37 -43v-367h-190v534h166l13 -53q27 38 57.5 55.5t71.5 17.5q56 0 88 -40.5zM190 844l194 -139l-50 -90l-216 98z" />
    <glyph glyph-name="eng" unicode="&#x14b;" horiz-adv-x="479" 
d="M423 513.5q32 -40.5 32 -110.5v-438q0 -94 -54.5 -142.5t-143.5 -48.5q-87 0 -145 45l62 105q26 -15 52 -15q39 0 39 44v432q0 25 -11 25q-12 0 -37 -43v-367h-190v534h166l13 -53q27 38 57.5 55.5t71.5 17.5q56 0 88 -40.5z" />
    <glyph glyph-name="uni0272" unicode="&#x272;" horiz-adv-x="479" 
d="M423 513.5q32 -40.5 32 -110.5v-403h-190v385q0 25 -11 25q-12 0 -37 -43v-402q0 -94 -54.5 -142.5t-143.5 -48.5q-87 0 -145 45l62 105q26 -15 52 -15q39 0 39 44v581h166l13 -53q27 38 57.5 55.5t71.5 17.5q56 0 88 -40.5z" />
    <glyph glyph-name="uni0273" unicode="&#x273;" horiz-adv-x="479" 
d="M608 -181q-58 -45 -145 -45q-89 0 -143.5 48.5t-54.5 142.5v420q0 25 -11 25q-12 0 -37 -43v-367h-190v534h166l13 -53q27 38 57.5 55.5t71.5 17.5q56 0 88 -40.5t32 -110.5v-450q0 -44 39 -44q26 0 52 15z" />
    <glyph glyph-name="uni01CC" unicode="&#x1cc;" horiz-adv-x="723" 
d="M423 513.5q32 -40.5 32 -110.5v-403h-190v385q0 25 -11 25q-12 0 -37 -43v-367h-190v534h166l13 -53q27 38 57.5 55.5t71.5 17.5q56 0 88 -40.5zM696 55q0 -114 -58.5 -178t-159.5 -103l-66 138q48 28 71 57t23 83v482h190v-479zM675 796q29 -29 29 -73q0 -45 -29 -74
t-74 -29t-74 29t-29 74q0 44 29 73t74 29t74 -29z" />
    <glyph glyph-name="uni019E" unicode="&#x19e;" horiz-adv-x="479" 
d="M423 513.5q32 -40.5 32 -110.5v-629l-190 19v592q0 25 -11 25q-12 0 -37 -43v-367h-190v534h166l13 -53q27 38 57.5 55.5t71.5 17.5q56 0 88 -40.5z" />
    <glyph glyph-name="ntilde" unicode="&#xf1;" horiz-adv-x="479" 
d="M423 513.5q32 -40.5 32 -110.5v-403h-190v385q0 25 -11 25q-12 0 -37 -43v-367h-190v534h166l13 -53q27 38 57.5 55.5t71.5 17.5q56 0 88 -40.5zM259 636.5q-14 6.5 -31 17.5q-2 1 -12.5 7.5t-20.5 6.5q-14 0 -22.5 -8.5t-19.5 -29.5l-84 38q17 57 49.5 92.5t74.5 35.5
q20 0 34 -6.5t31 -17.5q9 -6 17.5 -10.5t16.5 -4.5q13 0 21.5 9t18.5 29l84 -38q-17 -57 -49 -92t-74 -35q-20 0 -34 6.5z" />
    <glyph glyph-name="o" unicode="o" horiz-adv-x="500" 
d="M423.5 482.5q62.5 -71.5 62.5 -216.5q0 -139 -62.5 -212.5t-173.5 -73.5t-173.5 71t-62.5 217q0 139 62.5 212.5t173.5 73.5t173.5 -71.5zM217.5 385q-9.5 -32 -9.5 -117q0 -60 4 -93t13 -46t25 -13q23 0 32.5 32.5t9.5 117.5q0 60 -4 92.5t-13 45.5t-25 13
q-23 0 -32.5 -32z" />
    <glyph glyph-name="oacute" unicode="&#xf3;" horiz-adv-x="500" 
d="M423.5 482.5q62.5 -71.5 62.5 -216.5q0 -139 -62.5 -212.5t-173.5 -73.5t-173.5 71t-62.5 217q0 139 62.5 212.5t173.5 73.5t173.5 -71.5zM217.5 385q-9.5 -32 -9.5 -117q0 -60 4 -93t13 -46t25 -13q23 0 32.5 32.5t9.5 117.5q0 60 -4 92.5t-13 45.5t-25 13
q-23 0 -32.5 -32zM300 844l72 -131l-216 -98l-50 90z" />
    <glyph glyph-name="oacute.loclPLK" horiz-adv-x="500" 
d="M423.5 482.5q62.5 -71.5 62.5 -216.5q0 -139 -62.5 -212.5t-173.5 -73.5t-173.5 71t-62.5 217q0 139 62.5 212.5t173.5 73.5t173.5 -71.5zM217.5 385q-9.5 -32 -9.5 -117q0 -60 4 -93t13 -46t25 -13q23 0 32.5 32.5t9.5 117.5q0 60 -4 92.5t-13 45.5t-25 13
q-23 0 -32.5 -32zM244 826l137 -76l-126 -166l-82 47z" />
    <glyph glyph-name="uni0275" unicode="&#x275;" horiz-adv-x="500" 
d="M423.5 482.5q62.5 -71.5 62.5 -216.5q0 -139 -62.5 -212.5t-173.5 -73.5t-173.5 71t-62.5 217q0 139 62.5 212.5t173.5 73.5t173.5 -71.5zM213 398.5q-12 -22.5 -16 -78.5h106q-4 57 -16 79t-37 22t-37 -22.5zM287.5 136.5q12.5 24.5 15.5 85.5h-106q3 -63 15 -86.5
t38 -23.5q25 0 37.5 24.5z" />
    <glyph glyph-name="obreve" unicode="&#x14f;" horiz-adv-x="500" 
d="M423.5 482.5q62.5 -71.5 62.5 -216.5q0 -139 -62.5 -212.5t-173.5 -73.5t-173.5 71t-62.5 217q0 139 62.5 212.5t173.5 73.5t173.5 -71.5zM217.5 385q-9.5 -32 -9.5 -117q0 -60 4 -93t13 -46t25 -13q23 0 32.5 32.5t9.5 117.5q0 60 -4 92.5t-13 45.5t-25 13
q-23 0 -32.5 -32zM134.5 678.5q-38.5 51.5 -44.5 140.5l95 16q15 -82 66 -82t64 82l96 -16q-6 -89 -44.5 -140.5t-115.5 -51.5q-78 0 -116.5 51.5z" />
    <glyph glyph-name="uni01D2" unicode="&#x1d2;" horiz-adv-x="500" 
d="M423.5 482.5q62.5 -71.5 62.5 -216.5q0 -139 -62.5 -212.5t-173.5 -73.5t-173.5 71t-62.5 217q0 139 62.5 212.5t173.5 73.5t173.5 -71.5zM217.5 385q-9.5 -32 -9.5 -117q0 -60 4 -93t13 -46t25 -13q23 0 32.5 32.5t9.5 117.5q0 60 -4 92.5t-13 45.5t-25 13
q-23 0 -32.5 -32zM365 823l62 -66l-121 -153h-112l-121 153l62 66l115 -96z" />
    <glyph glyph-name="ocircumflex" unicode="&#xf4;" horiz-adv-x="500" 
d="M423.5 482.5q62.5 -71.5 62.5 -216.5q0 -139 -62.5 -212.5t-173.5 -73.5t-173.5 71t-62.5 217q0 139 62.5 212.5t173.5 73.5t173.5 -71.5zM217.5 385q-9.5 -32 -9.5 -117q0 -60 4 -93t13 -46t25 -13q23 0 32.5 32.5t9.5 117.5q0 60 -4 92.5t-13 45.5t-25 13
q-23 0 -32.5 -32zM135 619l-62 64l122 153h111l121 -153l-62 -64l-115 95z" />
    <glyph glyph-name="uni1ED1" unicode="&#x1ed1;" horiz-adv-x="500" 
d="M423.5 482.5q62.5 -71.5 62.5 -216.5q0 -139 -62.5 -212.5t-173.5 -73.5t-173.5 71t-62.5 217q0 139 62.5 212.5t173.5 73.5t173.5 -71.5zM217.5 385q-9.5 -32 -9.5 -117q0 -60 4 -93t13 -46t25 -13q23 0 32.5 32.5t9.5 117.5q0 60 -4 92.5t-13 45.5t-25 13
q-23 0 -32.5 -32zM136 589l-62 64l122 143h111l121 -143l-62 -64l-115 85zM466 988l107 -93l-159 -153l-72 58z" />
    <glyph glyph-name="uni1ED9" unicode="&#x1ed9;" horiz-adv-x="500" 
d="M423.5 482.5q62.5 -71.5 62.5 -216.5q0 -139 -62.5 -212.5t-173.5 -73.5t-173.5 71t-62.5 217q0 139 62.5 212.5t173.5 73.5t173.5 -71.5zM217.5 385q-9.5 -32 -9.5 -117q0 -60 4 -93t13 -46t25 -13q23 0 32.5 32.5t9.5 117.5q0 60 -4 92.5t-13 45.5t-25 13
q-23 0 -32.5 -32zM135 619l-62 64l122 153h111l121 -153l-62 -64l-115 95zM176 -230q-29 29 -29 73q0 45 29 74t74 29t74 -29t29 -74q0 -44 -29 -73t-74 -29t-74 29z" />
    <glyph glyph-name="uni1ED3" unicode="&#x1ed3;" horiz-adv-x="500" 
d="M423.5 482.5q62.5 -71.5 62.5 -216.5q0 -139 -62.5 -212.5t-173.5 -73.5t-173.5 71t-62.5 217q0 139 62.5 212.5t173.5 73.5t173.5 -71.5zM217.5 385q-9.5 -32 -9.5 -117q0 -60 4 -93t13 -46t25 -13q23 0 32.5 32.5t9.5 117.5q0 60 -4 92.5t-13 45.5t-25 13
q-23 0 -32.5 -32zM132 589l-62 64l122 143h111l121 -143l-62 -64l-115 85zM34 988l124 -188l-72 -58l-159 153z" />
    <glyph glyph-name="uni1ED5" unicode="&#x1ed5;" horiz-adv-x="500" 
d="M423.5 482.5q62.5 -71.5 62.5 -216.5q0 -139 -62.5 -212.5t-173.5 -73.5t-173.5 71t-62.5 217q0 139 62.5 212.5t173.5 73.5t173.5 -71.5zM217.5 385q-9.5 -32 -9.5 -117q0 -60 4 -93t13 -46t25 -13q23 0 32.5 32.5t9.5 117.5q0 60 -4 92.5t-13 45.5t-25 13
q-23 0 -32.5 -32zM135 589l-62 64l122 143h111l121 -143l-62 -64l-115 85zM338 874q32 2 45 9.5t13 26.5q0 13 -7.5 20.5t-20.5 7.5q-15 0 -25 -2.5t-27 -9.5l-26 73q42 26 103 26q56 0 86.5 -29.5t30.5 -76.5q0 -40 -18.5 -65t-53.5 -32v-50h-100v102z" />
    <glyph glyph-name="uni1ED7" unicode="&#x1ed7;" horiz-adv-x="500" 
d="M423.5 482.5q62.5 -71.5 62.5 -216.5q0 -139 -62.5 -212.5t-173.5 -73.5t-173.5 71t-62.5 217q0 139 62.5 212.5t173.5 73.5t173.5 -71.5zM217.5 385q-9.5 -32 -9.5 -117q0 -60 4 -93t13 -46t25 -13q23 0 32.5 32.5t9.5 117.5q0 60 -4 92.5t-13 45.5t-25 13
q-23 0 -32.5 -32zM134 588l-62 64l122 143h111l121 -143l-62 -64l-115 85zM265.5 832.5q-14.5 5.5 -30.5 15.5q-9 5 -17.5 9t-15.5 4q-14 0 -22.5 -7.5t-19.5 -26.5l-84 34q17 51 49.5 83t74.5 32q20 0 33 -5t32 -16q21 -14 34 -14t21.5 8t18.5 26l84 -34
q-17 -51 -48.5 -82.5t-74.5 -31.5q-20 0 -34.5 5.5z" />
    <glyph glyph-name="uni020D" unicode="&#x20d;" horiz-adv-x="500" 
d="M423.5 482.5q62.5 -71.5 62.5 -216.5q0 -139 -62.5 -212.5t-173.5 -73.5t-173.5 71t-62.5 217q0 139 62.5 212.5t173.5 73.5t173.5 -71.5zM217.5 385q-9.5 -32 -9.5 -117q0 -60 4 -93t13 -46t25 -13q23 0 32.5 32.5t9.5 117.5q0 60 -4 92.5t-13 45.5t-25 13
q-23 0 -32.5 -32zM144 872l88 -209l-84 -42l-114 193zM310 872l82 -211l-87 -36l-108 194z" />
    <glyph glyph-name="odieresis" unicode="&#xf6;" horiz-adv-x="500" 
d="M423.5 482.5q62.5 -71.5 62.5 -216.5q0 -139 -62.5 -212.5t-173.5 -73.5t-173.5 71t-62.5 217q0 139 62.5 212.5t173.5 73.5t173.5 -71.5zM217.5 385q-9.5 -32 -9.5 -117q0 -60 4 -93t13 -46t25 -13q23 0 32.5 32.5t9.5 117.5q0 60 -4 92.5t-13 45.5t-25 13
q-23 0 -32.5 -32zM207.5 788q24.5 -26 24.5 -63q0 -39 -24 -64.5t-63 -25.5q-37 0 -62.5 26t-25.5 64q0 37 25.5 63t62.5 26q38 0 62.5 -26zM417.5 788q24.5 -26 24.5 -63q0 -39 -24 -64.5t-63 -25.5q-37 0 -62.5 26t-25.5 64q0 37 25.5 63t62.5 26q38 0 62.5 -26z" />
    <glyph glyph-name="uni022B" unicode="&#x22b;" horiz-adv-x="500" 
d="M423.5 482.5q62.5 -71.5 62.5 -216.5q0 -139 -62.5 -212.5t-173.5 -73.5t-173.5 71t-62.5 217q0 139 62.5 212.5t173.5 73.5t173.5 -71.5zM217.5 385q-9.5 -32 -9.5 -117q0 -60 4 -93t13 -46t25 -13q23 0 32.5 32.5t9.5 117.5q0 60 -4 92.5t-13 45.5t-25 13
q-23 0 -32.5 -32zM208.5 744q24.5 -26 24.5 -63q0 -39 -24 -64.5t-63 -25.5q-37 0 -62.5 26t-25.5 64q0 37 25.5 63t62.5 26q38 0 62.5 -26zM418.5 744q24.5 -26 24.5 -63q0 -39 -24 -64.5t-63 -25.5q-37 0 -62.5 26t-25.5 64q0 37 25.5 63t62.5 26q38 0 62.5 -26zM391 810
h-280v126h280v-126z" />
    <glyph glyph-name="uni022F" unicode="&#x22f;" horiz-adv-x="500" 
d="M423.5 482.5q62.5 -71.5 62.5 -216.5q0 -139 -62.5 -212.5t-173.5 -73.5t-173.5 71t-62.5 217q0 139 62.5 212.5t173.5 73.5t173.5 -71.5zM217.5 385q-9.5 -32 -9.5 -117q0 -60 4 -93t13 -46t25 -13q23 0 32.5 32.5t9.5 117.5q0 60 -4 92.5t-13 45.5t-25 13
q-23 0 -32.5 -32zM324 796q29 -29 29 -73q0 -45 -29 -74t-74 -29t-74 29t-29 74q0 44 29 73t74 29t74 -29z" />
    <glyph glyph-name="uni0231" unicode="&#x231;" horiz-adv-x="500" 
d="M423.5 482.5q62.5 -71.5 62.5 -216.5q0 -139 -62.5 -212.5t-173.5 -73.5t-173.5 71t-62.5 217q0 139 62.5 212.5t173.5 73.5t173.5 -71.5zM217.5 385q-9.5 -32 -9.5 -117q0 -60 4 -93t13 -46t25 -13q23 0 32.5 32.5t9.5 117.5q0 60 -4 92.5t-13 45.5t-25 13
q-23 0 -32.5 -32zM322 764q29 -29 29 -73q0 -45 -29 -74t-74 -29t-74 29t-29 74q0 44 29 73t74 29t74 -29zM390 828h-280v126h280v-126z" />
    <glyph glyph-name="uni1ECD" unicode="&#x1ecd;" horiz-adv-x="500" 
d="M423.5 482.5q62.5 -71.5 62.5 -216.5q0 -139 -62.5 -212.5t-173.5 -73.5t-173.5 71t-62.5 217q0 139 62.5 212.5t173.5 73.5t173.5 -71.5zM217.5 385q-9.5 -32 -9.5 -117q0 -60 4 -93t13 -46t25 -13q23 0 32.5 32.5t9.5 117.5q0 60 -4 92.5t-13 45.5t-25 13
q-23 0 -32.5 -32zM176 -230q-29 29 -29 73q0 45 29 74t74 29t74 -29t29 -74q0 -44 -29 -73t-74 -29t-74 29z" />
    <glyph glyph-name="ograve" unicode="&#xf2;" horiz-adv-x="500" 
d="M423.5 482.5q62.5 -71.5 62.5 -216.5q0 -139 -62.5 -212.5t-173.5 -73.5t-173.5 71t-62.5 217q0 139 62.5 212.5t173.5 73.5t173.5 -71.5zM217.5 385q-9.5 -32 -9.5 -117q0 -60 4 -93t13 -46t25 -13q23 0 32.5 32.5t9.5 117.5q0 60 -4 92.5t-13 45.5t-25 13
q-23 0 -32.5 -32zM197 844l194 -139l-50 -90l-216 98z" />
    <glyph glyph-name="uni1ECF" unicode="&#x1ecf;" horiz-adv-x="500" 
d="M423.5 482.5q62.5 -71.5 62.5 -216.5q0 -139 -62.5 -212.5t-173.5 -73.5t-173.5 71t-62.5 217q0 139 62.5 212.5t173.5 73.5t173.5 -71.5zM217.5 385q-9.5 -32 -9.5 -117q0 -60 4 -93t13 -46t25 -13q23 0 32.5 32.5t9.5 117.5q0 60 -4 92.5t-13 45.5t-25 13
q-23 0 -32.5 -32zM202 704q32 2 45 9.5t13 26.5q0 13 -7.5 20.5t-20.5 7.5q-15 0 -25 -2.5t-27 -9.5l-26 73q42 26 103 26q56 0 86.5 -29.5t30.5 -76.5q0 -40 -18.5 -65t-53.5 -32v-50h-100v102z" />
    <glyph glyph-name="ohorn" unicode="&#x1a1;" horiz-adv-x="558" 
d="M546 431.5q-27 -33.5 -75 -43.5q15 -52 15 -122q0 -139 -62.5 -212.5t-173.5 -73.5t-173.5 71t-62.5 217q0 139 62.5 212.5t173.5 73.5q121 0 181 -81q14 4 19.5 15t5.5 32q0 25 -2.5 40t-7.5 36l112 15q7 -22 11 -42t4 -49q0 -55 -27 -88.5zM282.5 148.5
q9.5 32.5 9.5 117.5q0 60 -4 92.5t-13 45.5t-25 13q-23 0 -32.5 -32t-9.5 -117q0 -60 4 -93t13 -46t25 -13q23 0 32.5 32.5z" />
    <glyph glyph-name="uni1EDB" unicode="&#x1edb;" horiz-adv-x="558" 
d="M372 713l-216 -98l-50 90l194 139zM546 431.5q-27 -33.5 -75 -43.5q15 -52 15 -122q0 -139 -62.5 -212.5t-173.5 -73.5t-173.5 71t-62.5 217q0 139 62.5 212.5t173.5 73.5q121 0 181 -81q14 4 19.5 15t5.5 32q0 25 -2.5 40t-7.5 36l112 15q7 -22 11 -42t4 -49
q0 -55 -27 -88.5zM282.5 148.5q9.5 32.5 9.5 117.5q0 60 -4 92.5t-13 45.5t-25 13q-23 0 -32.5 -32t-9.5 -117q0 -60 4 -93t13 -46t25 -13q23 0 32.5 32.5z" />
    <glyph glyph-name="uni1EE3" unicode="&#x1ee3;" horiz-adv-x="558" 
d="M546 431.5q-27 -33.5 -75 -43.5q15 -52 15 -122q0 -139 -62.5 -212.5t-173.5 -73.5t-173.5 71t-62.5 217q0 139 62.5 212.5t173.5 73.5q121 0 181 -81q14 4 19.5 15t5.5 32q0 25 -2.5 40t-7.5 36l112 15q7 -22 11 -42t4 -49q0 -55 -27 -88.5zM282.5 148.5
q9.5 32.5 9.5 117.5q0 60 -4 92.5t-13 45.5t-25 13q-23 0 -32.5 -32t-9.5 -117q0 -60 4 -93t13 -46t25 -13q23 0 32.5 32.5zM324 -83q29 -29 29 -74q0 -44 -29 -73t-74 -29t-74 29t-29 73q0 45 29 74t74 29t74 -29z" />
    <glyph glyph-name="uni1EDD" unicode="&#x1edd;" horiz-adv-x="558" 
d="M391 705l-50 -90l-216 98l72 131zM546 431.5q-27 -33.5 -75 -43.5q15 -52 15 -122q0 -139 -62.5 -212.5t-173.5 -73.5t-173.5 71t-62.5 217q0 139 62.5 212.5t173.5 73.5q121 0 181 -81q14 4 19.5 15t5.5 32q0 25 -2.5 40t-7.5 36l112 15q7 -22 11 -42t4 -49
q0 -55 -27 -88.5zM282.5 148.5q9.5 32.5 9.5 117.5q0 60 -4 92.5t-13 45.5t-25 13q-23 0 -32.5 -32t-9.5 -117q0 -60 4 -93t13 -46t25 -13q23 0 32.5 32.5z" />
    <glyph glyph-name="uni1EDF" unicode="&#x1edf;" horiz-adv-x="558" 
d="M207 765.5q-10 -2.5 -27 -9.5l-26 73q42 26 103 26q56 0 86.5 -29.5t30.5 -76.5q0 -40 -18.5 -65t-53.5 -32v-50h-100v102q32 2 45 9.5t13 26.5q0 13 -7.5 20.5t-20.5 7.5q-15 0 -25 -2.5zM546 431.5q-27 -33.5 -75 -43.5q15 -52 15 -122q0 -139 -62.5 -212.5
t-173.5 -73.5t-173.5 71t-62.5 217q0 139 62.5 212.5t173.5 73.5q121 0 181 -81q14 4 19.5 15t5.5 32q0 25 -2.5 40t-7.5 36l112 15q7 -22 11 -42t4 -49q0 -55 -27 -88.5zM282.5 148.5q9.5 32.5 9.5 117.5q0 60 -4 92.5t-13 45.5t-25 13q-23 0 -32.5 -32t-9.5 -117
q0 -60 4 -93t13 -46t25 -13q23 0 32.5 32.5z" />
    <glyph glyph-name="uni1EE1" unicode="&#x1ee1;" horiz-adv-x="558" 
d="M179.5 659.5q-8.5 -8.5 -19.5 -29.5l-84 38q17 57 49.5 92.5t74.5 35.5q20 0 34 -6.5t31 -17.5q9 -6 17.5 -10.5t16.5 -4.5q13 0 21.5 9t18.5 29l84 -38q-17 -57 -49 -92t-74 -35q-20 0 -34 6.5t-31 17.5q-2 1 -12.5 7.5t-20.5 6.5q-14 0 -22.5 -8.5zM546 431.5
q-27 -33.5 -75 -43.5q15 -52 15 -122q0 -139 -62.5 -212.5t-173.5 -73.5t-173.5 71t-62.5 217q0 139 62.5 212.5t173.5 73.5q121 0 181 -81q14 4 19.5 15t5.5 32q0 25 -2.5 40t-7.5 36l112 15q7 -22 11 -42t4 -49q0 -55 -27 -88.5zM282.5 148.5q9.5 32.5 9.5 117.5
q0 60 -4 92.5t-13 45.5t-25 13q-23 0 -32.5 -32t-9.5 -117q0 -60 4 -93t13 -46t25 -13q23 0 32.5 32.5z" />
    <glyph glyph-name="ohungarumlaut" unicode="&#x151;" horiz-adv-x="500" 
d="M423.5 482.5q62.5 -71.5 62.5 -216.5q0 -139 -62.5 -212.5t-173.5 -73.5t-173.5 71t-62.5 217q0 139 62.5 212.5t173.5 73.5t173.5 -71.5zM217.5 385q-9.5 -32 -9.5 -117q0 -60 4 -93t13 -46t25 -13q23 0 32.5 32.5t9.5 117.5q0 60 -4 92.5t-13 45.5t-25 13
q-23 0 -32.5 -32zM194 872l113 -53l-108 -194l-87 36zM360 872l110 -58l-114 -193l-84 42z" />
    <glyph glyph-name="uni01A3" unicode="&#x1a3;" horiz-adv-x="716" 
d="M638 505q51 -49 51 -148v-583l-190 19v586q0 22 -6 31t-22 9q-5 0 -19 -2q24 -66 24 -151q0 -139 -62 -212.5t-169 -73.5q-108 0 -169.5 71t-61.5 217q0 139 62 212.5t169 73.5q73 0 125 -33q30 17 60 25t71 8q86 0 137 -49zM274 148q8 32 8 118q0 60 -3.5 92.5
t-11.5 45.5t-22 13q-21 0 -29 -32t-8 -117q0 -61 3.5 -93.5t11.5 -45.5t22 -13q21 0 29 32z" />
    <glyph glyph-name="uni020F" unicode="&#x20f;" horiz-adv-x="500" 
d="M423.5 482.5q62.5 -71.5 62.5 -216.5q0 -139 -62.5 -212.5t-173.5 -73.5t-173.5 71t-62.5 217q0 139 62.5 212.5t173.5 73.5t173.5 -71.5zM217.5 385q-9.5 -32 -9.5 -117q0 -60 4 -93t13 -46t25 -13q23 0 32.5 32.5t9.5 117.5q0 60 -4 92.5t-13 45.5t-25 13
q-23 0 -32.5 -32zM366.5 752.5q38.5 -51.5 44.5 -140.5l-96 -16q-13 82 -64 82t-66 -82l-95 16q6 89 44.5 140.5t116.5 51.5q77 0 115.5 -51.5z" />
    <glyph glyph-name="omacron" unicode="&#x14d;" horiz-adv-x="500" 
d="M423.5 482.5q62.5 -71.5 62.5 -216.5q0 -139 -62.5 -212.5t-173.5 -73.5t-173.5 71t-62.5 217q0 139 62.5 212.5t173.5 73.5t173.5 -71.5zM217.5 385q-9.5 -32 -9.5 -117q0 -60 4 -93t13 -46t25 -13q23 0 32.5 32.5t9.5 117.5q0 60 -4 92.5t-13 45.5t-25 13
q-23 0 -32.5 -32zM390 651h-280v126h280v-126z" />
    <glyph glyph-name="uni1E53" unicode="&#x1e53;" horiz-adv-x="500" 
d="M423.5 482.5q62.5 -71.5 62.5 -216.5q0 -139 -62.5 -212.5t-173.5 -73.5t-173.5 71t-62.5 217q0 139 62.5 212.5t173.5 73.5t173.5 -71.5zM217.5 385q-9.5 -32 -9.5 -117q0 -60 4 -93t13 -46t25 -13q23 0 32.5 32.5t9.5 117.5q0 60 -4 92.5t-13 45.5t-25 13
q-23 0 -32.5 -32zM395 610h-280v126h280v-126zM317 982l70 -131l-216 -88l-48 90z" />
    </font>
</defs>
</svg>
