<?xml version="1.0" standalone="no"?>
<!DOCTYPE svg PUBLIC "-//W3C//DTD SVG 1.1//EN" "http://www.w3.org/Graphics/SVG/1.1/DTD/svg11.dtd" >
<svg>
<metadata>
Created by FontForge 20120731 at Fri May  5 09:41:28 2017
 By www-data
Digitized data copyright 2012-2016, The Mozilla Foundation and Telefonica S.A.
</metadata>
<defs>
<font id="FiraSansCondensed-MediumItalic" horiz-adv-x="504" >
  <font-face 
    font-family="Fira Sans Condensed Medium"
    font-weight="500"
    font-style="italic"
    font-stretch="condensed"
    units-per-em="1000"
    panose-1="2 11 6 3 5 0 0 2 0 4"
    ascent="800"
    descent="-200"
    x-height="529"
    cap-height="691"
    bbox="-706 -354 1417 1140"
    underline-thickness="50"
    underline-position="-50"
    slope="-8"
    unicode-range="U+000D-FEFF"
  />
<missing-glyph horiz-adv-x="658" 
d="M647 1050l-198 -1400h-414l197 1400h415zM586 998h-306l-183 -1296h306zM417.5 425.5q23.5 -25.5 23.5 -66.5q0 -9 -2 -27q-7 -52 -32 -79.5t-75 -34.5l-9 -47q-1 -11 -8.5 -16.5t-15.5 -5.5q-11 0 -18.5 7.5t-6.5 18.5l10 82q53 3 75.5 21t27.5 60q2 14 2 21
q0 44 -50 44q-30 0 -53 -13l-12 -1q-12 0 -19 7.5t-5 19.5q2 17 31 26t62 9q51 0 74.5 -25.5zM313.5 109q9.5 -11 7.5 -28q-2 -14 -12.5 -23.5t-24.5 -9.5q-16 0 -25 12t-6 29q1 13 11 22t24 9q16 0 25.5 -11z" />
    <glyph glyph-name="fi" unicode="fi" horiz-adv-x="531" 
d="M428 0h-121l62 440h-142l-55 -401q-11 -78 -38.5 -126t-68 -76t-104.5 -54l-30 90q38 17 60.5 35t37.5 49t22 83l55 400h-74l12 89h74l9 62q11 74 63 118.5t136 44.5q43 0 79 -11t71 -33l-45 -78q-51 28 -96 28q-41 0 -62 -18.5t-26 -57.5l-8 -55h263z" />
    <glyph glyph-name="fl" unicode="fl" horiz-adv-x="554" 
d="M498 90l15 -86q-37 -18 -81 -18q-49 0 -76 27.5t-27 77.5q0 9 2 29l74 530q-39 12 -76 12q-38 0 -57.5 -19.5t-24.5 -58.5l-8 -55h97l-25 -89h-84l-55 -401q-11 -78 -38.5 -126t-68 -76t-104.5 -54l-30 90q38 17 60.5 35t37.5 49t22 83l55 400h-74l12 89h74l9 62
q11 74 61 118.5t132 44.5q62 0 114 -20l105 11l-88 -625l-1 -11q0 -13 5 -18.5t16 -5.5q10 0 27 5z" />
    <glyph glyph-name=".notdef" horiz-adv-x="658" 
d="M647 1050l-198 -1400h-414l197 1400h415zM586 998h-306l-183 -1296h306zM417.5 425.5q23.5 -25.5 23.5 -66.5q0 -9 -2 -27q-7 -52 -32 -79.5t-75 -34.5l-9 -47q-1 -11 -8.5 -16.5t-15.5 -5.5q-11 0 -18.5 7.5t-6.5 18.5l10 82q53 3 75.5 21t27.5 60q2 14 2 21
q0 44 -50 44q-30 0 -53 -13l-12 -1q-12 0 -19 7.5t-5 19.5q2 17 31 26t62 9q51 0 74.5 -25.5zM313.5 109q9.5 -11 7.5 -28q-2 -14 -12.5 -23.5t-24.5 -9.5q-16 0 -25 12t-6 29q1 13 11 22t24 9q16 0 25.5 -11z" />
    <glyph glyph-name="nonmarkingreturn" unicode="&#xd;" horiz-adv-x="214" 
 />
    <glyph glyph-name="space" unicode=" " horiz-adv-x="214" 
 />
    <glyph glyph-name="A" unicode="A" horiz-adv-x="527" 
d="M362 0l-15 162h-198l-59 -162h-130l286 691h154l92 -691h-130zM184 258h155l-31 340z" />
    <glyph glyph-name="Aacute" unicode="&#xc1;" horiz-adv-x="527" 
d="M362 0l-15 162h-198l-59 -162h-130l286 691h154l92 -691h-130zM184 258h155l-31 340zM426 925l42 -94l-214 -80l-28 61z" />
    <glyph glyph-name="Abreve" unicode="&#x102;" horiz-adv-x="527" 
d="M362 0l-15 162h-198l-59 -162h-130l286 691h154l92 -691h-130zM184 258h155l-31 340zM235 796q-34 41 -31 102l69 10q8 -65 65 -65q31 0 53 19t35 50l70 -19q-14 -61 -57 -99.5t-106 -38.5q-64 0 -98 41z" />
    <glyph glyph-name="uni1EAE" unicode="&#x1eae;" horiz-adv-x="527" 
d="M504 1021l-153 -136l-44 41l136 160zM392 846q22 19 35 50l70 -19q-14 -61 -57 -99.5t-106 -38.5q-64 0 -98 41t-31 102l69 10q8 -65 65 -65q31 0 53 19zM246 691h154l92 -691h-130l-15 162h-198l-59 -162h-130zM184 258h155l-31 340z" />
    <glyph glyph-name="uni1EB6" unicode="&#x1eb6;" horiz-adv-x="527" 
d="M362 0l-15 162h-198l-59 -162h-130l286 691h154l92 -691h-130zM184 258h155l-31 340zM235 796q-34 41 -31 102l69 10q8 -65 65 -65q31 0 53 19t35 50l70 -19q-14 -61 -57 -99.5t-106 -38.5q-64 0 -98 41zM262 -86.5q18 -18.5 18 -47.5q0 -37 -24 -60.5t-59 -23.5
q-31 0 -49.5 18.5t-18.5 47.5q0 36 24 60t59 24q32 0 50 -18.5z" />
    <glyph glyph-name="uni1EB0" unicode="&#x1eb0;" horiz-adv-x="527" 
d="M390 922l-50 -37l-117 140l76 59zM235 780q-34 41 -31 102l69 10q8 -65 65 -65q31 0 53 19t35 50l70 -19q-14 -61 -57 -99.5t-106 -38.5q-64 0 -98 41zM246 691h154l92 -691h-130l-15 162h-198l-59 -162h-130zM184 258h155l-31 340z" />
    <glyph glyph-name="uni1EB2" unicode="&#x1eb2;" horiz-adv-x="527" 
d="M362 0l-15 162h-198l-59 -162h-130l286 691h154l92 -691h-130zM184 258h155l-31 340zM237 780q-34 41 -31 102l69 10q8 -65 65 -65q31 0 53 19t35 50l70 -19q-14 -61 -57 -99.5t-106 -38.5q-64 0 -98 41zM319 966q36 4 53.5 14.5t17.5 33.5q0 13 -8 20t-23 7
q-26 0 -54 -14l-17 60q43 23 91 23q47 0 73 -25t26 -65q0 -79 -87 -95l-6 -45h-76z" />
    <glyph glyph-name="uni1EB4" unicode="&#x1eb4;" horiz-adv-x="527" 
d="M284 959.5q-12 -10.5 -28 -33.5l-58 34q24 44 54 70.5t64 26.5q20 0 33.5 -6.5t30.5 -19.5q22 -18 36 -18t26 10t27 31l58 -33q-24 -46 -53.5 -71t-62.5 -25q-19 0 -33 7t-30 20q-2 2 -10 7.5t-14.5 8t-12.5 2.5q-15 0 -27 -10.5zM391 846q22 19 35 50l70 -19
q-14 -61 -57 -99.5t-106 -38.5q-64 0 -98 41t-31 102l69 10q8 -65 65 -65q31 0 53 19zM246 691h154l92 -691h-130l-15 162h-198l-59 -162h-130zM184 258h155l-31 340z" />
    <glyph glyph-name="uni01CD" unicode="&#x1cd;" horiz-adv-x="527" 
d="M362 0l-15 162h-198l-59 -162h-130l286 691h154l92 -691h-130zM184 258h155l-31 340zM467 925l44 -52l-141 -121h-75l-109 124l50 49l105 -83z" />
    <glyph glyph-name="Acircumflex" unicode="&#xc2;" horiz-adv-x="527" 
d="M362 0l-15 162h-198l-59 -162h-130l286 691h154l92 -691h-130zM184 258h155l-31 340zM216 757l-44 53l142 120h75l108 -123l-49 -50l-106 83z" />
    <glyph glyph-name="uni1EA4" unicode="&#x1ea4;" horiz-adv-x="527" 
d="M626 989l-153 -136l-44 41l136 160zM310 892h75l108 -123l-49 -50l-106 83l-126 -83l-44 53zM246 691h154l92 -691h-130l-15 162h-198l-59 -162h-130zM184 258h155l-31 340z" />
    <glyph glyph-name="uni1EAC" unicode="&#x1eac;" horiz-adv-x="527" 
d="M362 0l-15 162h-198l-59 -162h-130l286 691h154l92 -691h-130zM184 258h155l-31 340zM216 757l-44 53l142 120h75l108 -123l-49 -50l-106 83zM262 -86.5q18 -18.5 18 -47.5q0 -37 -24 -60.5t-59 -23.5q-31 0 -49.5 18.5t-18.5 47.5q0 36 24 60t59 24q32 0 50 -18.5z" />
    <glyph glyph-name="uni1EA6" unicode="&#x1ea6;" horiz-adv-x="527" 
d="M259 890l-50 -37l-117 140l76 59zM210 719l-44 53l142 120h75l108 -123l-49 -50l-106 83zM362 0l-15 162h-198l-59 -162h-130l286 691h154l92 -691h-130zM184 258h155l-31 340z" />
    <glyph glyph-name="uni1EA8" unicode="&#x1ea8;" horiz-adv-x="527" 
d="M362 0l-15 162h-198l-59 -162h-130l286 691h154l92 -691h-130zM184 258h155l-31 340zM210 719l-44 53l142 120h75l108 -123l-49 -50l-106 83zM456 922q36 4 53.5 14.5t17.5 33.5q0 13 -8 20t-23 7q-26 0 -54 -14l-17 60q43 23 91 23q47 0 73 -25t26 -65q0 -79 -87 -95
l-6 -45h-76z" />
    <glyph glyph-name="uni1EAA" unicode="&#x1eaa;" horiz-adv-x="527" 
d="M283 955.5q-12 -10.5 -28 -33.5l-58 34q24 44 54 70.5t64 26.5q20 0 33.5 -6.5t30.5 -19.5q22 -18 36 -18t26 10t27 31l58 -33q-24 -46 -53.5 -71t-62.5 -25q-19 0 -33 7t-30 20q-2 2 -10 7.5t-14.5 8t-12.5 2.5q-15 0 -27 -10.5zM309 892h75l108 -123l-49 -50l-106 83
l-126 -83l-44 53zM246 691h154l92 -691h-130l-15 162h-198l-59 -162h-130zM184 258h155l-31 340z" />
    <glyph glyph-name="uni0200" unicode="&#x200;" horiz-adv-x="527" 
d="M362 0l-15 162h-198l-59 -162h-130l286 691h154l92 -691h-130zM184 258h155l-31 340zM246 971l59 -186l-72 -29l-82 172zM394 971l51 -184l-71 -26l-76 169z" />
    <glyph glyph-name="Adieresis" unicode="&#xc4;" horiz-adv-x="527" 
d="M362 0l-15 162h-198l-59 -162h-130l286 691h154l92 -691h-130zM184 258h155l-31 340zM194.5 791q-16.5 16 -16.5 42q0 32 21.5 53t52.5 21q27 0 43.5 -16t16.5 -42q0 -32 -21.5 -53t-52.5 -21q-27 0 -43.5 16zM394.5 791q-16.5 16 -16.5 42q0 32 21.5 53t52.5 21
q27 0 43.5 -16t16.5 -42q0 -32 -21.5 -53t-52.5 -21q-27 0 -43.5 16z" />
    <glyph glyph-name="uni01DE" unicode="&#x1de;" horiz-adv-x="527" 
d="M362 0l-15 162h-198l-59 -162h-130l286 691h154l92 -691h-130zM184 258h155l-31 340zM185.5 763q-16.5 16 -16.5 42q0 32 21.5 53t52.5 21q27 0 43.5 -16t16.5 -42q0 -32 -21.5 -53t-52.5 -21q-27 0 -43.5 16zM385.5 763q-16.5 16 -16.5 42q0 32 21.5 53t52.5 21
q27 0 43.5 -16t16.5 -42q0 -32 -21.5 -53t-52.5 -21q-27 0 -43.5 16zM478 922h-261l13 88h261z" />
    <glyph glyph-name="uni0226" unicode="&#x226;" horiz-adv-x="527" 
d="M362 0l-15 162h-198l-59 -162h-130l286 691h154l92 -691h-130zM184 258h155l-31 340zM290 788.5q-18 18.5 -18 47.5q0 37 23.5 60.5t59.5 23.5q31 0 49.5 -18.5t18.5 -47.5q0 -36 -24 -60t-59 -24q-32 0 -50 18.5z" />
    <glyph glyph-name="uni1EA0" unicode="&#x1ea0;" horiz-adv-x="527" 
d="M362 0l-15 162h-198l-59 -162h-130l286 691h154l92 -691h-130zM184 258h155l-31 340zM262 -86.5q18 -18.5 18 -47.5q0 -37 -24 -60.5t-59 -23.5q-31 0 -49.5 18.5t-18.5 47.5q0 36 24 60t59 24q32 0 50 -18.5z" />
    <glyph glyph-name="uni01E0" unicode="&#x1e0;" horiz-adv-x="527" 
d="M362 0l-15 162h-198l-59 -162h-130l286 691h154l92 -691h-130zM184 258h155l-31 340zM281 757.5q-18 18.5 -18 47.5q0 37 23.5 60.5t59.5 23.5q31 0 49.5 -18.5t18.5 -47.5q0 -36 -24 -60t-59 -24q-32 0 -50 18.5zM483 923h-261l13 88h261z" />
    <glyph glyph-name="Agrave" unicode="&#xc0;" horiz-adv-x="527" 
d="M362 0l-15 162h-198l-59 -162h-130l286 691h154l92 -691h-130zM184 258h155l-31 340zM289 923l175 -112l-37 -59l-192 79z" />
    <glyph glyph-name="uni1EA2" unicode="&#x1ea2;" horiz-adv-x="527" 
d="M362 0l-15 162h-198l-59 -162h-130l286 691h154l92 -691h-130zM184 258h155l-31 340zM307 850q36 4 53.5 14.5t17.5 33.5q0 13 -8 20t-23 7q-26 0 -54 -14l-17 60q43 23 91 23q47 0 73 -25t26 -65q0 -79 -87 -95l-6 -45h-76z" />
    <glyph glyph-name="uni0202" unicode="&#x202;" horiz-adv-x="527" 
d="M362 0l-15 162h-198l-59 -162h-130l286 691h154l92 -691h-130zM184 258h155l-31 340zM188 786q17 69 61 109.5t107 40.5q64 0 98 -42.5t30 -111.5l-71 -10q-6 75 -65 75q-63 0 -91 -79z" />
    <glyph glyph-name="uni2C6D" unicode="&#x2c6d;" horiz-adv-x="615" 
d="M522 112q0 -16 5.5 -26t20.5 -17l-36 -82q-84 8 -105 77q-32 -38 -69.5 -58t-84.5 -20q-95 0 -151.5 69t-57.5 194q0 123 38.5 227.5t107.5 166.5t156 62q81 0 129 -69l19 55h108l-79 -557q-1 -8 -1 -22zM400 148l55 399q-19 30 -42 45.5t-55 15.5q-57 0 -98.5 -51
t-63.5 -133.5t-22 -176.5q0 -165 107 -165q65 0 119 66z" />
    <glyph glyph-name="Amacron" unicode="&#x100;" horiz-adv-x="527" 
d="M362 0l-15 162h-198l-59 -162h-130l286 691h154l92 -691h-130zM184 258h155l-31 340zM468 787h-261l13 88h261z" />
    <glyph glyph-name="Aogonek" unicode="&#x104;" horiz-adv-x="527" 
d="M336.5 -61.5q-25.5 -29.5 -25.5 -58.5q0 -35 42 -35q26 0 54 6l-18 -82q-27 -6 -59 -6q-51 0 -81.5 27t-30.5 73q0 101 142 159l-13 140h-198l-59 -162h-130l286 691h154l92 -691h-57q-73 -32 -98.5 -61.5zM184 258h155l-31 340z" />
    <glyph glyph-name="Aring" unicode="&#xc5;" horiz-adv-x="527" 
d="M362 0l-15 162h-198l-59 -162h-130l286 691h154l92 -691h-130zM184 258h155l-31 340zM437 946.5q28 -29.5 28 -75.5q0 -55 -36.5 -92t-93.5 -37q-47 0 -75.5 29.5t-28.5 75.5q0 53 37 91t93 38q48 0 76 -29.5zM318 894q-14 -19 -14 -45q0 -21 9.5 -32.5t26.5 -11.5
q25 0 39 18.5t14 45.5q0 21 -9.5 32.5t-27.5 11.5q-24 0 -38 -19z" />
    <glyph glyph-name="Aringacute" unicode="&#x1fa;" horiz-adv-x="527" 
d="M362 0l-15 162h-198l-59 -162h-130l286 691h154l92 -691h-130zM184 258h155l-31 340zM429 933.5q28 -29.5 28 -75.5q0 -55 -36.5 -92t-93.5 -37q-47 0 -75.5 29.5t-28.5 75.5q0 53 37 91t93 38q48 0 76 -29.5zM310 881q-14 -19 -14 -45q0 -21 9.5 -32.5t26.5 -11.5
q25 0 39 18.5t14 45.5q0 21 -9.5 32.5t-27.5 11.5q-24 0 -38 -19zM434 1140l42 -94l-214 -80l-28 61z" />
    <glyph glyph-name="uni023A" unicode="&#x23a;" horiz-adv-x="527" 
d="M374 0l-17 162h-109l-89 -234l-47 12l84 222h-54l-61 -162h-121l287 691h151l23 61l47 -12l-55 -145l79 -595h-118zM176 253h55l91 239l-12 115zM283 253h64l-14 133z" />
    <glyph glyph-name="Atilde" unicode="&#xc3;" horiz-adv-x="527" 
d="M362 0l-15 162h-198l-59 -162h-130l286 691h154l92 -691h-130zM184 258h155l-31 340zM361.5 778.5q-13.5 6.5 -32.5 20.5q-13 10 -20.5 14.5t-16.5 4.5q-15 0 -27 -11t-28 -34l-58 35q23 45 53.5 72.5t64.5 27.5q20 0 34.5 -7.5t30.5 -20.5q22 -18 36 -18t26 10.5
t27 32.5l59 -34q-24 -47 -54 -73t-63 -26q-18 0 -31.5 6.5z" />
    <glyph glyph-name="AE" unicode="&#xc6;" horiz-adv-x="746" 
d="M709 596h-251l11 -199h219l-13 -94h-201l11 -207h204l-15 -96h-303l-6 162h-208l-72 -162h-134l334 691h452zM199 258h162l-12 337z" />
    <glyph glyph-name="AEacute" unicode="&#x1fc;" horiz-adv-x="746" 
d="M709 596h-251l11 -199h219l-13 -94h-201l11 -207h204l-15 -96h-303l-6 162h-208l-72 -162h-134l334 691h452zM199 258h162l-12 337zM592 925l42 -94l-214 -80l-28 61z" />
    <glyph glyph-name="uni01E2" unicode="&#x1e2;" horiz-adv-x="746" 
d="M709 596h-251l11 -199h219l-13 -94h-201l11 -207h204l-15 -96h-303l-6 162h-208l-72 -162h-134l334 691h452zM199 258h162l-12 337zM634 787h-261l13 88h261z" />
    <glyph glyph-name="B" unicode="B" horiz-adv-x="551" 
d="M479.5 320q34.5 -32 34.5 -94q0 -102 -71 -164t-220 -62h-191l98 691h186q102 0 161 -39.5t59 -114.5q0 -69 -41.5 -112.5t-108.5 -59.5q59 -13 93.5 -45zM242 597l-27 -191h68q60 0 92.5 31.5t32.5 89.5q0 70 -91 70h-75zM351.5 132.5q33.5 36.5 33.5 98.5
q0 45 -26.5 65t-77.5 20h-79l-31 -220h64q83 0 116.5 36.5z" />
    <glyph glyph-name="uni1E02" unicode="&#x1e02;" horiz-adv-x="551" 
d="M479.5 320q34.5 -32 34.5 -94q0 -102 -71 -164t-220 -62h-191l98 691h186q102 0 161 -39.5t59 -114.5q0 -69 -41.5 -112.5t-108.5 -59.5q59 -13 93.5 -45zM242 597l-27 -191h68q60 0 92.5 31.5t32.5 89.5q0 70 -91 70h-75zM351.5 132.5q33.5 36.5 33.5 98.5
q0 45 -26.5 65t-77.5 20h-79l-31 -220h64q83 0 116.5 36.5zM287 788.5q-18 18.5 -18 47.5q0 37 23.5 60.5t59.5 23.5q31 0 49.5 -18.5t18.5 -47.5q0 -36 -24 -60t-59 -24q-32 0 -50 18.5z" />
    <glyph glyph-name="uni1E04" unicode="&#x1e04;" horiz-adv-x="551" 
d="M479.5 320q34.5 -32 34.5 -94q0 -102 -71 -164t-220 -62h-191l98 691h186q102 0 161 -39.5t59 -114.5q0 -69 -41.5 -112.5t-108.5 -59.5q59 -13 93.5 -45zM242 597l-27 -191h68q60 0 92.5 31.5t32.5 89.5q0 70 -91 70h-75zM351.5 132.5q33.5 36.5 33.5 98.5
q0 45 -26.5 65t-77.5 20h-79l-31 -220h64q83 0 116.5 36.5zM277 -86.5q18 -18.5 18 -47.5q0 -37 -24 -60.5t-59 -23.5q-31 0 -49.5 18.5t-18.5 47.5q0 36 24 60t59 24q32 0 50 -18.5z" />
    <glyph glyph-name="uniA7B4" unicode="&#xa7b4;" horiz-adv-x="549" 
d="M513 228q0 -68 -32.5 -119.5t-89.5 -80t-130 -28.5q-53 0 -101 14l-31 -220h-125l126 897h179q103 0 162 -39.5t59 -115.5q0 -69 -40.5 -112t-103.5 -59q127 -26 127 -137zM349.5 133.5q34.5 37.5 34.5 97.5q0 45 -25.5 65t-75.5 20h-33l21 90h16q52 0 83 30.5t31 88.5
q0 39 -23.5 55.5t-66.5 16.5h-69l-69 -491q43 -10 81 -10q61 0 95.5 37.5z" />
    <glyph glyph-name="uni0181" unicode="&#x181;" horiz-adv-x="660" 
d="M588.5 320q34.5 -32 34.5 -94q0 -102 -71 -164t-220 -62h-191l85 597h-25q-26 0 -39.5 -16t-13.5 -46q0 -23 9 -57l-86 -34q-24 48 -24 95q0 70 43.5 111t119.5 41h215q102 0 161 -39.5t59 -114.5q0 -69 -41.5 -112.5t-108.5 -59.5q59 -13 93.5 -45zM351 597l-27 -191h68
q60 0 92.5 31.5t32.5 89.5q0 70 -91 70h-75zM460.5 132.5q33.5 36.5 33.5 98.5q0 45 -26.5 65t-77.5 20h-79l-31 -220h64q83 0 116.5 36.5z" />
    <glyph glyph-name="uni0243" unicode="&#x243;" horiz-adv-x="560" 
d="M488.5 320q34.5 -32 34.5 -94q0 -102 -71 -164t-220 -62h-191l24 172h-64l11 74h64l63 445h186q102 0 161 -39.5t59 -114.5q0 -69 -41.5 -112.5t-108.5 -59.5q59 -13 93.5 -45zM251 597l-27 -191h68q60 0 92.5 31.5t32.5 89.5q0 70 -91 70h-75zM360.5 132.5
q33.5 36.5 33.5 98.5q0 45 -26.5 65t-77.5 20h-79l-10 -70h116l-11 -74h-115l-11 -76h64q83 0 116.5 36.5z" />
    <glyph glyph-name="uni0182" unicode="&#x182;" horiz-adv-x="527" 
d="M446.5 389.5q58.5 -47.5 58.5 -136.5q0 -65 -27 -122.5t-88.5 -94t-159.5 -36.5h-197l97 691h367l-28 -100h-227l-22 -154h63q105 0 163.5 -47.5zM341.5 140q31.5 44 31.5 109q0 50 -25.5 73t-76.5 23h-64l-35 -249h64q74 0 105.5 44z" />
    <glyph glyph-name="C" unicode="C" horiz-adv-x="512" 
d="M548 630l-68 -67q-25 22 -51 33t-56 11q-70 0 -114 -55.5t-64 -137.5t-20 -165t30 -122.5t83 -39.5q36 0 65.5 14t67.5 42l49 -77q-39 -36 -89.5 -58.5t-110.5 -22.5q-103 0 -164.5 70t-61.5 199q0 110 35.5 213.5t109.5 170.5t183 67q107 0 176 -75z" />
    <glyph glyph-name="Cacute" unicode="&#x106;" horiz-adv-x="512" 
d="M548 630l-68 -67q-25 22 -51 33t-56 11q-70 0 -114 -55.5t-64 -137.5t-20 -165t30 -122.5t83 -39.5q36 0 65.5 14t67.5 42l49 -77q-39 -36 -89.5 -58.5t-110.5 -22.5q-103 0 -164.5 70t-61.5 199q0 110 35.5 213.5t109.5 170.5t183 67q107 0 176 -75zM478 925l42 -94
l-214 -80l-28 61z" />
    <glyph glyph-name="Ccaron" unicode="&#x10c;" horiz-adv-x="512" 
d="M548 630l-68 -67q-25 22 -51 33t-56 11q-70 0 -114 -55.5t-64 -137.5t-20 -165t30 -122.5t83 -39.5q36 0 65.5 14t67.5 42l49 -77q-39 -36 -89.5 -58.5t-110.5 -22.5q-103 0 -164.5 70t-61.5 199q0 110 35.5 213.5t109.5 170.5t183 67q107 0 176 -75zM519 925l44 -52
l-141 -121h-75l-109 124l50 49l105 -83z" />
    <glyph glyph-name="Ccedilla" unicode="&#xc7;" horiz-adv-x="512" 
d="M259 551.5q-44 -55.5 -64 -137.5t-20 -165t30 -122.5t83 -39.5q36 0 65.5 14t67.5 42l49 -77q-74 -68 -169 -79l-6 -41q38 -4 58 -26t20 -56q0 -46 -35 -80.5t-102 -34.5q-56 0 -92 29l37 58q25 -15 53 -15q22 0 35.5 10t13.5 29q0 20 -16.5 27.5t-59.5 7.5l22 93
q-85 13 -135 81.5t-50 184.5q0 110 35.5 213.5t109.5 170.5t183 67q107 0 176 -75l-68 -67q-25 22 -51 33t-56 11q-70 0 -114 -55.5z" />
    <glyph glyph-name="Ccircumflex" unicode="&#x108;" horiz-adv-x="512" 
d="M548 630l-68 -67q-25 22 -51 33t-56 11q-70 0 -114 -55.5t-64 -137.5t-20 -165t30 -122.5t83 -39.5q36 0 65.5 14t67.5 42l49 -77q-39 -36 -89.5 -58.5t-110.5 -22.5q-103 0 -164.5 70t-61.5 199q0 110 35.5 213.5t109.5 170.5t183 67q107 0 176 -75zM268 757l-44 53
l142 120h75l108 -123l-49 -50l-106 83z" />
    <glyph glyph-name="Cdotaccent" unicode="&#x10a;" horiz-adv-x="512" 
d="M548 630l-68 -67q-25 22 -51 33t-56 11q-70 0 -114 -55.5t-64 -137.5t-20 -165t30 -122.5t83 -39.5q36 0 65.5 14t67.5 42l49 -77q-39 -36 -89.5 -58.5t-110.5 -22.5q-103 0 -164.5 70t-61.5 199q0 110 35.5 213.5t109.5 170.5t183 67q107 0 176 -75zM342 788.5
q-18 18.5 -18 47.5q0 37 23.5 60.5t59.5 23.5q31 0 49.5 -18.5t18.5 -47.5q0 -36 -24 -60t-59 -24q-32 0 -50 18.5z" />
    <glyph glyph-name="uniA7B3" unicode="&#xa7b3;" horiz-adv-x="495" 
d="M540 691l-217 -392l116 -444h-132l-69 357l-158 -357h-139l234 444l-102 392h133l55 -311l143 311h136z" />
    <glyph glyph-name="uni0187" unicode="&#x187;" horiz-adv-x="513" 
d="M720 802l-47 -73q-15 10 -28 14t-30 4q-51 0 -60 -66l-7 -51l-61 -62q-56 39 -113 39q-70 0 -114.5 -55.5t-64.5 -137.5t-20 -165t30 -122.5t83 -39.5q36 0 65 14t68 43l49 -78q-39 -36 -89.5 -58.5t-109.5 -22.5q-104 0 -165.5 70t-61.5 199q0 109 35.5 213t107 171
t173.5 67q50 0 86 -18l1 11q10 67 51 105t110 38q65 0 112 -39z" />
    <glyph glyph-name="uni023B" unicode="&#x23b;" horiz-adv-x="512" 
d="M434 594l-190 -499q21 -8 44 -8q36 0 65.5 14t67.5 42l49 -77q-39 -36 -89.5 -58.5t-110.5 -22.5q-33 0 -65 8l-25 -65l-48 13l27 71q-55 30 -85 91.5t-30 150.5q0 110 35.5 213.5t109.5 170.5t183 67q29 0 49 -4l20 51l48 -13l-20 -52q46 -19 79 -57l-68 -67
q-25 22 -46 31zM386 607h-13q-70 0 -114 -55.5t-64 -137.5t-20 -165q0 -79 28 -121z" />
    <glyph glyph-name="D" unicode="D" horiz-adv-x="588" 
d="M492 635.5q75 -55.5 75 -192.5q0 -125 -36 -224.5t-116.5 -159t-207.5 -59.5h-175l98 691h162q125 0 200 -55.5zM242 595l-70 -500h55q77 0 124.5 52t67.5 131t20 166q0 86 -36.5 118.5t-103.5 32.5h-57z" />
    <glyph glyph-name="uni01F1" unicode="&#x1f1;" horiz-adv-x="1038" 
d="M492 635.5q75 -55.5 75 -192.5q0 -125 -36 -224.5t-116.5 -159t-207.5 -59.5h-175l98 691h162q125 0 200 -55.5zM242 595l-70 -500h55q77 0 124.5 52t67.5 131t20 166q0 86 -36.5 118.5t-103.5 32.5h-57zM545 0l13 98l355 491h-257l15 102h396l-14 -99l-353 -488h289
l-29 -104h-415z" />
    <glyph glyph-name="uni01C4" unicode="&#x1c4;" horiz-adv-x="1038" 
d="M492 635.5q75 -55.5 75 -192.5q0 -125 -36 -224.5t-116.5 -159t-207.5 -59.5h-175l98 691h162q125 0 200 -55.5zM242 595l-70 -500h55q77 0 124.5 52t67.5 131t20 166q0 86 -36.5 118.5t-103.5 32.5h-57zM545 0l13 98l355 491h-257l15 102h396l-14 -99l-353 -488h289
l-29 -104h-415zM1010 925l44 -52l-141 -121h-75l-109 124l50 49l105 -83z" />
    <glyph glyph-name="uni0189" unicode="&#x189;" horiz-adv-x="597" 
d="M500 635.5q75 -55.5 75 -192.5q0 -125 -36 -224.5t-116.5 -159t-207.5 -59.5h-175l44 311h-64l12 84h64l42 296h162q125 0 200 -55.5zM359.5 147q47.5 52 67.5 131t20 166q0 86 -36.5 118.5t-103.5 32.5h-57l-28 -200h126l-12 -84h-126l-30 -216h55q77 0 124.5 52z" />
    <glyph glyph-name="Eth" unicode="&#xd0;" horiz-adv-x="597" 
d="M500 635.5q75 -55.5 75 -192.5q0 -125 -36 -224.5t-116.5 -159t-207.5 -59.5h-175l44 311h-64l12 84h64l42 296h162q125 0 200 -55.5zM359.5 147q47.5 52 67.5 131t20 166q0 86 -36.5 118.5t-103.5 32.5h-57l-28 -200h126l-12 -84h-126l-30 -216h55q77 0 124.5 52z" />
    <glyph glyph-name="Dcaron" unicode="&#x10e;" horiz-adv-x="588" 
d="M492 635.5q75 -55.5 75 -192.5q0 -125 -36 -224.5t-116.5 -159t-207.5 -59.5h-175l98 691h162q125 0 200 -55.5zM242 595l-70 -500h55q77 0 124.5 52t67.5 131t20 166q0 86 -36.5 118.5t-103.5 32.5h-57zM479 925l44 -52l-141 -121h-75l-109 124l50 49l105 -83z" />
    <glyph glyph-name="uni1E12" unicode="&#x1e12;" horiz-adv-x="588" 
d="M492 635.5q75 -55.5 75 -192.5q0 -125 -36 -224.5t-116.5 -159t-207.5 -59.5h-175l98 691h162q125 0 200 -55.5zM242 595l-70 -500h55q77 0 124.5 52t67.5 131t20 166q0 86 -36.5 118.5t-103.5 32.5h-57zM83 -243l-44 53l143 124h75l108 -127l-52 -50l-103 87z" />
    <glyph glyph-name="Dcroat" unicode="&#x110;" horiz-adv-x="597" 
d="M500 635.5q75 -55.5 75 -192.5q0 -125 -36 -224.5t-116.5 -159t-207.5 -59.5h-175l44 311h-64l12 84h64l42 296h162q125 0 200 -55.5zM359.5 147q47.5 52 67.5 131t20 166q0 86 -36.5 118.5t-103.5 32.5h-57l-28 -200h126l-12 -84h-126l-30 -216h55q77 0 124.5 52z" />
    <glyph glyph-name="uni1E0A" unicode="&#x1e0a;" horiz-adv-x="588" 
d="M492 635.5q75 -55.5 75 -192.5q0 -125 -36 -224.5t-116.5 -159t-207.5 -59.5h-175l98 691h162q125 0 200 -55.5zM242 595l-70 -500h55q77 0 124.5 52t67.5 131t20 166q0 86 -36.5 118.5t-103.5 32.5h-57zM302 788.5q-18 18.5 -18 47.5q0 37 23.5 60.5t59.5 23.5
q31 0 49.5 -18.5t18.5 -47.5q0 -36 -24 -60t-59 -24q-32 0 -50 18.5z" />
    <glyph glyph-name="uni1E0C" unicode="&#x1e0c;" horiz-adv-x="588" 
d="M492 635.5q75 -55.5 75 -192.5q0 -125 -36 -224.5t-116.5 -159t-207.5 -59.5h-175l98 691h162q125 0 200 -55.5zM242 595l-70 -500h55q77 0 124.5 52t67.5 131t20 166q0 86 -36.5 118.5t-103.5 32.5h-57zM265 -86.5q18 -18.5 18 -47.5q0 -37 -24 -60.5t-59 -23.5
q-31 0 -49.5 18.5t-18.5 47.5q0 36 24 60t59 24q32 0 50 -18.5z" />
    <glyph glyph-name="uni018A" unicode="&#x18a;" horiz-adv-x="697" 
d="M601 635.5q75 -55.5 75 -192.5q0 -125 -36 -224.5t-116.5 -159t-207.5 -59.5h-175l85 597h-25q-26 0 -39.5 -16t-13.5 -46q0 -23 9 -57l-86 -34q-24 48 -24 95q0 70 43.5 111t119.5 41h191q125 0 200 -55.5zM460.5 147q47.5 52 67.5 131t20 166q0 86 -36.5 118.5
t-103.5 32.5h-57l-70 -500h55q77 0 124.5 52z" />
    <glyph glyph-name="uni1E0E" unicode="&#x1e0e;" horiz-adv-x="588" 
d="M492 635.5q75 -55.5 75 -192.5q0 -125 -36 -224.5t-116.5 -159t-207.5 -59.5h-175l98 691h162q125 0 200 -55.5zM242 595l-70 -500h55q77 0 124.5 52t67.5 131t20 166q0 86 -36.5 118.5t-103.5 32.5h-57zM93 -93h261l-13 -88h-261z" />
    <glyph glyph-name="uni018B" unicode="&#x18b;" horiz-adv-x="528" 
d="M421 0h-186q-105 0 -164.5 49t-59.5 148q0 114 74 177.5t200 63.5h72l21 153h-238l14 100h364zM309 96l35 249h-63q-69 0 -103.5 -38t-34.5 -108q0 -54 26 -78.5t83 -24.5h57z" />
    <glyph glyph-name="uni01F2" unicode="&#x1f2;" horiz-adv-x="980" 
d="M492 635.5q75 -55.5 75 -192.5q0 -125 -36 -224.5t-116.5 -159t-207.5 -59.5h-175l98 691h162q125 0 200 -55.5zM242 595l-70 -500h55q77 0 124.5 52t67.5 131t20 166q0 86 -36.5 118.5t-103.5 32.5h-57zM993 529l-13 -89l-266 -343h223l-26 -97h-355l12 89l267 343h-200
l14 97h344z" />
    <glyph glyph-name="uni01C5" unicode="&#x1c5;" horiz-adv-x="980" 
d="M492 635.5q75 -55.5 75 -192.5q0 -125 -36 -224.5t-116.5 -159t-207.5 -59.5h-175l98 691h162q125 0 200 -55.5zM242 595l-70 -500h55q77 0 124.5 52t67.5 131t20 166q0 86 -36.5 118.5t-103.5 32.5h-57zM993 529l-13 -89l-266 -343h223l-26 -97h-355l12 89l267 343h-200
l14 97h344zM969 796l41 -52l-141 -124h-75l-108 124l49 52l103 -86z" />
    <glyph glyph-name="E" unicode="E" horiz-adv-x="471" 
d="M492 691l-28 -95h-222l-28 -198h195l-13 -94h-195l-29 -208h239l-14 -96h-365l98 691h362z" />
    <glyph glyph-name="Eacute" unicode="&#xc9;" horiz-adv-x="471" 
d="M492 691l-28 -95h-222l-28 -198h195l-13 -94h-195l-29 -208h239l-14 -96h-365l98 691h362zM415 925l42 -94l-214 -80l-28 61z" />
    <glyph glyph-name="Ebreve" unicode="&#x114;" horiz-adv-x="471" 
d="M492 691l-28 -95h-222l-28 -198h195l-13 -94h-195l-29 -208h239l-14 -96h-365l98 691h362zM224 796q-34 41 -31 102l69 10q8 -65 65 -65q31 0 53 19t35 50l70 -19q-14 -61 -57 -99.5t-106 -38.5q-64 0 -98 41z" />
    <glyph glyph-name="Ecaron" unicode="&#x11a;" horiz-adv-x="471" 
d="M492 691l-28 -95h-222l-28 -198h195l-13 -94h-195l-29 -208h239l-14 -96h-365l98 691h362zM456 925l44 -52l-141 -121h-75l-109 124l50 49l105 -83z" />
    <glyph glyph-name="uni0228" unicode="&#x228;" horiz-adv-x="471" 
d="M242 596l-28 -198h195l-13 -94h-195l-29 -208h239l-14 -96h-147l-8 -54q39 -4 58.5 -25.5t19.5 -56.5q0 -28 -14.5 -54.5t-45.5 -43.5t-78 -17q-55 0 -91 29l37 57q26 -14 54 -14q22 0 35 10t13 29q0 20 -16.5 27.5t-59.5 7.5l25 105h-147l98 691h362l-28 -95h-222z" />
    <glyph glyph-name="Ecircumflex" unicode="&#xca;" horiz-adv-x="471" 
d="M492 691l-28 -95h-222l-28 -198h195l-13 -94h-195l-29 -208h239l-14 -96h-365l98 691h362zM205 757l-44 53l142 120h75l108 -123l-49 -50l-106 83z" />
    <glyph glyph-name="uni1EBE" unicode="&#x1ebe;" horiz-adv-x="471" 
d="M554 1054l61 -65l-153 -136l-44 41zM201 719l-44 53l142 120h75l108 -123l-49 -50l-106 83zM492 691l-28 -95h-222l-28 -198h195l-13 -94h-195l-29 -208h239l-14 -96h-365l98 691h362z" />
    <glyph glyph-name="uni1EC6" unicode="&#x1ec6;" horiz-adv-x="471" 
d="M492 691l-28 -95h-222l-28 -198h195l-13 -94h-195l-29 -208h239l-14 -96h-365l98 691h362zM205 757l-44 53l142 120h75l108 -123l-49 -50l-106 83zM251 -86.5q18 -18.5 18 -47.5q0 -37 -24 -60.5t-59 -23.5q-31 0 -49.5 18.5t-18.5 47.5q0 36 24 60t59 24q32 0 50 -18.5z
" />
    <glyph glyph-name="uni1EC0" unicode="&#x1ec0;" horiz-adv-x="471" 
d="M157 1052l91 -162l-50 -37l-117 140zM199 719l-44 53l142 120h75l108 -123l-49 -50l-106 83zM492 691l-28 -95h-222l-28 -198h195l-13 -94h-195l-29 -208h239l-14 -96h-365l98 691h362z" />
    <glyph glyph-name="uni1EC2" unicode="&#x1ec2;" horiz-adv-x="471" 
d="M492 691l-28 -95h-222l-28 -198h195l-13 -94h-195l-29 -208h239l-14 -96h-365l98 691h362zM199 719l-44 53l142 120h75l108 -123l-49 -50l-106 83zM445 922q36 4 53.5 14.5t17.5 33.5q0 13 -8 20t-23 7q-26 0 -54 -14l-17 60q43 23 91 23q47 0 73 -25t26 -65
q0 -79 -87 -95l-6 -45h-76z" />
    <glyph glyph-name="uni1EC4" unicode="&#x1ec4;" horiz-adv-x="471" 
d="M366 928q-14 7 -30 20q-2 2 -10 7.5t-14.5 8t-12.5 2.5q-15 0 -27 -10.5t-28 -33.5l-58 34q24 44 54 70.5t64 26.5q20 0 33.5 -6.5t30.5 -19.5q22 -18 36 -18t26 10t27 31l58 -33q-24 -46 -53.5 -71t-62.5 -25q-19 0 -33 7zM200 719l-44 53l142 120h75l108 -123l-49 -50
l-106 83zM492 691l-28 -95h-222l-28 -198h195l-13 -94h-195l-29 -208h239l-14 -96h-365l98 691h362z" />
    <glyph glyph-name="uni0204" unicode="&#x204;" horiz-adv-x="471" 
d="M492 691l-28 -95h-222l-28 -198h195l-13 -94h-195l-29 -208h239l-14 -96h-365l98 691h362zM235 971l59 -186l-72 -29l-82 172zM383 971l51 -184l-71 -26l-76 169z" />
    <glyph glyph-name="Edieresis" unicode="&#xcb;" horiz-adv-x="471" 
d="M492 691l-28 -95h-222l-28 -198h195l-13 -94h-195l-29 -208h239l-14 -96h-365l98 691h362zM183.5 791q-16.5 16 -16.5 42q0 32 21.5 53t52.5 21q27 0 43.5 -16t16.5 -42q0 -32 -21.5 -53t-52.5 -21q-27 0 -43.5 16zM383.5 791q-16.5 16 -16.5 42q0 32 21.5 53t52.5 21
q27 0 43.5 -16t16.5 -42q0 -32 -21.5 -53t-52.5 -21q-27 0 -43.5 16z" />
    <glyph glyph-name="Edotaccent" unicode="&#x116;" horiz-adv-x="471" 
d="M492 691l-28 -95h-222l-28 -198h195l-13 -94h-195l-29 -208h239l-14 -96h-365l98 691h362zM279 788.5q-18 18.5 -18 47.5q0 37 23.5 60.5t59.5 23.5q31 0 49.5 -18.5t18.5 -47.5q0 -36 -24 -60t-59 -24q-32 0 -50 18.5z" />
    <glyph glyph-name="uni1EB8" unicode="&#x1eb8;" horiz-adv-x="471" 
d="M492 691l-28 -95h-222l-28 -198h195l-13 -94h-195l-29 -208h239l-14 -96h-365l98 691h362zM251 -86.5q18 -18.5 18 -47.5q0 -37 -24 -60.5t-59 -23.5q-31 0 -49.5 18.5t-18.5 47.5q0 36 24 60t59 24q32 0 50 -18.5z" />
    <glyph glyph-name="Egrave" unicode="&#xc8;" horiz-adv-x="471" 
d="M492 691l-28 -95h-222l-28 -198h195l-13 -94h-195l-29 -208h239l-14 -96h-365l98 691h362zM278 923l175 -112l-37 -59l-192 79z" />
    <glyph glyph-name="uni1EBA" unicode="&#x1eba;" horiz-adv-x="471" 
d="M492 691l-28 -95h-222l-28 -198h195l-13 -94h-195l-29 -208h239l-14 -96h-365l98 691h362zM296 850q36 4 53.5 14.5t17.5 33.5q0 13 -8 20t-23 7q-26 0 -54 -14l-17 60q43 23 91 23q47 0 73 -25t26 -65q0 -79 -87 -95l-6 -45h-76z" />
    <glyph glyph-name="uni0206" unicode="&#x206;" horiz-adv-x="471" 
d="M492 691l-28 -95h-222l-28 -198h195l-13 -94h-195l-29 -208h239l-14 -96h-365l98 691h362zM177 786q17 69 61 109.5t107 40.5q64 0 98 -42.5t30 -111.5l-71 -10q-6 75 -65 75q-63 0 -91 -79z" />
    <glyph glyph-name="Emacron" unicode="&#x112;" horiz-adv-x="471" 
d="M492 691l-28 -95h-222l-28 -198h195l-13 -94h-195l-29 -208h239l-14 -96h-365l98 691h362zM457 787h-261l13 88h261z" />
    <glyph glyph-name="Eogonek" unicode="&#x118;" horiz-adv-x="471" 
d="M242 596l-28 -198h195l-13 -94h-195l-29 -208h239l-14 -96h-35q-73 -32 -98.5 -61.5t-25.5 -58.5q0 -35 42 -35q26 0 54 6l-18 -82q-27 -6 -59 -6q-51 0 -81.5 27t-30.5 73q0 83 96 137h-209l98 691h362l-28 -95h-222z" />
    <glyph glyph-name="uni0190" unicode="&#x190;" horiz-adv-x="478" 
d="M429.5 682.5q46.5 -22.5 83.5 -66.5l-71 -65q-55 58 -117 58q-51 0 -80 -33t-29 -82q0 -40 23.5 -60.5t66.5 -20.5h60l-28 -96h-45q-68 0 -106 -35.5t-38 -102.5q0 -94 95 -94q74 0 142 63l61 -69q-89 -93 -220 -93q-95 0 -152 50t-57 133q0 86 50 138.5t136 61.5
q-56 13 -85 47t-29 85q0 60 31 106.5t84 72t115 25.5q63 0 109.5 -22.5z" />
    <glyph glyph-name="uni018E" unicode="&#x18e;" horiz-adv-x="469" 
d="M98 691h360l-96 -691h-365l13 96h239l30 208h-196l13 94h196l28 198h-236z" />
    <glyph glyph-name="uni01A9" unicode="&#x1a9;" horiz-adv-x="454" 
d="M485 691l-13 -97h-264l131 -227l-7 -62l-187 -207h258l-14 -98h-397l13 97l218 246l-148 252l13 96h397z" />
    <glyph glyph-name="uni0246" unicode="&#x246;" horiz-adv-x="471" 
d="M464 596h-42l-76 -198h63l-13 -94h-86l-79 -208h180l-14 -96h-203l-27 -72l-47 13l22 59h-110l98 691h276l23 61l47 -13l-18 -48h34zM294 398l76 198h-128l-28 -198h80zM179 96l79 208h-57l-29 -208h7z" />
    <glyph glyph-name="uni1EBC" unicode="&#x1ebc;" horiz-adv-x="471" 
d="M492 691l-28 -95h-222l-28 -198h195l-13 -94h-195l-29 -208h239l-14 -96h-365l98 691h362zM350.5 778.5q-13.5 6.5 -32.5 20.5q-13 10 -20.5 14.5t-16.5 4.5q-15 0 -27 -11t-28 -34l-58 35q23 45 53.5 72.5t64.5 27.5q20 0 34.5 -7.5t30.5 -20.5q22 -18 36 -18t26 10.5
t27 32.5l59 -34q-24 -47 -54 -73t-63 -26q-18 0 -31.5 6.5z" />
    <glyph glyph-name="uni01B7" unicode="&#x1b7;" horiz-adv-x="478" 
d="M468 596l-197 -196q86 -4 130 -47.5t44 -118.5t-35 -131t-95 -86.5t-134 -30.5q-71 0 -118.5 24.5t-79.5 72.5l75 62q27 -33 54.5 -47t67.5 -14q61 0 98 39.5t37 105.5q0 49 -26.5 69.5t-79.5 20.5h-87l1 1l11 78l192 196h-240l14 97h382z" />
    <glyph glyph-name="uni01EE" unicode="&#x1ee;" horiz-adv-x="478" 
d="M468 596l-197 -196q86 -4 130 -47.5t44 -118.5t-35 -131t-95 -86.5t-134 -30.5q-71 0 -118.5 24.5t-79.5 72.5l75 62q27 -33 54.5 -47t67.5 -14q61 0 98 39.5t37 105.5q0 49 -26.5 69.5t-79.5 20.5h-87l1 1l11 78l192 196h-240l14 97h382zM434 925l44 -52l-141 -121h-75
l-109 124l50 49l105 -83z" />
    <glyph glyph-name="uni01B8" unicode="&#x1b8;" horiz-adv-x="480" 
d="M482 594h-250l148 -198l-11 -77l-2 1l1 -1h-81q-67 0 -104 -38t-37 -104q0 -45 23 -69t68 -24q43 0 77.5 15.5t69.5 47.5l61 -67q-44 -47 -97 -70.5t-124 -23.5q-97 0 -152.5 51t-55.5 137q0 67 30.5 118t84.5 79.5t123 28.5l-152 196l14 95h380z" />
    <glyph glyph-name="F" unicode="F" horiz-adv-x="434" 
d="M482 691l-27 -95h-213l-30 -211h187l-14 -95h-186l-41 -290h-126l98 691h352z" />
    <glyph glyph-name="uni1E1E" unicode="&#x1e1e;" horiz-adv-x="434" 
d="M482 691l-27 -95h-213l-30 -211h187l-14 -95h-186l-41 -290h-126l98 691h352zM272 788.5q-18 18.5 -18 47.5q0 37 23.5 60.5t59.5 23.5q31 0 49.5 -18.5t18.5 -47.5q0 -36 -24 -60t-59 -24q-32 0 -50 18.5z" />
    <glyph glyph-name="uni0191" unicode="&#x191;" horiz-adv-x="434" 
d="M242 596l-30 -211h187l-14 -95h-186l-41 -290l-8 -53q-12 -80 -60.5 -122t-121.5 -42q-39 0 -66.5 11.5t-49.5 29.5l51 75q17 -11 29 -15.5t30 -4.5q26 0 42.5 17t20.5 48l7 56l98 691h352l-27 -95h-213z" />
    <glyph glyph-name="G" unicode="G" horiz-adv-x="576" 
d="M578 623l-73 -65q-30 28 -56.5 39.5t-63.5 11.5q-74 0 -121.5 -57t-69.5 -143.5t-22 -177.5q0 -77 27.5 -112.5t81.5 -35.5q53 0 102 28l26 184h-89l1 95h223l-46 -335q-106 -69 -226 -69q-112 0 -170.5 65.5t-58.5 193.5q0 115 38 220.5t115.5 172.5t190.5 67
q116 0 191 -82z" />
    <glyph glyph-name="uni01F4" unicode="&#x1f4;" horiz-adv-x="576" 
d="M578 623l-73 -65q-30 28 -56.5 39.5t-63.5 11.5q-74 0 -121.5 -57t-69.5 -143.5t-22 -177.5q0 -77 27.5 -112.5t81.5 -35.5q53 0 102 28l26 184h-89l1 95h223l-46 -335q-106 -69 -226 -69q-112 0 -170.5 65.5t-58.5 193.5q0 115 38 220.5t115.5 172.5t190.5 67
q116 0 191 -82zM484 925l42 -94l-214 -80l-28 61z" />
    <glyph glyph-name="uni0194" unicode="&#x194;" horiz-adv-x="510" 
d="M295 77q19 -51 28 -85.5t9 -69.5q0 -67 -37.5 -103t-103.5 -36q-54 0 -83 28t-29 74q0 42 20 86t65 109l-107 611h130l55 -526l201 526h130zM221 9q-44 -73 -44 -113q0 -26 22 -26q17 0 26 13t9 36q0 36 -13 90z" />
    <glyph glyph-name="Gbreve" unicode="&#x11e;" horiz-adv-x="576" 
d="M578 623l-73 -65q-30 28 -56.5 39.5t-63.5 11.5q-74 0 -121.5 -57t-69.5 -143.5t-22 -177.5q0 -77 27.5 -112.5t81.5 -35.5q53 0 102 28l26 184h-89l1 95h223l-46 -335q-106 -69 -226 -69q-112 0 -170.5 65.5t-58.5 193.5q0 115 38 220.5t115.5 172.5t190.5 67
q116 0 191 -82zM293 796q-34 41 -31 102l69 10q8 -65 65 -65q31 0 53 19t35 50l70 -19q-14 -61 -57 -99.5t-106 -38.5q-64 0 -98 41z" />
    <glyph glyph-name="Gcaron" unicode="&#x1e6;" horiz-adv-x="576" 
d="M578 623l-73 -65q-30 28 -56.5 39.5t-63.5 11.5q-74 0 -121.5 -57t-69.5 -143.5t-22 -177.5q0 -77 27.5 -112.5t81.5 -35.5q53 0 102 28l26 184h-89l1 95h223l-46 -335q-106 -69 -226 -69q-112 0 -170.5 65.5t-58.5 193.5q0 115 38 220.5t115.5 172.5t190.5 67
q116 0 191 -82zM525 925l44 -52l-141 -121h-75l-109 124l50 49l105 -83z" />
    <glyph glyph-name="Gcircumflex" unicode="&#x11c;" horiz-adv-x="576" 
d="M578 623l-73 -65q-30 28 -56.5 39.5t-63.5 11.5q-74 0 -121.5 -57t-69.5 -143.5t-22 -177.5q0 -77 27.5 -112.5t81.5 -35.5q53 0 102 28l26 184h-89l1 95h223l-46 -335q-106 -69 -226 -69q-112 0 -170.5 65.5t-58.5 193.5q0 115 38 220.5t115.5 172.5t190.5 67
q116 0 191 -82zM274 757l-44 53l142 120h75l108 -123l-49 -50l-106 83z" />
    <glyph glyph-name="Gcommaaccent" unicode="&#x122;" horiz-adv-x="576" 
d="M578 623l-73 -65q-30 28 -56.5 39.5t-63.5 11.5q-74 0 -121.5 -57t-69.5 -143.5t-22 -177.5q0 -77 27.5 -112.5t81.5 -35.5q53 0 102 28l26 184h-89l1 95h223l-46 -335q-106 -69 -226 -69q-112 0 -170.5 65.5t-58.5 193.5q0 115 38 220.5t115.5 172.5t190.5 67
q116 0 191 -82zM303.5 -90q16.5 -17 16.5 -41q0 -21 -7.5 -38.5t-28.5 -52.5l-52 -87h-62l43 117q-23 19 -23 47q0 31 20.5 51.5t49.5 20.5q27 0 43.5 -17z" />
    <glyph glyph-name="Gdotaccent" unicode="&#x120;" horiz-adv-x="576" 
d="M578 623l-73 -65q-30 28 -56.5 39.5t-63.5 11.5q-74 0 -121.5 -57t-69.5 -143.5t-22 -177.5q0 -77 27.5 -112.5t81.5 -35.5q53 0 102 28l26 184h-89l1 95h223l-46 -335q-106 -69 -226 -69q-112 0 -170.5 65.5t-58.5 193.5q0 115 38 220.5t115.5 172.5t190.5 67
q116 0 191 -82zM348 788.5q-18 18.5 -18 47.5q0 37 23.5 60.5t59.5 23.5q31 0 49.5 -18.5t18.5 -47.5q0 -36 -24 -60t-59 -24q-32 0 -50 18.5z" />
    <glyph glyph-name="uni0193" unicode="&#x193;" horiz-adv-x="543" 
d="M751 802l-47 -73q-15 9 -28.5 13.5t-30.5 4.5q-51 0 -60 -66l-7 -58l-65 -59q-31 23 -61.5 34t-66.5 11q-74 0 -121.5 -57t-69.5 -143.5t-22 -177.5q0 -77 27.5 -112.5t82.5 -35.5q52 0 101 28l26 184h-89l1 95h223l-46 -335q-106 -69 -226 -69q-112 0 -170.5 65.5
t-58.5 193.5q0 114 38 219.5t113.5 173t183.5 67.5q58 0 98 -22l2 15q10 67 51 105t110 38q63 0 112 -39z" />
    <glyph glyph-name="uni0241" unicode="&#x241;" horiz-adv-x="446" 
d="M144 324l55 18q65 20 98 61.5t33 109.5q0 46 -20.5 71t-61.5 25q-34 0 -66.5 -15.5t-69.5 -45.5l-54 71q94 86 206 86q91 0 144.5 -50t53.5 -135q0 -93 -44.5 -150t-129.5 -85l-25 -8l-39 -277h-125z" />
    <glyph glyph-name="uni01E4" unicode="&#x1e4;" horiz-adv-x="592" 
d="M577 173h-63l-16 -118q-106 -69 -226 -69q-112 0 -170.5 65.5t-58.5 193.5q0 115 38 220.5t115.5 172.5t190.5 67q116 0 191 -82l-74 -65q-29 28 -55.5 39.5t-63.5 11.5q-74 0 -121.5 -57t-69.5 -143.5t-22 -177.5q0 -77 27.5 -112.5t81.5 -35.5q56 0 105 29l9 61h-91
l12 84h90l8 54h-93v86h224l-19 -140h62z" />
    <glyph glyph-name="uni021C" unicode="&#x21c;" horiz-adv-x="455" 
d="M400 660.5q48 -44.5 48 -117.5t-41.5 -119.5t-120.5 -65.5q62 -6 97 -39.5t35 -93.5q0 -130 -117 -213t-300 -119l3 96q136 37 209 91t73 144q0 43 -25.5 63t-78.5 20h-62l28 96h49q54 0 87.5 34.5t33.5 92.5q0 79 -72 79q-34 0 -68 -15t-73 -45l-51 70q98 86 213 86
q85 0 133 -44.5z" />
    <glyph glyph-name="H" unicode="H" horiz-adv-x="599" 
d="M158 0h-126l98 691h125l-39 -279h208l40 279h125l-97 -691h-125l43 310h-208z" />
    <glyph glyph-name="Hbar" unicode="&#x126;" horiz-adv-x="608" 
d="M632 584l-12 -80h-53l-71 -504h-125l43 310h-208l-44 -310h-126l71 504h-53l11 80h54l15 107h125l-15 -107h209l15 107h125l-15 -107h54zM428 412l13 92h-208l-13 -92h208z" />
    <glyph glyph-name="uni021E" unicode="&#x21e;" horiz-adv-x="599" 
d="M158 0h-126l98 691h125l-39 -279h208l40 279h125l-97 -691h-125l43 310h-208zM502 925l44 -52l-141 -121h-75l-109 124l50 49l105 -83z" />
    <glyph glyph-name="Hcircumflex" unicode="&#x124;" horiz-adv-x="599" 
d="M158 0h-126l98 691h125l-39 -279h208l40 279h125l-97 -691h-125l43 310h-208zM251 757l-44 53l142 120h75l108 -123l-49 -50l-106 83z" />
    <glyph glyph-name="uni1E24" unicode="&#x1e24;" horiz-adv-x="599" 
d="M158 0h-126l98 691h125l-39 -279h208l40 279h125l-97 -691h-125l43 310h-208zM302 -86.5q18 -18.5 18 -47.5q0 -37 -24 -60.5t-59 -23.5q-31 0 -49.5 18.5t-18.5 47.5q0 36 24 60t59 24q32 0 50 -18.5z" />
    <glyph glyph-name="uniA7AA" unicode="&#xa7aa;" horiz-adv-x="708" 
d="M698 691l-97 -691h-125l43 310h-208l-44 -310h-126l85 597h-25q-26 0 -39.5 -16t-13.5 -46q0 -23 9 -57l-86 -34q-24 48 -24 95q0 70 43.5 111t119.5 41h154l-39 -279h208l40 279h125z" />
    <glyph glyph-name="uniA78D" unicode="&#xa78d;" horiz-adv-x="553" 
d="M543 691l-97 -691h-125l37 265q-37 -28 -72 -41t-77 -13q-76 0 -119 46.5t-43 124.5q0 19 3 40l38 269h123l-37 -270q-2 -20 -2 -29q0 -82 80 -82q68 0 120 52l46 329h125z" />
    <glyph glyph-name="uni01F6" unicode="&#x1f6;" horiz-adv-x="854" 
d="M429.5 29.5q-41.5 43.5 -41.5 107.5q0 9 2 25l20 148h-208l-44 -310h-126l98 691h125l-39 -279h208l40 279h125l-74 -529q-2 -16 -2 -23q0 -60 51 -60q77 0 106 108t29 242q0 60 -4 100h115q7 -61 7 -109q0 -198 -59 -316t-204 -118q-83 0 -124.5 43.5z" />
    <glyph glyph-name="I" unicode="I" horiz-adv-x="265" 
d="M255 691l-97 -691h-126l98 691h125z" />
    <glyph glyph-name="IJ" unicode="&#x132;" horiz-adv-x="547" 
d="M255 691l-97 -691h-126l98 691h125zM457 95q-11 -76 -41 -124t-73.5 -75.5t-105.5 -48.5l-24 90q43 19 66.5 40.5t35 51t17.5 77.5l83 585h125z" />
    <glyph glyph-name="Iacute" unicode="&#xcd;" horiz-adv-x="265" 
d="M255 691l-97 -691h-126l98 691h125zM294 925l42 -94l-214 -80l-28 61z" />
    <glyph glyph-name="Ibreve" unicode="&#x12c;" horiz-adv-x="265" 
d="M255 691l-97 -691h-126l98 691h125zM103 796q-34 41 -31 102l69 10q8 -65 65 -65q31 0 53 19t35 50l70 -19q-14 -61 -57 -99.5t-106 -38.5q-64 0 -98 41z" />
    <glyph glyph-name="uni01CF" unicode="&#x1cf;" horiz-adv-x="265" 
d="M255 691l-97 -691h-126l98 691h125zM335 925l44 -52l-141 -121h-75l-109 124l50 49l105 -83z" />
    <glyph glyph-name="Icircumflex" unicode="&#xce;" horiz-adv-x="265" 
d="M255 691l-97 -691h-126l98 691h125zM84 757l-44 53l142 120h75l108 -123l-49 -50l-106 83z" />
    <glyph glyph-name="uni0208" unicode="&#x208;" horiz-adv-x="265" 
d="M255 691l-97 -691h-126l98 691h125zM114 971l59 -186l-72 -29l-82 172zM262 971l51 -184l-71 -26l-76 169z" />
    <glyph glyph-name="Idieresis" unicode="&#xcf;" horiz-adv-x="265" 
d="M255 691l-97 -691h-126l98 691h125zM62.5 791q-16.5 16 -16.5 42q0 32 21.5 53t52.5 21q27 0 43.5 -16t16.5 -42q0 -32 -21.5 -53t-52.5 -21q-27 0 -43.5 16zM262.5 791q-16.5 16 -16.5 42q0 32 21.5 53t52.5 21q27 0 43.5 -16t16.5 -42q0 -32 -21.5 -53t-52.5 -21
q-27 0 -43.5 16z" />
    <glyph glyph-name="uni1E2E" unicode="&#x1e2e;" horiz-adv-x="265" 
d="M255 691l-97 -691h-126l98 691h125zM306 1053l61 -65l-153 -136l-44 41zM54.5 764.5q-16.5 16.5 -16.5 42.5q0 32 21.5 53t52.5 21q27 0 43.5 -16t16.5 -42q0 -32 -21.5 -53.5t-52.5 -21.5q-27 0 -43.5 16.5zM260.5 764.5q-16.5 16.5 -16.5 42.5q0 32 21.5 53t52.5 21
q27 0 43.5 -16t16.5 -42q0 -32 -21.5 -53.5t-52.5 -21.5q-27 0 -43.5 16.5z" />
    <glyph glyph-name="Idotaccent" unicode="&#x130;" horiz-adv-x="265" 
d="M255 691l-97 -691h-126l98 691h125zM158 788.5q-18 18.5 -18 47.5q0 37 23.5 60.5t59.5 23.5q31 0 49.5 -18.5t18.5 -47.5q0 -36 -24 -60t-59 -24q-32 0 -50 18.5z" />
    <glyph glyph-name="uni1ECA" unicode="&#x1eca;" horiz-adv-x="265" 
d="M255 691l-97 -691h-126l98 691h125zM131 -86.5q18 -18.5 18 -47.5q0 -37 -24 -60.5t-59 -23.5q-31 0 -49.5 18.5t-18.5 47.5q0 36 24 60t59 24q32 0 50 -18.5z" />
    <glyph glyph-name="Igrave" unicode="&#xcc;" horiz-adv-x="265" 
d="M255 691l-97 -691h-126l98 691h125zM157 923l175 -112l-37 -59l-192 79z" />
    <glyph glyph-name="uni1EC8" unicode="&#x1ec8;" horiz-adv-x="265" 
d="M255 691l-97 -691h-126l98 691h125zM175 850q36 4 53.5 14.5t17.5 33.5q0 13 -8 20t-23 7q-26 0 -54 -14l-17 60q43 23 91 23q47 0 73 -25t26 -65q0 -79 -87 -95l-6 -45h-76z" />
    <glyph glyph-name="uni020A" unicode="&#x20a;" horiz-adv-x="265" 
d="M255 691l-97 -691h-126l98 691h125zM56 786q17 69 61 109.5t107 40.5q64 0 98 -42.5t30 -111.5l-71 -10q-6 75 -65 75q-63 0 -91 -79z" />
    <glyph glyph-name="Imacron" unicode="&#x12a;" horiz-adv-x="265" 
d="M255 691l-97 -691h-126l98 691h125zM336 787h-261l13 88h261z" />
    <glyph glyph-name="Iogonek" unicode="&#x12e;" horiz-adv-x="265" 
d="M255 691l-97 -691h-29q-73 -32 -98.5 -61.5t-25.5 -58.5q0 -35 42 -35q26 0 54 6l-18 -82q-27 -6 -59 -6q-51 0 -81.5 27t-30.5 73q0 94 122 150l96 678h125z" />
    <glyph glyph-name="uni0196" unicode="&#x196;" horiz-adv-x="336" 
d="M308 24q-52 -38 -121 -38q-68 0 -106 34.5t-38 100.5q0 21 2 33l6 49l70 488h125l-69 -488l-8 -61q-1 -6 -1 -16q0 -44 40 -44q19 0 32 4.5t34 15.5z" />
    <glyph glyph-name="uni0197" unicode="&#x197;" horiz-adv-x="292" 
d="M302 407l-13 -95h-72l-44 -312h-126l44 312h-75l13 95h76l40 284h125l-40 -284h72z" />
    <glyph glyph-name="Itilde" unicode="&#x128;" horiz-adv-x="265" 
d="M255 691l-97 -691h-126l98 691h125zM229.5 778.5q-13.5 6.5 -32.5 20.5q-13 10 -20.5 14.5t-16.5 4.5q-15 0 -27 -11t-28 -34l-58 35q23 45 53.5 72.5t64.5 27.5q20 0 34.5 -7.5t30.5 -20.5q22 -18 36 -18t26 10.5t27 32.5l59 -34q-24 -47 -54 -73t-63 -26
q-18 0 -31.5 6.5z" />
    <glyph glyph-name="J" unicode="J" horiz-adv-x="282" 
d="M192 95q-11 -76 -41 -124t-73.5 -75.5t-105.5 -48.5l-24 90q43 19 66.5 40.5t35 51t17.5 77.5l83 585h125z" />
    <glyph glyph-name="Jcircumflex" unicode="&#x134;" horiz-adv-x="282" 
d="M192 95q-11 -76 -41 -124t-73.5 -75.5t-105.5 -48.5l-24 90q43 19 66.5 40.5t35 51t17.5 77.5l83 585h125zM105 757l-44 53l142 120h75l108 -123l-49 -50l-106 83z" />
    <glyph glyph-name="uniA7B2" unicode="&#xa7b2;" horiz-adv-x="318" 
d="M211 -9q39 -11 88 -39l-32 -56q-26 14 -69 28q-21 -70 -67.5 -105.5t-124.5 -35.5q-60 0 -93 28t-33 78q0 59 43 93.5t108 34.5q38 0 57 -3l95 677h126zM53.5 -123q16.5 22 25.5 71q-20 3 -50 3q-32 0 -49 -16t-17 -41q0 -39 40 -39q34 0 50.5 22z" />
    <glyph glyph-name="uni0248" unicode="&#x248;" horiz-adv-x="296" 
d="M294 294h-72l-28 -199q-11 -76 -41 -124t-73.5 -75.5t-105.5 -48.5l-24 90q43 19 66.5 40.5t35 51t17.5 77.5l27 188h-75l13 98h76l42 299h125l-42 -299h72z" />
    <glyph glyph-name="K" unicode="K" horiz-adv-x="555" 
d="M32 0l98 691h126l-98 -691h-126zM380 0l-165 369l253 322h134l-255 -322l174 -369h-141z" />
    <glyph glyph-name="uni01E8" unicode="&#x1e8;" horiz-adv-x="555" 
d="M32 0l98 691h126l-98 -691h-126zM380 0l-165 369l253 322h134l-255 -322l174 -369h-141zM496 925l44 -52l-141 -121h-75l-109 124l50 49l105 -83z" />
    <glyph glyph-name="Kcommaaccent" unicode="&#x136;" horiz-adv-x="555" 
d="M32 0l98 691h126l-98 -691h-126zM380 0l-165 369l253 322h134l-255 -322l174 -369h-141zM283.5 -90q16.5 -17 16.5 -41q0 -21 -7.5 -38.5t-28.5 -52.5l-52 -87h-62l43 117q-23 19 -23 47q0 31 20.5 51.5t49.5 20.5q27 0 43.5 -17z" />
    <glyph glyph-name="uni0198" unicode="&#x198;" horiz-adv-x="580" 
d="M215 369l176 243q36 51 69 72t82 21q32 0 55 -10.5t43 -29.5l-52 -68q-19 13 -38 13q-17 0 -30.5 -10t-34.5 -38l-138 -192l174 -370h-142zM32 0l98 691h126l-98 -691h-126z" />
    <glyph glyph-name="L" unicode="L" horiz-adv-x="449" 
d="M255 691l-82 -586h244l-28 -105h-357l98 691h125z" />
    <glyph glyph-name="uni01C7" unicode="&#x1c7;" horiz-adv-x="710" 
d="M255 691l-82 -586h244l-28 -105h-357l98 691h125zM620 95q-11 -76 -41 -124t-73.5 -75.5t-105.5 -48.5l-24 90q43 19 66.5 40.5t35 51t17.5 77.5l83 585h125z" />
    <glyph glyph-name="Lacute" unicode="&#x139;" horiz-adv-x="449" 
d="M255 691l-82 -586h244l-28 -105h-357l98 691h125zM294 925l42 -94l-214 -80l-28 61z" />
    <glyph glyph-name="uni023D" unicode="&#x23d;" horiz-adv-x="459" 
d="M184 105h244l-28 -105h-357l45 314h-71l13 98h71l40 279h125l-39 -279h76l-13 -98h-77z" />
    <glyph glyph-name="uniA7AD" unicode="&#xa7ad;" horiz-adv-x="526" 
d="M494 105l-28 -105h-357l36 256q-62 3 -94 32t-32 79q0 55 35 88t89 33q23 0 35 -4l29 207h125l-50 -356q30 1 59 5.5t39 5.5l4 -73q-64 -12 -112 -14l-22 -154h244zM156 334l12 80q-9 3 -22 3q-19 0 -29.5 -12t-10.5 -33q0 -38 50 -38z" />
    <glyph glyph-name="Lcaron" unicode="&#x13d;" horiz-adv-x="449" 
d="M255 691l-82 -586h244l-28 -105h-357l98 691h125zM313 703l94 -12l-70 -199l-64 8z" />
    <glyph glyph-name="uni1E3C" unicode="&#x1e3c;" horiz-adv-x="449" 
d="M255 691l-82 -586h244l-28 -105h-357l98 691h125zM65 -243l-44 53l143 124h75l108 -127l-52 -50l-103 87z" />
    <glyph glyph-name="Lcommaaccent" unicode="&#x13b;" horiz-adv-x="449" 
d="M255 691l-82 -586h244l-28 -105h-357l98 691h125zM244.5 -90q16.5 -17 16.5 -41q0 -21 -7.5 -38.5t-28.5 -52.5l-52 -87h-62l43 117q-23 19 -23 47q0 31 20.5 51.5t49.5 20.5q27 0 43.5 -17z" />
    <glyph glyph-name="Ldot" unicode="&#x13f;" horiz-adv-x="449" 
d="M255 691l-82 -586h244l-28 -105h-357l98 691h125zM312 335.5q-18 18.5 -18 47.5q0 37 23.5 60.5t59.5 23.5q31 0 49.5 -18.5t18.5 -47.5q0 -36 -24 -60t-59 -24q-32 0 -50 18.5z" />
    <glyph glyph-name="uni1E36" unicode="&#x1e36;" horiz-adv-x="449" 
d="M255 691l-82 -586h244l-28 -105h-357l98 691h125zM247 -86.5q18 -18.5 18 -47.5q0 -37 -24 -60.5t-59 -23.5q-31 0 -49.5 18.5t-18.5 47.5q0 36 24 60t59 24q32 0 50 -18.5z" />
    <glyph glyph-name="uni01C8" unicode="&#x1c8;" horiz-adv-x="687" 
d="M255 691l-82 -586h244l-28 -105h-357l98 691h125zM349 -128q38 17 60.5 35t37.5 49.5t22 83.5l69 489h121l-69 -490q-11 -78 -38.5 -126t-68 -76t-104.5 -54zM567 662.5q-18 18.5 -18 47.5q0 37 23.5 60.5t59.5 23.5q31 0 49.5 -18.5t18.5 -47.5q0 -36 -24 -60t-59 -24
q-32 0 -50 18.5z" />
    <glyph glyph-name="Lslash" unicode="&#x141;" horiz-adv-x="474" 
d="M198 105h244l-28 -105h-357l34 239l-43 -27l-35 69l92 57l50 353h125l-37 -268l135 84l35 -68l-184 -114z" />
    <glyph glyph-name="M" unicode="M" horiz-adv-x="709" 
d="M628 0h-122l25 291q12 147 33 289l-176 -504h-121l-45 503q-11 -128 -41 -293l-53 -286h-122l146 691h154l39 -492l164 492h167z" />
    <glyph glyph-name="uni1E3E" unicode="&#x1e3e;" horiz-adv-x="709" 
d="M628 0h-122l25 291q12 147 33 289l-176 -504h-121l-45 503q-11 -128 -41 -293l-53 -286h-122l146 691h154l39 -492l164 492h167zM510 925l42 -94l-214 -80l-28 61z" />
    <glyph glyph-name="uni1E40" unicode="&#x1e40;" horiz-adv-x="709" 
d="M628 0h-122l25 291q12 147 33 289l-176 -504h-121l-45 503q-11 -128 -41 -293l-53 -286h-122l146 691h154l39 -492l164 492h167zM374 788.5q-18 18.5 -18 47.5q0 37 23.5 60.5t59.5 23.5q31 0 49.5 -18.5t18.5 -47.5q0 -36 -24 -60t-59 -24q-32 0 -50 18.5z" />
    <glyph glyph-name="uni019C" unicode="&#x19c;" horiz-adv-x="821" 
d="M811 691l-97 -691h-110l1 68q-35 -43 -71.5 -62.5t-77.5 -19.5q-46 0 -77 24t-44 66q-70 -90 -161 -90q-62 0 -96 41.5t-34 106.5q0 18 3 36l73 521h126l-74 -521q-2 -16 -2 -23q0 -30 12.5 -46.5t36.5 -16.5q30 0 54.5 19t55.5 61l1 10l73 517h125l-72 -517
q-2 -20 -2 -27q0 -30 12 -46.5t36 -16.5q29 0 54.5 19.5t54.5 62.5l74 525h126z" />
    <glyph glyph-name="N" unicode="N" horiz-adv-x="599" 
d="M492 0h-159l-129 584q1 -72 -3 -141t-17 -160l-38 -283h-113l97 691h158l130 -584v46q0 60 3 108t11 105l44 325h113z" />
    <glyph glyph-name="uni01CA" unicode="&#x1ca;" horiz-adv-x="881" 
d="M492 0h-159l-129 584q1 -72 -3 -141t-17 -160l-38 -283h-113l97 691h158l130 -584v46q0 60 3 108t11 105l44 325h113zM791 95q-11 -76 -41 -124t-73.5 -75.5t-105.5 -48.5l-24 90q43 19 66.5 40.5t35 51t17.5 77.5l83 585h125z" />
    <glyph glyph-name="Nacute" unicode="&#x143;" horiz-adv-x="599" 
d="M492 0h-159l-129 584q1 -72 -3 -141t-17 -160l-38 -283h-113l97 691h158l130 -584v46q0 60 3 108t11 105l44 325h113zM467 925l42 -94l-214 -80l-28 61z" />
    <glyph glyph-name="Ncaron" unicode="&#x147;" horiz-adv-x="599" 
d="M492 0h-159l-129 584q1 -72 -3 -141t-17 -160l-38 -283h-113l97 691h158l130 -584v46q0 60 3 108t11 105l44 325h113zM508 925l44 -52l-141 -121h-75l-109 124l50 49l105 -83z" />
    <glyph glyph-name="uni1E4A" unicode="&#x1e4a;" horiz-adv-x="599" 
d="M492 0h-159l-129 584q1 -72 -3 -141t-17 -160l-38 -283h-113l97 691h158l130 -584v46q0 60 3 108t11 105l44 325h113zM117 -243l-44 53l143 124h75l108 -127l-52 -50l-103 87z" />
    <glyph glyph-name="Ncommaaccent" unicode="&#x145;" horiz-adv-x="599" 
d="M492 0h-159l-129 584q1 -72 -3 -141t-17 -160l-38 -283h-113l97 691h158l130 -584v46q0 60 3 108t11 105l44 325h113zM296.5 -90q16.5 -17 16.5 -41q0 -21 -7.5 -38.5t-28.5 -52.5l-52 -87h-62l43 117q-23 19 -23 47q0 31 20.5 51.5t49.5 20.5q27 0 43.5 -17z" />
    <glyph glyph-name="uni1E44" unicode="&#x1e44;" horiz-adv-x="599" 
d="M492 0h-159l-129 584q1 -72 -3 -141t-17 -160l-38 -283h-113l97 691h158l130 -584v46q0 60 3 108t11 105l44 325h113zM331 788.5q-18 18.5 -18 47.5q0 37 23.5 60.5t59.5 23.5q31 0 49.5 -18.5t18.5 -47.5q0 -36 -24 -60t-59 -24q-32 0 -50 18.5z" />
    <glyph glyph-name="uni1E46" unicode="&#x1e46;" horiz-adv-x="599" 
d="M492 0h-159l-129 584q1 -72 -3 -141t-17 -160l-38 -283h-113l97 691h158l130 -584v46q0 60 3 108t11 105l44 325h113zM299 -86.5q18 -18.5 18 -47.5q0 -37 -24 -60.5t-59 -23.5q-31 0 -49.5 18.5t-18.5 47.5q0 36 24 60t59 24q32 0 50 -18.5z" />
    <glyph glyph-name="uni01F8" unicode="&#x1f8;" horiz-adv-x="599" 
d="M492 0h-159l-129 584q1 -72 -3 -141t-17 -160l-38 -283h-113l97 691h158l130 -584v46q0 60 3 108t11 105l44 325h113zM330 923l175 -112l-37 -59l-192 79z" />
    <glyph glyph-name="Eng" unicode="&#x14a;" horiz-adv-x="599" 
d="M589 691l-97 -691l-8 -53q-12 -80 -60.5 -122t-121.5 -42q-39 0 -66.5 11.5t-49.5 29.5l51 75q17 -11 29 -15.5t30 -4.5q26 0 42.5 17t20.5 48l7 56h-33l-129 584q1 -72 -3 -141t-17 -160l-38 -283h-113l97 691h158l130 -584v46q0 60 3 108t11 105l44 325h113z" />
    <glyph glyph-name="uni019D" unicode="&#x19d;" horiz-adv-x="599" 
d="M589 691l-97 -691h-159l-129 584q1 -72 -3 -141t-17 -160l-38 -283l-9 -57q-12 -79 -56.5 -119.5t-114.5 -40.5q-66 0 -114 42l51 70q17 -10 29.5 -14.5t29.5 -4.5q26 0 42.5 17t20.5 51l8 56l97 691h158l130 -584v46q0 60 3 108t11 105l44 325h113z" />
    <glyph glyph-name="uni01CB" unicode="&#x1cb;" horiz-adv-x="852" 
d="M492 0h-159l-129 584q1 -72 -3 -141t-17 -160l-38 -283h-113l97 691h158l130 -584v46q0 60 3 108t11 105l44 325h113zM514 -128q38 17 60.5 35t37.5 49.5t22 83.5l69 489h121l-69 -490q-11 -78 -38.5 -126t-68 -76t-104.5 -54zM732 662.5q-18 18.5 -18 47.5
q0 37 23.5 60.5t59.5 23.5q31 0 49.5 -18.5t18.5 -47.5q0 -36 -24 -60t-59 -24q-32 0 -50 18.5z" />
    <glyph glyph-name="uni0220" unicode="&#x220;" horiz-adv-x="589" 
d="M524 663q38 -42 38 -108q0 -23 -2 -34l-101 -727h-125l100 718q2 18 2 26q0 69 -62 69q-36 0 -68.5 -18.5t-71.5 -55.5l-76 -533h-126l98 691h109v-65q42 39 84.5 59t91.5 20q71 0 109 -42z" />
    <glyph glyph-name="Ntilde" unicode="&#xd1;" horiz-adv-x="599" 
d="M492 0h-159l-129 584q1 -72 -3 -141t-17 -160l-38 -283h-113l97 691h158l130 -584v46q0 60 3 108t11 105l44 325h113zM402.5 778.5q-13.5 6.5 -32.5 20.5q-13 10 -20.5 14.5t-16.5 4.5q-15 0 -27 -11t-28 -34l-58 35q23 45 53.5 72.5t64.5 27.5q20 0 34.5 -7.5
t30.5 -20.5q22 -18 36 -18t26 10.5t27 32.5l59 -34q-24 -47 -54 -73t-63 -26q-18 0 -31.5 6.5z" />
    <glyph glyph-name="O" unicode="O" horiz-adv-x="624" 
d="M542.5 636q59.5 -69 59.5 -197q0 -110 -33.5 -214t-107.5 -172t-188 -68q-109 0 -169 69t-60 197q0 108 34 212t108 173t188 69q109 0 168.5 -69zM253 548q-43 -60 -61.5 -145t-18.5 -164q0 -81 27.5 -118.5t79.5 -37.5q71 0 114 60t61 145t18 165t-26.5 117.5
t-80.5 37.5q-70 0 -113 -60z" />
    <glyph glyph-name="uni0222" unicode="&#x222;" horiz-adv-x="585" 
d="M438 390q49 -20 75.5 -59t26.5 -92q0 -71 -35.5 -128.5t-100 -91t-147.5 -33.5q-71 0 -122.5 25.5t-78 70t-26.5 100.5q0 74 41 128t112 80q-70 34 -70 117q0 10 2 32l21 152h126l-23 -158q-2 -10 -2 -29q0 -36 18.5 -53.5t58.5 -17.5q93 0 107 105l22 153h126l-22 -157
q-14 -104 -109 -144zM369.5 124.5q38.5 41.5 38.5 111.5q0 48 -26 74.5t-78 26.5q-65 0 -104 -41t-39 -111q0 -102 104 -102q66 0 104.5 41.5z" />
    <glyph glyph-name="Oacute" unicode="&#xd3;" horiz-adv-x="624" 
d="M542.5 636q59.5 -69 59.5 -197q0 -110 -33.5 -214t-107.5 -172t-188 -68q-109 0 -169 69t-60 197q0 108 34 212t108 173t188 69q109 0 168.5 -69zM253 548q-43 -60 -61.5 -145t-18.5 -164q0 -81 27.5 -118.5t79.5 -37.5q71 0 114 60t61 145t18 165t-26.5 117.5
t-80.5 37.5q-70 0 -113 -60zM477 925l42 -94l-214 -80l-28 61z" />
    <glyph glyph-name="Obreve" unicode="&#x14e;" horiz-adv-x="624" 
d="M542.5 636q59.5 -69 59.5 -197q0 -110 -33.5 -214t-107.5 -172t-188 -68q-109 0 -169 69t-60 197q0 108 34 212t108 173t188 69q109 0 168.5 -69zM253 548q-43 -60 -61.5 -145t-18.5 -164q0 -81 27.5 -118.5t79.5 -37.5q71 0 114 60t61 145t18 165t-26.5 117.5
t-80.5 37.5q-70 0 -113 -60zM286 796q-34 41 -31 102l69 10q8 -65 65 -65q31 0 53 19t35 50l70 -19q-14 -61 -57 -99.5t-106 -38.5q-64 0 -98 41z" />
    <glyph glyph-name="uni01D1" unicode="&#x1d1;" horiz-adv-x="624" 
d="M542.5 636q59.5 -69 59.5 -197q0 -110 -33.5 -214t-107.5 -172t-188 -68q-109 0 -169 69t-60 197q0 108 34 212t108 173t188 69q109 0 168.5 -69zM253 548q-43 -60 -61.5 -145t-18.5 -164q0 -81 27.5 -118.5t79.5 -37.5q71 0 114 60t61 145t18 165t-26.5 117.5
t-80.5 37.5q-70 0 -113 -60zM518 925l44 -52l-141 -121h-75l-109 124l50 49l105 -83z" />
    <glyph glyph-name="uni019F" unicode="&#x19f;" horiz-adv-x="624" 
d="M542.5 636q59.5 -69 59.5 -197q0 -110 -33.5 -214t-107.5 -172t-188 -68q-109 0 -169 69t-60 197q0 108 33.5 212t108 173t188.5 69q109 0 168.5 -69zM249 548q-45 -62 -65 -157h291q3 33 3 61q0 82 -27.5 120t-83.5 38q-73 0 -118 -62zM401 146q45 65 64 165h-293
q-4 -33 -4 -71q0 -83 28 -121t83 -38q77 0 122 65z" />
    <glyph glyph-name="Ocircumflex" unicode="&#xd4;" horiz-adv-x="624" 
d="M542.5 636q59.5 -69 59.5 -197q0 -110 -33.5 -214t-107.5 -172t-188 -68q-109 0 -169 69t-60 197q0 108 34 212t108 173t188 69q109 0 168.5 -69zM253 548q-43 -60 -61.5 -145t-18.5 -164q0 -81 27.5 -118.5t79.5 -37.5q71 0 114 60t61 145t18 165t-26.5 117.5
t-80.5 37.5q-70 0 -113 -60zM267 757l-44 53l142 120h75l108 -123l-49 -50l-106 83z" />
    <glyph glyph-name="uni1ED0" unicode="&#x1ed0;" horiz-adv-x="624" 
d="M616 1054l61 -65l-153 -136l-44 41zM263 719l-44 53l142 120h75l108 -123l-49 -50l-106 83zM542.5 636q59.5 -69 59.5 -197q0 -110 -33.5 -214t-107.5 -172t-188 -68q-109 0 -169 69t-60 197q0 108 34 212t108 173t188 69q109 0 168.5 -69zM253 548q-43 -60 -61.5 -145
t-18.5 -164q0 -81 27.5 -118.5t79.5 -37.5q71 0 114 60t61 145t18 165t-26.5 117.5t-80.5 37.5q-70 0 -113 -60z" />
    <glyph glyph-name="uni1ED8" unicode="&#x1ed8;" horiz-adv-x="624" 
d="M542.5 636q59.5 -69 59.5 -197q0 -110 -33.5 -214t-107.5 -172t-188 -68q-109 0 -169 69t-60 197q0 108 34 212t108 173t188 69q109 0 168.5 -69zM253 548q-43 -60 -61.5 -145t-18.5 -164q0 -81 27.5 -118.5t79.5 -37.5q71 0 114 60t61 145t18 165t-26.5 117.5
t-80.5 37.5q-70 0 -113 -60zM267 757l-44 53l142 120h75l108 -123l-49 -50l-106 83zM308 -86.5q18 -18.5 18 -47.5q0 -37 -24 -60.5t-59 -23.5q-31 0 -49.5 18.5t-18.5 47.5q0 36 24 60t59 24q32 0 50 -18.5z" />
    <glyph glyph-name="uni1ED2" unicode="&#x1ed2;" horiz-adv-x="624" 
d="M219 1052l91 -162l-50 -37l-117 140zM261 719l-44 53l142 120h75l108 -123l-49 -50l-106 83zM542.5 636q59.5 -69 59.5 -197q0 -110 -33.5 -214t-107.5 -172t-188 -68q-109 0 -169 69t-60 197q0 108 34 212t108 173t188 69q109 0 168.5 -69zM253 548q-43 -60 -61.5 -145
t-18.5 -164q0 -81 27.5 -118.5t79.5 -37.5q71 0 114 60t61 145t18 165t-26.5 117.5t-80.5 37.5q-70 0 -113 -60z" />
    <glyph glyph-name="uni1ED4" unicode="&#x1ed4;" horiz-adv-x="624" 
d="M542.5 636q59.5 -69 59.5 -197q0 -110 -33.5 -214t-107.5 -172t-188 -68q-109 0 -169 69t-60 197q0 108 34 212t108 173t188 69q109 0 168.5 -69zM253 548q-43 -60 -61.5 -145t-18.5 -164q0 -81 27.5 -118.5t79.5 -37.5q71 0 114 60t61 145t18 165t-26.5 117.5
t-80.5 37.5q-70 0 -113 -60zM261 719l-44 53l142 120h75l108 -123l-49 -50l-106 83zM507 922q36 4 53.5 14.5t17.5 33.5q0 13 -8 20t-23 7q-26 0 -54 -14l-17 60q43 23 91 23q47 0 73 -25t26 -65q0 -79 -87 -95l-6 -45h-76z" />
    <glyph glyph-name="uni1ED6" unicode="&#x1ed6;" horiz-adv-x="624" 
d="M428 928q-14 7 -30 20q-2 2 -10 7.5t-14.5 8t-12.5 2.5q-15 0 -27 -10.5t-28 -33.5l-58 34q24 44 54 70.5t64 26.5q20 0 33.5 -6.5t30.5 -19.5q22 -18 36 -18t26 10t27 31l58 -33q-24 -46 -53.5 -71t-62.5 -25q-19 0 -33 7zM262 719l-44 53l142 120h75l108 -123l-49 -50
l-106 83zM542.5 636q59.5 -69 59.5 -197q0 -110 -33.5 -214t-107.5 -172t-188 -68q-109 0 -169 69t-60 197q0 108 34 212t108 173t188 69q109 0 168.5 -69zM253 548q-43 -60 -61.5 -145t-18.5 -164q0 -81 27.5 -118.5t79.5 -37.5q71 0 114 60t61 145t18 165t-26.5 117.5
t-80.5 37.5q-70 0 -113 -60z" />
    <glyph glyph-name="uni020C" unicode="&#x20c;" horiz-adv-x="624" 
d="M542.5 636q59.5 -69 59.5 -197q0 -110 -33.5 -214t-107.5 -172t-188 -68q-109 0 -169 69t-60 197q0 108 34 212t108 173t188 69q109 0 168.5 -69zM253 548q-43 -60 -61.5 -145t-18.5 -164q0 -81 27.5 -118.5t79.5 -37.5q71 0 114 60t61 145t18 165t-26.5 117.5
t-80.5 37.5q-70 0 -113 -60zM297 971l59 -186l-72 -29l-82 172zM445 971l51 -184l-71 -26l-76 169z" />
    <glyph glyph-name="Odieresis" unicode="&#xd6;" horiz-adv-x="624" 
d="M542.5 636q59.5 -69 59.5 -197q0 -110 -33.5 -214t-107.5 -172t-188 -68q-109 0 -169 69t-60 197q0 108 34 212t108 173t188 69q109 0 168.5 -69zM253 548q-43 -60 -61.5 -145t-18.5 -164q0 -81 27.5 -118.5t79.5 -37.5q71 0 114 60t61 145t18 165t-26.5 117.5
t-80.5 37.5q-70 0 -113 -60zM245.5 791q-16.5 16 -16.5 42q0 32 21.5 53t52.5 21q27 0 43.5 -16t16.5 -42q0 -32 -21.5 -53t-52.5 -21q-27 0 -43.5 16zM445.5 791q-16.5 16 -16.5 42q0 32 21.5 53t52.5 21q27 0 43.5 -16t16.5 -42q0 -32 -21.5 -53t-52.5 -21q-27 0 -43.5 16
z" />
    <glyph glyph-name="uni022A" unicode="&#x22a;" horiz-adv-x="624" 
d="M542.5 636q59.5 -69 59.5 -197q0 -110 -33.5 -214t-107.5 -172t-188 -68q-109 0 -169 69t-60 197q0 108 34 212t108 173t188 69q109 0 168.5 -69zM253 548q-43 -60 -61.5 -145t-18.5 -164q0 -81 27.5 -118.5t79.5 -37.5q71 0 114 60t61 145t18 165t-26.5 117.5
t-80.5 37.5q-70 0 -113 -60zM236.5 763q-16.5 16 -16.5 42q0 32 21.5 53t52.5 21q27 0 43.5 -16t16.5 -42q0 -32 -21.5 -53t-52.5 -21q-27 0 -43.5 16zM436.5 763q-16.5 16 -16.5 42q0 32 21.5 53t52.5 21q27 0 43.5 -16t16.5 -42q0 -32 -21.5 -53t-52.5 -21q-27 0 -43.5 16
zM529 922h-261l13 88h261z" />
    <glyph glyph-name="uni022E" unicode="&#x22e;" horiz-adv-x="624" 
d="M542.5 636q59.5 -69 59.5 -197q0 -110 -33.5 -214t-107.5 -172t-188 -68q-109 0 -169 69t-60 197q0 108 34 212t108 173t188 69q109 0 168.5 -69zM253 548q-43 -60 -61.5 -145t-18.5 -164q0 -81 27.5 -118.5t79.5 -37.5q71 0 114 60t61 145t18 165t-26.5 117.5
t-80.5 37.5q-70 0 -113 -60zM341 788.5q-18 18.5 -18 47.5q0 37 23.5 60.5t59.5 23.5q31 0 49.5 -18.5t18.5 -47.5q0 -36 -24 -60t-59 -24q-32 0 -50 18.5z" />
    <glyph glyph-name="uni0230" unicode="&#x230;" horiz-adv-x="624" 
d="M542.5 636q59.5 -69 59.5 -197q0 -110 -33.5 -214t-107.5 -172t-188 -68q-109 0 -169 69t-60 197q0 108 34 212t108 173t188 69q109 0 168.5 -69zM253 548q-43 -60 -61.5 -145t-18.5 -164q0 -81 27.5 -118.5t79.5 -37.5q71 0 114 60t61 145t18 165t-26.5 117.5
t-80.5 37.5q-70 0 -113 -60zM332 757.5q-18 18.5 -18 47.5q0 37 23.5 60.5t59.5 23.5q31 0 49.5 -18.5t18.5 -47.5q0 -36 -24 -60t-59 -24q-32 0 -50 18.5zM534 923h-261l13 88h261z" />
    <glyph glyph-name="uni1ECC" unicode="&#x1ecc;" horiz-adv-x="624" 
d="M542.5 636q59.5 -69 59.5 -197q0 -110 -33.5 -214t-107.5 -172t-188 -68q-109 0 -169 69t-60 197q0 108 34 212t108 173t188 69q109 0 168.5 -69zM253 548q-43 -60 -61.5 -145t-18.5 -164q0 -81 27.5 -118.5t79.5 -37.5q71 0 114 60t61 145t18 165t-26.5 117.5
t-80.5 37.5q-70 0 -113 -60zM308 -86.5q18 -18.5 18 -47.5q0 -37 -24 -60.5t-59 -23.5q-31 0 -49.5 18.5t-18.5 47.5q0 36 24 60t59 24q32 0 50 -18.5z" />
    <glyph glyph-name="Ograve" unicode="&#xd2;" horiz-adv-x="624" 
d="M542.5 636q59.5 -69 59.5 -197q0 -110 -33.5 -214t-107.5 -172t-188 -68q-109 0 -169 69t-60 197q0 108 34 212t108 173t188 69q109 0 168.5 -69zM253 548q-43 -60 -61.5 -145t-18.5 -164q0 -81 27.5 -118.5t79.5 -37.5q71 0 114 60t61 145t18 165t-26.5 117.5
t-80.5 37.5q-70 0 -113 -60zM340 923l175 -112l-37 -59l-192 79z" />
    <glyph glyph-name="uni1ECE" unicode="&#x1ece;" horiz-adv-x="624" 
d="M542.5 636q59.5 -69 59.5 -197q0 -110 -33.5 -214t-107.5 -172t-188 -68q-109 0 -169 69t-60 197q0 108 34 212t108 173t188 69q109 0 168.5 -69zM253 548q-43 -60 -61.5 -145t-18.5 -164q0 -81 27.5 -118.5t79.5 -37.5q71 0 114 60t61 145t18 165t-26.5 117.5
t-80.5 37.5q-70 0 -113 -60zM358 850q36 4 53.5 14.5t17.5 33.5q0 13 -8 20t-23 7q-26 0 -54 -14l-17 60q43 23 91 23q47 0 73 -25t26 -65q0 -79 -87 -95l-6 -45h-76z" />
    <glyph glyph-name="Ohorn" unicode="&#x1a0;" horiz-adv-x="646" 
d="M579 575q23 -57 23 -136q0 -110 -33.5 -214t-107.5 -172t-188 -68q-109 0 -169 69t-60 197q0 108 34 212t108 173t188 69q108 0 167 -68q30 4 43.5 23t13.5 54q0 24 -5 46l84 11q7 -24 7 -57q0 -116 -105 -139zM394 143q43 60 61 145t18 165t-26.5 117.5t-80.5 37.5
q-70 0 -113 -60t-61.5 -145t-18.5 -164q0 -81 27.5 -118.5t79.5 -37.5q71 0 114 60z" />
    <glyph glyph-name="uni1EDA" unicode="&#x1eda;" horiz-adv-x="646" 
d="M519 831l-214 -80l-28 61l200 113zM579 575q23 -57 23 -136q0 -110 -33.5 -214t-107.5 -172t-188 -68q-109 0 -169 69t-60 197q0 108 34 212t108 173t188 69q108 0 167 -68q30 4 43.5 23t13.5 54q0 24 -5 46l84 11q7 -24 7 -57q0 -116 -105 -139zM394 143q43 60 61 145
t18 165t-26.5 117.5t-80.5 37.5q-70 0 -113 -60t-61.5 -145t-18.5 -164q0 -81 27.5 -118.5t79.5 -37.5q71 0 114 60z" />
    <glyph glyph-name="uni1EE2" unicode="&#x1ee2;" horiz-adv-x="646" 
d="M579 575q23 -57 23 -136q0 -110 -33.5 -214t-107.5 -172t-188 -68q-109 0 -169 69t-60 197q0 108 34 212t108 173t188 69q108 0 167 -68q30 4 43.5 23t13.5 54q0 24 -5 46l84 11q7 -24 7 -57q0 -116 -105 -139zM394 143q43 60 61 145t18 165t-26.5 117.5t-80.5 37.5
q-70 0 -113 -60t-61.5 -145t-18.5 -164q0 -81 27.5 -118.5t79.5 -37.5q71 0 114 60zM308 -86.5q18 -18.5 18 -47.5q0 -37 -23.5 -60.5t-59.5 -23.5q-31 0 -49.5 18.5t-18.5 47.5q0 36 24 60t59 24q32 0 50 -18.5z" />
    <glyph glyph-name="uni1EDC" unicode="&#x1edc;" horiz-adv-x="646" 
d="M515 811l-37 -59l-192 79l54 92zM579 575q23 -57 23 -136q0 -110 -33.5 -214t-107.5 -172t-188 -68q-109 0 -169 69t-60 197q0 108 34 212t108 173t188 69q108 0 167 -68q30 4 43.5 23t13.5 54q0 24 -5 46l84 11q7 -24 7 -57q0 -116 -105 -139zM394 143q43 60 61 145
t18 165t-26.5 117.5t-80.5 37.5q-70 0 -113 -60t-61.5 -145t-18.5 -164q0 -81 27.5 -118.5t79.5 -37.5q71 0 114 60z" />
    <glyph glyph-name="uni1EDE" unicode="&#x1ede;" horiz-adv-x="646" 
d="M344 911l-17 60q43 23 91 23q47 0 73 -25t26 -65q0 -79 -87 -95l-6 -45h-76l10 86q36 4 53.5 14.5t17.5 33.5q0 13 -8 20t-23 7q-26 0 -54 -14zM579 575q23 -57 23 -136q0 -110 -33.5 -214t-107.5 -172t-188 -68q-109 0 -169 69t-60 197q0 108 34 212t108 173t188 69
q108 0 167 -68q30 4 43.5 23t13.5 54q0 24 -5 46l84 11q7 -24 7 -57q0 -116 -105 -139zM394 143q43 60 61 145t18 165t-26.5 117.5t-80.5 37.5q-70 0 -113 -60t-61.5 -145t-18.5 -164q0 -81 27.5 -118.5t79.5 -37.5q71 0 114 60z" />
    <glyph glyph-name="uni1EE0" unicode="&#x1ee0;" horiz-adv-x="646" 
d="M316 807q-12 -11 -28 -34l-58 35q23 45 53.5 72.5t64.5 27.5q20 0 34.5 -7.5t30.5 -20.5q22 -18 36 -18t26 10.5t27 32.5l59 -34q-24 -47 -54 -73t-63 -26q-18 0 -31.5 6.5t-32.5 20.5q-13 10 -20.5 14.5t-16.5 4.5q-15 0 -27 -11zM579 575q23 -57 23 -136
q0 -110 -33.5 -214t-107.5 -172t-188 -68q-109 0 -169 69t-60 197q0 108 34 212t108 173t188 69q108 0 167 -68q30 4 43.5 23t13.5 54q0 24 -5 46l84 11q7 -24 7 -57q0 -116 -105 -139zM394 143q43 60 61 145t18 165t-26.5 117.5t-80.5 37.5q-70 0 -113 -60t-61.5 -145
t-18.5 -164q0 -81 27.5 -118.5t79.5 -37.5q71 0 114 60z" />
    <glyph glyph-name="Ohungarumlaut" unicode="&#x150;" horiz-adv-x="624" 
d="M542.5 636q59.5 -69 59.5 -197q0 -110 -33.5 -214t-107.5 -172t-188 -68q-109 0 -169 69t-60 197q0 108 34 212t108 173t188 69q109 0 168.5 -69zM253 548q-43 -60 -61.5 -145t-18.5 -164q0 -81 27.5 -118.5t79.5 -37.5q71 0 114 60t61 145t18 165t-26.5 117.5
t-80.5 37.5q-70 0 -113 -60zM374 971l80 -45l-118 -165l-63 29zM522 971l80 -47l-126 -168l-62 31z" />
    <glyph glyph-name="uni01A2" unicode="&#x1a2;" horiz-adv-x="849" 
d="M782.5 671q38.5 -36 38.5 -100q0 -15 -3 -33l-105 -744h-125l105 749q2 16 2 22q0 49 -49 49q-38 0 -76 -24q32 -61 32 -151q0 -110 -33.5 -214t-107.5 -172t-188 -68q-109 0 -169 69t-60 197q0 108 34 212t108 173t188 69q88 0 146 -49q71 51 151 51q73 0 111.5 -36z
M394 143q43 60 61 145t18 165t-26.5 117.5t-80.5 37.5q-70 0 -113 -60t-61.5 -145t-18.5 -164q0 -81 27.5 -118.5t79.5 -37.5q71 0 114 60z" />
    <glyph glyph-name="uni020E" unicode="&#x20e;" horiz-adv-x="624" 
d="M542.5 636q59.5 -69 59.5 -197q0 -110 -33.5 -214t-107.5 -172t-188 -68q-109 0 -169 69t-60 197q0 108 34 212t108 173t188 69q109 0 168.5 -69zM253 548q-43 -60 -61.5 -145t-18.5 -164q0 -81 27.5 -118.5t79.5 -37.5q71 0 114 60t61 145t18 165t-26.5 117.5
t-80.5 37.5q-70 0 -113 -60zM239 786q17 69 61 109.5t107 40.5q64 0 98 -42.5t30 -111.5l-71 -10q-6 75 -65 75q-63 0 -91 -79z" />
    <glyph glyph-name="Omacron" unicode="&#x14c;" horiz-adv-x="624" 
d="M542.5 636q59.5 -69 59.5 -197q0 -110 -33.5 -214t-107.5 -172t-188 -68q-109 0 -169 69t-60 197q0 108 34 212t108 173t188 69q109 0 168.5 -69zM253 548q-43 -60 -61.5 -145t-18.5 -164q0 -81 27.5 -118.5t79.5 -37.5q71 0 114 60t61 145t18 165t-26.5 117.5
t-80.5 37.5q-70 0 -113 -60zM519 787h-261l13 88h261z" />
    <glyph glyph-name="uni1E52" unicode="&#x1e52;" horiz-adv-x="624" 
d="M542.5 636q59.5 -69 59.5 -197q0 -110 -33.5 -214t-107.5 -172t-188 -68q-109 0 -169 69t-60 197q0 108 34 212t108 173t188 69q109 0 168.5 -69zM253 548q-43 -60 -61.5 -145t-18.5 -164q0 -81 27.5 -118.5t79.5 -37.5q71 0 114 60t61 145t18 165t-26.5 117.5
t-80.5 37.5q-70 0 -113 -60zM518 759h-261l13 88h261zM488 1060l42 -94l-214 -80l-28 61z" />
    <glyph glyph-name="uni1E50" unicode="&#x1e50;" horiz-adv-x="624" 
d="M542.5 636q59.5 -69 59.5 -197q0 -110 -33.5 -214t-107.5 -172t-188 -68q-109 0 -169 69t-60 197q0 108 34 212t108 173t188 69q109 0 168.5 -69zM253 548q-43 -60 -61.5 -145t-18.5 -164q0 -81 27.5 -118.5t79.5 -37.5q71 0 114 60t61 145t18 165t-26.5 117.5
t-80.5 37.5q-70 0 -113 -60zM517 759h-261l13 88h261zM353 1058l175 -112l-37 -59l-192 79z" />
    <glyph glyph-name="uniA7B6" unicode="&#xa7b6;" horiz-adv-x="782" 
d="M47 195q0 120 35.5 250.5t96.5 245.5h118q-56 -120 -91 -254t-35 -246q0 -58 15 -83t47 -25q69 0 83 96l31 219h123l-31 -224q-2 -20 -2 -28q0 -64 55 -64q73 0 103 119t30 269q0 60 -6 111.5t-17 109.5h120q27 -104 27 -224q0 -211 -58 -346t-193 -135q-59 0 -92 30
t-39 87q-22 -58 -62 -87.5t-93 -29.5q-165 0 -165 209z" />
    <glyph glyph-name="uni01EA" unicode="&#x1ea;" horiz-adv-x="624" 
d="M266 -63q-24 -29 -24 -57q0 -35 42 -35q25 0 54 6l-18 -82q-27 -6 -59 -6q-51 0 -81.5 27t-30.5 73q0 75 77 126q-87 14 -134.5 82t-47.5 180q0 108 34 212t108 173t188 69q109 0 168.5 -69t59.5 -197q0 -95 -25 -186.5t-79.5 -161t-138.5 -94.5q-69 -31 -93 -60z
M200.5 120.5q27.5 -37.5 79.5 -37.5q71 0 114 60t61 145t18 165t-26.5 117.5t-80.5 37.5q-70 0 -113 -60t-61.5 -145t-18.5 -164q0 -81 27.5 -118.5z" />
    <glyph glyph-name="uni01EC" unicode="&#x1ec;" horiz-adv-x="624" 
d="M532 875l-13 -88h-261l13 88h261zM266 -63q-24 -29 -24 -57q0 -35 42 -35q25 0 54 6l-18 -82q-27 -6 -59 -6q-51 0 -81.5 27t-30.5 73q0 75 77 126q-87 14 -134.5 82t-47.5 180q0 108 34 212t108 173t188 69q109 0 168.5 -69t59.5 -197q0 -95 -25 -186.5t-79.5 -161
t-138.5 -94.5q-69 -31 -93 -60zM200.5 120.5q27.5 -37.5 79.5 -37.5q71 0 114 60t61 145t18 165t-26.5 117.5t-80.5 37.5q-70 0 -113 -60t-61.5 -145t-18.5 -164q0 -81 27.5 -118.5z" />
    <glyph glyph-name="uni0186" unicode="&#x186;" horiz-adv-x="514" 
d="M434 636q58 -69 58 -198q0 -124 -39 -227t-113.5 -164t-176.5 -61q-109 0 -181 84l67 71q31 -27 56 -40.5t60 -13.5q66 0 110.5 52.5t66 134t21.5 167.5q0 88 -27.5 127t-77.5 39q-34 0 -64.5 -12t-65.5 -36l-53 76q45 35 92 52.5t105 17.5q104 0 162 -69z" />
    <glyph glyph-name="Oslash" unicode="&#xd8;" horiz-adv-x="624" 
d="M577.5 575.5q24.5 -57.5 24.5 -136.5q0 -110 -33.5 -214t-107.5 -172t-188 -68q-27 0 -47 4l-48 -119l-94 26l53 129q-45 33 -69 90.5t-24 135.5q0 108 34 212t108 173t188 69q24 0 45 -3l50 121l93 -27l-54 -130q45 -33 69.5 -90.5zM252 548.5q-44 -60.5 -62.5 -146.5
t-18.5 -166q0 -83 28 -120l193 491q-16 2 -26 2q-70 0 -114 -60.5zM395 143.5q44 60.5 62 146t18 166.5t-26 118l-194 -489q16 -2 25 -2q71 0 115 60.5z" />
    <glyph glyph-name="Oslashacute" unicode="&#x1fe;" horiz-adv-x="624" 
d="M577.5 575.5q24.5 -57.5 24.5 -136.5q0 -110 -33.5 -214t-107.5 -172t-188 -68q-27 0 -47 4l-48 -119l-94 26l53 129q-45 33 -69 90.5t-24 135.5q0 108 34 212t108 173t188 69q24 0 45 -3l50 121l93 -27l-54 -130q45 -33 69.5 -90.5zM252 548.5q-44 -60.5 -62.5 -146.5
t-18.5 -166q0 -83 28 -120l193 491q-16 2 -26 2q-70 0 -114 -60.5zM395 143.5q44 60.5 62 146t18 166.5t-26 118l-194 -489q16 -2 25 -2q71 0 115 60.5zM470 949l42 -94l-214 -80l-28 61z" />
    <glyph glyph-name="Otilde" unicode="&#xd5;" horiz-adv-x="624" 
d="M542.5 636q59.5 -69 59.5 -197q0 -110 -33.5 -214t-107.5 -172t-188 -68q-109 0 -169 69t-60 197q0 108 34 212t108 173t188 69q109 0 168.5 -69zM253 548q-43 -60 -61.5 -145t-18.5 -164q0 -81 27.5 -118.5t79.5 -37.5q71 0 114 60t61 145t18 165t-26.5 117.5
t-80.5 37.5q-70 0 -113 -60zM412.5 778.5q-13.5 6.5 -32.5 20.5q-13 10 -20.5 14.5t-16.5 4.5q-15 0 -27 -11t-28 -34l-58 35q23 45 53.5 72.5t64.5 27.5q20 0 34.5 -7.5t30.5 -20.5q22 -18 36 -18t26 10.5t27 32.5l59 -34q-24 -47 -54 -73t-63 -26q-18 0 -31.5 6.5z" />
    <glyph glyph-name="uni1E4C" unicode="&#x1e4c;" horiz-adv-x="624" 
d="M542.5 636q59.5 -69 59.5 -197q0 -110 -33.5 -214t-107.5 -172t-188 -68q-109 0 -169 69t-60 197q0 108 34 212t108 173t188 69q109 0 168.5 -69zM253 548q-43 -60 -61.5 -145t-18.5 -164q0 -81 27.5 -118.5t79.5 -37.5q71 0 114 60t61 145t18 165t-26.5 117.5
t-80.5 37.5q-70 0 -113 -60zM410.5 763.5q-13.5 6.5 -32.5 20.5q-13 10 -20.5 14.5t-16.5 4.5q-15 0 -27 -11t-28 -34l-58 35q23 45 53.5 72.5t64.5 27.5q20 0 34.5 -7.5t30.5 -20.5q22 -18 36 -18t26 10.5t27 32.5l59 -34q-24 -47 -54 -73t-63 -26q-18 0 -31.5 6.5z
M488 1089l42 -94l-214 -80l-28 61z" />
    <glyph glyph-name="uni022C" unicode="&#x22c;" horiz-adv-x="624" 
d="M532 927h-261l13 88h261zM406.5 763.5q-13.5 6.5 -32.5 20.5q-13 10 -20.5 14.5t-16.5 4.5q-15 0 -27 -11t-28 -34l-58 35q23 45 53.5 72.5t64.5 27.5q20 0 34.5 -7.5t30.5 -20.5q22 -18 36 -18t26 10.5t27 32.5l59 -34q-24 -47 -54 -73t-63 -26q-18 0 -31.5 6.5z
M542.5 636q59.5 -69 59.5 -197q0 -110 -33.5 -214t-107.5 -172t-188 -68q-109 0 -169 69t-60 197q0 108 34 212t108 173t188 69q109 0 168.5 -69zM253 548q-43 -60 -61.5 -145t-18.5 -164q0 -81 27.5 -118.5t79.5 -37.5q71 0 114 60t61 145t18 165t-26.5 117.5t-80.5 37.5
q-70 0 -113 -60z" />
    <glyph glyph-name="OE" unicode="&#x152;" horiz-adv-x="804" 
d="M797 596h-256q40 -62 40 -163q0 -23 -1 -35h162l-13 -94h-161q-25 -128 -97 -208h274l-15 -96h-388q-37 -15 -82 -15q-100 0 -158 69.5t-58 196.5q0 107 33.5 211.5t104.5 173.5t177 69q44 0 78 -14h388zM271 83q65 0 106 59.5t58.5 145.5t17.5 169q0 151 -98 151
q-64 0 -105 -60t-59 -145.5t-18 -166.5q0 -153 98 -153z" />
    <glyph glyph-name="P" unicode="P" horiz-adv-x="524" 
d="M478 643.5q59 -47.5 59 -138.5q0 -70 -29.5 -129.5t-92.5 -96t-160 -36.5h-63l-34 -243h-126l98 691h180q109 0 168 -47.5zM373.5 385.5q33.5 47.5 33.5 117.5q0 50 -27 72t-82 22h-56l-36 -259h51q83 0 116.5 47.5z" />
    <glyph glyph-name="uni1E54" unicode="&#x1e54;" horiz-adv-x="524" 
d="M478 643.5q59 -47.5 59 -138.5q0 -70 -29.5 -129.5t-92.5 -96t-160 -36.5h-63l-34 -243h-126l98 691h180q109 0 168 -47.5zM373.5 385.5q33.5 47.5 33.5 117.5q0 50 -27 72t-82 22h-56l-36 -259h51q83 0 116.5 47.5zM427 925l42 -94l-214 -80l-28 61z" />
    <glyph glyph-name="uni1E56" unicode="&#x1e56;" horiz-adv-x="524" 
d="M478 643.5q59 -47.5 59 -138.5q0 -70 -29.5 -129.5t-92.5 -96t-160 -36.5h-63l-34 -243h-126l98 691h180q109 0 168 -47.5zM373.5 385.5q33.5 47.5 33.5 117.5q0 50 -27 72t-82 22h-56l-36 -259h51q83 0 116.5 47.5zM291 788.5q-18 18.5 -18 47.5q0 37 23.5 60.5
t59.5 23.5q31 0 49.5 -18.5t18.5 -47.5q0 -36 -24 -60t-59 -24q-32 0 -50 18.5z" />
    <glyph glyph-name="uni01A4" unicode="&#x1a4;" horiz-adv-x="632" 
d="M586 643.5q59 -47.5 59 -138.5q0 -70 -29.5 -129.5t-92.5 -96t-160 -36.5h-63l-34 -243h-126l85 597h-24q-26 0 -39.5 -16t-13.5 -46q0 -23 9 -57l-86 -34q-24 48 -24 95q0 70 43.5 111t119.5 41h208q109 0 168 -47.5zM481.5 385.5q33.5 47.5 33.5 117.5q0 50 -27 72
t-82 22h-56l-36 -259h51q83 0 116.5 47.5z" />
    <glyph glyph-name="Thorn" unicode="&#xde;" horiz-adv-x="527" 
d="M464.5 529q58.5 -48 58.5 -143q0 -69 -28.5 -129.5t-92 -98t-161.5 -37.5h-66l-17 -121h-125l97 691h125l-16 -114h57q110 0 168.5 -48zM359 265q34 49 34 120q0 52 -27 75t-82 23h-58l-38 -267h55q82 0 116 49z" />
    <glyph glyph-name="Q" unicode="Q" horiz-adv-x="623" 
d="M555 198q-47 -112 -146 -159q56 -2 96.5 -19t73.5 -48l-92 -96q-40 57 -88 83.5t-126 26.5q-109 0 -169 69t-60 196q0 108 34 212t108 173t188 69q109 0 168.5 -69t59.5 -197q0 -129 -47 -241zM280 83q71 0 114 60.5t61 145.5t18 167q0 78 -27 115t-80 37
q-70 0 -113 -60.5t-61.5 -146t-18.5 -165.5q0 -153 107 -153z" />
    <glyph glyph-name="uni024A" unicode="&#x24a;" horiz-adv-x="612" 
d="M632 -179q-52 -38 -121 -38q-68 0 -106 34.5t-38 100.5q0 21 2 33l6 49h1l6 43q-57 -57 -133 -57q-94 0 -149.5 68.5t-55.5 192.5q0 122 37.5 227t106 168t156.5 63q43 0 73.5 -17t54.5 -49l16 52h109l-96 -691l-8 -61q-1 -6 -1 -16q0 -44 40 -44q19 0 32 4.5t34 15.5z
M396 143l56 409q-20 28 -42 42t-53 14q-58 0 -99.5 -52.5t-62.5 -136t-21 -175.5q0 -162 105 -162q65 0 117 61z" />
    <glyph glyph-name="R" unicode="R" horiz-adv-x="548" 
d="M500 389.5q-36 -56.5 -112 -87.5l116 -302h-134l-99 279h-74l-39 -279h-126l98 691h179q112 0 169.5 -45.5t57.5 -128.5q0 -71 -36 -127.5zM210 371h62q72 0 103 41.5t31 99.5q0 45 -25 65.5t-79 20.5h-60z" />
    <glyph glyph-name="Racute" unicode="&#x154;" horiz-adv-x="548" 
d="M500 389.5q-36 -56.5 -112 -87.5l116 -302h-134l-99 279h-74l-39 -279h-126l98 691h179q112 0 169.5 -45.5t57.5 -128.5q0 -71 -36 -127.5zM210 371h62q72 0 103 41.5t31 99.5q0 45 -25 65.5t-79 20.5h-60zM428 925l42 -94l-214 -80l-28 61z" />
    <glyph glyph-name="Rcaron" unicode="&#x158;" horiz-adv-x="548" 
d="M500 389.5q-36 -56.5 -112 -87.5l116 -302h-134l-99 279h-74l-39 -279h-126l98 691h179q112 0 169.5 -45.5t57.5 -128.5q0 -71 -36 -127.5zM210 371h62q72 0 103 41.5t31 99.5q0 45 -25 65.5t-79 20.5h-60zM469 925l44 -52l-141 -121h-75l-109 124l50 49l105 -83z" />
    <glyph glyph-name="Rcommaaccent" unicode="&#x156;" horiz-adv-x="548" 
d="M500 389.5q-36 -56.5 -112 -87.5l116 -302h-134l-99 279h-74l-39 -279h-126l98 691h179q112 0 169.5 -45.5t57.5 -128.5q0 -71 -36 -127.5zM210 371h62q72 0 103 41.5t31 99.5q0 45 -25 65.5t-79 20.5h-60zM284.5 -90q16.5 -17 16.5 -41q0 -21 -7.5 -38.5t-28.5 -52.5
l-52 -87h-62l43 117q-23 19 -23 47q0 31 20.5 51.5t49.5 20.5q27 0 43.5 -17z" />
    <glyph glyph-name="uni0210" unicode="&#x210;" horiz-adv-x="548" 
d="M500 389.5q-36 -56.5 -112 -87.5l116 -302h-134l-99 279h-74l-39 -279h-126l98 691h179q112 0 169.5 -45.5t57.5 -128.5q0 -71 -36 -127.5zM210 371h62q72 0 103 41.5t31 99.5q0 45 -25 65.5t-79 20.5h-60zM248 971l59 -186l-72 -29l-82 172zM396 971l51 -184l-71 -26
l-76 169z" />
    <glyph glyph-name="uni1E5A" unicode="&#x1e5a;" horiz-adv-x="548" 
d="M500 389.5q-36 -56.5 -112 -87.5l116 -302h-134l-99 279h-74l-39 -279h-126l98 691h179q112 0 169.5 -45.5t57.5 -128.5q0 -71 -36 -127.5zM210 371h62q72 0 103 41.5t31 99.5q0 45 -25 65.5t-79 20.5h-60zM287 -86.5q18 -18.5 18 -47.5q0 -37 -24 -60.5t-59 -23.5
q-31 0 -49.5 18.5t-18.5 47.5q0 36 24 60t59 24q32 0 50 -18.5z" />
    <glyph glyph-name="uni0212" unicode="&#x212;" horiz-adv-x="548" 
d="M500 389.5q-36 -56.5 -112 -87.5l116 -302h-134l-99 279h-74l-39 -279h-126l98 691h179q112 0 169.5 -45.5t57.5 -128.5q0 -71 -36 -127.5zM210 371h62q72 0 103 41.5t31 99.5q0 45 -25 65.5t-79 20.5h-60zM190 786q17 69 61 109.5t107 40.5q64 0 98 -42.5t30 -111.5
l-71 -10q-6 75 -65 75q-63 0 -91 -79z" />
    <glyph glyph-name="uni024C" unicode="&#x24c;" horiz-adv-x="558" 
d="M510 389.5q-36 -56.5 -112 -87.5l116 -302h-134l-99 279h-74l-39 -279h-126l40 279h-67l14 92h66l45 320h179q112 0 169.5 -45.5t57.5 -128.5q0 -71 -36 -127.5zM385 412.5q31 41.5 31 99.5q0 45 -25 65.5t-79 20.5h-60l-32 -227h62q72 0 103 41.5z" />
    <glyph glyph-name="uni2C64" unicode="&#x2c64;" horiz-adv-x="548" 
d="M500 389.5q-36 -56.5 -112 -87.5l116 -302h-134l-99 279h-74l-39 -279l-8 -61q-1 -6 -1 -16q0 -44 40 -44q19 0 32 4.5t34 15.5l34 -78q-52 -38 -121 -38q-68 0 -106 34.5t-38 100.5q0 21 2 33l6 49l98 691h179q112 0 169.5 -45.5t57.5 -128.5q0 -71 -36 -127.5zM210 371
h62q72 0 103 41.5t31 99.5q0 45 -25 65.5t-79 20.5h-60z" />
    <glyph glyph-name="S" unicode="S" horiz-adv-x="501" 
d="M510 619l-69 -68q-30 30 -60 43.5t-67 13.5q-50 0 -80.5 -27t-30.5 -71q0 -34 22.5 -55t85.5 -47q77 -32 116 -74t39 -114q0 -62 -31 -116t-91 -86.5t-143 -32.5q-134 0 -217 97l74 69q31 -33 65.5 -49.5t80.5 -16.5q59 0 95 32t36 88q0 39 -23 62.5t-84 49.5
q-82 34 -118 74t-36 105q0 54 29 102t83 77.5t126 29.5q123 0 198 -86z" />
    <glyph glyph-name="Sacute" unicode="&#x15a;" horiz-adv-x="501" 
d="M510 619l-69 -68q-30 30 -60 43.5t-67 13.5q-50 0 -80.5 -27t-30.5 -71q0 -34 22.5 -55t85.5 -47q77 -32 116 -74t39 -114q0 -62 -31 -116t-91 -86.5t-143 -32.5q-134 0 -217 97l74 69q31 -33 65.5 -49.5t80.5 -16.5q59 0 95 32t36 88q0 39 -23 62.5t-84 49.5
q-82 34 -118 74t-36 105q0 54 29 102t83 77.5t126 29.5q123 0 198 -86zM418 925l42 -94l-214 -80l-28 61z" />
    <glyph glyph-name="uniA78B" unicode="&#xa78b;" horiz-adv-x="217" 
d="M75 341l33 350h121l-67 -350h-87z" />
    <glyph glyph-name="Scaron" unicode="&#x160;" horiz-adv-x="501" 
d="M510 619l-69 -68q-30 30 -60 43.5t-67 13.5q-50 0 -80.5 -27t-30.5 -71q0 -34 22.5 -55t85.5 -47q77 -32 116 -74t39 -114q0 -62 -31 -116t-91 -86.5t-143 -32.5q-134 0 -217 97l74 69q31 -33 65.5 -49.5t80.5 -16.5q59 0 95 32t36 88q0 39 -23 62.5t-84 49.5
q-82 34 -118 74t-36 105q0 54 29 102t83 77.5t126 29.5q123 0 198 -86zM459 925l44 -52l-141 -121h-75l-109 124l50 49l105 -83z" />
    <glyph glyph-name="Scedilla" unicode="&#x15e;" horiz-adv-x="501" 
d="M427 334q39 -42 39 -114q0 -56 -25 -105.5t-74 -83.5t-118 -43l-7 -42q38 -4 58 -26t20 -56q0 -46 -35 -80.5t-102 -34.5q-56 0 -92 29l37 58q25 -15 53 -15q22 0 35.5 10t13.5 29q0 20 -16.5 27.5t-59.5 7.5l22 91q-116 8 -192 96l74 69q31 -33 65.5 -49.5t80.5 -16.5
q59 0 95 32t36 88q0 39 -23 62.5t-84 49.5q-82 34 -118 74t-36 105q0 54 29 102t83 77.5t126 29.5q123 0 198 -86l-69 -68q-30 30 -60 43.5t-67 13.5q-50 0 -80.5 -27t-30.5 -71q0 -34 22.5 -55t85.5 -47q77 -32 116 -74z" />
    <glyph glyph-name="Scircumflex" unicode="&#x15c;" horiz-adv-x="501" 
d="M510 619l-69 -68q-30 30 -60 43.5t-67 13.5q-50 0 -80.5 -27t-30.5 -71q0 -34 22.5 -55t85.5 -47q77 -32 116 -74t39 -114q0 -62 -31 -116t-91 -86.5t-143 -32.5q-134 0 -217 97l74 69q31 -33 65.5 -49.5t80.5 -16.5q59 0 95 32t36 88q0 39 -23 62.5t-84 49.5
q-82 34 -118 74t-36 105q0 54 29 102t83 77.5t126 29.5q123 0 198 -86zM208 757l-44 53l142 120h75l108 -123l-49 -50l-106 83z" />
    <glyph glyph-name="Scommaaccent" unicode="&#x218;" horiz-adv-x="501" 
d="M510 619l-69 -68q-30 30 -60 43.5t-67 13.5q-50 0 -80.5 -27t-30.5 -71q0 -34 22.5 -55t85.5 -47q77 -32 116 -74t39 -114q0 -62 -31 -116t-91 -86.5t-143 -32.5q-134 0 -217 97l74 69q31 -33 65.5 -49.5t80.5 -16.5q59 0 95 32t36 88q0 39 -23 62.5t-84 49.5
q-82 34 -118 74t-36 105q0 54 29 102t83 77.5t126 29.5q123 0 198 -86zM246.5 -90q16.5 -17 16.5 -41q0 -21 -7.5 -38.5t-28.5 -52.5l-52 -87h-62l43 117q-23 19 -23 47q0 31 20.5 51.5t49.5 20.5q27 0 43.5 -17z" />
    <glyph glyph-name="uni1E60" unicode="&#x1e60;" horiz-adv-x="501" 
d="M510 619l-69 -68q-30 30 -60 43.5t-67 13.5q-50 0 -80.5 -27t-30.5 -71q0 -34 22.5 -55t85.5 -47q77 -32 116 -74t39 -114q0 -62 -31 -116t-91 -86.5t-143 -32.5q-134 0 -217 97l74 69q31 -33 65.5 -49.5t80.5 -16.5q59 0 95 32t36 88q0 39 -23 62.5t-84 49.5
q-82 34 -118 74t-36 105q0 54 29 102t83 77.5t126 29.5q123 0 198 -86zM282 788.5q-18 18.5 -18 47.5q0 37 23.5 60.5t59.5 23.5q31 0 49.5 -18.5t18.5 -47.5q0 -36 -24 -60t-59 -24q-32 0 -50 18.5z" />
    <glyph glyph-name="uni1E62" unicode="&#x1e62;" horiz-adv-x="501" 
d="M510 619l-69 -68q-30 30 -60 43.5t-67 13.5q-50 0 -80.5 -27t-30.5 -71q0 -34 22.5 -55t85.5 -47q77 -32 116 -74t39 -114q0 -62 -31 -116t-91 -86.5t-143 -32.5q-134 0 -217 97l74 69q31 -33 65.5 -49.5t80.5 -16.5q59 0 95 32t36 88q0 39 -23 62.5t-84 49.5
q-82 34 -118 74t-36 105q0 54 29 102t83 77.5t126 29.5q123 0 198 -86zM249 -86.5q18 -18.5 18 -47.5q0 -37 -24 -60.5t-59 -23.5q-31 0 -49.5 18.5t-18.5 47.5q0 36 24 60t59 24q32 0 50 -18.5z" />
    <glyph glyph-name="uni1E9E" unicode="&#x1e9e;" horiz-adv-x="594" 
d="M578 633l-7 -67l-171 -180q74 -11 115.5 -51.5t41.5 -111.5t-31 -124.5t-85 -83t-123 -29.5q-70 0 -110 25l47 84q25 -10 58 -10q52 0 82 37.5t30 97.5q0 50 -34.5 74t-107.5 27l10 79l169 184q-62 24 -125 24q-94 0 -109 -110l-70 -498h-125l70 499q14 100 73.5 153
t161.5 53q119 0 240 -72z" />
    <glyph glyph-name="uni018F" unicode="&#x18f;" horiz-adv-x="579" 
d="M501.5 643.5q57.5 -61.5 57.5 -184.5q0 -128 -35.5 -235.5t-107 -172.5t-175.5 -65q-102 0 -156 64t-54 181q0 86 22 166l377 -1q4 37 4 71q0 76 -27.5 108.5t-81.5 32.5q-43 0 -80.5 -16.5t-75.5 -44.5l-51 74q52 43 106 63.5t117 20.5q103 0 160.5 -61.5zM349.5 131.5
q42.5 49.5 66.5 168.5h-262q-6 -42 -6 -78q0 -72 24 -106t73 -34q62 0 104.5 49.5z" />
    <glyph glyph-name="T" unicode="T" horiz-adv-x="474" 
d="M530 691l-27 -102h-158l-83 -589h-125l82 589h-165l15 102h461z" />
    <glyph glyph-name="Tbar" unicode="&#x166;" horiz-adv-x="474" 
d="M503 589h-158l-28 -199h104l-11 -81h-104l-44 -309h-125l43 309h-104l11 81h104l28 199h-165l15 102h461z" />
    <glyph glyph-name="Tcaron" unicode="&#x164;" horiz-adv-x="474" 
d="M530 691l-27 -102h-158l-83 -589h-125l82 589h-165l15 102h461zM440 925l44 -52l-141 -121h-75l-109 124l50 49l105 -83z" />
    <glyph glyph-name="uni0162" unicode="&#x162;" horiz-adv-x="474" 
d="M530 691l-27 -102h-158l-83 -589l-8 -52q38 -4 58 -26t20 -55q0 -46 -34.5 -82t-103.5 -36q-56 0 -92 29l37 59q26 -16 52 -16q21 0 35 10t15 29t-15.5 27t-59.5 8l25 105h-54l82 589h-165l15 102h461z" />
    <glyph glyph-name="uni1E70" unicode="&#x1e70;" horiz-adv-x="474" 
d="M530 691l-27 -102h-158l-83 -589h-125l82 589h-165l15 102h461zM54 -243l-44 53l143 124h75l108 -127l-52 -50l-103 87z" />
    <glyph glyph-name="uni021A" unicode="&#x21a;" horiz-adv-x="474" 
d="M530 691l-27 -102h-158l-83 -589h-125l82 589h-165l15 102h461zM233.5 -90q16.5 -17 16.5 -41q0 -21 -7.5 -38.5t-28.5 -52.5l-52 -87h-62l43 117q-23 19 -23 47q0 31 20.5 51.5t49.5 20.5q27 0 43.5 -17z" />
    <glyph glyph-name="uni023E" unicode="&#x23e;" horiz-adv-x="475" 
d="M504 592h-79l-117 -234l-50 -358h-115l6 41l-57 -113l-39 19l115 228l58 417h-171l14 99h357l31 61l39 -18l-22 -43h57zM326 491l51 101h-37z" />
    <glyph glyph-name="uni1E6A" unicode="&#x1e6a;" horiz-adv-x="474" 
d="M530 691l-27 -102h-158l-83 -589h-125l82 589h-165l15 102h461zM263 788.5q-18 18.5 -18 47.5q0 37 23.5 60.5t59.5 23.5q31 0 49.5 -18.5t18.5 -47.5q0 -36 -24 -60t-59 -24q-32 0 -50 18.5z" />
    <glyph glyph-name="uni1E6C" unicode="&#x1e6c;" horiz-adv-x="474" 
d="M530 691l-27 -102h-158l-83 -589h-125l82 589h-165l15 102h461zM236 -86.5q18 -18.5 18 -47.5q0 -37 -24 -60.5t-59 -23.5q-31 0 -49.5 18.5t-18.5 47.5q0 36 24 60t59 24q32 0 50 -18.5z" />
    <glyph glyph-name="uni01AC" unicode="&#x1ac;" horiz-adv-x="519" 
d="M548 589h-158l-83 -589h-125l82 589h-64q-26 0 -39 -14.5t-13 -40.5q0 -22 9 -56l-86 -34q-24 48 -24 95q0 69 43 110.5t118 41.5h367z" />
    <glyph glyph-name="uni1E6E" unicode="&#x1e6e;" horiz-adv-x="474" 
d="M530 691l-27 -102h-158l-83 -589h-125l82 589h-165l15 102h461zM64 -93h261l-13 -88h-261z" />
    <glyph glyph-name="uni01BC" unicode="&#x1bc;" horiz-adv-x="477" 
d="M-9 80l75 62q44 -61 113 -61q72 0 105 57.5t33 130.5q0 87 -74 87q-39 0 -90 -24l-88 1l51 358h359l-28 -91h-229l-26 -182q49 27 102 27q68 0 107.5 -45t39.5 -128q0 -72 -28 -137.5t-88.5 -107.5t-151.5 -42q-118 0 -182 95z" />
    <glyph glyph-name="uni0184" unicode="&#x184;" horiz-adv-x="533" 
d="M457 396.5q58 -48.5 58 -141.5q0 -67 -27.5 -124.5t-89 -94t-158.5 -36.5h-198l71 509l-58 46q56 53 104 136h106l-35 -246h63q106 0 164 -48.5zM352 140.5q31 44.5 31 110.5q0 53 -25.5 77.5t-76.5 24.5h-64l-36 -257h65q75 0 106 44.5z" />
    <glyph glyph-name="uni01A7" unicode="&#x1a7;" horiz-adv-x="489" 
d="M457 663q50 -42 50 -115q0 -92 -53 -143.5t-167 -90.5q-81 -27 -111.5 -60t-30.5 -89q0 -39 23 -59.5t65 -20.5q78 0 163 66l57 -73q-99 -92 -236 -92q-93 0 -147.5 48.5t-54.5 126.5q0 95 53.5 153t161.5 93q56 18 87 35t46.5 40.5t15.5 59.5q-1 66 -75 66
q-40 0 -76 -14t-74 -44l-51 73q51 41 104 61.5t117 20.5q83 0 133 -42z" />
    <glyph glyph-name="uni01AE" unicode="&#x1ae;" horiz-adv-x="474" 
d="M254 -61q-1 -6 -1 -16q0 -44 40 -44q19 0 32 4.5t34 15.5l34 -78q-52 -38 -121 -38q-68 0 -106 34.5t-38 100.5q0 21 2 33l6 49h1l82 589h-165l15 102h461l-27 -102h-158l-83 -589z" />
    <glyph glyph-name="U" unicode="U" horiz-adv-x="583" 
d="M515 204q-9 -62 -42.5 -111.5t-89 -78t-128.5 -28.5q-100 0 -153 51.5t-53 133.5q0 20 3 39l68 481h125l-68 -486q-2 -20 -2 -30q0 -90 89 -90q54 0 85.5 33t40.5 92l67 481h126z" />
    <glyph glyph-name="Uacute" unicode="&#xda;" horiz-adv-x="583" 
d="M515 204q-9 -62 -42.5 -111.5t-89 -78t-128.5 -28.5q-100 0 -153 51.5t-53 133.5q0 20 3 39l68 481h125l-68 -486q-2 -20 -2 -30q0 -90 89 -90q54 0 85.5 33t40.5 92l67 481h126zM453 925l42 -94l-214 -80l-28 61z" />
    <glyph glyph-name="uni0244" unicode="&#x244;" horiz-adv-x="611" 
d="M624 504h-53l-42 -300q-9 -62 -42.5 -111.5t-89 -78t-128.5 -28.5q-100 0 -153 51.5t-53 133.5q0 20 3 39l42 294h-54l11 80h54l15 107h125l-15 -107h212l15 107h126l-15 -107h54zM445 504h-212l-42 -299q-2 -20 -2 -30q0 -90 89 -90q54 0 85.5 33t40.5 92z" />
    <glyph glyph-name="Ubreve" unicode="&#x16c;" horiz-adv-x="583" 
d="M515 204q-9 -62 -42.5 -111.5t-89 -78t-128.5 -28.5q-100 0 -153 51.5t-53 133.5q0 20 3 39l68 481h125l-68 -486q-2 -20 -2 -30q0 -90 89 -90q54 0 85.5 33t40.5 92l67 481h126zM262 796q-34 41 -31 102l69 10q8 -65 65 -65q31 0 53 19t35 50l70 -19q-14 -61 -57 -99.5
t-106 -38.5q-64 0 -98 41z" />
    <glyph glyph-name="uni01D3" unicode="&#x1d3;" horiz-adv-x="583" 
d="M515 204q-9 -62 -42.5 -111.5t-89 -78t-128.5 -28.5q-100 0 -153 51.5t-53 133.5q0 20 3 39l68 481h125l-68 -486q-2 -20 -2 -30q0 -90 89 -90q54 0 85.5 33t40.5 92l67 481h126zM494 925l44 -52l-141 -121h-75l-109 124l50 49l105 -83z" />
    <glyph glyph-name="Ucircumflex" unicode="&#xdb;" horiz-adv-x="583" 
d="M515 204q-9 -62 -42.5 -111.5t-89 -78t-128.5 -28.5q-100 0 -153 51.5t-53 133.5q0 20 3 39l68 481h125l-68 -486q-2 -20 -2 -30q0 -90 89 -90q54 0 85.5 33t40.5 92l67 481h126zM243 757l-44 53l142 120h75l108 -123l-49 -50l-106 83z" />
    <glyph glyph-name="uni0214" unicode="&#x214;" horiz-adv-x="583" 
d="M515 204q-9 -62 -42.5 -111.5t-89 -78t-128.5 -28.5q-100 0 -153 51.5t-53 133.5q0 20 3 39l68 481h125l-68 -486q-2 -20 -2 -30q0 -90 89 -90q54 0 85.5 33t40.5 92l67 481h126zM273 971l59 -186l-72 -29l-82 172zM421 971l51 -184l-71 -26l-76 169z" />
    <glyph glyph-name="Udieresis" unicode="&#xdc;" horiz-adv-x="583" 
d="M515 204q-9 -62 -42.5 -111.5t-89 -78t-128.5 -28.5q-100 0 -153 51.5t-53 133.5q0 20 3 39l68 481h125l-68 -486q-2 -20 -2 -30q0 -90 89 -90q54 0 85.5 33t40.5 92l67 481h126zM221.5 791q-16.5 16 -16.5 42q0 32 21.5 53t52.5 21q27 0 43.5 -16t16.5 -42
q0 -32 -21.5 -53t-52.5 -21q-27 0 -43.5 16zM421.5 791q-16.5 16 -16.5 42q0 32 21.5 53t52.5 21q27 0 43.5 -16t16.5 -42q0 -32 -21.5 -53t-52.5 -21q-27 0 -43.5 16z" />
    <glyph glyph-name="uni01D7" unicode="&#x1d7;" horiz-adv-x="583" 
d="M515 204q-9 -62 -42.5 -111.5t-89 -78t-128.5 -28.5q-100 0 -153 51.5t-53 133.5q0 20 3 39l68 481h125l-68 -486q-2 -20 -2 -30q0 -90 89 -90q54 0 85.5 33t40.5 92l67 481h126zM465 1053l61 -65l-153 -136l-44 41zM213.5 764.5q-16.5 16.5 -16.5 42.5q0 32 21.5 53
t52.5 21q27 0 43.5 -16t16.5 -42q0 -32 -21.5 -53.5t-52.5 -21.5q-27 0 -43.5 16.5zM419.5 764.5q-16.5 16.5 -16.5 42.5q0 32 21.5 53t52.5 21q27 0 43.5 -16t16.5 -42q0 -32 -21.5 -53.5t-52.5 -21.5q-27 0 -43.5 16.5z" />
    <glyph glyph-name="uni01D9" unicode="&#x1d9;" horiz-adv-x="583" 
d="M515 204q-9 -62 -42.5 -111.5t-89 -78t-128.5 -28.5q-100 0 -153 51.5t-53 133.5q0 20 3 39l68 481h125l-68 -486q-2 -20 -2 -30q0 -90 89 -90q54 0 85.5 33t40.5 92l67 481h126zM506 1057l44 -52l-141 -121h-75l-109 124l50 49l105 -83zM211.5 764.5
q-16.5 16.5 -16.5 42.5q0 32 21.5 53t52.5 21q27 0 43.5 -16t16.5 -42q0 -33 -21.5 -54t-52.5 -21q-27 0 -43.5 16.5zM418 764.5q-16 16.5 -16 42.5q0 32 21.5 53t52.5 21q27 0 43 -16t16 -42q0 -32 -21.5 -53.5t-52.5 -21.5q-27 0 -43 16.5z" />
    <glyph glyph-name="uni01DB" unicode="&#x1db;" horiz-adv-x="583" 
d="M515 204q-9 -62 -42.5 -111.5t-89 -78t-128.5 -28.5q-100 0 -153 51.5t-53 133.5q0 20 3 39l68 481h125l-68 -486q-2 -20 -2 -30q0 -90 89 -90q54 0 85.5 33t40.5 92l67 481h126zM326 1051l91 -162l-50 -37l-117 140zM211.5 764.5q-16.5 16.5 -16.5 42.5q0 32 21.5 53
t52.5 21q27 0 43.5 -16t16.5 -42q0 -32 -21.5 -53.5t-52.5 -21.5q-27 0 -43.5 16.5zM417.5 764.5q-16.5 16.5 -16.5 42.5q0 32 21.5 53t52.5 21q27 0 43.5 -16t16.5 -42q0 -32 -21.5 -53.5t-52.5 -21.5q-27 0 -43.5 16.5z" />
    <glyph glyph-name="uni01D5" unicode="&#x1d5;" horiz-adv-x="583" 
d="M515 204q-9 -62 -42.5 -111.5t-89 -78t-128.5 -28.5q-100 0 -153 51.5t-53 133.5q0 20 3 39l68 481h125l-68 -486q-2 -20 -2 -30q0 -90 89 -90q54 0 85.5 33t40.5 92l67 481h126zM212.5 763q-16.5 16 -16.5 42q0 32 21.5 53t52.5 21q27 0 43.5 -16t16.5 -42
q0 -32 -21.5 -53t-52.5 -21q-27 0 -43.5 16zM412.5 763q-16.5 16 -16.5 42q0 32 21.5 53t52.5 21q27 0 43.5 -16t16.5 -42q0 -32 -21.5 -53t-52.5 -21q-27 0 -43.5 16zM505 922h-261l13 88h261z" />
    <glyph glyph-name="uni1EE4" unicode="&#x1ee4;" horiz-adv-x="583" 
d="M515 204q-9 -62 -42.5 -111.5t-89 -78t-128.5 -28.5q-100 0 -153 51.5t-53 133.5q0 20 3 39l68 481h125l-68 -486q-2 -20 -2 -30q0 -90 89 -90q54 0 85.5 33t40.5 92l67 481h126zM290 -86.5q18 -18.5 18 -47.5q0 -37 -24 -60.5t-59 -23.5q-31 0 -49.5 18.5t-18.5 47.5
q0 36 24 60t59 24q32 0 50 -18.5z" />
    <glyph glyph-name="Ugrave" unicode="&#xd9;" horiz-adv-x="583" 
d="M515 204q-9 -62 -42.5 -111.5t-89 -78t-128.5 -28.5q-100 0 -153 51.5t-53 133.5q0 20 3 39l68 481h125l-68 -486q-2 -20 -2 -30q0 -90 89 -90q54 0 85.5 33t40.5 92l67 481h126zM316 923l175 -112l-37 -59l-192 79z" />
    <glyph glyph-name="uni1EE6" unicode="&#x1ee6;" horiz-adv-x="583" 
d="M515 204q-9 -62 -42.5 -111.5t-89 -78t-128.5 -28.5q-100 0 -153 51.5t-53 133.5q0 20 3 39l68 481h125l-68 -486q-2 -20 -2 -30q0 -90 89 -90q54 0 85.5 33t40.5 92l67 481h126zM334 850q36 4 53.5 14.5t17.5 33.5q0 13 -8 20t-23 7q-26 0 -54 -14l-17 60q43 23 91 23
q47 0 73 -25t26 -65q0 -79 -87 -95l-6 -45h-76z" />
    <glyph glyph-name="Uhorn" unicode="&#x1af;" horiz-adv-x="630" 
d="M670 611q-36 -36 -104 -40l-51 -367q-9 -62 -42.5 -111.5t-89 -78t-128.5 -28.5q-100 0 -153 51.5t-53 133.5q0 20 3 39l68 481h125l-68 -486q-2 -20 -2 -30q0 -90 89 -90q54 0 85.5 33t40.5 92l67 481h126l-7 -51q44 11 44 74q0 24 -5 46l84 11q7 -24 7 -57
q0 -67 -36 -103z" />
    <glyph glyph-name="uni1EE8" unicode="&#x1ee8;" horiz-adv-x="630" 
d="M495 831l-214 -80l-28 61l200 113zM670 611q-36 -36 -104 -40l-51 -367q-9 -62 -42.5 -111.5t-89 -78t-128.5 -28.5q-100 0 -153 51.5t-53 133.5q0 20 3 39l68 481h125l-68 -486q-2 -20 -2 -30q0 -90 89 -90q54 0 85.5 33t40.5 92l67 481h126l-7 -51q44 11 44 74
q0 24 -5 46l84 11q7 -24 7 -57q0 -67 -36 -103z" />
    <glyph glyph-name="uni1EF0" unicode="&#x1ef0;" horiz-adv-x="630" 
d="M670 611q-36 -36 -104 -40l-51 -367q-9 -62 -42.5 -111.5t-89 -78t-128.5 -28.5q-100 0 -153 51.5t-53 133.5q0 20 3 39l68 481h125l-68 -486q-2 -20 -2 -30q0 -90 89 -90q54 0 85.5 33t40.5 92l67 481h126l-7 -51q44 11 44 74q0 24 -5 46l84 11q7 -24 7 -57
q0 -67 -36 -103zM290 -86.5q18 -18.5 18 -47.5q0 -37 -23.5 -60.5t-59.5 -23.5q-31 0 -49.5 18.5t-18.5 47.5q0 36 24 60t59 24q32 0 50 -18.5z" />
    <glyph glyph-name="uni1EEA" unicode="&#x1eea;" horiz-adv-x="630" 
d="M491 811l-37 -59l-192 79l54 92zM670 611q-36 -36 -104 -40l-51 -367q-9 -62 -42.5 -111.5t-89 -78t-128.5 -28.5q-100 0 -153 51.5t-53 133.5q0 20 3 39l68 481h125l-68 -486q-2 -20 -2 -30q0 -90 89 -90q54 0 85.5 33t40.5 92l67 481h126l-7 -51q44 11 44 74
q0 24 -5 46l84 11q7 -24 7 -57q0 -67 -36 -103z" />
    <glyph glyph-name="uni1EEC" unicode="&#x1eec;" horiz-adv-x="630" 
d="M320 911l-17 60q43 23 91 23q47 0 73 -25t26 -65q0 -79 -87 -95l-6 -45h-76l10 86q36 4 53.5 14.5t17.5 33.5q0 13 -8 20t-23 7q-26 0 -54 -14zM670 611q-36 -36 -104 -40l-51 -367q-9 -62 -42.5 -111.5t-89 -78t-128.5 -28.5q-100 0 -153 51.5t-53 133.5q0 20 3 39
l68 481h125l-68 -486q-2 -20 -2 -30q0 -90 89 -90q54 0 85.5 33t40.5 92l67 481h126l-7 -51q44 11 44 74q0 24 -5 46l84 11q7 -24 7 -57q0 -67 -36 -103z" />
    <glyph glyph-name="uni1EEE" unicode="&#x1eee;" horiz-adv-x="630" 
d="M292 807q-12 -11 -28 -34l-58 35q23 45 53.5 72.5t64.5 27.5q20 0 34.5 -7.5t30.5 -20.5q22 -18 36 -18t26 10.5t27 32.5l59 -34q-24 -47 -54 -73t-63 -26q-18 0 -31.5 6.5t-32.5 20.5q-13 10 -20.5 14.5t-16.5 4.5q-15 0 -27 -11zM670 611q-36 -36 -104 -40l-51 -367
q-9 -62 -42.5 -111.5t-89 -78t-128.5 -28.5q-100 0 -153 51.5t-53 133.5q0 20 3 39l68 481h125l-68 -486q-2 -20 -2 -30q0 -90 89 -90q54 0 85.5 33t40.5 92l67 481h126l-7 -51q44 11 44 74q0 24 -5 46l84 11q7 -24 7 -57q0 -67 -36 -103z" />
    <glyph glyph-name="Uhungarumlaut" unicode="&#x170;" horiz-adv-x="583" 
d="M515 204q-9 -62 -42.5 -111.5t-89 -78t-128.5 -28.5q-100 0 -153 51.5t-53 133.5q0 20 3 39l68 481h125l-68 -486q-2 -20 -2 -30q0 -90 89 -90q54 0 85.5 33t40.5 92l67 481h126zM350 971l80 -45l-118 -165l-63 29zM498 971l80 -47l-126 -168l-62 31z" />
    <glyph glyph-name="uni0216" unicode="&#x216;" horiz-adv-x="583" 
d="M515 204q-9 -62 -42.5 -111.5t-89 -78t-128.5 -28.5q-100 0 -153 51.5t-53 133.5q0 20 3 39l68 481h125l-68 -486q-2 -20 -2 -30q0 -90 89 -90q54 0 85.5 33t40.5 92l67 481h126zM215 786q17 69 61 109.5t107 40.5q64 0 98 -42.5t30 -111.5l-71 -10q-6 75 -65 75
q-63 0 -91 -79z" />
    <glyph glyph-name="Umacron" unicode="&#x16a;" horiz-adv-x="583" 
d="M515 204q-9 -62 -42.5 -111.5t-89 -78t-128.5 -28.5q-100 0 -153 51.5t-53 133.5q0 20 3 39l68 481h125l-68 -486q-2 -20 -2 -30q0 -90 89 -90q54 0 85.5 33t40.5 92l67 481h126zM495 787h-261l13 88h261z" />
    <glyph glyph-name="Uogonek" unicode="&#x172;" horiz-adv-x="583" 
d="M583 691l-68 -487q-11 -75 -56 -130t-118 -76q-63 -29 -86.5 -55.5t-23.5 -56.5q0 -41 45 -41q27 0 56 7l-16 -83q-33 -7 -61 -7q-53 0 -85.5 27.5t-32.5 72.5q0 80 95 125q-89 6 -136 56.5t-47 127.5q0 20 3 39l68 481h125l-68 -486q-2 -20 -2 -30q0 -90 89 -90
q54 0 85.5 33t40.5 92l67 481h126z" />
    <glyph glyph-name="uni01B1" unicode="&#x1b1;" horiz-adv-x="627" 
d="M105 55.5q-61 69.5 -61 186.5q0 246 170 354h-104l13 95h207l-12 -94q-76 -48 -110.5 -149t-34.5 -212q0 -153 109 -153q66 0 109 51.5t62.5 130t19.5 161.5q0 65 -15.5 104t-49.5 70l13 91h206l-13 -97h-104q44 -33 67 -79t23 -114q0 -108 -38.5 -203t-112 -153.5
t-175.5 -58.5q-108 0 -169 69.5z" />
    <glyph glyph-name="Uring" unicode="&#x16e;" horiz-adv-x="583" 
d="M515 204q-9 -62 -42.5 -111.5t-89 -78t-128.5 -28.5q-100 0 -153 51.5t-53 133.5q0 20 3 39l68 481h125l-68 -486q-2 -20 -2 -30q0 -90 89 -90q54 0 85.5 33t40.5 92l67 481h126zM464 946.5q28 -29.5 28 -75.5q0 -55 -36.5 -92t-93.5 -37q-47 0 -75.5 29.5t-28.5 75.5
q0 53 37 91t93 38q48 0 76 -29.5zM345 894q-14 -19 -14 -45q0 -21 9.5 -32.5t26.5 -11.5q25 0 39 18.5t14 45.5q0 21 -9.5 32.5t-27.5 11.5q-24 0 -38 -19z" />
    <glyph glyph-name="Utilde" unicode="&#x168;" horiz-adv-x="583" 
d="M515 204q-9 -62 -42.5 -111.5t-89 -78t-128.5 -28.5q-100 0 -153 51.5t-53 133.5q0 20 3 39l68 481h125l-68 -486q-2 -20 -2 -30q0 -90 89 -90q54 0 85.5 33t40.5 92l67 481h126zM388.5 778.5q-13.5 6.5 -32.5 20.5q-13 10 -20.5 14.5t-16.5 4.5q-15 0 -27 -11t-28 -34
l-58 35q23 45 53.5 72.5t64.5 27.5q20 0 34.5 -7.5t30.5 -20.5q22 -18 36 -18t26 10.5t27 32.5l59 -34q-24 -47 -54 -73t-63 -26q-18 0 -31.5 6.5z" />
    <glyph glyph-name="uni1E78" unicode="&#x1e78;" horiz-adv-x="583" 
d="M515 204q-9 -62 -42.5 -111.5t-89 -78t-128.5 -28.5q-100 0 -153 51.5t-53 133.5q0 20 3 39l68 481h125l-68 -486q-2 -20 -2 -30q0 -90 89 -90q54 0 85.5 33t40.5 92l67 481h126zM386.5 763.5q-13.5 6.5 -32.5 20.5q-13 10 -20.5 14.5t-16.5 4.5q-15 0 -27 -11t-28 -34
l-58 35q23 45 53.5 72.5t64.5 27.5q20 0 34.5 -7.5t30.5 -20.5q22 -18 36 -18t26 10.5t27 32.5l59 -34q-24 -47 -54 -73t-63 -26q-18 0 -31.5 6.5zM464 1089l42 -94l-214 -80l-28 61z" />
    <glyph glyph-name="V" unicode="V" horiz-adv-x="510" 
d="M572 691l-275 -691h-153l-87 691h130l49 -578l206 578h130z" />
    <glyph glyph-name="uni01B2" unicode="&#x1b2;" horiz-adv-x="576" 
d="M538 676.5q28 -28.5 28 -83.5q0 -22 -2 -34l-39 -282q-19 -137 -95 -214t-191 -77q-89 0 -140 50.5t-51 131.5q0 18 3 36l69 487h126l-69 -491q-2 -22 -2 -30q0 -41 18.5 -63t55.5 -22q58 0 97.5 50t53.5 149l39 290l1 11q0 25 -22 25q-13 0 -28 -5l-13 83q37 17 79 17
q54 0 82 -28.5z" />
    <glyph glyph-name="uni0245" unicode="&#x245;" horiz-adv-x="527" 
d="M401 691l91 -691h-128l-54 595l-218 -595h-132l287 691h154z" />
    <glyph glyph-name="W" unicode="W" horiz-adv-x="753" 
d="M796 691l-207 -691h-162l-11 557l-167 -557h-161l-12 691h122l-7 -588l178 588h133l11 -588l165 588h118z" />
    <glyph glyph-name="Wacute" unicode="&#x1e82;" horiz-adv-x="753" 
d="M796 691l-207 -691h-162l-11 557l-167 -557h-161l-12 691h122l-7 -588l178 588h133l11 -588l165 588h118zM539 925l42 -94l-214 -80l-28 61z" />
    <glyph glyph-name="Wcircumflex" unicode="&#x174;" horiz-adv-x="753" 
d="M796 691l-207 -691h-162l-11 557l-167 -557h-161l-12 691h122l-7 -588l178 588h133l11 -588l165 588h118zM329 757l-44 53l142 120h75l108 -123l-49 -50l-106 83z" />
    <glyph glyph-name="Wdieresis" unicode="&#x1e84;" horiz-adv-x="753" 
d="M796 691l-207 -691h-162l-11 557l-167 -557h-161l-12 691h122l-7 -588l178 588h133l11 -588l165 588h118zM307.5 791q-16.5 16 -16.5 42q0 32 21.5 53t52.5 21q27 0 43.5 -16t16.5 -42q0 -32 -21.5 -53t-52.5 -21q-27 0 -43.5 16zM507.5 791q-16.5 16 -16.5 42
q0 32 21.5 53t52.5 21q27 0 43.5 -16t16.5 -42q0 -32 -21.5 -53t-52.5 -21q-27 0 -43.5 16z" />
    <glyph glyph-name="Wgrave" unicode="&#x1e80;" horiz-adv-x="753" 
d="M796 691l-207 -691h-162l-11 557l-167 -557h-161l-12 691h122l-7 -588l178 588h133l11 -588l165 588h118zM402 923l175 -112l-37 -59l-192 79z" />
    <glyph glyph-name="uni2C72" unicode="&#x2c72;" horiz-adv-x="790" 
d="M249 0l167 557l11 -557h161l155 562q7 26 20 38t32 12q21 0 45 -17l49 69q-43 41 -104 41q-58 0 -95 -30t-54 -100l-123 -473l-11 589h-133l-178 -588l7 588h-122l12 -691h161z" />
    <glyph glyph-name="uni01F7" unicode="&#x1f7;" horiz-adv-x="526" 
d="M501.5 661q42.5 -44 42.5 -121q0 -79 -36 -136.5t-96.5 -96.5t-148.5 -74l-77 -31l-28 -202h-126l98 691h125l-6 -42q62 56 143 56q67 0 109.5 -44zM413 531q0 79 -67 79q-57 0 -109 -50l-37 -261l53 25q160 76 160 207z" />
    <glyph glyph-name="X" unicode="X" horiz-adv-x="503" 
d="M547 691l-209 -319l129 -372h-134l-78 289l-157 -289h-137l228 368l-116 323h134l65 -247l139 247h136z" />
    <glyph glyph-name="Y" unicode="Y" horiz-adv-x="514" 
d="M577 691l-257 -429l-37 -262h-127l37 262l-136 429h133l80 -326l171 326h136z" />
    <glyph glyph-name="Yacute" unicode="&#xdd;" horiz-adv-x="514" 
d="M577 691l-257 -429l-37 -262h-127l37 262l-136 429h133l80 -326l171 326h136zM418 925l42 -94l-214 -80l-28 61z" />
    <glyph glyph-name="Ycircumflex" unicode="&#x176;" horiz-adv-x="514" 
d="M577 691l-257 -429l-37 -262h-127l37 262l-136 429h133l80 -326l171 326h136zM208 757l-44 53l142 120h75l108 -123l-49 -50l-106 83z" />
    <glyph glyph-name="Ydieresis" unicode="&#x178;" horiz-adv-x="514" 
d="M577 691l-257 -429l-37 -262h-127l37 262l-136 429h133l80 -326l171 326h136zM186.5 791q-16.5 16 -16.5 42q0 32 21.5 53t52.5 21q27 0 43.5 -16t16.5 -42q0 -32 -21.5 -53t-52.5 -21q-27 0 -43.5 16zM386.5 791q-16.5 16 -16.5 42q0 32 21.5 53t52.5 21q27 0 43.5 -16
t16.5 -42q0 -32 -21.5 -53t-52.5 -21q-27 0 -43.5 16z" />
    <glyph glyph-name="uni1EF4" unicode="&#x1ef4;" horiz-adv-x="514" 
d="M577 691l-257 -429l-37 -262h-127l37 262l-136 429h133l80 -326l171 326h136zM256 -86.5q18 -18.5 18 -47.5q0 -37 -24 -60.5t-59 -23.5q-31 0 -49.5 18.5t-18.5 47.5q0 36 24 60t59 24q32 0 50 -18.5z" />
    <glyph glyph-name="Ygrave" unicode="&#x1ef2;" horiz-adv-x="514" 
d="M577 691l-257 -429l-37 -262h-127l37 262l-136 429h133l80 -326l171 326h136zM281 923l175 -112l-37 -59l-192 79z" />
    <glyph glyph-name="uni01B3" unicode="&#x1b3;" horiz-adv-x="540" 
d="M193 262l-136 429h133l80 -326l111 225q30 63 64.5 89t89.5 26q61 0 104 -41l-49 -68q-22 16 -45 16q-18 0 -31 -10.5t-28 -38.5l-166 -300l-37 -263h-127z" />
    <glyph glyph-name="uni1EF6" unicode="&#x1ef6;" horiz-adv-x="514" 
d="M577 691l-257 -429l-37 -262h-127l37 262l-136 429h133l80 -326l171 326h136zM299 850q36 4 53.5 14.5t17.5 33.5q0 13 -8 20t-23 7q-26 0 -54 -14l-17 60q43 23 91 23q47 0 73 -25t26 -65q0 -79 -87 -95l-6 -45h-76z" />
    <glyph glyph-name="uni0232" unicode="&#x232;" horiz-adv-x="514" 
d="M577 691l-257 -429l-37 -262h-127l37 262l-136 429h133l80 -326l171 326h136zM460 787h-261l13 88h261z" />
    <glyph glyph-name="uni01A6" unicode="&#x1a6;" horiz-adv-x="551" 
d="M486 272q-36 -57 -112 -88l116 -303h-133l-100 279h-77l-22 -160h-125l97 691h125l-17 -118h57q113 0 170 -44.5t57 -127.5q0 -72 -36 -129zM193 252h65q72 0 103 42t31 101q0 44 -25 64t-79 20h-63z" />
    <glyph glyph-name="uni024E" unicode="&#x24e;" horiz-adv-x="514" 
d="M529 609h36l-11 -79h-73l-161 -268l-36 -262h-127l37 262l-85 268h-73l12 79h36l-26 82h125l22 -82h201l44 82h128zM271 358l92 172h-137z" />
    <glyph glyph-name="uni1EF8" unicode="&#x1ef8;" horiz-adv-x="514" 
d="M577 691l-257 -429l-37 -262h-127l37 262l-136 429h133l80 -326l171 326h136zM353.5 778.5q-13.5 6.5 -32.5 20.5q-13 10 -20.5 14.5t-16.5 4.5q-15 0 -27 -11t-28 -34l-58 35q23 45 53.5 72.5t64.5 27.5q20 0 34.5 -7.5t30.5 -20.5q22 -18 36 -18t26 10.5t27 32.5
l59 -34q-24 -47 -54 -73t-63 -26q-18 0 -31.5 6.5z" />
    <glyph glyph-name="Z" unicode="Z" horiz-adv-x="475" 
d="M-18 0l13 98l355 491h-257l15 102h396l-14 -99l-353 -488h289l-29 -104h-415z" />
    <glyph glyph-name="Zacute" unicode="&#x179;" horiz-adv-x="475" 
d="M-18 0l13 98l355 491h-257l15 102h396l-14 -99l-353 -488h289l-29 -104h-415zM406 925l42 -94l-214 -80l-28 61z" />
    <glyph glyph-name="Zcaron" unicode="&#x17d;" horiz-adv-x="475" 
d="M-18 0l13 98l355 491h-257l15 102h396l-14 -99l-353 -488h289l-29 -104h-415zM447 925l44 -52l-141 -121h-75l-109 124l50 49l105 -83z" />
    <glyph glyph-name="Zdotaccent" unicode="&#x17b;" horiz-adv-x="475" 
d="M-18 0l13 98l355 491h-257l15 102h396l-14 -99l-353 -488h289l-29 -104h-415zM270 788.5q-18 18.5 -18 47.5q0 37 23.5 60.5t59.5 23.5q31 0 49.5 -18.5t18.5 -47.5q0 -36 -24 -60t-59 -24q-32 0 -50 18.5z" />
    <glyph glyph-name="uni1E92" unicode="&#x1e92;" horiz-adv-x="475" 
d="M-18 0l13 98l355 491h-257l15 102h396l-14 -99l-353 -488h289l-29 -104h-415zM226 -86.5q18 -18.5 18 -47.5q0 -37 -24 -60.5t-59 -23.5q-31 0 -49.5 18.5t-18.5 47.5q0 36 24 60t59 24q32 0 50 -18.5z" />
    <glyph glyph-name="uni0224" unicode="&#x224;" horiz-adv-x="471" 
d="M490 592l-353 -488h281l-15 -104l-9 -56q-12 -79 -59 -120t-117 -41q-68 0 -117 41l51 73q17 -10 29.5 -15t30.5 -5q26 0 42 17t20 50l8 56h-300l13 98l355 491h-257l15 102h396z" />
    <glyph glyph-name="uni01B5" unicode="&#x1b5;" horiz-adv-x="475" 
d="M504 691l-14 -99l-149 -203h75l-13 -86h-126l-146 -199h295l-29 -104h-415l13 98l151 205h-81l13 86h132l147 200h-264l15 102h396z" />
    <glyph glyph-name="Cacute.loclPLK" horiz-adv-x="512" 
d="M548 630l-68 -67q-25 22 -51 33t-56 11q-70 0 -114 -55.5t-64 -137.5t-20 -165t30 -122.5t83 -39.5q36 0 65.5 14t67.5 42l49 -77q-39 -36 -89.5 -58.5t-110.5 -22.5q-103 0 -164.5 70t-61.5 199q0 110 35.5 213.5t109.5 170.5t183 67q107 0 176 -75zM429 944l82 -55
l-144 -151l-51 33z" />
    <glyph glyph-name="Nacute.loclPLK" horiz-adv-x="599" 
d="M492 0h-159l-129 584q1 -72 -3 -141t-17 -160l-38 -283h-113l97 691h158l130 -584v46q0 60 3 108t11 105l44 325h113zM418 944l82 -55l-144 -151l-51 33z" />
    <glyph glyph-name="Oacute.loclPLK" horiz-adv-x="624" 
d="M542.5 636q59.5 -69 59.5 -197q0 -110 -33.5 -214t-107.5 -172t-188 -68q-109 0 -169 69t-60 197q0 108 34 212t108 173t188 69q109 0 168.5 -69zM253 548q-43 -60 -61.5 -145t-18.5 -164q0 -81 27.5 -118.5t79.5 -37.5q71 0 114 60t61 145t18 165t-26.5 117.5
t-80.5 37.5q-70 0 -113 -60zM428 944l82 -55l-144 -151l-51 33z" />
    <glyph glyph-name="Sacute.loclPLK" horiz-adv-x="501" 
d="M510 619l-69 -68q-30 30 -60 43.5t-67 13.5q-50 0 -80.5 -27t-30.5 -71q0 -34 22.5 -55t85.5 -47q77 -32 116 -74t39 -114q0 -62 -31 -116t-91 -86.5t-143 -32.5q-134 0 -217 97l74 69q31 -33 65.5 -49.5t80.5 -16.5q59 0 95 32t36 88q0 39 -23 62.5t-84 49.5
q-82 34 -118 74t-36 105q0 54 29 102t83 77.5t126 29.5q123 0 198 -86zM369 944l82 -55l-144 -151l-51 33z" />
    <glyph glyph-name="Zacute.loclPLK" horiz-adv-x="475" 
d="M-18 0l13 98l355 491h-257l15 102h396l-14 -99l-353 -488h289l-29 -104h-415zM357 944l82 -55l-144 -151l-51 33z" />
    <glyph glyph-name="Eng.ss01" horiz-adv-x="590" 
d="M527 664q37 -41 37 -107q0 -16 -3 -34l-72 -523l-8 -53q-12 -80 -60.5 -122t-121.5 -42q-39 0 -66.5 11.5t-49.5 29.5l51 75q17 -11 29 -15.5t30 -4.5q26 0 42.5 17t20.5 48l7 56l71 512q2 10 2 29q0 66 -61 66q-37 0 -68.5 -18t-72.5 -56l-76 -533h-126l98 691h109v-66
q41 39 84.5 59.5t94.5 20.5q72 0 109 -41z" />
    <glyph glyph-name="uni019D.ss01" horiz-adv-x="590" 
d="M526 664q38 -41 38 -106q0 -18 -3 -36l-72 -522h-125l71 512q2 20 2 27q0 34 -15 51t-47 17q-36 0 -68 -18t-73 -56l-76 -533l-8 -53q-12 -80 -60.5 -122t-121.5 -42q-39 0 -66.5 11.5t-49.5 29.5l51 75q17 -11 29 -15.5t30 -4.5q26 0 42.5 17t20.5 48l7 56h1l97 691h109
v-66q41 40 84.5 60t93.5 20q71 0 109 -41z" />
    <glyph glyph-name="uni2C64.ss01" horiz-adv-x="383" 
d="M446 694l-36 -121q-28 8 -50 8q-53 0 -85 -35.5t-56 -109.5l-61 -436l-8 -61q-1 -6 -1 -16q0 -44 40 -44q19 0 32 4.5t34 15.5l34 -78q-52 -38 -121 -38q-68 0 -106 34.5t-38 100.5q0 21 2 33l6 49h1l97 691h109l-3 -90q26 52 62.5 77.5t88.5 25.5q37 0 59 -10z" />
    <glyph glyph-name="uni0181.ss02" horiz-adv-x="527" 
d="M446.5 389.5q58.5 -47.5 58.5 -136.5q0 -65 -27 -122.5t-88.5 -94t-159.5 -36.5h-197l97 691h367l-28 -100h-227l-22 -154h63q105 0 163.5 -47.5zM341.5 140q31.5 44 31.5 109q0 50 -25.5 73t-76.5 23h-64l-35 -249h64q74 0 105.5 44z" />
    <glyph glyph-name="uniA78D.ss02" horiz-adv-x="539" 
d="M432 0h-126l36 257l-310 -1l62 435h125l-46 -333h183l47 333h126z" />
    <glyph glyph-name="uni0299" unicode="&#x299;" horiz-adv-x="484" 
d="M339 288q109 -12 109 -104q0 -91 -64 -137.5t-170 -46.5h-185l73 523q89 20 174 20q86 0 135 -33.5t49 -93.5q0 -103 -121 -128zM315 340.5q24 22.5 24 64.5q0 28 -17 41t-52 13q-27 0 -57 -5l-19 -136h54q43 0 67 22.5zM293.5 110q32.5 24 32.5 78q0 31 -19.5 43
t-59.5 12h-64l-22 -157h51q49 0 81.5 24z" />
    <glyph glyph-name="uni0262" unicode="&#x262;" 
d="M406 525.5q40 -18.5 73 -51.5l-68 -66q-25 22 -48.5 32.5t-54.5 10.5q-73 0 -111 -77t-38 -185q0 -59 20.5 -85t61.5 -26q38 0 77 18l16 122h-70v86h196l-36 -260q-41 -26 -90.5 -41.5t-103.5 -15.5q-97 0 -147 52.5t-50 154.5q1 101 36 180.5t98 124.5t143 45
q56 0 96 -18.5z" />
    <glyph glyph-name="uni029B" unicode="&#x29b;" 
d="M660 715l-47 -74q-15 10 -28.5 14.5t-29.5 4.5q-51 0 -60 -67l-16 -119l-60 -58q-29 18 -55 26.5t-56 8.5q-74 0 -111.5 -76.5t-37.5 -185.5q0 -59 20.5 -85t60.5 -26t77 18l17 122h-70v86h195l-36 -260q-41 -26 -90 -41.5t-103 -15.5q-97 0 -147 52.5t-50 154.5
q0 101 35.5 180.5t96.5 124.5t137 45q41 0 75 -14l11 73q11 74 51.5 112.5t108.5 38.5q65 0 112 -39z" />
    <glyph glyph-name="uni029C" unicode="&#x29c;" horiz-adv-x="525" 
d="M301 0l31 223h-151l-31 -223h-121l74 529h121l-30 -213h151l30 213h121l-74 -529h-121z" />
    <glyph glyph-name="uni026A" unicode="&#x26a;" horiz-adv-x="294" 
d="M304 440h-72l-50 -351h73l-13 -89h-265l13 89h71l50 351h-72l12 89h265z" />
    <glyph glyph-name="uni029F" unicode="&#x29f;" horiz-adv-x="395" 
d="M224 529l-59 -431h200l-28 -98h-308l74 529h121z" />
    <glyph glyph-name="uni0274" unicode="&#x274;" horiz-adv-x="526" 
d="M423 0h-146l-100 415q-1 -64 -4 -115t-13 -120l-25 -180h-106l74 529h145l101 -416q0 59 1.5 98t9.5 91l31 227h106z" />
    <glyph glyph-name="uni0276" unicode="&#x276;" horiz-adv-x="676" 
d="M668 440h-210q32 -52 30 -122v-6h139l-12 -87h-139q-21 -82 -70 -136h226l-12 -89h-318q-40 -15 -80 -15q-89 0 -138.5 56t-49.5 156q0 83 27.5 162.5t87.5 131.5t152 52q45 0 76 -14h316zM176.5 104.5q18.5 -25.5 55.5 -25.5q49 0 79.5 43.5t43 104t13.5 118.5
q0 105 -74 105q-50 0 -80.5 -43.5t-43 -104t-12.5 -118.5q0 -54 18.5 -79.5z" />
    <glyph glyph-name="uni0280" unicode="&#x280;" horiz-adv-x="477" 
d="M329 215l92 -215h-122l-76 194h-50l-27 -194h-117l74 529h149q92 0 140 -37.5t48 -110.5q0 -119 -111 -166zM185 279h41q47 0 71 26t24 72q0 35 -18.5 49.5t-57.5 14.5h-38z" />
    <glyph glyph-name="uni0281" unicode="&#x281;" horiz-adv-x="478" 
d="M414 192q0 -95 -61.5 -143.5t-165.5 -48.5h-158l74 529h117l-27 -194h52l128 194h123l-153 -217q71 -37 71 -120zM267 113q27 25 27 74q0 33 -18.5 47.5t-53.5 14.5h-41l-23 -161h34q48 0 75 25z" />
    <glyph glyph-name="uni028F" unicode="&#x28f;" horiz-adv-x="447" 
d="M483 529l-208 -333l-28 -196h-121l28 195l-115 334h127l59 -247l128 247h130z" />
    <glyph glyph-name="a" unicode="a" horiz-adv-x="521" 
d="M491 496l-52 -360q-2 -20 -2 -26q0 -15 6 -25.5t20 -16.5l-37 -81q-85 10 -100 83q-29 -41 -63.5 -63t-78.5 -22q-72 0 -112.5 52.5t-40.5 142.5q0 88 29 171t92.5 137.5t159.5 54.5q91 0 179 -47zM222.5 411q-34.5 -41 -50.5 -103.5t-16 -128.5q0 -53 16 -77t47 -24
q29 0 53.5 21t50.5 61l40 282q-26 10 -55 10q-51 0 -85.5 -41z" />
    <glyph glyph-name="aacute" unicode="&#xe1;" horiz-adv-x="521" 
d="M491 496l-52 -360q-2 -20 -2 -26q0 -15 6 -25.5t20 -16.5l-37 -81q-85 10 -100 83q-29 -41 -63.5 -63t-78.5 -22q-72 0 -112.5 52.5t-40.5 142.5q0 88 29 171t92.5 137.5t159.5 54.5q91 0 179 -47zM222.5 411q-34.5 -41 -50.5 -103.5t-16 -128.5q0 -53 16 -77t47 -24
q29 0 53.5 21t50.5 61l40 282q-26 10 -55 10q-51 0 -85.5 -41zM423 815l43 -94l-215 -90l-30 61z" />
    <glyph glyph-name="abreve" unicode="&#x103;" horiz-adv-x="521" 
d="M491 496l-52 -360q-2 -20 -2 -26q0 -15 6 -25.5t20 -16.5l-37 -81q-85 10 -100 83q-29 -41 -63.5 -63t-78.5 -22q-72 0 -112.5 52.5t-40.5 142.5q0 88 29 171t92.5 137.5t159.5 54.5q91 0 179 -47zM222.5 411q-34.5 -41 -50.5 -103.5t-16 -128.5q0 -53 16 -77t47 -24
q29 0 53.5 21t50.5 61l40 282q-26 10 -55 10q-51 0 -85.5 -41zM234 681q-34 43 -30 111l71 10q3 -37 18.5 -56t44.5 -19q31 0 54 20.5t37 57.5l67 -18q-14 -68 -57 -108.5t-106 -40.5q-65 0 -99 43z" />
    <glyph glyph-name="uni1EAF" unicode="&#x1eaf;" horiz-adv-x="521" 
d="M440 948l61 -65l-153 -136l-44 41zM235 641q-34 41 -31 102l69 10q8 -65 65 -65q31 0 53 19t35 50l70 -19q-14 -61 -57 -99.5t-106 -38.5q-64 0 -98 41zM491 496l-52 -360q-2 -20 -2 -26q0 -15 6 -25.5t20 -16.5l-37 -81q-85 10 -100 83q-29 -41 -63.5 -63t-78.5 -22
q-72 0 -112.5 52.5t-40.5 142.5q0 88 29 171t92.5 137.5t159.5 54.5q91 0 179 -47zM222.5 411q-34.5 -41 -50.5 -103.5t-16 -128.5q0 -53 16 -77t47 -24q29 0 53.5 21t50.5 61l40 282q-26 10 -55 10q-51 0 -85.5 -41z" />
    <glyph glyph-name="uni1EB7" unicode="&#x1eb7;" horiz-adv-x="521" 
d="M491 496l-52 -360q-2 -20 -2 -26q0 -15 6 -25.5t20 -16.5l-37 -81q-85 10 -100 83q-29 -41 -63.5 -63t-78.5 -22q-72 0 -112.5 52.5t-40.5 142.5q0 88 29 171t92.5 137.5t159.5 54.5q91 0 179 -47zM222.5 411q-34.5 -41 -50.5 -103.5t-16 -128.5q0 -53 16 -77t47 -24
q29 0 53.5 21t50.5 61l40 282q-26 10 -55 10q-51 0 -85.5 -41zM234 681q-34 43 -30 111l71 10q3 -37 18.5 -56t44.5 -19q31 0 54 20.5t37 57.5l67 -18q-14 -68 -57 -108.5t-106 -40.5q-65 0 -99 43zM282 -86.5q18 -18.5 18 -47.5q0 -37 -24 -60.5t-59 -23.5
q-31 0 -49.5 18.5t-18.5 47.5q0 36 24 60t59 24q32 0 50 -18.5z" />
    <glyph glyph-name="uni1EB1" unicode="&#x1eb1;" horiz-adv-x="521" 
d="M299 946l91 -162l-50 -37l-117 140zM235 641q-34 41 -31 102l69 10q8 -65 65 -65q31 0 53 19t35 50l70 -19q-14 -61 -57 -99.5t-106 -38.5q-64 0 -98 41zM491 496l-52 -360q-2 -20 -2 -26q0 -15 6 -25.5t20 -16.5l-37 -81q-85 10 -100 83q-29 -41 -63.5 -63t-78.5 -22
q-72 0 -112.5 52.5t-40.5 142.5q0 88 29 171t92.5 137.5t159.5 54.5q91 0 179 -47zM222.5 411q-34.5 -41 -50.5 -103.5t-16 -128.5q0 -53 16 -77t47 -24q29 0 53.5 21t50.5 61l40 282q-26 10 -55 10q-51 0 -85.5 -41z" />
    <glyph glyph-name="uni1EB3" unicode="&#x1eb3;" horiz-adv-x="521" 
d="M491 496l-52 -360q-2 -20 -2 -26q0 -15 6 -25.5t20 -16.5l-37 -81q-85 10 -100 83q-29 -41 -63.5 -63t-78.5 -22q-72 0 -112.5 52.5t-40.5 142.5q0 88 29 171t92.5 137.5t159.5 54.5q91 0 179 -47zM222.5 411q-34.5 -41 -50.5 -103.5t-16 -128.5q0 -53 16 -77t47 -24
q29 0 53.5 21t50.5 61l40 282q-26 10 -55 10q-51 0 -85.5 -41zM237 641q-34 41 -31 102l69 10q8 -65 65 -65q31 0 53 19t35 50l70 -19q-14 -61 -57 -99.5t-106 -38.5q-64 0 -98 41zM322 837q35 4 52.5 14.5t17.5 33.5q0 27 -31 27q-25 0 -53 -14l-17 60q40 23 90 23
q47 0 73.5 -24.5t26.5 -64.5q0 -80 -87 -96l-8 -55h-76z" />
    <glyph glyph-name="uni1EB5" unicode="&#x1eb5;" horiz-adv-x="521" 
d="M374 790q-14 7 -30 20q-2 2 -10 7.5t-14.5 8t-12.5 2.5q-15 0 -27 -10.5t-28 -33.5l-58 34q24 44 54 70.5t64 26.5q20 0 33.5 -6.5t30.5 -19.5q22 -18 36 -18t26 10t27 31l58 -33q-24 -46 -53.5 -71t-62.5 -25q-19 0 -33 7zM232 641q-34 41 -31 102l69 10q8 -65 65 -65
q31 0 53 19t35 50l70 -19q-14 -61 -57 -99.5t-106 -38.5q-64 0 -98 41zM491 496l-52 -360q-2 -20 -2 -26q0 -15 6 -25.5t20 -16.5l-37 -81q-85 10 -100 83q-29 -41 -63.5 -63t-78.5 -22q-72 0 -112.5 52.5t-40.5 142.5q0 88 29 171t92.5 137.5t159.5 54.5q91 0 179 -47z
M222.5 411q-34.5 -41 -50.5 -103.5t-16 -128.5q0 -53 16 -77t47 -24q29 0 53.5 21t50.5 61l40 282q-26 10 -55 10q-51 0 -85.5 -41z" />
    <glyph glyph-name="uni01CE" unicode="&#x1ce;" horiz-adv-x="521" 
d="M491 496l-52 -360q-2 -20 -2 -26q0 -15 6 -25.5t20 -16.5l-37 -81q-85 10 -100 83q-29 -41 -63.5 -63t-78.5 -22q-72 0 -112.5 52.5t-40.5 142.5q0 88 29 171t92.5 137.5t159.5 54.5q91 0 179 -47zM222.5 411q-34.5 -41 -50.5 -103.5t-16 -128.5q0 -53 16 -77t47 -24
q29 0 53.5 21t50.5 61l40 282q-26 10 -55 10q-51 0 -85.5 -41zM467 796l41 -52l-141 -124h-75l-108 124l49 52l103 -86z" />
    <glyph glyph-name="acircumflex" unicode="&#xe2;" horiz-adv-x="521" 
d="M491 496l-52 -360q-2 -20 -2 -26q0 -15 6 -25.5t20 -16.5l-37 -81q-85 10 -100 83q-29 -41 -63.5 -63t-78.5 -22q-72 0 -112.5 52.5t-40.5 142.5q0 88 29 171t92.5 137.5t159.5 54.5q91 0 179 -47zM222.5 411q-34.5 -41 -50.5 -103.5t-16 -128.5q0 -53 16 -77t47 -24
q29 0 53.5 21t50.5 61l40 282q-26 10 -55 10q-51 0 -85.5 -41zM220 629l-44 53l143 124h74l109 -127l-53 -50l-103 87z" />
    <glyph glyph-name="uni1EA5" unicode="&#x1ea5;" horiz-adv-x="521" 
d="M563 922l61 -65l-153 -136l-44 41zM210 587l-44 53l142 120h75l108 -123l-49 -50l-106 83zM491 496l-52 -360q-2 -20 -2 -26q0 -15 6 -25.5t20 -16.5l-37 -81q-85 10 -100 83q-29 -41 -63.5 -63t-78.5 -22q-72 0 -112.5 52.5t-40.5 142.5q0 88 29 171t92.5 137.5
t159.5 54.5q91 0 179 -47zM222.5 411q-34.5 -41 -50.5 -103.5t-16 -128.5q0 -53 16 -77t47 -24q29 0 53.5 21t50.5 61l40 282q-26 10 -55 10q-51 0 -85.5 -41z" />
    <glyph glyph-name="uni1EAD" unicode="&#x1ead;" horiz-adv-x="521" 
d="M491 496l-52 -360q-2 -20 -2 -26q0 -15 6 -25.5t20 -16.5l-37 -81q-85 10 -100 83q-29 -41 -63.5 -63t-78.5 -22q-72 0 -112.5 52.5t-40.5 142.5q0 88 29 171t92.5 137.5t159.5 54.5q91 0 179 -47zM222.5 411q-34.5 -41 -50.5 -103.5t-16 -128.5q0 -53 16 -77t47 -24
q29 0 53.5 21t50.5 61l40 282q-26 10 -55 10q-51 0 -85.5 -41zM220 629l-44 53l143 124h74l109 -127l-53 -50l-103 87zM282 -86.5q18 -18.5 18 -47.5q0 -37 -24 -60.5t-59 -23.5q-31 0 -49.5 18.5t-18.5 47.5q0 36 24 60t59 24q32 0 50 -18.5z" />
    <glyph glyph-name="uni1EA7" unicode="&#x1ea7;" horiz-adv-x="521" 
d="M167 920l91 -162l-50 -37l-117 140zM209 587l-44 53l142 120h75l108 -123l-49 -50l-106 83zM491 496l-52 -360q-2 -20 -2 -26q0 -15 6 -25.5t20 -16.5l-37 -81q-85 10 -100 83q-29 -41 -63.5 -63t-78.5 -22q-72 0 -112.5 52.5t-40.5 142.5q0 88 29 171t92.5 137.5
t159.5 54.5q91 0 179 -47zM222.5 411q-34.5 -41 -50.5 -103.5t-16 -128.5q0 -53 16 -77t47 -24q29 0 53.5 21t50.5 61l40 282q-26 10 -55 10q-51 0 -85.5 -41z" />
    <glyph glyph-name="uni1EA9" unicode="&#x1ea9;" horiz-adv-x="521" 
d="M491 496l-52 -360q-2 -20 -2 -26q0 -15 6 -25.5t20 -16.5l-37 -81q-85 10 -100 83q-29 -41 -63.5 -63t-78.5 -22q-72 0 -112.5 52.5t-40.5 142.5q0 88 29 171t92.5 137.5t159.5 54.5q91 0 179 -47zM222.5 411q-34.5 -41 -50.5 -103.5t-16 -128.5q0 -53 16 -77t47 -24
q29 0 53.5 21t50.5 61l40 282q-26 10 -55 10q-51 0 -85.5 -41zM207 587l-44 53l142 120h75l108 -123l-49 -50l-106 83zM451 829q35 4 52.5 14.5t17.5 33.5q0 27 -31 27q-25 0 -53 -14l-17 60q40 23 90 23q47 0 73.5 -24.5t26.5 -64.5q0 -80 -87 -96l-8 -55h-76z" />
    <glyph glyph-name="uni1EAB" unicode="&#x1eab;" horiz-adv-x="521" 
d="M377 789q-14 7 -30 20q-2 2 -10 7.5t-14.5 8t-12.5 2.5q-15 0 -27 -10.5t-28 -33.5l-58 34q24 44 54 70.5t64 26.5q20 0 33.5 -6.5t30.5 -19.5q22 -18 36 -18t26 10t27 31l58 -33q-24 -46 -53.5 -71t-62.5 -25q-19 0 -33 7zM209 580l-44 53l142 120h75l108 -123l-49 -50
l-106 83zM491 496l-52 -360q-2 -20 -2 -26q0 -15 6 -25.5t20 -16.5l-37 -81q-85 10 -100 83q-29 -41 -63.5 -63t-78.5 -22q-72 0 -112.5 52.5t-40.5 142.5q0 88 29 171t92.5 137.5t159.5 54.5q91 0 179 -47zM222.5 411q-34.5 -41 -50.5 -103.5t-16 -128.5q0 -53 16 -77
t47 -24q29 0 53.5 21t50.5 61l40 282q-26 10 -55 10q-51 0 -85.5 -41z" />
    <glyph glyph-name="uni0201" unicode="&#x201;" horiz-adv-x="521" 
d="M491 496l-52 -360q-2 -20 -2 -26q0 -15 6 -25.5t20 -16.5l-37 -81q-85 10 -100 83q-29 -41 -63.5 -63t-78.5 -22q-72 0 -112.5 52.5t-40.5 142.5q0 88 29 171t92.5 137.5t159.5 54.5q91 0 179 -47zM222.5 411q-34.5 -41 -50.5 -103.5t-16 -128.5q0 -53 16 -77t47 -24
q29 0 53.5 21t50.5 61l40 282q-26 10 -55 10q-51 0 -85.5 -41zM249 845l59 -186l-72 -29l-82 172zM397 845l51 -184l-71 -26l-76 169z" />
    <glyph glyph-name="adieresis" unicode="&#xe4;" horiz-adv-x="521" 
d="M491 496l-52 -360q-2 -20 -2 -26q0 -15 6 -25.5t20 -16.5l-37 -81q-85 10 -100 83q-29 -41 -63.5 -63t-78.5 -22q-72 0 -112.5 52.5t-40.5 142.5q0 88 29 171t92.5 137.5t159.5 54.5q91 0 179 -47zM222.5 411q-34.5 -41 -50.5 -103.5t-16 -128.5q0 -53 16 -77t47 -24
q29 0 53.5 21t50.5 61l40 282q-26 10 -55 10q-51 0 -85.5 -41zM194.5 665q-16.5 16 -16.5 42q0 32 21.5 53t52.5 21q27 0 43.5 -16t16.5 -42q0 -32 -21.5 -53t-52.5 -21q-27 0 -43.5 16zM394.5 665q-16.5 16 -16.5 42q0 32 21.5 53t52.5 21q27 0 43.5 -16t16.5 -42
q0 -32 -21.5 -53t-52.5 -21q-27 0 -43.5 16z" />
    <glyph glyph-name="uni01DF" unicode="&#x1df;" horiz-adv-x="521" 
d="M491 496l-52 -360q-2 -20 -2 -26q0 -15 6 -25.5t20 -16.5l-37 -81q-85 10 -100 83q-29 -41 -63.5 -63t-78.5 -22q-72 0 -112.5 52.5t-40.5 142.5q0 88 29 171t92.5 137.5t159.5 54.5q91 0 179 -47zM222.5 411q-34.5 -41 -50.5 -103.5t-16 -128.5q0 -53 16 -77t47 -24
q29 0 53.5 21t50.5 61l40 282q-26 10 -55 10q-51 0 -85.5 -41zM187.5 630q-16.5 16 -16.5 42q0 32 21.5 53t52.5 21q27 0 43.5 -16t16.5 -42q0 -32 -21.5 -53t-52.5 -21q-27 0 -43.5 16zM387.5 630q-16.5 16 -16.5 42q0 32 21.5 53t52.5 21q27 0 43.5 -16t16.5 -42
q0 -32 -21.5 -53t-52.5 -21q-27 0 -43.5 16zM480 796h-261l13 88h261z" />
    <glyph glyph-name="uni0227" unicode="&#x227;" horiz-adv-x="521" 
d="M491 496l-52 -360q-2 -20 -2 -26q0 -15 6 -25.5t20 -16.5l-37 -81q-85 10 -100 83q-29 -41 -63.5 -63t-78.5 -22q-72 0 -112.5 52.5t-40.5 142.5q0 88 29 171t92.5 137.5t159.5 54.5q91 0 179 -47zM222.5 411q-34.5 -41 -50.5 -103.5t-16 -128.5q0 -53 16 -77t47 -24
q29 0 53.5 21t50.5 61l40 282q-26 10 -55 10q-51 0 -85.5 -41zM287 662.5q-18 18.5 -18 47.5q0 37 23.5 60.5t59.5 23.5q31 0 49.5 -18.5t18.5 -47.5q0 -36 -24 -60t-59 -24q-32 0 -50 18.5z" />
    <glyph glyph-name="uni1EA1" unicode="&#x1ea1;" horiz-adv-x="521" 
d="M491 496l-52 -360q-2 -20 -2 -26q0 -15 6 -25.5t20 -16.5l-37 -81q-85 10 -100 83q-29 -41 -63.5 -63t-78.5 -22q-72 0 -112.5 52.5t-40.5 142.5q0 88 29 171t92.5 137.5t159.5 54.5q91 0 179 -47zM222.5 411q-34.5 -41 -50.5 -103.5t-16 -128.5q0 -53 16 -77t47 -24
q29 0 53.5 21t50.5 61l40 282q-26 10 -55 10q-51 0 -85.5 -41zM282 -86.5q18 -18.5 18 -47.5q0 -37 -24 -60.5t-59 -23.5q-31 0 -49.5 18.5t-18.5 47.5q0 36 24 60t59 24q32 0 50 -18.5z" />
    <glyph glyph-name="uni01E1" unicode="&#x1e1;" horiz-adv-x="521" 
d="M491 496l-52 -360q-2 -20 -2 -26q0 -15 6 -25.5t20 -16.5l-37 -81q-85 10 -100 83q-29 -41 -63.5 -63t-78.5 -22q-72 0 -112.5 52.5t-40.5 142.5q0 88 29 171t92.5 137.5t159.5 54.5q91 0 179 -47zM222.5 411q-34.5 -41 -50.5 -103.5t-16 -128.5q0 -53 16 -77t47 -24
q29 0 53.5 21t50.5 61l40 282q-26 10 -55 10q-51 0 -85.5 -41zM281 618.5q-18 18.5 -18 47.5q0 37 23.5 60.5t59.5 23.5q31 0 49.5 -18.5t18.5 -47.5q0 -36 -24 -60t-59 -24q-32 0 -50 18.5zM484 786h-261l13 88h261z" />
    <glyph glyph-name="agrave" unicode="&#xe0;" horiz-adv-x="521" 
d="M491 496l-52 -360q-2 -20 -2 -26q0 -15 6 -25.5t20 -16.5l-37 -81q-85 10 -100 83q-29 -41 -63.5 -63t-78.5 -22q-72 0 -112.5 52.5t-40.5 142.5q0 88 29 171t92.5 137.5t159.5 54.5q91 0 179 -47zM222.5 411q-34.5 -41 -50.5 -103.5t-16 -128.5q0 -53 16 -77t47 -24
q29 0 53.5 21t50.5 61l40 282q-26 10 -55 10q-51 0 -85.5 -41zM295 814l174 -123l-37 -59l-193 89z" />
    <glyph glyph-name="uni1EA3" unicode="&#x1ea3;" horiz-adv-x="521" 
d="M491 496l-52 -360q-2 -20 -2 -26q0 -15 6 -25.5t20 -16.5l-37 -81q-85 10 -100 83q-29 -41 -63.5 -63t-78.5 -22q-72 0 -112.5 52.5t-40.5 142.5q0 88 29 171t92.5 137.5t159.5 54.5q91 0 179 -47zM222.5 411q-34.5 -41 -50.5 -103.5t-16 -128.5q0 -53 16 -77t47 -24
q29 0 53.5 21t50.5 61l40 282q-26 10 -55 10q-51 0 -85.5 -41zM303 704q35 4 52.5 14.5t17.5 33.5q0 27 -31 27q-25 0 -53 -14l-17 60q40 23 90 23q47 0 73.5 -24.5t26.5 -64.5q0 -80 -87 -96l-8 -55h-76z" />
    <glyph glyph-name="uni0203" unicode="&#x203;" horiz-adv-x="521" 
d="M491 496l-52 -360q-2 -20 -2 -26q0 -15 6 -25.5t20 -16.5l-37 -81q-85 10 -100 83q-29 -41 -63.5 -63t-78.5 -22q-72 0 -112.5 52.5t-40.5 142.5q0 88 29 171t92.5 137.5t159.5 54.5q91 0 179 -47zM222.5 411q-34.5 -41 -50.5 -103.5t-16 -128.5q0 -53 16 -77t47 -24
q29 0 53.5 21t50.5 61l40 282q-26 10 -55 10q-51 0 -85.5 -41zM183 624q17 69 61 109.5t107 40.5q64 0 98 -42.5t30 -111.5l-71 -10q-6 75 -65 75q-63 0 -91 -79z" />
    <glyph glyph-name="uni0251" unicode="&#x251;" horiz-adv-x="521" 
d="M438 123.5q-1 -6.5 -1 -14.5q0 -15 6 -25t20 -16l-37 -81q-85 10 -99 83q-30 -41 -64.5 -63t-78.5 -22q-72 0 -112 52.5t-40 142.5q0 89 29 173t83.5 137t128.5 53q39 0 66.5 -16t45.5 -52l23 54h88l-56 -393q-1 -6 -2 -12.5zM356 387q-12 35 -30.5 50t-44.5 15
q-38 0 -66.5 -40t-43.5 -103t-15 -130q0 -53 16 -77t48 -24q28 0 52.5 21.5t50.5 60.5z" />
    <glyph glyph-name="uni0252" unicode="&#x252;" horiz-adv-x="521" 
d="M449 491.5q40 -52.5 40 -142.5q0 -89 -29 -173t-83.5 -137t-128.5 -53q-39 0 -66.5 16t-45.5 52l-23 -54h-88l56 393q1 6 2 12.5t1 14.5q0 15 -6 25t-20 16l37 81q85 -10 99 -83q30 41 64.5 63t78.5 22q72 0 112 -52.5zM306.5 117q28.5 40 43.5 103t15 130q0 53 -16 77
t-48 24q-28 0 -52.5 -21.5t-50.5 -60.5l-33 -227q12 -35 30.5 -50t44.5 -15q38 0 66.5 40z" />
    <glyph glyph-name="amacron" unicode="&#x101;" horiz-adv-x="521" 
d="M491 496l-52 -360q-2 -20 -2 -26q0 -15 6 -25.5t20 -16.5l-37 -81q-85 10 -100 83q-29 -41 -63.5 -63t-78.5 -22q-72 0 -112.5 52.5t-40.5 142.5q0 88 29 171t92.5 137.5t159.5 54.5q91 0 179 -47zM222.5 411q-34.5 -41 -50.5 -103.5t-16 -128.5q0 -53 16 -77t47 -24
q29 0 53.5 21t50.5 61l40 282q-26 10 -55 10q-51 0 -85.5 -41zM468 661h-261l13 88h261z" />
    <glyph glyph-name="aogonek" unicode="&#x105;" horiz-adv-x="521" 
d="M437 110q0 -15 6 -25.5t20 -16.5l-37 -81h-1v0q-73 -32 -98.5 -61.5t-25.5 -58.5q0 -35 42 -35q25 0 54 6l-18 -82q-27 -6 -59 -6q-51 0 -81.5 27t-30.5 73q0 50 35 91t116 72q-26 21 -33 57q-29 -41 -63.5 -63t-78.5 -22q-72 0 -112.5 52.5t-40.5 142.5q0 88 29 171
t92.5 137.5t159.5 54.5q91 0 179 -47l-52 -360q-2 -20 -2 -26zM363 442q-26 10 -55 10q-51 0 -85.5 -41t-50.5 -103.5t-16 -128.5q0 -53 16 -77t47 -24q29 0 53.5 21t50.5 61z" />
    <glyph glyph-name="aring" unicode="&#xe5;" horiz-adv-x="521" 
d="M491 496l-52 -360q-2 -20 -2 -26q0 -15 6 -25.5t20 -16.5l-37 -81q-85 10 -100 83q-29 -41 -63.5 -63t-78.5 -22q-72 0 -112.5 52.5t-40.5 142.5q0 88 29 171t92.5 137.5t159.5 54.5q91 0 179 -47zM222.5 411q-34.5 -41 -50.5 -103.5t-16 -128.5q0 -53 16 -77t47 -24
q29 0 53.5 21t50.5 61l40 282q-26 10 -55 10q-51 0 -85.5 -41zM435 820.5q28 -29.5 28 -75.5q0 -55 -36.5 -92t-93.5 -37q-47 0 -75.5 29.5t-28.5 75.5q0 53 37 91t93 38q48 0 76 -29.5zM316 768q-14 -19 -14 -45q0 -21 9.5 -32.5t26.5 -11.5q25 0 39 18.5t14 45.5
q0 21 -9.5 32.5t-27.5 11.5q-24 0 -38 -19z" />
    <glyph glyph-name="aringacute" unicode="&#x1fb;" horiz-adv-x="521" 
d="M491 496l-52 -360q-2 -20 -2 -26q0 -15 6 -25.5t20 -16.5l-37 -81q-85 10 -100 83q-29 -41 -63.5 -63t-78.5 -22q-72 0 -112.5 52.5t-40.5 142.5q0 88 29 171t92.5 137.5t159.5 54.5q91 0 179 -47zM222.5 411q-34.5 -41 -50.5 -103.5t-16 -128.5q0 -53 16 -77t47 -24
q29 0 53.5 21t50.5 61l40 282q-26 10 -55 10q-51 0 -85.5 -41zM431 786.5q28 -29.5 28 -75.5q0 -55 -36.5 -92t-93.5 -37q-47 0 -75.5 29.5t-28.5 75.5q0 53 37 91t93 38q48 0 76 -29.5zM312 734q-14 -19 -14 -45q0 -21 9.5 -32.5t26.5 -11.5q25 0 39 18.5t14 45.5
q0 21 -9.5 32.5t-27.5 11.5q-24 0 -38 -19zM437 995l42 -94l-214 -80l-28 61z" />
    <glyph glyph-name="uni2C65" unicode="&#x2c65;" horiz-adv-x="521" 
d="M437 110q0 -15 6 -25.5t20 -16.5l-37 -81q-85 10 -100 83q-29 -41 -63.5 -63t-78.5 -22h-13l-22 -57l-44 12l21 56q-45 18 -70 66.5t-25 117.5q0 88 29 171t92.5 137.5t159.5 54.5q16 0 24 -1l21 56l44 -13l-19 -49q58 -12 109 -40l-52 -360q-2 -20 -2 -26zM167 102
l135 353q-50 -2 -83.5 -44.5t-49.5 -105.5t-16 -128q0 -49 14 -75zM367 444l-18 6l-143 -374q3 -1 11 -1q55 0 109 83z" />
    <glyph glyph-name="atilde" unicode="&#xe3;" horiz-adv-x="521" 
d="M491 496l-52 -360q-2 -20 -2 -26q0 -15 6 -25.5t20 -16.5l-37 -81q-85 10 -100 83q-29 -41 -63.5 -63t-78.5 -22q-72 0 -112.5 52.5t-40.5 142.5q0 88 29 171t92.5 137.5t159.5 54.5q91 0 179 -47zM222.5 411q-34.5 -41 -50.5 -103.5t-16 -128.5q0 -53 16 -77t47 -24
q29 0 53.5 21t50.5 61l40 282q-26 10 -55 10q-51 0 -85.5 -41zM361.5 652.5q-13.5 6.5 -32.5 20.5q-13 10 -20.5 14.5t-16.5 4.5q-15 0 -27 -11t-28 -34l-58 35q23 45 53.5 72.5t64.5 27.5q20 0 34.5 -7.5t30.5 -20.5q22 -18 36 -18t26 10.5t27 32.5l59 -34q-24 -47 -54 -73
t-63 -26q-18 0 -31.5 6.5z" />
    <glyph glyph-name="uni0250" unicode="&#x250;" horiz-adv-x="487" 
d="M170 160q-2 -16 -2 -23q0 -31 16.5 -44.5t55.5 -13.5q52 0 123 26l25 -83q-84 -36 -174 -36q-83 0 -125 36t-42 103q0 22 2 34l32 234q2 20 2 27q0 15 -5.5 24.5t-19.5 16.5l37 81q79 -10 95 -72q57 73 147 73q63 0 100 -38t37 -102q0 -97 -67 -148t-175 -51h-56z
M201 388l-15 -110h42q58 0 90 29.5t32 86.5q0 30 -13.5 45t-38.5 15q-55 0 -97 -66z" />
    <glyph glyph-name="ae" unicode="&#xe6;" horiz-adv-x="753" 
d="M350.5 524.5q33.5 -18.5 55.5 -54.5q30 34 73 53.5t96 19.5q79 0 122.5 -39t43.5 -99q-1 -102 -86 -147.5t-230 -61.5q1 -61 23 -88t65 -27q31 0 60.5 11.5t63.5 35.5l46 -75q-88 -68 -185 -68q-59 0 -101 22.5t-65 64.5q-38 -46 -80 -66t-92 -20q-68 0 -107.5 37.5
t-39.5 100.5q0 82 56.5 136t188.5 54h61q7 34 20 65q-6 33 -31.5 51.5t-63.5 18.5q-30 0 -59 -6.5t-67 -19.5l-19 86q85 34 165 34q53 0 86.5 -18.5zM477 403.5q-33 -51.5 -44 -126.5q95 11 140.5 41t45.5 83q0 24 -13 39t-41 15q-55 0 -88 -51.5zM261 239q-118 0 -118 -105
q0 -59 53 -59q29 0 55.5 18.5t55.5 58.5q-2 22 -2 40q0 23 2 47h-46z" />
    <glyph glyph-name="aeacute" unicode="&#x1fd;" horiz-adv-x="753" 
d="M350.5 524.5q33.5 -18.5 55.5 -54.5q30 34 73 53.5t96 19.5q79 0 122.5 -39t43.5 -99q-1 -102 -86 -147.5t-230 -61.5q1 -61 23 -88t65 -27q31 0 60.5 11.5t63.5 35.5l46 -75q-88 -68 -185 -68q-59 0 -101 22.5t-65 64.5q-38 -46 -80 -66t-92 -20q-68 0 -107.5 37.5
t-39.5 100.5q0 82 56.5 136t188.5 54h61q7 34 20 65q-6 33 -31.5 51.5t-63.5 18.5q-30 0 -59 -6.5t-67 -19.5l-19 86q85 34 165 34q53 0 86.5 -18.5zM477 403.5q-33 -51.5 -44 -126.5q95 11 140.5 41t45.5 83q0 24 -13 39t-41 15q-55 0 -88 -51.5zM261 239q-118 0 -118 -105
q0 -59 53 -59q29 0 55.5 18.5t55.5 58.5q-2 22 -2 40q0 23 2 47h-46zM520 815l43 -94l-215 -90l-30 61z" />
    <glyph glyph-name="uni01E3" unicode="&#x1e3;" horiz-adv-x="753" 
d="M350.5 524.5q33.5 -18.5 55.5 -54.5q30 34 73 53.5t96 19.5q79 0 122.5 -39t43.5 -99q-1 -102 -86 -147.5t-230 -61.5q1 -61 23 -88t65 -27q31 0 60.5 11.5t63.5 35.5l46 -75q-88 -68 -185 -68q-59 0 -101 22.5t-65 64.5q-38 -46 -80 -66t-92 -20q-68 0 -107.5 37.5
t-39.5 100.5q0 82 56.5 136t188.5 54h61q7 34 20 65q-6 33 -31.5 51.5t-63.5 18.5q-30 0 -59 -6.5t-67 -19.5l-19 86q85 34 165 34q53 0 86.5 -18.5zM477 403.5q-33 -51.5 -44 -126.5q95 11 140.5 41t45.5 83q0 24 -13 39t-41 15q-55 0 -88 -51.5zM261 239q-118 0 -118 -105
q0 -59 53 -59q29 0 55.5 18.5t55.5 58.5q-2 22 -2 40q0 23 2 47h-46zM565 661h-261l13 88h261z" />
    <glyph glyph-name="b" unicode="b" horiz-adv-x="529" 
d="M458.5 493q38.5 -50 38.5 -142q0 -94 -27.5 -177t-90.5 -136t-163 -53q-84 0 -184 40l101 716l122 13l-38 -274q29 30 63.5 46.5t71.5 16.5q68 0 106.5 -50zM203 384l-40 -294q31 -12 66 -12q49 0 81.5 41.5t47.5 104t15 126.5q0 54 -16.5 77t-47.5 23q-52 0 -106 -66z
" />
    <glyph glyph-name="uni1E03" unicode="&#x1e03;" horiz-adv-x="529" 
d="M458.5 493q38.5 -50 38.5 -142q0 -94 -27.5 -177t-90.5 -136t-163 -53q-84 0 -184 40l101 716l122 13l-38 -274q29 30 63.5 46.5t71.5 16.5q68 0 106.5 -50zM203 384l-40 -294q31 -12 66 -12q49 0 81.5 41.5t47.5 104t15 126.5q0 54 -16.5 77t-47.5 23q-52 0 -106 -66z
M320 838.5q-18 18.5 -18 47.5q0 37 23.5 60.5t59.5 23.5q31 0 49.5 -18.5t18.5 -47.5q0 -36 -24 -60t-59 -24q-32 0 -50 18.5z" />
    <glyph glyph-name="uni1E05" unicode="&#x1e05;" horiz-adv-x="529" 
d="M458.5 493q38.5 -50 38.5 -142q0 -94 -27.5 -177t-90.5 -136t-163 -53q-84 0 -184 40l101 716l122 13l-38 -274q29 30 63.5 46.5t71.5 16.5q68 0 106.5 -50zM203 384l-40 -294q31 -12 66 -12q49 0 81.5 41.5t47.5 104t15 126.5q0 54 -16.5 77t-47.5 23q-52 0 -106 -66z
M260 -86.5q18 -18.5 18 -47.5q0 -37 -24 -60.5t-59 -23.5q-31 0 -49.5 18.5t-18.5 47.5q0 36 24 60t59 24q32 0 50 -18.5z" />
    <glyph glyph-name="uniA7B5" unicode="&#xa7b5;" horiz-adv-x="538" 
d="M105 548q13 97 74.5 151.5t151.5 54.5q79 0 127 -45t48 -119q0 -66 -37.5 -119.5t-117.5 -69.5q62 -5 106 -44.5t44 -119.5q0 -58 -25 -116t-77.5 -96.5t-128.5 -38.5q-71 0 -120 43l-32 -233l-120 -15zM348.5 129.5q30.5 48.5 30.5 110.5q0 57 -28.5 85.5t-82.5 28.5
h-33l21 88h27q35 0 59 22t35.5 55t11.5 66q0 40 -17.5 59.5t-48.5 19.5q-40 0 -66 -30.5t-34 -90.5l-60 -428q34 -34 89 -34q66 0 96.5 48.5z" />
    <glyph glyph-name="uni0253" unicode="&#x253;" horiz-adv-x="529" 
d="M459 493q38 -50 38 -142q0 -94 -27.5 -177t-90.5 -136t-163 -53q-84 0 -184 40l71 503l10 71q10 70 58.5 112.5t127.5 42.5q68 0 123 -31l-44 -80q-34 17 -73 17q-33 0 -50.5 -18t-22.5 -55l-8 -59l-6 -48q28 30 62.5 46.5t71.5 16.5q69 0 107 -50zM310.5 119.5
q32.5 41.5 47.5 104t15 126.5q0 54 -17 77t-48 23q-51 0 -105 -66l-40 -294q31 -12 66 -12q49 0 81.5 41.5z" />
    <glyph glyph-name="uni02AD" unicode="&#x2ad;" horiz-adv-x="326" 
d="M313 399h-75l11 89h-111l-13 -89h-75l22 156h263zM257 -1h-75l11 89h-111l-13 -89h-75l22 156h263z" />
    <glyph glyph-name="uni0298" unicode="&#x298;" horiz-adv-x="717" 
d="M566.5 671.5q61.5 -33.5 94.5 -97.5t33 -152q0 -126 -47.5 -225t-133 -155t-195.5 -56q-83 0 -144.5 34t-94.5 98t-33 152q0 126 48 225t133.5 154.5t194.5 55.5q83 0 144.5 -33.5zM277.5 569q-56.5 -46 -85 -124.5t-28.5 -177.5q0 -97 42.5 -144t119.5 -47
q80 0 137 45.5t85.5 124t28.5 176.5q-1 98 -43.5 145.5t-118.5 47.5q-81 0 -137.5 -46zM319 291q-17 17 -17 45q0 34 22.5 56t55.5 22q29 0 46 -17t17 -44q0 -34 -22 -56.5t-55 -22.5q-30 0 -47 17z" />
    <glyph glyph-name="uni02AC" unicode="&#x2ac;" horiz-adv-x="423" 
d="M448 666l-93 -266h-87l-7 195l-65 -195h-87l-22 266h68l7 -204l69 204h80l9 -205l63 205h65zM392 266l-93 -266h-87l-7 195l-65 -195h-87l-22 266h68l7 -204l69 204h80l9 -205l63 205h65z" />
    <glyph glyph-name="uni0180" unicode="&#x180;" horiz-adv-x="538" 
d="M467.5 493q38.5 -50 38.5 -142q0 -94 -27.5 -177t-90.5 -136t-163 -53q-84 0 -184 40l82 578h-61l12 79h60l8 59l122 13l-10 -72h129l-23 -79h-117l-17 -123q29 30 63.5 46.5t71.5 16.5q68 0 106.5 -50zM319.5 119.5q32.5 41.5 47.5 104t15 126.5q0 54 -16.5 77t-47.5 23
q-52 0 -106 -66l-40 -294q32 -12 66 -12q49 0 81.5 41.5z" />
    <glyph glyph-name="uni0183" unicode="&#x183;" horiz-adv-x="530" 
d="M459 486.5q38 -50.5 38 -144.5q0 -90 -27.5 -171t-90.5 -133.5t-163 -52.5q-84 0 -184 40l101 716h318l-28 -91h-183l-24 -176q29 30 64 46.5t73 16.5q68 0 106 -50.5zM310.5 119q32.5 41 47.5 102t15 122q0 55 -17 78t-48 23q-27 0 -54.5 -18.5t-51.5 -48.5l-39 -287
q31 -12 66 -12q49 0 81.5 41z" />
    <glyph glyph-name="c" unicode="c" horiz-adv-x="429" 
d="M449 481l-62 -70q-20 19 -40 27.5t-45 8.5q-51 0 -83 -39.5t-45.5 -97.5t-13.5 -118q0 -57 20.5 -82t59.5 -25q26 0 48 9t51 28l45 -79q-75 -58 -160 -58q-90 0 -140 56.5t-50 155.5q0 84 29 163.5t89 131t148 51.5q90 0 149 -62z" />
    <glyph glyph-name="cacute" unicode="&#x107;" horiz-adv-x="429" 
d="M449 481l-62 -70q-20 19 -40 27.5t-45 8.5q-51 0 -83 -39.5t-45.5 -97.5t-13.5 -118q0 -57 20.5 -82t59.5 -25q26 0 48 9t51 28l45 -79q-75 -58 -160 -58q-90 0 -140 56.5t-50 155.5q0 84 29 163.5t89 131t148 51.5q90 0 149 -62zM402 815l43 -94l-215 -90l-30 61z" />
    <glyph glyph-name="ccaron" unicode="&#x10d;" horiz-adv-x="429" 
d="M449 481l-62 -70q-20 19 -40 27.5t-45 8.5q-51 0 -83 -39.5t-45.5 -97.5t-13.5 -118q0 -57 20.5 -82t59.5 -25q26 0 48 9t51 28l45 -79q-75 -58 -160 -58q-90 0 -140 56.5t-50 155.5q0 84 29 163.5t89 131t148 51.5q90 0 149 -62zM446 796l41 -52l-141 -124h-75l-108 124
l49 52l103 -86z" />
    <glyph glyph-name="ccedilla" unicode="&#xe7;" horiz-adv-x="429" 
d="M219 407.5q-32 -39.5 -45.5 -97.5t-13.5 -118q0 -57 20.5 -82t59.5 -25q26 0 48 9t51 28l45 -79q-65 -51 -140 -57l-6 -40q38 -4 58 -26t20 -56q0 -46 -35 -80.5t-102 -34.5q-56 0 -92 29l37 58q25 -15 53 -15q22 0 35.5 10t13.5 29q0 20 -16.5 27.5t-59.5 7.5l23 95
q-67 15 -103 69t-36 138t29 163.5t89 131t148 51.5q90 0 149 -62l-62 -70q-20 19 -40 27.5t-45 8.5q-51 0 -83 -39.5z" />
    <glyph glyph-name="ccircumflex" unicode="&#x109;" horiz-adv-x="429" 
d="M449 481l-62 -70q-20 19 -40 27.5t-45 8.5q-51 0 -83 -39.5t-45.5 -97.5t-13.5 -118q0 -57 20.5 -82t59.5 -25q26 0 48 9t51 28l45 -79q-75 -58 -160 -58q-90 0 -140 56.5t-50 155.5q0 84 29 163.5t89 131t148 51.5q90 0 149 -62zM199 629l-44 53l143 124h74l109 -127
l-53 -50l-103 87z" />
    <glyph glyph-name="uni0255" unicode="&#x255;" horiz-adv-x="447" 
d="M387.5 215q28.5 -27 28.5 -75q0 -73 -52 -113.5t-129 -40.5q-41 0 -68 8l-39 -73l-59 28l41 74q-37 26 -56.5 70.5t-19.5 104.5q0 84 29 163t89 130.5t148 51.5q90 0 149 -62l-62 -70q-20 19 -40 27.5t-45 8.5q-74 0 -108 -78t-34 -176q0 -42 9 -68q30 61 65 89t80 28
t73.5 -27zM307 95.5q20 15.5 20 43.5q0 30 -27 30q-21 0 -40 -19t-43 -66q16 -4 38 -4q32 0 52 15.5z" />
    <glyph glyph-name="cdotaccent" unicode="&#x10b;" horiz-adv-x="429" 
d="M449 481l-62 -70q-20 19 -40 27.5t-45 8.5q-51 0 -83 -39.5t-45.5 -97.5t-13.5 -118q0 -57 20.5 -82t59.5 -25q26 0 48 9t51 28l45 -79q-75 -58 -160 -58q-90 0 -140 56.5t-50 155.5q0 84 29 163.5t89 131t148 51.5q90 0 149 -62zM266 662.5q-18 18.5 -18 47.5
q0 37 23.5 60.5t59.5 23.5q31 0 49.5 -18.5t18.5 -47.5q0 -36 -24 -60t-59 -24q-32 0 -50 18.5z" />
    <glyph glyph-name="uni0188" unicode="&#x188;" horiz-adv-x="429" 
d="M629 715l-47 -74q-15 10 -28.5 14.5t-29.5 4.5q-26 0 -40.5 -16.5t-19.5 -51.5l-15 -111l-55 -62q-48 28 -92 28q-51 0 -83 -39.5t-45.5 -97.5t-13.5 -118q0 -57 20.5 -82t59.5 -25q25 0 47.5 9t51.5 28l45 -79q-75 -58 -160 -58q-90 0 -140 56.5t-50 155.5
q0 83 28.5 163t86 131.5t138.5 51.5q30 0 60 -10l10 70q11 74 51.5 112.5t108.5 38.5q65 0 112 -39z" />
    <glyph glyph-name="uni0297" unicode="&#x297;" horiz-adv-x="445" 
d="M401 528q35 -15 64 -47l-60 -69q-21 18 -40.5 26.5t-43.5 8.5q-55 0 -92.5 -61t-55.5 -154.5t-18 -189.5q0 -89 19 -124t58 -35q24 0 46 9t51 28l46 -78q-75 -58 -158 -58q-91 0 -139.5 65.5t-48.5 194.5q0 135 34 249t100 182t158 68q45 0 80 -15z" />
    <glyph glyph-name="uni023C" unicode="&#x23c;" horiz-adv-x="429" 
d="M352 436l-134 -349q14 -2 22 -2q26 0 48 9t51 28l45 -79q-75 -58 -160 -58q-25 0 -44 4l-23 -61l-44 12l24 62q-50 23 -76.5 73t-26.5 122q0 84 29 163.5t89 131t148 51.5q26 0 43 -4l23 59l43 -13l-23 -59q34 -15 63 -45l-62 -70q-18 17 -35 25zM308 447h-6
q-51 0 -83 -39.5t-45.5 -97.5t-13.5 -118q0 -53 19 -80z" />
    <glyph glyph-name="d" unicode="d" horiz-adv-x="533" 
d="M534 740l-104 -740h-107l2 77q-57 -92 -144 -92q-72 0 -110.5 52.5t-38.5 145.5q0 83 25.5 166.5t79 139t130.5 55.5q72 0 110 -57l37 266zM214 407.5q-30 -43.5 -43.5 -106t-13.5 -120.5q0 -103 62 -103q32 0 59.5 27t56.5 78l30 217q-14 26 -32 38.5t-44 12.5
q-45 0 -75 -43.5z" />
    <glyph glyph-name="eth" unicode="&#xf0;" horiz-adv-x="527" 
d="M460 547q27 -65 27 -157q0 -110 -30.5 -202t-91 -147t-147.5 -55q-85 0 -136 53t-51 147q0 70 26.5 137t76.5 110.5t117 43.5q72 0 118 -54q-3 59 -18.5 98t-50.5 74l-64 -61l-72 38l72 69q-39 18 -87 29l34 83q66 -14 123 -44l79 77l56 -56l-68 -66q60 -52 87 -117z
M319.5 145.5q30.5 67.5 42.5 182.5q-29 59 -89 59q-63 0 -91.5 -62.5t-28.5 -143.5q0 -103 73 -103q63 0 93.5 67.5z" />
    <glyph glyph-name="uni0238" unicode="&#x238;" horiz-adv-x="774" 
d="M706 492q35 -51 35 -145t-27 -177t-77.5 -133.5t-117.5 -50.5t-103 76l-17 -62h-93l1 68q-53 -82 -131 -82q-67 0 -105 54.5t-38 148.5q0 92 27.5 173.5t78.5 131t117 49.5q33 0 60 -18.5t42 -50.5l37 267l123 13l-39 -281q50 70 127 70q65 0 100 -51zM265 97.5
q24 19.5 49 62.5l32 230q-27 61 -70 61q-38 0 -64.5 -39.5t-39.5 -99.5t-13 -121q0 -113 56 -113q26 0 50 19.5zM564 118.5q26 40.5 39 102t13 121.5q0 59 -15 83.5t-42 24.5q-48 0 -93 -66l-33 -237q13 -36 29 -52.5t39 -16.5q37 0 63 40.5z" />
    <glyph glyph-name="dcaron" unicode="&#x10f;" horiz-adv-x="591" 
d="M534 740l-104 -740h-107l2 77q-57 -92 -144 -92q-72 0 -110.5 52.5t-38.5 145.5q0 83 25.5 166.5t79 139t130.5 55.5q72 0 110 -57l37 266zM214 407.5q-30 -43.5 -43.5 -106t-13.5 -120.5q0 -103 62 -103q32 0 59.5 27t56.5 78l30 217q-14 26 -32 38.5t-44 12.5
q-45 0 -75 -43.5zM589 753l94 -12l-70 -199l-64 8z" />
    <glyph glyph-name="uni1E13" unicode="&#x1e13;" horiz-adv-x="533" 
d="M534 740l-104 -740h-107l2 77q-57 -92 -144 -92q-72 0 -110.5 52.5t-38.5 145.5q0 83 25.5 166.5t79 139t130.5 55.5q72 0 110 -57l37 266zM214 407.5q-30 -43.5 -43.5 -106t-13.5 -120.5q0 -103 62 -103q32 0 59.5 27t56.5 78l30 217q-14 26 -32 38.5t-44 12.5
q-45 0 -75 -43.5zM84 -243l-44 53l143 124h75l108 -127l-52 -50l-103 87z" />
    <glyph glyph-name="dcroat" unicode="&#x111;" horiz-adv-x="542" 
d="M586 681l-12 -80h-60l-84 -601h-107l2 77q-57 -92 -144 -92q-72 0 -110.5 52.5t-38.5 145.5q0 83 25.5 166.5t79 139t130.5 55.5q72 0 110 -57l16 114h-121l1 80h131l10 72l120 -13l-8 -59h60zM365 400q-14 26 -32 38.5t-44 12.5q-45 0 -75 -43.5t-43.5 -106
t-13.5 -120.5q0 -103 62 -103q32 0 59.5 27t56.5 78z" />
    <glyph glyph-name="uni0221" unicode="&#x221;" horiz-adv-x="690" 
d="M654.5 206.5q26.5 -25.5 26.5 -70.5q0 -71 -51.5 -110.5t-130.5 -39.5q-21 0 -51 4l-38 -69l-58 28l37 63q-41 27 -54 74q-32 -50 -70 -75.5t-84 -25.5q-72 0 -110.5 52.5t-38.5 145.5q0 84 25.5 167t79 138.5t131.5 55.5q37 0 64 -15.5t45 -41.5l37 266l120 -13
l-84 -594q-2 -18 -1 -25q28 58 60 84.5t77 26.5q42 0 68.5 -25.5zM365 400q-14 26 -32 38.5t-44 12.5q-45 0 -75 -43.5t-43.5 -106t-13.5 -120.5q0 -103 62 -103q32 0 59.5 27.5t55.5 77.5zM574 94.5q20 14.5 20 39.5t-24 25q-18 0 -33.5 -16.5t-38.5 -61.5q7 -1 24 -1
q32 0 52 14.5z" />
    <glyph glyph-name="uni1E0B" unicode="&#x1e0b;" horiz-adv-x="533" 
d="M534 740l-104 -740h-107l2 77q-57 -92 -144 -92q-72 0 -110.5 52.5t-38.5 145.5q0 83 25.5 166.5t79 139t130.5 55.5q72 0 110 -57l37 266zM214 407.5q-30 -43.5 -43.5 -106t-13.5 -120.5q0 -103 62 -103q32 0 59.5 27t56.5 78l30 217q-14 26 -32 38.5t-44 12.5
q-45 0 -75 -43.5zM292 838.5q-18 18.5 -18 47.5q0 37 23.5 60.5t59.5 23.5q31 0 49.5 -18.5t18.5 -47.5q0 -36 -24 -60t-59 -24q-32 0 -50 18.5z" />
    <glyph glyph-name="uni1E0D" unicode="&#x1e0d;" horiz-adv-x="533" 
d="M534 740l-104 -740h-107l2 77q-57 -92 -144 -92q-72 0 -110.5 52.5t-38.5 145.5q0 83 25.5 166.5t79 139t130.5 55.5q72 0 110 -57l37 266zM214 407.5q-30 -43.5 -43.5 -106t-13.5 -120.5q0 -103 62 -103q32 0 59.5 27t56.5 78l30 217q-14 26 -32 38.5t-44 12.5
q-45 0 -75 -43.5zM266 -86.5q18 -18.5 18 -47.5q0 -37 -24 -60.5t-59 -23.5q-31 0 -49.5 18.5t-18.5 47.5q0 36 24 60t59 24q32 0 50 -18.5z" />
    <glyph glyph-name="uni018D" unicode="&#x18d;" horiz-adv-x="522" 
d="M89.5 -201.5q-39.5 17.5 -68.5 49.5l63 62q24 -21 47 -30.5t53 -9.5q39 0 58.5 18.5t19.5 49.5q0 24 -16.5 41t-63.5 41q-75 37 -110.5 85t-35.5 122q0 67 27 140.5t86.5 124.5t149.5 51q88 0 139 -57t51 -148q0 -98 -40.5 -167.5t-139.5 -114.5q38 -27 54.5 -55
t16.5 -61q0 -41 -22 -77.5t-66.5 -59t-106.5 -22.5q-56 0 -95.5 17.5zM339.5 200q24.5 59 24.5 144q0 50 -18.5 78t-55.5 28q-45 0 -74 -36t-41.5 -88t-12.5 -102q0 -47 18.5 -76.5t65.5 -55.5q69 49 93.5 108z" />
    <glyph glyph-name="uni02A4" unicode="&#x2a4;" horiz-adv-x="887" 
d="M865 441l-208 -233q87 -4 131.5 -47.5t44.5 -119.5q0 -77 -33.5 -135.5t-93 -90.5t-134.5 -32q-66 0 -112.5 25t-77.5 72l73 61q28 -33 55 -47.5t64 -14.5q62 0 98 44.5t36 115.5q0 50 -25 70.5t-81 20.5h-80l1 1l11 77l197 226h-240l-61 -434h-107l2 77
q-57 -92 -144 -92q-72 0 -110.5 52.5t-38.5 145.5q0 83 25.5 166.5t79 139t130.5 55.5q72 0 110 -57l37 266l120 -13l-30 -211h373zM365 400q-14 26 -32 38.5t-44 12.5q-45 0 -75 -43.5t-43.5 -106t-13.5 -120.5q0 -103 62 -103q32 0 59.5 27t56.5 78z" />
    <glyph glyph-name="uni0257" unicode="&#x257;" horiz-adv-x="532" 
d="M679 715l-49 -73q-15 9 -27.5 13.5t-29.5 4.5q-50 0 -60 -65l-9 -66l-74 -529h-107l2 77q-57 -92 -144 -92q-72 0 -110.5 52.5t-38.5 145.5q0 84 25.5 167t79 138.5t131.5 55.5q37 0 64 -15.5t45 -41.5l6 42l9 65q11 75 56.5 117.5t118.5 42.5q63 0 112 -39zM365 400
q-14 26 -32 38.5t-44 12.5q-45 0 -75 -43.5t-43.5 -106t-13.5 -120.5q0 -103 62 -103q32 0 59.5 27t56.5 78z" />
    <glyph glyph-name="uni1E0F" unicode="&#x1e0f;" horiz-adv-x="533" 
d="M534 740l-104 -740h-107l2 77q-57 -92 -144 -92q-72 0 -110.5 52.5t-38.5 145.5q0 83 25.5 166.5t79 139t130.5 55.5q72 0 110 -57l37 266zM214 407.5q-30 -43.5 -43.5 -106t-13.5 -120.5q0 -103 62 -103q32 0 59.5 27t56.5 78l30 217q-14 26 -32 38.5t-44 12.5
q-45 0 -75 -43.5zM94 -93h261l-13 -88h-261z" />
    <glyph glyph-name="uni0256" unicode="&#x256;" horiz-adv-x="535" 
d="M565 -179q-54 -38 -123 -38q-67 0 -104.5 35.5t-37.5 101.5q0 10 2 32l7 48l10 70q-53 -85 -138 -85q-72 0 -110.5 52.5t-38.5 145.5q0 84 25.5 167t79 138.5t131.5 55.5q37 0 64 -15.5t45 -41.5l37 266l120 -13l-104 -740l-8 -64q-1 -6 -1 -16q0 -44 44 -44
q18 0 31.5 4.5t32.5 14.5zM278.5 105q27.5 27 56.5 78l30 217q-14 26 -32 38.5t-44 12.5q-45 0 -75 -43.5t-43.5 -106t-13.5 -120.5q0 -103 62 -103q32 0 59.5 27z" />
    <glyph glyph-name="uni018C" unicode="&#x18c;" horiz-adv-x="533" 
d="M430 0h-107l2 77q-57 -92 -144 -92q-72 0 -110.5 52.5t-38.5 145.5q0 82 25.5 163.5t78.5 136t130 54.5q73 0 110 -57l24 170h-191l13 91h312zM364 393q-14 26 -32 39t-44 13q-45 0 -74.5 -42.5t-43 -104t-13.5 -117.5q0 -103 62 -103q32 0 59.5 27t56.5 78z" />
    <glyph glyph-name="uni01F3" unicode="&#x1f3;" horiz-adv-x="935" 
d="M534 740l-104 -740h-107l2 77q-57 -92 -144 -92q-72 0 -110.5 52.5t-38.5 145.5q0 83 25.5 166.5t79 139t130.5 55.5q72 0 110 -57l37 266zM214 407.5q-30 -43.5 -43.5 -106t-13.5 -120.5q0 -103 62 -103q32 0 59.5 27t56.5 78l30 217q-14 26 -32 38.5t-44 12.5
q-45 0 -75 -43.5zM948 529l-13 -89l-266 -343h223l-26 -97h-355l12 89l267 343h-200l14 97h344z" />
    <glyph glyph-name="uni02A3" unicode="&#x2a3;" horiz-adv-x="852" 
d="M853 440l-269 -343h226l-26 -97h-461l2 77q-57 -92 -144 -92q-72 0 -110.5 52.5t-38.5 145.5q0 83 25.5 166.5t79 139t130.5 55.5q72 0 110 -57l37 266l120 -13l-30 -211h361zM365 400q-14 26 -32 38.5t-44 12.5q-45 0 -75 -43.5t-43.5 -106t-13.5 -120.5q0 -103 62 -103
q32 0 59.5 27t56.5 78zM443 89l266 343h-218z" />
    <glyph glyph-name="uni01C6" unicode="&#x1c6;" horiz-adv-x="935" 
d="M534 740l-104 -740h-107l2 77q-57 -92 -144 -92q-72 0 -110.5 52.5t-38.5 145.5q0 83 25.5 166.5t79 139t130.5 55.5q72 0 110 -57l37 266zM214 407.5q-30 -43.5 -43.5 -106t-13.5 -120.5q0 -103 62 -103q32 0 59.5 27t56.5 78l30 217q-14 26 -32 38.5t-44 12.5
q-45 0 -75 -43.5zM948 529l-13 -89l-266 -343h223l-26 -97h-355l12 89l267 343h-200l14 97h344zM924 796l41 -52l-141 -124h-75l-108 124l49 52l103 -86z" />
    <glyph glyph-name="uni02A5" unicode="&#x2a5;" horiz-adv-x="905" 
d="M885 213.5q27 -24.5 27 -68.5q0 -76 -53.5 -110.5t-143.5 -34.5l2 8q-13 -48 -25 -135l-74 5q12 71 22 122h-317l2 77q-57 -92 -144 -92q-72 0 -110.5 52.5t-38.5 145.5q0 83 25.5 166.5t79 139t130.5 55.5q72 0 110 -57l37 266l120 -13l-30 -211h361l-12 -85l-274 -347
h88q26 75 62 108t85 33q44 0 71 -24.5zM365 400q-14 26 -32 38.5t-44 12.5q-45 0 -75 -43.5t-43.5 -106t-13.5 -120.5q0 -103 62 -103q32 0 59.5 27t56.5 78zM491 432l-48 -341l268 341h-220zM805.5 108q20.5 10 20.5 37q0 23 -24 23q-19 0 -33.5 -16.5t-26.5 -54.5
q43 1 63.5 11z" />
    <glyph glyph-name="e" unicode="e" horiz-adv-x="483" 
d="M384 257.5q-85 -46.5 -228 -62.5v-4q0 -110 87 -110q31 0 60.5 11.5t63.5 35.5l45 -75q-88 -68 -185 -68q-93 0 -143.5 55t-50.5 154q1 86 29.5 166t89.5 131.5t152 51.5q79 0 122.5 -39t43.5 -99q-1 -101 -86 -147.5zM207.5 404q-32.5 -51 -44.5 -127q95 9 140 40t45 85
q0 24 -12.5 38.5t-40.5 14.5q-55 0 -87.5 -51z" />
    <glyph glyph-name="eacute" unicode="&#xe9;" horiz-adv-x="483" 
d="M384 257.5q-85 -46.5 -228 -62.5v-4q0 -110 87 -110q31 0 60.5 11.5t63.5 35.5l45 -75q-88 -68 -185 -68q-93 0 -143.5 55t-50.5 154q1 86 29.5 166t89.5 131.5t152 51.5q79 0 122.5 -39t43.5 -99q-1 -101 -86 -147.5zM207.5 404q-32.5 -51 -44.5 -127q95 9 140 40t45 85
q0 24 -12.5 38.5t-40.5 14.5q-55 0 -87.5 -51zM400 815l43 -94l-215 -90l-30 61z" />
    <glyph glyph-name="ebreve" unicode="&#x115;" horiz-adv-x="483" 
d="M384 257.5q-85 -46.5 -228 -62.5v-4q0 -110 87 -110q31 0 60.5 11.5t63.5 35.5l45 -75q-88 -68 -185 -68q-93 0 -143.5 55t-50.5 154q1 86 29.5 166t89.5 131.5t152 51.5q79 0 122.5 -39t43.5 -99q-1 -101 -86 -147.5zM207.5 404q-32.5 -51 -44.5 -127q95 9 140 40t45 85
q0 24 -12.5 38.5t-40.5 14.5q-55 0 -87.5 -51zM211 681q-34 43 -30 111l71 10q3 -37 18.5 -56t44.5 -19q31 0 54 20.5t37 57.5l67 -18q-14 -68 -57 -108.5t-106 -40.5q-65 0 -99 43z" />
    <glyph glyph-name="ecaron" unicode="&#x11b;" horiz-adv-x="483" 
d="M384 257.5q-85 -46.5 -228 -62.5v-4q0 -110 87 -110q31 0 60.5 11.5t63.5 35.5l45 -75q-88 -68 -185 -68q-93 0 -143.5 55t-50.5 154q1 86 29.5 166t89.5 131.5t152 51.5q79 0 122.5 -39t43.5 -99q-1 -101 -86 -147.5zM207.5 404q-32.5 -51 -44.5 -127q95 9 140 40t45 85
q0 24 -12.5 38.5t-40.5 14.5q-55 0 -87.5 -51zM444 796l41 -52l-141 -124h-75l-108 124l49 52l103 -86z" />
    <glyph glyph-name="uni0229" unicode="&#x229;" horiz-adv-x="483" 
d="M384 257.5q-85 -46.5 -228 -62.5v-4q0 -110 87 -110q31 0 60.5 11.5t63.5 35.5l45 -75q-76 -58 -156 -66l-6 -41q38 -4 58 -26t20 -56q0 -46 -35 -80.5t-102 -34.5q-56 0 -92 29l37 58q25 -15 53 -15q22 0 35.5 10t13.5 29q0 20 -16.5 27.5t-59.5 7.5l22 93
q-73 13 -112 66t-39 140q1 86 29.5 166t89.5 131.5t152 51.5q79 0 122.5 -39t43.5 -99q-1 -101 -86 -147.5zM207.5 404q-32.5 -51 -44.5 -127q95 9 140 40t45 85q0 24 -12.5 38.5t-40.5 14.5q-55 0 -87.5 -51z" />
    <glyph glyph-name="ecircumflex" unicode="&#xea;" horiz-adv-x="483" 
d="M384 257.5q-85 -46.5 -228 -62.5v-4q0 -110 87 -110q31 0 60.5 11.5t63.5 35.5l45 -75q-88 -68 -185 -68q-93 0 -143.5 55t-50.5 154q1 86 29.5 166t89.5 131.5t152 51.5q79 0 122.5 -39t43.5 -99q-1 -101 -86 -147.5zM207.5 404q-32.5 -51 -44.5 -127q95 9 140 40t45 85
q0 24 -12.5 38.5t-40.5 14.5q-55 0 -87.5 -51zM197 629l-44 53l143 124h74l109 -127l-53 -50l-103 87z" />
    <glyph glyph-name="uni1EBF" unicode="&#x1ebf;" horiz-adv-x="483" 
d="M601 857l-153 -136l-44 41l136 160zM313 670l-126 -83l-44 53l142 120h75l108 -123l-49 -50zM426.5 504q43.5 -39 43.5 -99q-1 -101 -86 -147.5t-228 -62.5v-4q0 -110 87 -110q31 0 60.5 11.5t63.5 35.5l45 -75q-88 -68 -185 -68q-93 0 -143.5 55t-50.5 154
q1 86 29.5 166t89.5 131.5t152 51.5q79 0 122.5 -39zM303 317q45 31 45 85q0 24 -12.5 38.5t-40.5 14.5q-55 0 -87.5 -51t-44.5 -127q95 9 140 40z" />
    <glyph glyph-name="uni1EC7" unicode="&#x1ec7;" horiz-adv-x="483" 
d="M384 257.5q-85 -46.5 -228 -62.5v-4q0 -110 87 -110q31 0 60.5 11.5t63.5 35.5l45 -75q-88 -68 -185 -68q-93 0 -143.5 55t-50.5 154q1 86 29.5 166t89.5 131.5t152 51.5q79 0 122.5 -39t43.5 -99q-1 -101 -86 -147.5zM207.5 404q-32.5 -51 -44.5 -127q95 9 140 40t45 85
q0 24 -12.5 38.5t-40.5 14.5q-55 0 -87.5 -51zM197 629l-44 53l143 124h74l109 -127l-53 -50l-103 87zM261 -86.5q18 -18.5 18 -47.5q0 -37 -24 -60.5t-59 -23.5q-31 0 -49.5 18.5t-18.5 47.5q0 36 24 60t59 24q32 0 50 -18.5z" />
    <glyph glyph-name="uni1EC1" unicode="&#x1ec1;" horiz-adv-x="483" 
d="M235 758l-50 -37l-117 140l76 59zM186 587l-44 53l142 120h75l108 -123l-49 -50l-106 83zM384 257.5q-85 -46.5 -228 -62.5v-4q0 -110 87 -110q31 0 60.5 11.5t63.5 35.5l45 -75q-88 -68 -185 -68q-93 0 -143.5 55t-50.5 154q1 86 29.5 166t89.5 131.5t152 51.5
q79 0 122.5 -39t43.5 -99q-1 -101 -86 -147.5zM207.5 404q-32.5 -51 -44.5 -127q95 9 140 40t45 85q0 24 -12.5 38.5t-40.5 14.5q-55 0 -87.5 -51z" />
    <glyph glyph-name="uni1EC3" unicode="&#x1ec3;" horiz-adv-x="483" 
d="M384 257.5q-85 -46.5 -228 -62.5v-4q0 -110 87 -110q31 0 60.5 11.5t63.5 35.5l45 -75q-88 -68 -185 -68q-93 0 -143.5 55t-50.5 154q1 86 29.5 166t89.5 131.5t152 51.5q79 0 122.5 -39t43.5 -99q-1 -101 -86 -147.5zM207.5 404q-32.5 -51 -44.5 -127q95 9 140 40t45 85
q0 24 -12.5 38.5t-40.5 14.5q-55 0 -87.5 -51zM184 587l-44 53l142 120h75l108 -123l-49 -50l-106 83zM428 829q35 4 52.5 14.5t17.5 33.5q0 27 -31 27q-25 0 -53 -14l-17 60q40 23 90 23q47 0 73.5 -24.5t26.5 -64.5q0 -80 -87 -96l-8 -55h-76z" />
    <glyph glyph-name="uni1EC5" unicode="&#x1ec5;" horiz-adv-x="483" 
d="M260 816.5q-12 -10.5 -28 -33.5l-58 34q24 44 54 70.5t64 26.5q20 0 33.5 -6.5t30.5 -19.5q22 -18 36 -18t26 10t27 31l58 -33q-24 -46 -53.5 -71t-62.5 -25q-19 0 -33 7t-30 20q-2 2 -10 7.5t-14.5 8t-12.5 2.5q-15 0 -27 -10.5zM312 663l-126 -83l-44 53l142 120h75
l108 -123l-49 -50zM426.5 504q43.5 -39 43.5 -99q-1 -101 -86 -147.5t-228 -62.5v-4q0 -110 87 -110q31 0 60.5 11.5t63.5 35.5l45 -75q-88 -68 -185 -68q-93 0 -143.5 55t-50.5 154q1 86 29.5 166t89.5 131.5t152 51.5q79 0 122.5 -39zM303 317q45 31 45 85
q0 24 -12.5 38.5t-40.5 14.5q-55 0 -87.5 -51t-44.5 -127q95 9 140 40z" />
    <glyph glyph-name="uni0205" unicode="&#x205;" horiz-adv-x="483" 
d="M384 257.5q-85 -46.5 -228 -62.5v-4q0 -110 87 -110q31 0 60.5 11.5t63.5 35.5l45 -75q-88 -68 -185 -68q-93 0 -143.5 55t-50.5 154q1 86 29.5 166t89.5 131.5t152 51.5q79 0 122.5 -39t43.5 -99q-1 -101 -86 -147.5zM207.5 404q-32.5 -51 -44.5 -127q95 9 140 40t45 85
q0 24 -12.5 38.5t-40.5 14.5q-55 0 -87.5 -51zM226 845l59 -186l-72 -29l-82 172zM374 845l51 -184l-71 -26l-76 169z" />
    <glyph glyph-name="edieresis" unicode="&#xeb;" horiz-adv-x="483" 
d="M384 257.5q-85 -46.5 -228 -62.5v-4q0 -110 87 -110q31 0 60.5 11.5t63.5 35.5l45 -75q-88 -68 -185 -68q-93 0 -143.5 55t-50.5 154q1 86 29.5 166t89.5 131.5t152 51.5q79 0 122.5 -39t43.5 -99q-1 -101 -86 -147.5zM207.5 404q-32.5 -51 -44.5 -127q95 9 140 40t45 85
q0 24 -12.5 38.5t-40.5 14.5q-55 0 -87.5 -51zM171.5 665q-16.5 16 -16.5 42q0 32 21.5 53t52.5 21q27 0 43.5 -16t16.5 -42q0 -32 -21.5 -53t-52.5 -21q-27 0 -43.5 16zM371.5 665q-16.5 16 -16.5 42q0 32 21.5 53t52.5 21q27 0 43.5 -16t16.5 -42q0 -32 -21.5 -53
t-52.5 -21q-27 0 -43.5 16z" />
    <glyph glyph-name="edotaccent" unicode="&#x117;" horiz-adv-x="483" 
d="M384 257.5q-85 -46.5 -228 -62.5v-4q0 -110 87 -110q31 0 60.5 11.5t63.5 35.5l45 -75q-88 -68 -185 -68q-93 0 -143.5 55t-50.5 154q1 86 29.5 166t89.5 131.5t152 51.5q79 0 122.5 -39t43.5 -99q-1 -101 -86 -147.5zM207.5 404q-32.5 -51 -44.5 -127q95 9 140 40t45 85
q0 24 -12.5 38.5t-40.5 14.5q-55 0 -87.5 -51zM264 662.5q-18 18.5 -18 47.5q0 37 23.5 60.5t59.5 23.5q31 0 49.5 -18.5t18.5 -47.5q0 -36 -24 -60t-59 -24q-32 0 -50 18.5z" />
    <glyph glyph-name="uni1EB9" unicode="&#x1eb9;" horiz-adv-x="483" 
d="M384 257.5q-85 -46.5 -228 -62.5v-4q0 -110 87 -110q31 0 60.5 11.5t63.5 35.5l45 -75q-88 -68 -185 -68q-93 0 -143.5 55t-50.5 154q1 86 29.5 166t89.5 131.5t152 51.5q79 0 122.5 -39t43.5 -99q-1 -101 -86 -147.5zM207.5 404q-32.5 -51 -44.5 -127q95 9 140 40t45 85
q0 24 -12.5 38.5t-40.5 14.5q-55 0 -87.5 -51zM261 -86.5q18 -18.5 18 -47.5q0 -37 -24 -60.5t-59 -23.5q-31 0 -49.5 18.5t-18.5 47.5q0 36 24 60t59 24q32 0 50 -18.5z" />
    <glyph glyph-name="egrave" unicode="&#xe8;" horiz-adv-x="483" 
d="M384 257.5q-85 -46.5 -228 -62.5v-4q0 -110 87 -110q31 0 60.5 11.5t63.5 35.5l45 -75q-88 -68 -185 -68q-93 0 -143.5 55t-50.5 154q1 86 29.5 166t89.5 131.5t152 51.5q79 0 122.5 -39t43.5 -99q-1 -101 -86 -147.5zM207.5 404q-32.5 -51 -44.5 -127q95 9 140 40t45 85
q0 24 -12.5 38.5t-40.5 14.5q-55 0 -87.5 -51zM272 814l174 -123l-37 -59l-193 89z" />
    <glyph glyph-name="uni1EBB" unicode="&#x1ebb;" horiz-adv-x="483" 
d="M384 257.5q-85 -46.5 -228 -62.5v-4q0 -110 87 -110q31 0 60.5 11.5t63.5 35.5l45 -75q-88 -68 -185 -68q-93 0 -143.5 55t-50.5 154q1 86 29.5 166t89.5 131.5t152 51.5q79 0 122.5 -39t43.5 -99q-1 -101 -86 -147.5zM207.5 404q-32.5 -51 -44.5 -127q95 9 140 40t45 85
q0 24 -12.5 38.5t-40.5 14.5q-55 0 -87.5 -51zM280 704q35 4 52.5 14.5t17.5 33.5q0 27 -31 27q-25 0 -53 -14l-17 60q40 23 90 23q47 0 73.5 -24.5t26.5 -64.5q0 -80 -87 -96l-8 -55h-76z" />
    <glyph glyph-name="uni0207" unicode="&#x207;" horiz-adv-x="483" 
d="M384 257.5q-85 -46.5 -228 -62.5v-4q0 -110 87 -110q31 0 60.5 11.5t63.5 35.5l45 -75q-88 -68 -185 -68q-93 0 -143.5 55t-50.5 154q1 86 29.5 166t89.5 131.5t152 51.5q79 0 122.5 -39t43.5 -99q-1 -101 -86 -147.5zM207.5 404q-32.5 -51 -44.5 -127q95 9 140 40t45 85
q0 24 -12.5 38.5t-40.5 14.5q-55 0 -87.5 -51zM160 624q17 69 61 109.5t107 40.5q64 0 98 -42.5t30 -111.5l-71 -10q-6 75 -65 75q-63 0 -91 -79z" />
    <glyph glyph-name="emacron" unicode="&#x113;" horiz-adv-x="483" 
d="M384 257.5q-85 -46.5 -228 -62.5v-4q0 -110 87 -110q31 0 60.5 11.5t63.5 35.5l45 -75q-88 -68 -185 -68q-93 0 -143.5 55t-50.5 154q1 86 29.5 166t89.5 131.5t152 51.5q79 0 122.5 -39t43.5 -99q-1 -101 -86 -147.5zM207.5 404q-32.5 -51 -44.5 -127q95 9 140 40t45 85
q0 24 -12.5 38.5t-40.5 14.5q-55 0 -87.5 -51zM445 661h-261l13 88h261z" />
    <glyph glyph-name="eogonek" unicode="&#x119;" horiz-adv-x="483" 
d="M384 257.5q-85 -46.5 -228 -62.5v-4q0 -110 87 -110q31 0 60.5 11.5t63.5 35.5l45 -75q-49 -38 -101 -55q-53 -27 -73.5 -52t-20.5 -52q0 -41 45 -41q27 0 56 7l-16 -83q-33 -7 -61 -7q-53 0 -85.5 27.5t-32.5 72.5q0 37 20.5 66.5t57.5 49.5q-81 7 -124.5 61.5
t-43.5 146.5q1 86 29.5 166t89.5 131.5t152 51.5q79 0 122.5 -39t43.5 -99q-1 -101 -86 -147.5zM207.5 404q-32.5 -51 -44.5 -127q95 9 140 40t45 85q0 24 -12.5 38.5t-40.5 14.5q-55 0 -87.5 -51z" />
    <glyph glyph-name="uni025B" unicode="&#x25b;" horiz-adv-x="443" 
d="M73 27q-51 41 -51 110q0 57 37 97t112 49q-94 23 -94 106q0 41 22.5 76t66.5 56.5t105 21.5q49 0 91 -15.5t73 -44.5l-58 -63q-24 17 -46.5 25.5t-51.5 8.5q-40 0 -61.5 -20.5t-21.5 -52.5q0 -31 18.5 -47.5t54.5 -16.5h52l-25 -86h-44q-55 0 -80 -23.5t-25 -63.5
q0 -31 20 -49t59 -18q31 0 59 11t63 34l46 -72q-37 -30 -85.5 -47t-102.5 -17q-82 0 -133 41z" />
    <glyph glyph-name="uni029A" unicode="&#x29a;" horiz-adv-x="517" 
d="M73 26.5q-51 40.5 -51 108.5q0 58 37.5 98.5t114.5 49.5q-89 23 -89 101q0 42 23.5 78.5t68.5 58.5t107 22q95 0 146.5 -57.5t51.5 -157.5q0 -102 -31.5 -179.5t-93.5 -120t-150 -42.5q-83 0 -134 40.5zM327.5 149.5q34.5 72.5 34.5 179.5q0 66 -20.5 95.5t-61.5 29.5
q-38 0 -58 -21t-20 -55q0 -61 66 -61h28l-26 -86h-22q-54 0 -77.5 -25t-23.5 -65q0 -31 18 -47.5t54 -16.5q74 0 108.5 72.5z" />
    <glyph glyph-name="uni025C" unicode="&#x25c;" horiz-adv-x="447" 
d="M365.5 508q45.5 -35 45.5 -95q0 -50 -32.5 -84.5t-95.5 -47.5q56 -8 85 -37t29 -78q0 -46 -24.5 -87t-76 -67t-126.5 -26q-111 0 -181 65l62 70q56 -44 118 -44q51 0 76.5 26.5t25.5 65.5q0 34 -22.5 48t-65.5 14h-67l22 86h46q50 0 76.5 23t26.5 59q0 55 -62 55
q-32 0 -58 -9.5t-59 -29.5l-47 69q85 59 188 59q71 0 116.5 -35z" />
    <glyph glyph-name="uni025E" unicode="&#x25e;" horiz-adv-x="509" 
d="M84 40.5q-50 54.5 -50 153.5q0 102 33 181t95.5 123.5t145.5 44.5q72 0 119 -35.5t47 -95.5q0 -50 -31.5 -83.5t-94.5 -46.5q55 -8 83 -37.5t28 -77.5q0 -47 -24.5 -88t-75.5 -67t-128 -26q-97 0 -147 54.5zM311.5 103.5q24.5 26.5 24.5 66.5q0 33 -22 47t-64 14h-27
l23 86h11q46 0 70.5 22.5t24.5 59.5q0 27 -14.5 41t-42.5 14q-48 0 -80 -38.5t-47 -99.5t-15 -127q0 -59 20 -85.5t64 -26.5q50 0 74.5 26.5z" />
    <glyph glyph-name="uni025D" unicode="&#x25d;" horiz-adv-x="670" 
d="M698 346q-51 -36 -111 -36q-61 0 -92.5 33t-29.5 86l1 14l-55 -32q-1 -49 -33 -83t-95 -47q56 -8 85 -37t29 -78q0 -46 -24.5 -87t-76 -67t-126.5 -26q-111 0 -181 65l62 70q56 -44 118 -44q51 0 76.5 26.5t25.5 65.5q0 34 -22.5 48t-65.5 14h-67l22 86h46q50 0 76.5 23
t26.5 59q0 55 -62 55q-32 0 -58 -9.5t-59 -29.5l-47 69q85 59 188 59q47 0 84 -16t57 -45l84 47h103l-10 -77q-1 -5 -1 -13q0 -40 40 -40q18 0 31.5 4.5t30.5 13.5z" />
    <glyph glyph-name="uni0258" unicode="&#x258;" horiz-adv-x="485" 
d="M401 482.5q48 -60.5 48 -159.5q0 -98 -32.5 -174.5t-93.5 -119.5t-143 -43q-107 0 -172 70l61 67q27 -22 52.5 -32t60.5 -10q92 0 128 114q-125 7 -193 46.5t-68 120.5q0 52 26 93t72 64.5t105 23.5q101 0 149 -60.5zM209.5 301.5q35.5 -21.5 115.5 -25.5q3 29 3 58
q0 122 -80 122q-34 0 -54 -24t-20 -65q0 -44 35.5 -65.5z" />
    <glyph glyph-name="uni0283" unicode="&#x283;" horiz-adv-x="253" 
d="M399 715l-49 -73q-15 9 -27.5 13.5t-29.5 4.5q-50 0 -60 -65l-9 -66l-74 -529l-7 -54q-12 -81 -60 -122t-122 -41q-66 0 -114 42l52 71q17 -11 29 -15.5t30 -4.5q26 0 42.5 16t20.5 47l8 61l74 529l9 65q11 75 56.5 117.5t118.5 42.5q63 0 112 -39z" />
    <glyph glyph-name="uni0286" unicode="&#x286;" horiz-adv-x="298" 
d="M444 715l-49 -73q-15 9 -27.5 13.5t-29.5 4.5q-50 0 -60 -65l-9 -66l-75 -540q50 -14 86 -36l-30 -55q-23 12 -70 27q-42 -141 -184 -141q-55 0 -86 28.5t-31 77.5q0 58 40.5 92t102.5 34q37 0 54 -4l72 517l9 65q11 75 56.5 117.5t118.5 42.5q63 0 112 -39zM42 -122
q17 23 25 70q-16 4 -45 4q-31 0 -48 -16t-17 -42q0 -39 38 -39q30 0 47 23z" />
    <glyph glyph-name="uni01AA" unicode="&#x1aa;" horiz-adv-x="339" 
d="M368 -179q-54 -38 -123 -38q-67 0 -104.5 35.5t-37.5 101.5q0 10 2 32l7 48l64 462q-28 -13 -56 -13q-47 0 -79 35.5t-33 92.5q0 52 22 92.5t61 62.5t88 22q64 0 101 -36t37 -103q0 -16 -3 -36l-81 -579l-8 -64q-1 -6 -1 -16q0 -44 44 -44q18 0 31.5 4.5t32.5 14.5z
M188 544l9 65q2 16 2 20q0 36 -29 36q-26 0 -39.5 -24.5t-13.5 -60.5q0 -22 9 -32t27 -10q17 0 35 6z" />
    <glyph glyph-name="uni0285" unicode="&#x285;" horiz-adv-x="428" 
d="M401 24q-54 -38 -123 -38q-67 0 -104.5 35.5t-37.5 101.5q0 10 2 32l7 48l17 123l8 64q1 6 1 16q0 44 -44 44q-18 0 -31.5 -4.5t-32.5 -14.5l-36 74q54 38 123 38q67 0 104.5 -35.5t37.5 -101.5q0 -10 -2 -32l-7 -48l-17 -123l-8 -64q-1 -6 -1 -16q0 -44 44 -44
q18 0 31.5 4.5t32.5 14.5z" />
    <glyph glyph-name="uni0247" unicode="&#x247;" horiz-adv-x="483" 
d="M408.5 275q-60.5 -46 -166.5 -67l-46 -118q19 -9 47 -9q31 0 60.5 11.5t63.5 35.5l45 -75q-88 -68 -185 -68q-36 0 -68 9l-25 -66l-44 12l28 72q-85 52 -85 182q1 86 29.5 166t89.5 131.5t152 51.5q11 0 17 -1l21 56l44 -13l-19 -50q50 -14 76.5 -49t26.5 -81
q-1 -84 -61.5 -130zM201 402.5q-32 -52.5 -44 -129.5q35 3 64 9l68 177q-56 -4 -88 -56.5zM334 449l-58 -151q79 31 79 104q0 33 -21 47zM190 200l-39 -5v-4q0 -39 11 -64z" />
    <glyph glyph-name="uni1EBD" unicode="&#x1ebd;" horiz-adv-x="483" 
d="M384 257.5q-85 -46.5 -228 -62.5v-4q0 -110 87 -110q31 0 60.5 11.5t63.5 35.5l45 -75q-88 -68 -185 -68q-93 0 -143.5 55t-50.5 154q1 86 29.5 166t89.5 131.5t152 51.5q79 0 122.5 -39t43.5 -99q-1 -101 -86 -147.5zM207.5 404q-32.5 -51 -44.5 -127q95 9 140 40t45 85
q0 24 -12.5 38.5t-40.5 14.5q-55 0 -87.5 -51zM338.5 652.5q-13.5 6.5 -32.5 20.5q-13 10 -20.5 14.5t-16.5 4.5q-15 0 -27 -11t-28 -34l-58 35q23 45 53.5 72.5t64.5 27.5q20 0 34.5 -7.5t30.5 -20.5q22 -18 36 -18t26 10.5t27 32.5l59 -34q-24 -47 -54 -73t-63 -26
q-18 0 -31.5 6.5z" />
    <glyph glyph-name="uni01DD" unicode="&#x1dd;" horiz-adv-x="483" 
d="M399.5 489q50.5 -55 50.5 -154q-1 -86 -29.5 -166t-89.5 -131.5t-152 -51.5q-79 0 -122.5 39t-43.5 99q1 101 86 147.5t228 62.5v4q0 110 -87 110q-31 0 -60.5 -11.5t-63.5 -35.5l-45 75q88 68 185 68q93 0 143.5 -55zM275.5 125q32.5 51 44.5 127q-95 -9 -140 -40
t-45 -85q0 -24 12.5 -38.5t40.5 -14.5q55 0 87.5 51z" />
    <glyph glyph-name="uni0259" unicode="&#x259;" horiz-adv-x="483" 
d="M399.5 489q50.5 -55 50.5 -154q-1 -86 -29.5 -166t-89.5 -131.5t-152 -51.5q-79 0 -122.5 39t-43.5 99q1 101 86 147.5t228 62.5v4q0 110 -87 110q-31 0 -60.5 -11.5t-63.5 -35.5l-45 75q88 68 185 68q93 0 143.5 -55zM275.5 125q32.5 51 44.5 127q-95 -9 -140 -40
t-45 -85q0 -24 12.5 -38.5t40.5 -14.5q55 0 87.5 51z" />
    <glyph glyph-name="uni025A" unicode="&#x25a;" horiz-adv-x="711" 
d="M740 346q-51 -36 -111 -36q-61 0 -92.5 33t-29.5 86l1 14l-66 -38q8 -34 8 -70q-1 -86 -29.5 -166t-89.5 -131.5t-152 -51.5q-79 0 -122.5 39t-43.5 99q1 101 86 147.5t228 62.5v4q0 110 -87 110q-31 0 -60.5 -11.5t-63.5 -35.5l-45 75q88 68 185 68q107 0 157 -72
l103 57h103l-10 -77q-1 -5 -1 -13q0 -40 40 -40q18 0 31.5 4.5t30.5 13.5zM275.5 125q32.5 51 44.5 127q-95 -9 -140 -40t-45 -85q0 -24 12.5 -38.5t40.5 -14.5q55 0 87.5 51z" />
    <glyph glyph-name="uni0292" unicode="&#x292;" horiz-adv-x="445" 
d="M423 441l-208 -233q87 -4 131.5 -47.5t44.5 -119.5q0 -77 -33.5 -135.5t-93 -90.5t-134.5 -32q-66 0 -112.5 25t-77.5 72l73 61q28 -33 55 -47.5t64 -14.5q62 0 98 44.5t36 115.5q0 50 -25 70.5t-81 20.5h-80l1 1l11 77l197 226h-241l14 95h373z" />
    <glyph glyph-name="uni01EF" unicode="&#x1ef;" horiz-adv-x="445" 
d="M423 441l-208 -233q87 -4 131.5 -47.5t44.5 -119.5q0 -77 -33.5 -135.5t-93 -90.5t-134.5 -32q-66 0 -112.5 25t-77.5 72l73 61q28 -33 55 -47.5t64 -14.5q62 0 98 44.5t36 115.5q0 50 -25 70.5t-81 20.5h-80l1 1l11 77l197 226h-241l14 95h373zM397 796l41 -52
l-141 -124h-75l-108 124l49 52l103 -86z" />
    <glyph glyph-name="uni0293" unicode="&#x293;" horiz-adv-x="444" 
d="M424 441l-207 -230q86 -4 130.5 -47.5t44.5 -120.5q0 -90 -48.5 -154t-134.5 -90l17 -58l-70 -25l-18 69q-26 -2 -41 -2q-81 0 -125 34t-44 95q0 57 36 92.5t87 35.5q52 0 81 -32.5t48 -114.5q44 18 65.5 57t21.5 92q0 50 -25.5 70.5t-82.5 20.5h-78l11 77l198 224h-241
l13 95h373zM36 -109.5q19 -11.5 62 -11.5h16q-13 52 -26 70.5t-35 18.5q-16 0 -26 -12t-10 -30q0 -24 19 -35.5z" />
    <glyph glyph-name="uni01B9" unicode="&#x1b9;" horiz-adv-x="447" 
d="M443 434h-248l141 -227l-10 -77l-2 1l1 -1h-76q-68 0 -104.5 -39t-36.5 -109q0 -51 23.5 -77t68.5 -26q38 0 71 15t70 48l58 -65q-43 -47 -95 -70.5t-118 -23.5q-96 0 -150.5 53t-54.5 141q0 68 30 120t84.5 81.5t126.5 30.5l-150 232l12 88h373z" />
    <glyph glyph-name="uni01BA" unicode="&#x1ba;" horiz-adv-x="437" 
d="M5.5 -160q-30.5 33 -30.5 73q0 59 41.5 89t129.5 51q72 16 101 35.5t29 59.5q0 27 -15 38t-49 11h-125l11 76l174 164h-230l13 92h371l-11 -85l-185 -169h26q69 0 107 -32t38 -92q0 -77 -52 -120t-147 -64q-48 -10 -72.5 -19t-33 -18t-8.5 -23t10.5 -27t31.5 -26l-40 -72
q-54 25 -84.5 58z" />
    <glyph glyph-name="f" unicode="f" horiz-adv-x="308" 
d="M271 642.5q-18 -18.5 -23 -58.5l-8 -55h113l-26 -89h-99l-56 -401q-11 -78 -38.5 -126t-68 -76t-104.5 -54l-30 90q38 17 60.5 35t37.5 49t22 83l56 400h-75l12 89h75l9 62q10 74 58 118.5t128 44.5q69 0 126 -40l-44 -75q-34 22 -73 22q-34 0 -52 -18.5z" />
    <glyph glyph-name="uni1E1F" unicode="&#x1e1f;" horiz-adv-x="308" 
d="M271 642.5q-18 -18.5 -23 -58.5l-8 -55h113l-26 -89h-99l-56 -401q-11 -78 -38.5 -126t-68 -76t-104.5 -54l-30 90q38 17 60.5 35t37.5 49t22 83l56 400h-75l12 89h75l9 62q10 74 58 118.5t128 44.5q69 0 126 -40l-44 -75q-34 22 -73 22q-34 0 -52 -18.5zM265 838.5
q-18 18.5 -18 47.5q0 37 23.5 60.5t59.5 23.5q31 0 49.5 -18.5t18.5 -47.5q0 -36 -24 -60t-59 -24q-32 0 -50 18.5z" />
    <glyph glyph-name="uni02A9" unicode="&#x2a9;" horiz-adv-x="787" 
d="M715.5 510q30.5 -34 30.5 -93q0 -17 -3 -35l-54 -382l-7 -54q-12 -81 -60 -122t-122 -41q-66 0 -114 42l52 71q17 -11 29 -15.5t30 -4.5q26 0 42.5 16t20.5 47l8 61l51 367q2 18 2 24q0 49 -37 49q-54 0 -121 -130l-43 -310h-121l62 440h-133l-56 -401
q-11 -78 -38.5 -126t-68 -76t-104.5 -54l-30 90q38 17 60.5 35t37.5 49t22 83l56 400h-75l12 89h75l9 62q10 74 58 118.5t128 44.5q69 0 126 -40l-44 -75q-34 22 -73 22q-34 0 -52 -18.5t-23 -58.5l-8 -55h238l-6 -93q72 108 161 108q52 0 82.5 -34z" />
    <glyph glyph-name="g" unicode="g" horiz-adv-x="524" 
d="M495 496l-69 -477q-18 -125 -77.5 -181.5t-164.5 -56.5q-45 0 -91 14.5t-83 39.5l44 83q66 -39 127 -39q50 0 83 27t43 102l8 63q-28 -33 -59 -52t-71 -19q-72 0 -112 51.5t-40 138.5t29 167.5t92.5 133t160.5 52.5q92 0 180 -47zM224.5 413q-34.5 -39 -51 -99
t-16.5 -124q0 -97 64 -97q29 0 54.5 21.5t51.5 60.5l40 267q-27 10 -57 10q-51 0 -85.5 -39z" />
    <glyph glyph-name="uni01F5" unicode="&#x1f5;" horiz-adv-x="524" 
d="M495 496l-69 -477q-18 -125 -77.5 -181.5t-164.5 -56.5q-45 0 -91 14.5t-83 39.5l44 83q66 -39 127 -39q50 0 83 27t43 102l8 63q-28 -33 -59 -52t-71 -19q-72 0 -112 51.5t-40 138.5t29 167.5t92.5 133t160.5 52.5q92 0 180 -47zM224.5 413q-34.5 -39 -51 -99
t-16.5 -124q0 -97 64 -97q29 0 54.5 21.5t51.5 60.5l40 267q-27 10 -57 10q-51 0 -85.5 -39zM414 815l43 -94l-215 -90l-30 61z" />
    <glyph glyph-name="uni0263" unicode="&#x263;" horiz-adv-x="453" 
d="M262 71q19 -49 28.5 -84t9.5 -69q0 -66 -35.5 -100.5t-99.5 -34.5q-51 0 -79.5 26.5t-28.5 70.5q0 41 21.5 86.5t64.5 107.5l1 1l-105 454h129l46 -376l147 376h128zM193 -1q-18 -29 -30.5 -59t-12.5 -50q0 -25 22 -25q18 0 26.5 14t8.5 37q0 32 -14 83z" />
    <glyph glyph-name="gbreve" unicode="&#x11f;" horiz-adv-x="524" 
d="M495 496l-69 -477q-18 -125 -77.5 -181.5t-164.5 -56.5q-45 0 -91 14.5t-83 39.5l44 83q66 -39 127 -39q50 0 83 27t43 102l8 63q-28 -33 -59 -52t-71 -19q-72 0 -112 51.5t-40 138.5t29 167.5t92.5 133t160.5 52.5q92 0 180 -47zM224.5 413q-34.5 -39 -51 -99
t-16.5 -124q0 -97 64 -97q29 0 54.5 21.5t51.5 60.5l40 267q-27 10 -57 10q-51 0 -85.5 -39zM225 681q-34 43 -30 111l71 10q3 -37 18.5 -56t44.5 -19q31 0 54 20.5t37 57.5l67 -18q-14 -68 -57 -108.5t-106 -40.5q-65 0 -99 43z" />
    <glyph glyph-name="gcaron" unicode="&#x1e7;" horiz-adv-x="524" 
d="M495 496l-69 -477q-18 -125 -77.5 -181.5t-164.5 -56.5q-45 0 -91 14.5t-83 39.5l44 83q66 -39 127 -39q50 0 83 27t43 102l8 63q-28 -33 -59 -52t-71 -19q-72 0 -112 51.5t-40 138.5t29 167.5t92.5 133t160.5 52.5q92 0 180 -47zM224.5 413q-34.5 -39 -51 -99
t-16.5 -124q0 -97 64 -97q29 0 54.5 21.5t51.5 60.5l40 267q-27 10 -57 10q-51 0 -85.5 -39zM458 796l41 -52l-141 -124h-75l-108 124l49 52l103 -86z" />
    <glyph glyph-name="gcircumflex" unicode="&#x11d;" horiz-adv-x="524" 
d="M495 496l-69 -477q-18 -125 -77.5 -181.5t-164.5 -56.5q-45 0 -91 14.5t-83 39.5l44 83q66 -39 127 -39q50 0 83 27t43 102l8 63q-28 -33 -59 -52t-71 -19q-72 0 -112 51.5t-40 138.5t29 167.5t92.5 133t160.5 52.5q92 0 180 -47zM224.5 413q-34.5 -39 -51 -99
t-16.5 -124q0 -97 64 -97q29 0 54.5 21.5t51.5 60.5l40 267q-27 10 -57 10q-51 0 -85.5 -39zM211 629l-44 53l143 124h74l109 -127l-53 -50l-103 87z" />
    <glyph glyph-name="gcommaaccent" unicode="&#x123;" horiz-adv-x="524" 
d="M495 496l-69 -477q-18 -125 -77.5 -181.5t-164.5 -56.5q-45 0 -91 14.5t-83 39.5l44 83q66 -39 127 -39q50 0 83 27t43 102l8 63q-28 -33 -59 -52t-71 -19q-72 0 -112 51.5t-40 138.5t29 167.5t92.5 133t160.5 52.5q92 0 180 -47zM224.5 413q-34.5 -39 -51 -99
t-16.5 -124q0 -97 64 -97q29 0 54.5 21.5t51.5 60.5l40 267q-27 10 -57 10q-51 0 -85.5 -39zM278.5 602q-16.5 17 -16.5 41q0 21 7.5 38.5t28.5 52.5l52 87h62l-43 -117q23 -19 23 -47q0 -31 -20.5 -51.5t-49.5 -20.5q-27 0 -43.5 17z" />
    <glyph glyph-name="gdotaccent" unicode="&#x121;" horiz-adv-x="524" 
d="M495 496l-69 -477q-18 -125 -77.5 -181.5t-164.5 -56.5q-45 0 -91 14.5t-83 39.5l44 83q66 -39 127 -39q50 0 83 27t43 102l8 63q-28 -33 -59 -52t-71 -19q-72 0 -112 51.5t-40 138.5t29 167.5t92.5 133t160.5 52.5q92 0 180 -47zM224.5 413q-34.5 -39 -51 -99
t-16.5 -124q0 -97 64 -97q29 0 54.5 21.5t51.5 60.5l40 267q-27 10 -57 10q-51 0 -85.5 -39zM278 662.5q-18 18.5 -18 47.5q0 37 23.5 60.5t59.5 23.5q31 0 49.5 -18.5t18.5 -47.5q0 -36 -24 -60t-59 -24q-32 0 -50 18.5z" />
    <glyph glyph-name="uni0260" unicode="&#x260;" horiz-adv-x="528" 
d="M675 715l-49 -73q-15 9 -27.5 13.5t-29.5 4.5q-50 0 -60 -65l-9 -66h-1l-73 -510q-18 -125 -77.5 -181.5t-164.5 -56.5q-45 0 -91 14.5t-83 39.5l44 83q66 -39 127 -39q50 0 83 27t43 102l8 63q-28 -33 -59 -52t-70 -19q-72 0 -112.5 51.5t-40.5 138.5q0 86 29 167
t91 133.5t155 52.5q36 0 71 -11l9 62q11 75 56.5 117.5t118.5 42.5q63 0 112 -39zM366 443q-23 9 -56 9q-51 0 -85.5 -39t-51 -99t-16.5 -124q0 -97 64 -97q29 0 54.5 21.5t51.5 60.5z" />
    <glyph glyph-name="uni01BE" unicode="&#x1be;" horiz-adv-x="457" 
d="M381 369q32 -42 32 -114q0 -77 -31.5 -138.5t-88 -96t-127.5 -34.5q-57 0 -101.5 23t-81.5 67l69 60q27 -29 52 -42.5t58 -13.5q59 0 93 48t34 125q0 53 -21.5 81.5t-67.5 42.5l-53 13l21 148h-62l11 80h62l17 122l121 13l-19 -135h98l-11 -80h-98l-14 -102l24 -8
q52 -17 84 -59z" />
    <glyph glyph-name="uni0294" unicode="&#x294;" horiz-adv-x="420" 
d="M130 351l44 15q72 26 104 72t32 121q0 49 -21.5 75t-63.5 26q-32 0 -61.5 -14t-64.5 -43l-54 65q48 44 95 65t105 21q89 0 141 -52t52 -140q0 -100 -43 -158.5t-131 -91.5l-20 -8l-42 -304h-121z" />
    <glyph glyph-name="uni0296" unicode="&#x296;" horiz-adv-x="457" 
d="M317 753l-44 -317l24 -8q52 -17 84 -59t32 -114q0 -77 -31.5 -138.5t-88 -96t-127.5 -34.5q-57 0 -101.5 23t-81.5 67l69 60q27 -29 52 -42.5t58 -13.5q59 0 93 48t34 125q0 53 -21.5 81.5t-67.5 42.5l-53 13l49 350z" />
    <glyph glyph-name="uni0295" unicode="&#x295;" horiz-adv-x="416" 
d="M141 0l43 303l-16 8q-54 25 -84.5 63t-30.5 109q0 77 32 138.5t89 97t129 35.5q58 0 101 -22.5t79 -67.5l-68 -60q-26 29 -51 42.5t-58 13.5q-59 0 -93.5 -49.5t-34.5 -126.5q0 -50 22.5 -78t67.5 -43l42 -14l-48 -349h-121z" />
    <glyph glyph-name="uni0242" unicode="&#x242;" horiz-adv-x="407" 
d="M95 199l53 17q60 19 88.5 54t28.5 93q0 39 -18.5 61.5t-52.5 22.5q-32 0 -57 -12.5t-56 -38.5l-53 70q42 38 86.5 57.5t98.5 19.5q81 0 129 -48.5t48 -125.5q0 -81 -39.5 -133t-112.5 -75l-29 -9l-21 -152h-121z" />
    <glyph glyph-name="uni02A1" unicode="&#x2a1;" horiz-adv-x="420" 
d="M244 304l-12 -86h93l-11 -80h-93l-19 -138h-121l19 138h-60l12 80h59l19 133l44 15q72 26 104 72t32 121q0 49 -21.5 75t-63.5 26q-32 0 -61.5 -14t-64.5 -43l-54 65q48 44 95 65t105 21q89 0 141 -52t52 -140q0 -100 -43 -158.5t-131 -91.5z" />
    <glyph glyph-name="uni02A2" unicode="&#x2a2;" horiz-adv-x="416" 
d="M404 731.5q43 -22.5 79 -67.5l-68 -60q-26 29 -51 42.5t-58 13.5q-59 0 -93.5 -49.5t-34.5 -126.5q0 -50 22.5 -78t67.5 -43l42 -14l-18 -131h61l-12 -80h-60l-19 -138h-121l20 138h-93l11 80h93l12 85l-16 8q-54 25 -84.5 63t-30.5 109q0 77 32 138.5t89 97t129 35.5
q58 0 101 -22.5z" />
    <glyph glyph-name="uni0261" unicode="&#x261;" horiz-adv-x="524" 
d="M495 496l-69 -477q-18 -125 -77.5 -181.5t-164.5 -56.5q-45 0 -91 14.5t-83 39.5l44 83q66 -39 127 -39q50 0 83 27t43 102l8 63q-28 -33 -59 -52t-71 -19q-72 0 -112 51.5t-40 138.5t29 167.5t92.5 133t160.5 52.5q92 0 180 -47zM224.5 413q-34.5 -39 -51 -99
t-16.5 -124q0 -97 64 -97q29 0 54.5 21.5t51.5 60.5l40 267q-27 10 -57 10q-51 0 -85.5 -39z" />
    <glyph glyph-name="uni01E5" unicode="&#x1e5;" horiz-adv-x="507" 
d="M420 -14h56l-8 -62h-66q-28 -74 -82 -108.5t-135 -34.5q-46 0 -91.5 14.5t-83.5 39.5l43 79q67 -39 130 -39q34 0 59 11t41 38h-106l8 62h119l1 9l13 93q-58 -72 -131 -72q-72 0 -112.5 52t-40.5 140q0 79 29 156t92.5 128t159.5 51q93 0 180 -47l-69 -477zM330 191
l37 251q-27 10 -57 10q-51 0 -85 -37.5t-50 -93.5t-16 -113q0 -98 63 -98q52 0 108 81z" />
    <glyph glyph-name="uni021D" unicode="&#x21d;" horiz-adv-x="439" 
d="M353.5 506.5q46.5 -36.5 46.5 -101.5q0 -53 -32.5 -85t-91.5 -48q56 -1 85 -26t29 -70q0 -104 -101.5 -175t-269.5 -107l-3 87q126 40 187 85t61 107q0 27 -16.5 37.5t-49.5 10.5h-82l20 86h42q44 0 71 22.5t27 66.5q0 58 -63 58q-31 0 -57.5 -9.5t-58.5 -28.5l-47 69
q43 30 87.5 44t95.5 14q74 0 120.5 -36.5z" />
    <glyph glyph-name="h" unicode="h" horiz-adv-x="517" 
d="M444.5 510q30.5 -34 30.5 -93q0 -16 -3 -34l-54 -383h-121l51 367q2 20 2 26q0 47 -36 47q-55 0 -122 -130l-42 -310h-121l104 740l122 13l-44 -312q28 47 66 75t85 28q52 0 82.5 -34z" />
    <glyph glyph-name="hbar" unicode="&#x127;" horiz-adv-x="525" 
d="M452.5 510q30.5 -34 30.5 -93q0 -16 -3 -34l-54 -383h-121l51 367q2 20 2 26q0 47 -36 47q-55 0 -122 -130l-42 -310h-121l84 601h-59l11 80h60l8 59l122 13l-10 -72h129l-22 -80h-118l-23 -160q28 47 66 75t85 28q52 0 82.5 -34z" />
    <glyph glyph-name="uni021F" unicode="&#x21f;" horiz-adv-x="517" 
d="M444.5 510q30.5 -34 30.5 -93q0 -16 -3 -34l-54 -383h-121l51 367q2 20 2 26q0 47 -36 47q-55 0 -122 -130l-42 -310h-121l104 740l122 13l-44 -312q28 47 66 75t85 28q52 0 82.5 -34zM468 975l44 -52l-141 -121h-75l-109 124l50 49l105 -83z" />
    <glyph glyph-name="hcircumflex" unicode="&#x125;" horiz-adv-x="517" 
d="M444.5 510q30.5 -34 30.5 -93q0 -16 -3 -34l-54 -383h-121l51 367q2 20 2 26q0 47 -36 47q-55 0 -122 -130l-42 -310h-121l104 740l122 13l-44 -312q28 47 66 75t85 28q52 0 82.5 -34zM217 807l-44 53l142 120h75l108 -123l-49 -50l-106 83z" />
    <glyph glyph-name="uni1E25" unicode="&#x1e25;" horiz-adv-x="517" 
d="M444.5 510q30.5 -34 30.5 -93q0 -16 -3 -34l-54 -383h-121l51 367q2 20 2 26q0 47 -36 47q-55 0 -122 -130l-42 -310h-121l104 740l122 13l-44 -312q28 47 66 75t85 28q52 0 82.5 -34zM260 -86.5q18 -18.5 18 -47.5q0 -37 -24 -60.5t-59 -23.5q-31 0 -49.5 18.5
t-18.5 47.5q0 36 24 60t59 24q32 0 50 -18.5z" />
    <glyph glyph-name="uni0267" unicode="&#x267;" horiz-adv-x="518" 
d="M445.5 510q30.5 -34 30.5 -93q0 -16 -3 -34l-54 -383h-1l-7 -54q-12 -81 -60 -122t-122 -41q-66 0 -114 42l52 71q17 -11 29 -15.5t30 -4.5q26 0 42.5 16t20.5 47l8 61h1l52 367q2 18 2 24q0 49 -37 49q-55 0 -122 -130l-43 -310h-121l74 528l10 71q10 70 58.5 112.5
t127.5 42.5q68 0 123 -31l-44 -80q-34 17 -73 17q-33 0 -50.5 -18t-22.5 -55l-8 -59l-11 -87q60 103 149 103q53 0 83.5 -34z" />
    <glyph glyph-name="uni0266" unicode="&#x266;" horiz-adv-x="518" 
d="M445.5 510q30.5 -34 30.5 -93q0 -16 -3 -34l-54 -383h-121l52 367q2 18 2 24q0 49 -37 49q-55 0 -122 -130l-43 -310h-121l74 528l10 71q10 70 58.5 112.5t127.5 42.5q68 0 123 -31l-44 -80q-34 17 -73 17q-33 0 -50.5 -18t-22.5 -55l-8 -59l-11 -87q60 103 149 103
q53 0 83.5 -34z" />
    <glyph glyph-name="uni0265" unicode="&#x265;" horiz-adv-x="513" 
d="M306 81q-30 -44 -66 -70t-83 -26q-53 0 -84 34t-31 92q0 9 2 31l55 387h121l-53 -374q-2 -16 -2 -23q0 -45 36 -45q31 0 61 31.5t60 82.5l46 328h121l-104 -734l-121 -14z" />
    <glyph glyph-name="uni02AE" unicode="&#x2ae;" horiz-adv-x="617" 
d="M592 529l-103 -734l-121 -14l42 300q-31 -45 -66.5 -70.5t-82.5 -25.5q-53 0 -84 34t-31 92q0 9 2 31l24 184l8 64q1 6 1 16q0 44 -44 44q-18 0 -31.5 -4.5t-32.5 -14.5l-36 74q54 38 123 38q67 0 104.5 -35.5t37.5 -101.5q0 -10 -2 -32l-7 -48l-22 -171q-2 -18 -2 -23
q0 -45 35 -45q55 0 122 114l45 328h121z" />
    <glyph glyph-name="uni02AF" unicode="&#x2af;" horiz-adv-x="617" 
d="M654 -179q-54 -38 -123 -38q-67 0 -104.5 35.5t-37.5 101.5q0 10 2 32l7 48l11 80q-30 -44 -65.5 -69.5t-82.5 -25.5q-53 0 -84 34t-31 92q0 9 2 31l24 184l8 64q1 6 1 16q0 44 -44 44q-18 0 -31.5 -4.5t-32.5 -14.5l-36 74q54 38 123 38q67 0 104.5 -35.5t37.5 -101.5
q0 -10 -2 -32l-7 -48l-22 -171q-2 -18 -2 -23q0 -45 35 -45q55 0 122 114l45 328h121l-73 -529l-8 -64q-1 -6 -1 -16q0 -44 44 -44q18 0 31.5 4.5t32.5 14.5z" />
    <glyph glyph-name="uni0195" unicode="&#x195;" horiz-adv-x="780" 
d="M358.5 28.5q-40.5 42.5 -40.5 107.5q0 9 2 27l28 204q2 20 2 26q0 47 -36 47q-55 0 -122 -130l-42 -310h-121l104 740l122 13l-44 -312q28 47 66 75t85 28q52 0 82.5 -34t30.5 -93q0 -16 -3 -34l-31 -221q-1 -8 -1 -21q0 -62 51 -62q77 0 105.5 108t28.5 242q0 60 -4 100
h115q7 -61 7 -109q0 -198 -59 -316t-204 -118q-81 0 -121.5 42.5z" />
    <glyph glyph-name="i" unicode="i" horiz-adv-x="253" 
d="M224 529l-74 -529h-121l74 529h121zM131 662.5q-18 18.5 -18 47.5q0 37 23.5 60.5t59.5 23.5q31 0 49.5 -18.5t18.5 -47.5q0 -36 -24 -60t-59 -24q-32 0 -50 18.5z" />
    <glyph glyph-name="dotlessi" unicode="&#x131;" horiz-adv-x="253" 
d="M224 529l-74 -529h-121l74 529h121z" />
    <glyph glyph-name="iacute" unicode="&#xed;" horiz-adv-x="253" 
d="M224 529l-74 -529h-121l74 529h121zM267 815l43 -94l-215 -90l-30 61z" />
    <glyph glyph-name="ibreve" unicode="&#x12d;" horiz-adv-x="253" 
d="M224 529l-74 -529h-121l74 529h121zM78 681q-34 43 -30 111l71 10q3 -37 18.5 -56t44.5 -19q31 0 54 20.5t37 57.5l67 -18q-14 -68 -57 -108.5t-106 -40.5q-65 0 -99 43z" />
    <glyph glyph-name="uni01D0" unicode="&#x1d0;" horiz-adv-x="253" 
d="M224 529l-74 -529h-121l74 529h121zM311 796l41 -52l-141 -124h-75l-108 124l49 52l103 -86z" />
    <glyph glyph-name="icircumflex" unicode="&#xee;" horiz-adv-x="253" 
d="M224 529l-74 -529h-121l74 529h121zM64 629l-44 53l143 124h74l109 -127l-53 -50l-103 87z" />
    <glyph glyph-name="uni0209" unicode="&#x209;" horiz-adv-x="253" 
d="M224 529l-74 -529h-121l74 529h121zM93 845l59 -186l-72 -29l-82 172zM241 845l51 -184l-71 -26l-76 169z" />
    <glyph glyph-name="idieresis" unicode="&#xef;" horiz-adv-x="253" 
d="M224 529l-74 -529h-121l74 529h121zM38.5 665q-16.5 16 -16.5 42q0 32 21.5 53t52.5 21q27 0 43.5 -16t16.5 -42q0 -32 -21.5 -53t-52.5 -21q-27 0 -43.5 16zM238.5 665q-16.5 16 -16.5 42q0 32 21.5 53t52.5 21q27 0 43.5 -16t16.5 -42q0 -32 -21.5 -53t-52.5 -21
q-27 0 -43.5 16z" />
    <glyph glyph-name="uni1E2F" unicode="&#x1e2f;" horiz-adv-x="253" 
d="M224 529l-74 -529h-121l74 529h121zM273 919l61 -65l-153 -136l-44 41zM23.5 630q-16.5 16 -16.5 42q0 32 22 53.5t52 21.5q27 0 43.5 -16.5t16.5 -42.5q0 -32 -21.5 -53t-52.5 -21q-27 0 -43.5 16zM229.5 630q-16.5 16 -16.5 42q0 32 22 53.5t52 21.5q27 0 43.5 -16.5
t16.5 -42.5q0 -32 -21.5 -53t-52.5 -21q-27 0 -43.5 16z" />
    <glyph glyph-name="i.loclTRK" horiz-adv-x="253" 
d="M224 529l-74 -529h-121l74 529h121zM131 662.5q-18 18.5 -18 47.5q0 37 23.5 60.5t59.5 23.5q31 0 49.5 -18.5t18.5 -47.5q0 -36 -24 -60t-59 -24q-32 0 -50 18.5z" />
    <glyph glyph-name="uni1ECB" unicode="&#x1ecb;" horiz-adv-x="253" 
d="M224 529l-74 -529h-121l74 529h121zM131 662.5q-18 18.5 -18 47.5q0 37 23.5 60.5t59.5 23.5q31 0 49.5 -18.5t18.5 -47.5q0 -36 -24 -60t-59 -24q-32 0 -50 18.5zM125 -86.5q18 -18.5 18 -47.5q0 -37 -24 -60.5t-59 -23.5q-31 0 -49.5 18.5t-18.5 47.5q0 36 24 60t59 24
q32 0 50 -18.5z" />
    <glyph glyph-name="igrave" unicode="&#xec;" horiz-adv-x="253" 
d="M224 529l-74 -529h-121l74 529h121zM139 814l174 -123l-37 -59l-193 89z" />
    <glyph glyph-name="uni1EC9" unicode="&#x1ec9;" horiz-adv-x="253" 
d="M224 529l-74 -529h-121l74 529h121zM147 704q35 4 52.5 14.5t17.5 33.5q0 27 -31 27q-25 0 -53 -14l-17 60q40 23 90 23q47 0 73.5 -24.5t26.5 -64.5q0 -80 -87 -96l-8 -55h-76z" />
    <glyph glyph-name="uni020B" unicode="&#x20b;" horiz-adv-x="253" 
d="M224 529l-74 -529h-121l74 529h121zM27 624q17 69 61 109.5t107 40.5q64 0 98 -42.5t30 -111.5l-71 -10q-6 75 -65 75q-63 0 -91 -79z" />
    <glyph glyph-name="ij" unicode="&#x133;" horiz-adv-x="506" 
d="M224 529l-74 -529h-121l74 529h121zM131 662.5q-18 18.5 -18 47.5q0 37 23.5 60.5t59.5 23.5q31 0 49.5 -18.5t18.5 -47.5q0 -36 -24 -60t-59 -24q-32 0 -50 18.5zM168 -128q38 17 60.5 35t37.5 49.5t22 83.5l69 489h121l-69 -490q-11 -78 -38.5 -126t-68 -76t-104.5 -54
zM386 662.5q-18 18.5 -18 47.5q0 37 23.5 60.5t59.5 23.5q31 0 49.5 -18.5t18.5 -47.5q0 -36 -24 -60t-59 -24q-32 0 -50 18.5z" />
    <glyph glyph-name="imacron" unicode="&#x12b;" horiz-adv-x="253" 
d="M224 529l-74 -529h-121l74 529h121zM312 661h-261l13 88h261z" />
    <glyph glyph-name="iogonek" unicode="&#x12f;" horiz-adv-x="253" 
d="M245.5 775.5q18.5 -18.5 18.5 -47.5q0 -36 -24 -60t-59 -24q-32 0 -50 18.5t-18 47.5q0 37 24 60.5t59 23.5q31 0 49.5 -18.5zM103 529h121l-74 -529h-31q-73 -32 -98.5 -61.5t-25.5 -58.5q0 -35 42 -35q26 0 54 6l-18 -82q-27 -6 -59 -6q-51 0 -81.5 27t-30.5 73
t30 84.5t99 69.5z" />
    <glyph glyph-name="uni0269" unicode="&#x269;" horiz-adv-x="264" 
d="M98 529h121l-58 -410l-1 -10q0 -24 22 -24q8 0 26 4l15 -85q-37 -18 -81 -18q-49 0 -76 27.5t-27 77.5q0 9 2 29z" />
    <glyph glyph-name="uni0268" unicode="&#x268;" horiz-adv-x="292" 
d="M150 662.5q-18 18.5 -18 47.5q0 37 24 60.5t59 23.5q31 0 49.5 -18.5t18.5 -47.5q0 -36 -24 -60t-59 -24q-32 0 -50 18.5zM292 326l-13 -88h-77l-33 -238h-121l33 238h-75l13 88h75l28 203h121l-28 -203h77z" />
    <glyph glyph-name="itilde" unicode="&#x129;" horiz-adv-x="253" 
d="M224 529l-74 -529h-121l74 529h121zM205.5 652.5q-13.5 6.5 -32.5 20.5q-13 10 -20.5 14.5t-16.5 4.5q-15 0 -27 -11t-28 -34l-58 35q23 45 53.5 72.5t64.5 27.5q20 0 34.5 -7.5t30.5 -20.5q22 -18 36 -18t26 10.5t27 32.5l59 -34q-24 -47 -54 -73t-63 -26
q-18 0 -31.5 6.5z" />
    <glyph glyph-name="j" unicode="j" horiz-adv-x="253" 
d="M-85 -128q38 17 60.5 35t37.5 49.5t22 83.5l69 489h121l-69 -490q-11 -78 -38.5 -126t-68 -76t-104.5 -54zM133 662.5q-18 18.5 -18 47.5q0 37 23.5 60.5t59.5 23.5q31 0 49.5 -18.5t18.5 -47.5q0 -36 -24 -60t-59 -24q-32 0 -50 18.5z" />
    <glyph glyph-name="uni0237" unicode="&#x237;" horiz-adv-x="253" 
d="M-85 -128q38 17 60.5 35t37.5 49.5t22 83.5l69 489h121l-69 -490q-11 -78 -38.5 -126t-68 -76t-104.5 -54z" />
    <glyph glyph-name="uni01F0" unicode="&#x1f0;" horiz-adv-x="253" 
d="M-85 -128q38 17 60.5 35t37.5 49.5t22 83.5l69 489h121l-69 -490q-11 -78 -38.5 -126t-68 -76t-104.5 -54zM313 796l41 -52l-141 -124h-75l-108 124l49 52l103 -86z" />
    <glyph glyph-name="jcircumflex" unicode="&#x135;" horiz-adv-x="253" 
d="M-85 -128q38 17 60.5 35t37.5 49.5t22 83.5l69 489h121l-69 -490q-11 -78 -38.5 -126t-68 -76t-104.5 -54zM66 629l-44 53l143 124h74l109 -127l-53 -50l-103 87z" />
    <glyph glyph-name="uni029D" unicode="&#x29d;" horiz-adv-x="321" 
d="M291.5 775.5q18.5 -18.5 18.5 -47.5q0 -36 -24 -60t-59 -24q-32 0 -50 18.5t-18 47.5q0 37 24 60.5t59 23.5q31 0 49.5 -18.5zM194 -11q50 -14 86 -36l-30 -55q-23 12 -70 27q-42 -141 -184 -141q-55 0 -86 28.5t-31 77.5q0 58 40.5 92t102.5 34q37 0 54 -4l72 517h121z
M42 -122q17 23 25 70q-16 4 -45 4q-31 0 -48 -16t-17 -42q0 -39 38 -39q30 0 47 23z" />
    <glyph glyph-name="uni025F" unicode="&#x25f;" horiz-adv-x="295" 
d="M278 207h-75l-24 -168q-11 -78 -38.5 -126t-68 -76t-104.5 -54l-30 89q38 17 60.5 35t37.5 49.5t22 83.5l24 167h-77l13 89h76l33 233h121l-33 -233h76z" />
    <glyph glyph-name="uni0284" unicode="&#x284;" horiz-adv-x="325" 
d="M427 715l-49 -73q-15 9 -27.5 13.5t-29.5 4.5q-50 0 -60 -65l-9 -66h1l-62 -440h74l-13 -89h-75q-14 -63 -41.5 -103.5t-65.5 -65t-97 -48.5l-30 89q50 23 75 48.5t38 79.5h-77l13 89h78l70 505q11 75 56.5 117.5t118.5 42.5q63 0 112 -39z" />
    <glyph glyph-name="uni0249" unicode="&#x249;" horiz-adv-x="295" 
d="M278 207h-75l-24 -168q-11 -78 -38.5 -126t-68 -76t-104.5 -54l-30 89q38 17 60.5 35t37.5 49.5t22 83.5l24 167h-77l13 89h76l33 233h121l-33 -233h76zM156 662.5q-18 18.5 -18 47.5q0 37 23.5 60.5t59.5 23.5q31 0 49.5 -18.5t18.5 -47.5q0 -36 -24 -60t-59 -24
q-32 0 -50 18.5z" />
    <glyph glyph-name="k" unicode="k" horiz-adv-x="508" 
d="M213 450q68 93 160 93q56 0 91 -33.5t35 -86.5q0 -122 -143 -186l93 -237h-130l-93 257q80 26 114 61.5t34 86.5q0 48 -44 48q-33 0 -68.5 -32.5t-67.5 -96.5l-44 -324h-121l104 741l122 13z" />
    <glyph glyph-name="uni01E9" unicode="&#x1e9;" horiz-adv-x="508" 
d="M213 450q68 93 160 93q56 0 91 -33.5t35 -86.5q0 -122 -143 -186l93 -237h-130l-93 257q80 26 114 61.5t34 86.5q0 48 -44 48q-33 0 -68.5 -32.5t-67.5 -96.5l-44 -324h-121l104 741l122 13zM486 975l44 -52l-141 -121h-75l-109 124l50 49l105 -83z" />
    <glyph glyph-name="kcommaaccent" unicode="&#x137;" horiz-adv-x="508" 
d="M213 450q68 93 160 93q56 0 91 -33.5t35 -86.5q0 -122 -143 -186l93 -237h-130l-93 257q80 26 114 61.5t34 86.5q0 48 -44 48q-33 0 -68.5 -32.5t-67.5 -96.5l-44 -324h-121l104 741l122 13zM261.5 -90q16.5 -17 16.5 -41q0 -21 -7.5 -38.5t-28.5 -52.5l-52 -87h-62
l43 117q-23 19 -23 47q0 31 20.5 51.5t49.5 20.5q27 0 43.5 -17z" />
    <glyph glyph-name="kgreenlandic" unicode="&#x138;" horiz-adv-x="481" 
d="M224 529l-74 -529h-121l74 529h121zM507 529l-188 -249l127 -280h-132l-122 279l183 250h132z" />
    <glyph glyph-name="uni0199" unicode="&#x199;" horiz-adv-x="508" 
d="M356 237l93 -237h-130l-93 257q80 26 114 61.5t34 86.5q0 48 -44 48q-33 0 -68.5 -32.5t-66.5 -96.5l-45 -324h-121l74 528l10 71q10 70 58.5 112.5t127.5 42.5q68 0 123 -31l-44 -80q-34 17 -73 17q-33 0 -50.5 -18t-22.5 -55l-8 -59l-11 -79q67 94 160 94
q57 0 91.5 -33t34.5 -87q0 -122 -143 -186z" />
    <glyph glyph-name="uni029E" unicode="&#x29e;" horiz-adv-x="476" 
d="M-28 0l192 247l-129 282h131l120 -289l-180 -240h-134zM227 -219l104 748h121l-104 -735z" />
    <glyph glyph-name="l" unicode="l" horiz-adv-x="264" 
d="M161 119l-1 -11q0 -12 5 -17.5t16 -5.5q10 0 27 5l15 -86q-37 -18 -81 -18q-49 0 -76 27.5t-27 77.5q0 9 2 29l87 621l122 13z" />
    <glyph glyph-name="lacute" unicode="&#x13a;" horiz-adv-x="264" 
d="M161 119l-1 -11q0 -12 5 -17.5t16 -5.5q10 0 27 5l15 -86q-37 -18 -81 -18q-49 0 -76 27.5t-27 77.5q0 9 2 29l87 621l122 13zM289 975l42 -94l-214 -80l-28 61z" />
    <glyph glyph-name="uni019B" unicode="&#x19b;" horiz-adv-x="457" 
d="M382.5 182.5q18.5 -86.5 56.5 -156.5l-116 -39q-36 77 -52 164t-19 246l-157 -411l-119 29l222 484l50 -9q-3 60 -13 94l-60 -56l-64 43l80 76q-26 18 -74 27l23 81q42 -10 71.5 -21.5t51.5 -29.5l76 69l46 -60l-73 -69q32 -68 41 -204q11 -171 29.5 -257.5z" />
    <glyph glyph-name="uni019A" unicode="&#x19a;" horiz-adv-x="294" 
d="M185 119l-1 -11q0 -12 5 -17.5t16 -5.5q10 0 27 5l15 -86q-37 -18 -81 -18q-49 0 -76 27.5t-27 77.5q0 9 2 29l29 208h-76l13 88h75l46 325l122 13l-47 -338h77l-13 -88h-77z" />
    <glyph glyph-name="uni026C" unicode="&#x26c;" horiz-adv-x="368" 
d="M286 90l15 -86q-37 -18 -81 -18q-49 0 -76 27.5t-27 77.5q0 9 2 29l18 128h-1q-61 3 -92.5 31t-31.5 75q0 52 34.5 84.5t87.5 32.5q16 0 34 -4l38 274l122 13l-61 -432h1q20 1 65 9l4 -67q-35 -11 -79 -14h-1l-18 -131l-1 -11q0 -12 5 -17.5t16 -5.5q10 0 27 5zM158 401
q-9 3 -21 3q-18 0 -29 -12t-11 -33q0 -38 50 -38z" />
    <glyph glyph-name="lcaron" unicode="&#x13e;" horiz-adv-x="297" 
d="M161 119l-1 -11q0 -12 5 -17.5t16 -5.5q10 0 27 5l15 -86q-37 -18 -81 -18q-49 0 -76 27.5t-27 77.5q0 9 2 29l87 621l122 13zM298 753l94 -12l-70 -199l-64 8z" />
    <glyph glyph-name="uni1E3D" unicode="&#x1e3d;" horiz-adv-x="264" 
d="M161 119l-1 -11q0 -12 5 -17.5t16 -5.5q10 0 27 5l15 -86q-37 -18 -81 -18q-49 0 -76 27.5t-27 77.5q0 9 2 29l87 621l122 13zM-11 -243l-44 53l143 124h75l108 -127l-52 -50l-103 87z" />
    <glyph glyph-name="lcommaaccent" unicode="&#x13c;" horiz-adv-x="264" 
d="M161 119l-1 -11q0 -12 5 -17.5t16 -5.5q10 0 27 5l15 -86q-37 -18 -81 -18q-49 0 -76 27.5t-27 77.5q0 9 2 29l87 621l122 13zM164.5 -90q16.5 -17 16.5 -41q0 -21 -7.5 -38.5t-28.5 -52.5l-52 -87h-62l43 117q-23 19 -23 47q0 31 20.5 51.5t49.5 20.5q27 0 43.5 -17z
" />
    <glyph glyph-name="uni0234" unicode="&#x234;" horiz-adv-x="403" 
d="M368 206.5q27 -25.5 27 -70.5q0 -71 -51.5 -110.5t-130.5 -39.5q-31 0 -51 4l-38 -69l-59 28l37 63q-58 36 -58 114q0 21 2 32l82 583l122 13l-86 -616q-1 -7 -1 -18q29 59 60.5 85.5t75.5 26.5q42 0 69 -25.5zM287 94.5q20 14.5 20 39.5t-23 25q-18 0 -34 -16.5
t-39 -61.5q7 -1 25 -1q31 0 51 14.5z" />
    <glyph glyph-name="ldot" unicode="&#x140;" horiz-adv-x="356" 
d="M161 119l-1 -11q0 -12 5 -17.5t16 -5.5q10 0 27 5l15 -86q-37 -18 -81 -18q-49 0 -76 27.5t-27 77.5q0 9 2 29l87 621l122 13zM255 319.5q-18 18.5 -18 47.5q0 37 23.5 60.5t59.5 23.5q31 0 49.5 -18.5t18.5 -47.5q0 -36 -24 -60t-59 -24q-32 0 -50 18.5z" />
    <glyph glyph-name="uni1E37" unicode="&#x1e37;" horiz-adv-x="264" 
d="M161 119l-1 -11q0 -12 5 -17.5t16 -5.5q10 0 27 5l15 -86q-37 -18 -81 -18q-49 0 -76 27.5t-27 77.5q0 9 2 29l87 621l122 13zM171 -86.5q18 -18.5 18 -47.5q0 -37 -24 -60.5t-59 -23.5q-31 0 -49.5 18.5t-18.5 47.5q0 36 24 60t59 24q32 0 50 -18.5z" />
    <glyph glyph-name="uni026E" unicode="&#x26e;" horiz-adv-x="621" 
d="M599 441l-208 -233q87 -4 131.5 -47.5t44.5 -119.5q0 -77 -33.5 -135.5t-93 -90.5t-134.5 -32q-63 0 -108 23t-76 67l71 63q26 -31 52.5 -44t62.5 -13q61 0 97.5 44.5t36.5 115.5q0 50 -25 70.5t-81 20.5h-80l1 1l10 77l197 226h-259l-44 -315l-1 -11q0 -12 5 -17.5
t16 -5.5q10 0 27 5l15 -86q-37 -18 -81 -18q-49 0 -76 27.5t-27 77.5q0 9 2 29l87 621l122 13l-32 -225h393z" />
    <glyph glyph-name="uni026D" unicode="&#x26d;" horiz-adv-x="252" 
d="M285 -179q-54 -38 -123 -38q-67 0 -104.5 35.5t-37.5 101.5q0 10 2 32l7 48l104 741l122 13l-105 -754l-8 -64q-1 -6 -1 -16q0 -44 44 -44q18 0 31.5 4.5t32.5 14.5z" />
    <glyph glyph-name="uni01C9" unicode="&#x1c9;" horiz-adv-x="517" 
d="M161 119l-1 -11q0 -12 5 -17.5t16 -5.5q10 0 27 5l15 -86q-37 -18 -81 -18q-49 0 -76 27.5t-27 77.5q0 9 2 29l87 621l122 13zM179 -128q38 17 60.5 35t37.5 49.5t22 83.5l69 489h121l-69 -490q-11 -78 -38.5 -126t-68 -76t-104.5 -54zM397 662.5q-18 18.5 -18 47.5
q0 37 23.5 60.5t59.5 23.5q31 0 49.5 -18.5t18.5 -47.5q0 -36 -24 -60t-59 -24q-32 0 -50 18.5z" />
    <glyph glyph-name="uni026B" unicode="&#x26b;" horiz-adv-x="385" 
d="M224 119l-1 -11q0 -12 5 -17.5t16 -5.5q10 0 27 5l15 -86q-37 -18 -81 -18q-49 0 -76 27.5t-27 77.5q0 9 2 29l32 227q-10 2 -14 2q-22 0 -38 -13.5t-35 -39.5l-62 37q30 48 65.5 78.5t82.5 30.5q10 0 14 -1l42 300l122 13l-52 -371q3 -1 10 -1q22 0 39 13t33 36l62 -38
q-29 -47 -64.5 -76t-81.5 -29q-8 0 -11 1z" />
    <glyph glyph-name="uni02AA" unicode="&#x2aa;" horiz-adv-x="610" 
d="M49 158q0 21 3 43l76 540l123 13l-79 -557q-2 -20 -2 -28q0 -49 31 -69.5t96 -20.5q78 0 115.5 22t37.5 62q0 24 -17 40.5t-65 35.5q-60 24 -87 56t-27 84q0 46 25 83.5t68.5 59t96.5 21.5q94 0 160 -64l-54 -67q-27 20 -51.5 30t-52.5 10q-34 0 -54.5 -17.5t-20.5 -45.5
q0 -24 17 -39.5t64 -34.5q60 -22 89 -55.5t29 -86.5q0 -93 -77 -140t-211 -47q-233 0 -233 172z" />
    <glyph glyph-name="lslash" unicode="&#x142;" horiz-adv-x="292" 
d="M223 90l15 -86q-37 -18 -81 -18q-49 0 -76 27.5t-27 77.5q0 9 2 29l23 166l-41 -25l-26 75l81 49l50 356l122 13l-40 -289l65 40l24 -77l-103 -63l-35 -246l-1 -11q0 -12 5 -17.5t16 -5.5q10 0 27 5z" />
    <glyph glyph-name="uni02AB" unicode="&#x2ab;" horiz-adv-x="619" 
d="M619 440l-269 -343h226l-25 -97h-338q-37 -14 -71 -14q-49 0 -76 27t-27 76q0 20 2 31l87 621l121 13l-88 -635q-1 -4 -1 -11q0 -12 5 -17.5t16 -5.5q8 0 26 4l268 343h-201l14 97h344z" />
    <glyph glyph-name="m" unicode="m" horiz-adv-x="757" 
d="M685.5 510q29.5 -34 29.5 -92q0 -16 -3 -34l-54 -384h-121l51 367q2 20 2 27q0 46 -34 46q-26 0 -52.5 -33.5t-55.5 -92.5l-45 -314h-121l51 367q2 20 2 27q0 46 -34 46q-48 0 -108 -129l-43 -311h-121l74 529h105l-6 -90q68 105 151 105q42 0 70 -26.5t35 -74.5
q67 101 149 101q49 0 78.5 -34z" />
    <glyph glyph-name="uni1E3F" unicode="&#x1e3f;" horiz-adv-x="757" 
d="M685.5 510q29.5 -34 29.5 -92q0 -16 -3 -34l-54 -384h-121l51 367q2 20 2 27q0 46 -34 46q-26 0 -52.5 -33.5t-55.5 -92.5l-45 -314h-121l51 367q2 20 2 27q0 46 -34 46q-48 0 -108 -129l-43 -311h-121l74 529h105l-6 -90q68 105 151 105q42 0 70 -26.5t35 -74.5
q67 101 149 101q49 0 78.5 -34zM527 815l43 -94l-215 -90l-30 61z" />
    <glyph glyph-name="uni1E41" unicode="&#x1e41;" horiz-adv-x="757" 
d="M685.5 510q29.5 -34 29.5 -92q0 -16 -3 -34l-54 -384h-121l51 367q2 20 2 27q0 46 -34 46q-26 0 -52.5 -33.5t-55.5 -92.5l-45 -314h-121l51 367q2 20 2 27q0 46 -34 46q-48 0 -108 -129l-43 -311h-121l74 529h105l-6 -90q68 105 151 105q42 0 70 -26.5t35 -74.5
q67 101 149 101q49 0 78.5 -34zM391 662.5q-18 18.5 -18 47.5q0 37 23.5 60.5t59.5 23.5q31 0 49.5 -18.5t18.5 -47.5q0 -36 -24 -60t-59 -24q-32 0 -50 18.5z" />
    <glyph glyph-name="uni0271" unicode="&#x271;" horiz-adv-x="757" 
d="M685.5 510q29.5 -34 29.5 -92q0 -16 -3 -34l-54 -384h-1l-7 -54q-12 -81 -60 -122t-122 -41q-66 0 -114 42l52 71q17 -11 29 -15.5t30 -4.5q26 0 42.5 16t20.5 47l8 61h1l51 367q2 20 2 27q0 46 -34 46q-26 0 -52.5 -33.5t-55.5 -92.5l-45 -314h-121l51 367q2 20 2 27
q0 46 -34 46q-48 0 -108 -129l-43 -311h-121l74 529h105l-6 -90q68 105 151 105q42 0 70 -26.5t35 -74.5q67 101 149 101q49 0 78.5 -34z" />
    <glyph glyph-name="uni0270" unicode="&#x270;" horiz-adv-x="752" 
d="M728 529l-103 -734l-124 -14l43 297q-60 -93 -139 -93q-41 0 -70.5 26t-36.5 74q-69 -100 -148 -100q-49 0 -79 34t-30 92q0 16 3 34l55 384h121l-52 -367q-2 -20 -2 -27q0 -46 34 -46q26 0 54 33t54 88l46 319h121l-52 -367q-2 -20 -2 -27q0 -46 34 -46q26 0 54 33.5
t54 87.5l44 319h121z" />
    <glyph glyph-name="uni026F" unicode="&#x26f;" horiz-adv-x="757" 
d="M728 529l-74 -529h-105l6 90q-68 -105 -151 -105q-42 0 -70 26.5t-35 74.5q-67 -101 -149 -101q-49 0 -78.5 34t-29.5 92q0 16 3 34l54 384h121l-51 -367q-2 -20 -2 -27q0 -46 34 -46q26 0 52.5 33.5t55.5 92.5l45 314h121l-51 -367q-2 -20 -2 -27q0 -46 34 -46
q48 0 108 129l43 311h121z" />
    <glyph glyph-name="n" unicode="n" horiz-adv-x="517" 
d="M445.5 510q30.5 -34 30.5 -93q0 -17 -3 -35l-54 -382h-121l51 367q2 18 2 24q0 49 -37 49q-54 0 -121 -130l-43 -310h-121l74 529h105l-6 -93q72 108 161 108q52 0 82.5 -34z" />
    <glyph glyph-name="nacute" unicode="&#x144;" horiz-adv-x="517" 
d="M445.5 510q30.5 -34 30.5 -93q0 -17 -3 -35l-54 -382h-121l51 367q2 18 2 24q0 49 -37 49q-54 0 -121 -130l-43 -310h-121l74 529h105l-6 -93q72 108 161 108q52 0 82.5 -34zM402 815l43 -94l-215 -90l-30 61z" />
    <glyph glyph-name="napostrophe" unicode="&#x149;" horiz-adv-x="626" 
d="M201 740q15 -16 15 -39q0 -18 -6.5 -33.5t-26.5 -50.5l-49 -82h-58l41 111q-21 16 -21 45q0 27 19.5 46t45.5 19q25 0 40 -16zM554.5 510q30.5 -34 30.5 -93q0 -17 -3 -35l-54 -382h-121l51 367q2 18 2 24q0 49 -37 49q-54 0 -121 -130l-43 -310h-121l74 529h105l-6 -93
q72 108 161 108q52 0 82.5 -34z" />
    <glyph glyph-name="ncaron" unicode="&#x148;" horiz-adv-x="517" 
d="M445.5 510q30.5 -34 30.5 -93q0 -17 -3 -35l-54 -382h-121l51 367q2 18 2 24q0 49 -37 49q-54 0 -121 -130l-43 -310h-121l74 529h105l-6 -93q72 108 161 108q52 0 82.5 -34zM446 796l41 -52l-141 -124h-75l-108 124l49 52l103 -86z" />
    <glyph glyph-name="uni1E4B" unicode="&#x1e4b;" horiz-adv-x="517" 
d="M445.5 510q30.5 -34 30.5 -93q0 -17 -3 -35l-54 -382h-121l51 367q2 18 2 24q0 49 -37 49q-54 0 -121 -130l-43 -310h-121l74 529h105l-6 -93q72 108 161 108q52 0 82.5 -34zM79 -243l-44 53l143 124h75l108 -127l-52 -50l-103 87z" />
    <glyph glyph-name="ncommaaccent" unicode="&#x146;" horiz-adv-x="517" 
d="M445.5 510q30.5 -34 30.5 -93q0 -17 -3 -35l-54 -382h-121l51 367q2 18 2 24q0 49 -37 49q-54 0 -121 -130l-43 -310h-121l74 529h105l-6 -93q72 108 161 108q52 0 82.5 -34zM254.5 -90q16.5 -17 16.5 -41q0 -21 -7.5 -38.5t-28.5 -52.5l-52 -87h-62l43 117
q-23 19 -23 47q0 31 20.5 51.5t49.5 20.5q27 0 43.5 -17z" />
    <glyph glyph-name="uni0235" unicode="&#x235;" horiz-adv-x="679" 
d="M644.5 207.5q26.5 -25.5 26.5 -69.5q0 -72 -52 -112t-131 -40q-25 0 -52 5l-38 -70l-58 28l37 64q-29 18 -43.5 48t-14.5 67q0 16 3 34l27 200q2 11 2 29q0 49 -37 49q-58 0 -122 -134l-42 -306h-121l74 529h105l-6 -98q72 112 164 112q51 0 80 -33t29 -93q0 -18 -3 -39
l-32 -232q-2 -20 -2 -26q30 58 62 85.5t76 27.5q42 0 68.5 -25.5zM563 94.5q20 14.5 20 39.5t-23 25q-18 0 -33.5 -16.5t-39.5 -61.5q7 -1 24 -1q32 0 52 14.5z" />
    <glyph glyph-name="uni1E45" unicode="&#x1e45;" horiz-adv-x="517" 
d="M445.5 510q30.5 -34 30.5 -93q0 -17 -3 -35l-54 -382h-121l51 367q2 18 2 24q0 49 -37 49q-54 0 -121 -130l-43 -310h-121l74 529h105l-6 -93q72 108 161 108q52 0 82.5 -34zM266 662.5q-18 18.5 -18 47.5q0 37 23.5 60.5t59.5 23.5q31 0 49.5 -18.5t18.5 -47.5
q0 -36 -24 -60t-59 -24q-32 0 -50 18.5z" />
    <glyph glyph-name="uni1E47" unicode="&#x1e47;" horiz-adv-x="517" 
d="M445.5 510q30.5 -34 30.5 -93q0 -17 -3 -35l-54 -382h-121l51 367q2 18 2 24q0 49 -37 49q-54 0 -121 -130l-43 -310h-121l74 529h105l-6 -93q72 108 161 108q52 0 82.5 -34zM261 -86.5q18 -18.5 18 -47.5q0 -37 -24 -60.5t-59 -23.5q-31 0 -49.5 18.5t-18.5 47.5
q0 36 24 60t59 24q32 0 50 -18.5z" />
    <glyph glyph-name="uni01F9" unicode="&#x1f9;" horiz-adv-x="517" 
d="M445.5 510q30.5 -34 30.5 -93q0 -17 -3 -35l-54 -382h-121l51 367q2 18 2 24q0 49 -37 49q-54 0 -121 -130l-43 -310h-121l74 529h105l-6 -93q72 108 161 108q52 0 82.5 -34zM274 814l174 -123l-37 -59l-193 89z" />
    <glyph glyph-name="eng" unicode="&#x14b;" horiz-adv-x="517" 
d="M445.5 510q30.5 -34 30.5 -93q0 -17 -3 -35l-54 -382l-7 -54q-12 -81 -60 -122t-122 -41q-66 0 -114 42l52 71q17 -11 29 -15.5t30 -4.5q26 0 42.5 16t20.5 47l8 61l51 367q2 18 2 24q0 49 -37 49q-54 0 -121 -130l-43 -310h-121l74 529h105l-6 -93q72 108 161 108
q52 0 82.5 -34z" />
    <glyph glyph-name="uni0272" unicode="&#x272;" horiz-adv-x="517" 
d="M445.5 510q30.5 -34 30.5 -93q0 -17 -3 -35l-54 -382h-121l51 367q2 18 2 24q0 49 -37 49q-54 0 -121 -130l-43 -310l-7 -54q-12 -81 -60 -122t-122 -41q-66 0 -114 42l52 71q17 -11 29 -15.5t30 -4.5q26 0 42.5 16t20.5 47l8 61l74 529h105l-6 -93q72 108 161 108
q52 0 82.5 -34z" />
    <glyph glyph-name="uni0273" unicode="&#x273;" horiz-adv-x="517" 
d="M554 -179q-54 -38 -123 -38q-67 0 -104.5 35.5t-37.5 101.5q0 10 2 32l7 48l51 367q2 18 2 24q0 49 -37 49q-54 0 -121 -130l-43 -310h-121l74 529h105l-6 -93q72 108 161 108q52 0 82.5 -34t30.5 -93q0 -17 -3 -35l-54 -382l-8 -64q-1 -6 -1 -16q0 -44 44 -44
q18 0 31.5 4.5t32.5 14.5z" />
    <glyph glyph-name="uni01CC" unicode="&#x1cc;" horiz-adv-x="770" 
d="M445.5 510q30.5 -34 30.5 -93q0 -17 -3 -35l-54 -382h-121l51 367q2 18 2 24q0 49 -37 49q-54 0 -121 -130l-43 -310h-121l74 529h105l-6 -93q72 108 161 108q52 0 82.5 -34zM432 -128q38 17 60.5 35t37.5 49.5t22 83.5l69 489h121l-69 -490q-11 -78 -38.5 -126t-68 -76
t-104.5 -54zM650 662.5q-18 18.5 -18 47.5q0 37 23.5 60.5t59.5 23.5q31 0 49.5 -18.5t18.5 -47.5q0 -36 -24 -60t-59 -24q-32 0 -50 18.5z" />
    <glyph glyph-name="uni019E" unicode="&#x19e;" horiz-adv-x="517" 
d="M445.5 510q30.5 -34 30.5 -93q0 -17 -3 -35l-84 -587l-123 -14l84 586q2 18 2 25q0 48 -38 48q-54 0 -121 -130l-43 -310h-121l74 529h105l-6 -93q72 108 161 108q52 0 82.5 -34z" />
    <glyph glyph-name="ntilde" unicode="&#xf1;" horiz-adv-x="517" 
d="M445.5 510q30.5 -34 30.5 -93q0 -17 -3 -35l-54 -382h-121l51 367q2 18 2 24q0 49 -37 49q-54 0 -121 -130l-43 -310h-121l74 529h105l-6 -93q72 108 161 108q52 0 82.5 -34zM340.5 652.5q-13.5 6.5 -32.5 20.5q-13 10 -20.5 14.5t-16.5 4.5q-15 0 -27 -11t-28 -34
l-58 35q23 45 53.5 72.5t64.5 27.5q20 0 34.5 -7.5t30.5 -20.5q22 -18 36 -18t26 10.5t27 32.5l59 -34q-24 -47 -54 -73t-63 -26q-18 0 -31.5 6.5z" />
    <glyph glyph-name="o" unicode="o" horiz-adv-x="525" 
d="M84 41q-50 56 -50 156q0 83 27.5 162.5t87.5 131.5t152 52q91 0 141 -55.5t50 -154.5q-1 -83 -28.5 -162.5t-87 -132.5t-151.5 -53q-91 0 -141 56zM311.5 122.5q30.5 43.5 43 104t13.5 118.5q0 105 -74 105q-50 0 -80.5 -43.5t-43 -104t-12.5 -118.5q0 -54 18.5 -79.5
t55.5 -25.5q49 0 79.5 43.5z" />
    <glyph glyph-name="oacute" unicode="&#xf3;" horiz-adv-x="525" 
d="M84 41q-50 56 -50 156q0 83 27.5 162.5t87.5 131.5t152 52q91 0 141 -55.5t50 -154.5q-1 -83 -28.5 -162.5t-87 -132.5t-151.5 -53q-91 0 -141 56zM311.5 122.5q30.5 43.5 43 104t13.5 118.5q0 105 -74 105q-50 0 -80.5 -43.5t-43 -104t-12.5 -118.5q0 -54 18.5 -79.5
t55.5 -25.5q49 0 79.5 43.5zM403 815l43 -94l-215 -90l-30 61z" />
    <glyph glyph-name="uni0275" unicode="&#x275;" horiz-adv-x="525" 
d="M442 487.5q50 -55.5 50 -154.5q-1 -83 -28.5 -162.5t-87 -132.5t-151.5 -53q-91 0 -141 56t-50 156q0 83 27.5 162.5t87.5 131.5t152 52q91 0 141 -55.5zM213 411.5q-31 -39.5 -46 -103.5h205q1 13 1 36q0 55 -19.5 81t-58.5 26q-51 0 -82 -39.5zM315 120q32 43 46 110
h-206q-2 -32 -2 -45q0 -55 19.5 -81.5t58.5 -26.5q52 0 84 43z" />
    <glyph glyph-name="obreve" unicode="&#x14f;" horiz-adv-x="525" 
d="M84 41q-50 56 -50 156q0 83 27.5 162.5t87.5 131.5t152 52q91 0 141 -55.5t50 -154.5q-1 -83 -28.5 -162.5t-87 -132.5t-151.5 -53q-91 0 -141 56zM311.5 122.5q30.5 43.5 43 104t13.5 118.5q0 105 -74 105q-50 0 -80.5 -43.5t-43 -104t-12.5 -118.5q0 -54 18.5 -79.5
t55.5 -25.5q49 0 79.5 43.5zM214 681q-34 43 -30 111l71 10q3 -37 18.5 -56t44.5 -19q31 0 54 20.5t37 57.5l67 -18q-14 -68 -57 -108.5t-106 -40.5q-65 0 -99 43z" />
    <glyph glyph-name="uni01D2" unicode="&#x1d2;" horiz-adv-x="525" 
d="M84 41q-50 56 -50 156q0 83 27.5 162.5t87.5 131.5t152 52q91 0 141 -55.5t50 -154.5q-1 -83 -28.5 -162.5t-87 -132.5t-151.5 -53q-91 0 -141 56zM311.5 122.5q30.5 43.5 43 104t13.5 118.5q0 105 -74 105q-50 0 -80.5 -43.5t-43 -104t-12.5 -118.5q0 -54 18.5 -79.5
t55.5 -25.5q49 0 79.5 43.5zM447 796l41 -52l-141 -124h-75l-108 124l49 52l103 -86z" />
    <glyph glyph-name="ocircumflex" unicode="&#xf4;" horiz-adv-x="525" 
d="M84 41q-50 56 -50 156q0 83 27.5 162.5t87.5 131.5t152 52q91 0 141 -55.5t50 -154.5q-1 -83 -28.5 -162.5t-87 -132.5t-151.5 -53q-91 0 -141 56zM311.5 122.5q30.5 43.5 43 104t13.5 118.5q0 105 -74 105q-50 0 -80.5 -43.5t-43 -104t-12.5 -118.5q0 -54 18.5 -79.5
t55.5 -25.5q49 0 79.5 43.5zM200 629l-44 53l143 124h74l109 -127l-53 -50l-103 87z" />
    <glyph glyph-name="uni1ED1" unicode="&#x1ed1;" horiz-adv-x="525" 
d="M543 922l61 -65l-153 -136l-44 41zM190 587l-44 53l142 120h75l108 -123l-49 -50l-106 83zM84 41q-50 56 -50 156q0 83 27.5 162.5t87.5 131.5t152 52q91 0 141 -55.5t50 -154.5q-1 -83 -28.5 -162.5t-87 -132.5t-151.5 -53q-91 0 -141 56zM311.5 122.5q30.5 43.5 43 104
t13.5 118.5q0 105 -74 105q-50 0 -80.5 -43.5t-43 -104t-12.5 -118.5q0 -54 18.5 -79.5t55.5 -25.5q49 0 79.5 43.5z" />
    <glyph glyph-name="uni1ED9" unicode="&#x1ed9;" horiz-adv-x="525" 
d="M84 41q-50 56 -50 156q0 83 27.5 162.5t87.5 131.5t152 52q91 0 141 -55.5t50 -154.5q-1 -83 -28.5 -162.5t-87 -132.5t-151.5 -53q-91 0 -141 56zM311.5 122.5q30.5 43.5 43 104t13.5 118.5q0 105 -74 105q-50 0 -80.5 -43.5t-43 -104t-12.5 -118.5q0 -54 18.5 -79.5
t55.5 -25.5q49 0 79.5 43.5zM200 629l-44 53l143 124h74l109 -127l-53 -50l-103 87zM261 -86.5q18 -18.5 18 -47.5q0 -37 -24 -60.5t-59 -23.5q-31 0 -49.5 18.5t-18.5 47.5q0 36 24 60t59 24q32 0 50 -18.5z" />
    <glyph glyph-name="uni1ED3" unicode="&#x1ed3;" horiz-adv-x="525" 
d="M147 920l91 -162l-50 -37l-117 140zM189 587l-44 53l142 120h75l108 -123l-49 -50l-106 83zM84 41q-50 56 -50 156q0 83 27.5 162.5t87.5 131.5t152 52q91 0 141 -55.5t50 -154.5q-1 -83 -28.5 -162.5t-87 -132.5t-151.5 -53q-91 0 -141 56zM311.5 122.5
q30.5 43.5 43 104t13.5 118.5q0 105 -74 105q-50 0 -80.5 -43.5t-43 -104t-12.5 -118.5q0 -54 18.5 -79.5t55.5 -25.5q49 0 79.5 43.5z" />
    <glyph glyph-name="uni1ED5" unicode="&#x1ed5;" horiz-adv-x="525" 
d="M84 41q-50 56 -50 156q0 83 27.5 162.5t87.5 131.5t152 52q91 0 141 -55.5t50 -154.5q-1 -83 -28.5 -162.5t-87 -132.5t-151.5 -53q-91 0 -141 56zM311.5 122.5q30.5 43.5 43 104t13.5 118.5q0 105 -74 105q-50 0 -80.5 -43.5t-43 -104t-12.5 -118.5q0 -54 18.5 -79.5
t55.5 -25.5q49 0 79.5 43.5zM187 587l-44 53l142 120h75l108 -123l-49 -50l-106 83zM431 829q35 4 52.5 14.5t17.5 33.5q0 27 -31 27q-25 0 -53 -14l-17 60q40 23 90 23q47 0 73.5 -24.5t26.5 -64.5q0 -80 -87 -96l-8 -55h-76z" />
    <glyph glyph-name="uni1ED7" unicode="&#x1ed7;" horiz-adv-x="525" 
d="M357 789q-14 7 -30 20q-2 2 -10 7.5t-14.5 8t-12.5 2.5q-15 0 -27 -10.5t-28 -33.5l-58 34q24 44 54 70.5t64 26.5q20 0 33.5 -6.5t30.5 -19.5q22 -18 36 -18t26 10t27 31l58 -33q-24 -46 -53.5 -71t-62.5 -25q-19 0 -33 7zM189 580l-44 53l142 120h75l108 -123l-49 -50
l-106 83zM84 41q-50 56 -50 156q0 83 27.5 162.5t87.5 131.5t152 52q91 0 141 -55.5t50 -154.5q-1 -83 -28.5 -162.5t-87 -132.5t-151.5 -53q-91 0 -141 56zM311.5 122.5q30.5 43.5 43 104t13.5 118.5q0 105 -74 105q-50 0 -80.5 -43.5t-43 -104t-12.5 -118.5
q0 -54 18.5 -79.5t55.5 -25.5q49 0 79.5 43.5z" />
    </font>
</defs>
</svg>
