<?xml version="1.0" standalone="no"?>
<!DOCTYPE svg PUBLIC "-//W3C//DTD SVG 1.1//EN" "http://www.w3.org/Graphics/SVG/1.1/DTD/svg11.dtd" >
<svg>
<metadata>
Created by FontForge 20120731 at Fri May  5 09:38:34 2017
 By www-data
Digitized data copyright 2012-2016, The Mozilla Foundation and Telefonica S.A.
</metadata>
<defs>
<font id="FiraSansCondensed-Light" horiz-adv-x="504" >
  <font-face 
    font-family="Fira Sans Condensed Light"
    font-weight="300"
    font-stretch="condensed"
    units-per-em="1000"
    panose-1="2 11 4 3 5 0 0 2 0 4"
    ascent="800"
    descent="-200"
    x-height="523"
    cap-height="685"
    bbox="-665 -350 1360 1053"
    underline-thickness="50"
    underline-position="-50"
    unicode-range="U+000D-FEFF"
  />
<missing-glyph horiz-adv-x="666" 
d="M543 1050v-1400h-420v1400h420zM489 998h-311v-1296h311v1296zM409.5 419q25.5 -32 25.5 -83q0 -53 -22.5 -82t-72.5 -36v-45q0 -11 -7.5 -17.5t-17.5 -6.5t-17.5 6.5t-7.5 17.5v84q53 3 72 19.5t19 57.5q0 33 -13 51t-48 18q-29 0 -52 -11q-8 -3 -13 -3q-11 0 -17.5 6.5
t-6.5 16.5q0 19 29.5 29t63.5 10q60 0 85.5 -32zM340 110q10 -10 10 -25q0 -16 -10 -26.5t-25 -10.5t-25 10.5t-10 26.5q0 15 10 25t25 10t25 -10z" />
    <glyph glyph-name="fi" unicode="fi" horiz-adv-x="509" 
d="M370 706l-20 -40q-58 29 -112 29q-44 0 -64.5 -18.5t-20.5 -65.5v-88h262v-523h-56v477h-206v-477h-56v477h-78v46h78v91q0 62 35.5 95.5t103.5 33.5q69 0 134 -37z" />
    <glyph glyph-name="fl" unicode="fl" horiz-adv-x="528" 
d="M501 3q-26 -14 -56 -14q-39 0 -61.5 24t-22.5 69v592q-34 12 -60.5 17t-57.5 5q-47 0 -68.5 -19.5t-21.5 -63.5v-90h122l-7 -46h-115v-477h-56v477h-78v46h78v92q0 59 36.5 93.5t104.5 34.5q34 0 62 -5.5t62 -17.5l55 7v-644q0 -46 38 -46q15 0 31 7z" />
    <glyph glyph-name=".notdef" horiz-adv-x="666" 
d="M543 1050v-1400h-420v1400h420zM489 998h-311v-1296h311v1296zM409.5 419q25.5 -32 25.5 -83q0 -53 -22.5 -82t-72.5 -36v-45q0 -11 -7.5 -17.5t-17.5 -6.5t-17.5 6.5t-7.5 17.5v84q53 3 72 19.5t19 57.5q0 33 -13 51t-48 18q-29 0 -52 -11q-8 -3 -13 -3q-11 0 -17.5 6.5
t-6.5 16.5q0 19 29.5 29t63.5 10q60 0 85.5 -32zM340 110q10 -10 10 -25q0 -16 -10 -26.5t-25 -10.5t-25 10.5t-10 26.5q0 15 10 25t25 10t25 -10z" />
    <glyph glyph-name="nonmarkingreturn" unicode="&#xd;" horiz-adv-x="249" 
 />
    <glyph glyph-name="space" unicode=" " horiz-adv-x="249" 
 />
    <glyph glyph-name="A" unicode="A" horiz-adv-x="516" 
d="M439 0l-54 188h-257l-54 -188h-57l205 685h72l205 -685h-60zM142 237h229l-114 400z" />
    <glyph glyph-name="Aacute" unicode="&#xc1;" horiz-adv-x="516" 
d="M439 0l-54 188h-257l-54 -188h-57l205 685h72l205 -685h-60zM142 237h229l-114 400zM331 885l25 -50l-179 -77l-16 33z" />
    <glyph glyph-name="Abreve" unicode="&#x102;" horiz-adv-x="516" 
d="M439 0l-54 188h-257l-54 -188h-57l205 685h72l205 -685h-60zM142 237h229l-114 400zM178.5 792.5q-32.5 27.5 -38.5 71.5l37 9q8 -29 29 -45.5t52 -16.5t52.5 16.5t29.5 45.5l37 -9q-6 -44 -38.5 -71.5t-80.5 -27.5q-47 0 -79.5 27.5z" />
    <glyph glyph-name="uni1EAE" unicode="&#x1eae;" horiz-adv-x="516" 
d="M439 0l-54 188h-257l-54 -188h-57l205 685h72l205 -685h-60zM142 237h229l-114 400zM178.5 765.5q-32.5 27.5 -38.5 71.5l37 9q8 -29 29 -45.5t52 -16.5t52.5 16.5t29.5 45.5l37 -9q-6 -44 -38.5 -71.5t-80.5 -27.5q-47 0 -79.5 27.5zM335 1015l39 -33l-112 -122l-26 23z
" />
    <glyph glyph-name="uni1EB6" unicode="&#x1eb6;" horiz-adv-x="516" 
d="M439 0l-54 188h-257l-54 -188h-57l205 685h72l205 -685h-60zM142 237h229l-114 400zM178.5 792.5q-32.5 27.5 -38.5 71.5l37 9q8 -29 29 -45.5t52 -16.5t52.5 16.5t29.5 45.5l37 -9q-6 -44 -38.5 -71.5t-80.5 -27.5q-47 0 -79.5 27.5zM229.5 -157q-11.5 12 -11.5 29
q0 18 11.5 29.5t29.5 11.5t29.5 -11.5t11.5 -29.5q0 -17 -11.5 -29t-29.5 -12t-29.5 12z" />
    <glyph glyph-name="uni1EB0" unicode="&#x1eb0;" horiz-adv-x="516" 
d="M439 0l-54 188h-257l-54 -188h-57l205 685h72l205 -685h-60zM142 237h229l-114 400zM177.5 765.5q-32.5 27.5 -38.5 71.5l37 9q8 -29 29 -45.5t52 -16.5t52.5 16.5t29.5 45.5l37 -9q-6 -44 -38.5 -71.5t-80.5 -27.5q-47 0 -79.5 27.5zM189 1015l99 -132l-26 -23l-112 122
z" />
    <glyph glyph-name="uni1EB2" unicode="&#x1eb2;" horiz-adv-x="516" 
d="M439 0l-54 188h-257l-54 -188h-57l205 685h72l205 -685h-60zM142 237h229l-114 400zM178.5 765.5q-32.5 27.5 -38.5 71.5l37 9q8 -29 29 -45.5t52 -16.5t52.5 16.5t29.5 45.5l37 -9q-6 -44 -38.5 -71.5t-80.5 -27.5q-47 0 -79.5 27.5zM233 911q31 2 47 12.5t16 34.5
q0 20 -11.5 30.5t-31.5 10.5q-25 0 -51 -14l-15 34q32 21 74 21q39 0 61.5 -21.5t22.5 -57.5q0 -33 -17.5 -52t-49.5 -24v-46h-45v72z" />
    <glyph glyph-name="uni1EB4" unicode="&#x1eb4;" horiz-adv-x="516" 
d="M439 0l-54 188h-257l-54 -188h-57l205 685h72l205 -685h-60zM142 237h229l-114 400zM179.5 765.5q-32.5 27.5 -38.5 71.5l37 9q8 -29 29 -45.5t52 -16.5t52.5 16.5t29.5 45.5l37 -9q-6 -44 -38.5 -71.5t-80.5 -27.5q-47 0 -79.5 27.5zM283.5 898.5q-13.5 6.5 -33.5 18.5
q-27 19 -42 19t-26.5 -9t-24.5 -30l-33 17q33 66 83 66q15 0 29 -6.5t30 -17.5q17 -11 26.5 -15.5t20.5 -4.5q14 0 25.5 10t25.5 33l33 -17q-31 -70 -83 -70q-17 0 -30.5 6.5z" />
    <glyph glyph-name="uni01CD" unicode="&#x1cd;" horiz-adv-x="516" 
d="M439 0l-54 188h-257l-54 -188h-57l205 685h72l205 -685h-60zM142 237h229l-114 400zM369 886l23 -27l-116 -103h-35l-117 103l24 27l111 -81z" />
    <glyph glyph-name="Acircumflex" unicode="&#xc2;" horiz-adv-x="516" 
d="M439 0l-54 188h-257l-54 -188h-57l205 685h72l205 -685h-60zM142 237h229l-114 400zM149 763l-25 27l117 102h35l116 -102l-24 -27l-110 80z" />
    <glyph glyph-name="uni1EA4" unicode="&#x1ea4;" horiz-adv-x="516" 
d="M439 0l-54 188h-257l-54 -188h-57l205 685h72l205 -685h-60zM142 237h229l-114 400zM150 729l-25 27l117 102h35l116 -102l-24 -27l-110 80zM437 987l39 -33l-112 -122l-26 23z" />
    <glyph glyph-name="uni1EAC" unicode="&#x1eac;" horiz-adv-x="516" 
d="M439 0l-54 188h-257l-54 -188h-57l205 685h72l205 -685h-60zM142 237h229l-114 400zM149 763l-25 27l117 102h35l116 -102l-24 -27l-110 80zM229.5 -157q-11.5 12 -11.5 29q0 18 11.5 29.5t29.5 11.5t29.5 -11.5t11.5 -29.5q0 -17 -11.5 -29t-29.5 -12t-29.5 12z" />
    <glyph glyph-name="uni1EA6" unicode="&#x1ea6;" horiz-adv-x="516" 
d="M439 0l-54 188h-257l-54 -188h-57l205 685h72l205 -685h-60zM142 237h229l-114 400zM149 729l-25 27l117 102h35l116 -102l-24 -27l-110 80zM84 987l99 -132l-26 -23l-112 122z" />
    <glyph glyph-name="uni1EA8" unicode="&#x1ea8;" horiz-adv-x="516" 
d="M439 0l-54 188h-257l-54 -188h-57l205 685h72l205 -685h-60zM142 237h229l-114 400zM149 729l-25 27l117 102h35l116 -102l-24 -27l-110 80zM351 885q31 2 47 12.5t16 34.5q0 20 -11.5 30.5t-31.5 10.5q-25 0 -51 -14l-15 34q32 21 74 21q39 0 61.5 -21.5t22.5 -57.5
q0 -33 -17.5 -52t-49.5 -24v-46h-45v72z" />
    <glyph glyph-name="uni1EAA" unicode="&#x1eaa;" horiz-adv-x="516" 
d="M439 0l-54 188h-257l-54 -188h-57l205 685h72l205 -685h-60zM142 237h229l-114 400zM148 729l-25 27l117 102h35l116 -102l-24 -27l-110 80zM280.5 904.5q-13.5 6.5 -33.5 18.5q-27 19 -42 19t-26.5 -9t-24.5 -30l-33 17q33 66 83 66q15 0 29 -6.5t30 -17.5
q17 -11 26.5 -15.5t20.5 -4.5q14 0 25.5 10t25.5 33l33 -17q-31 -70 -83 -70q-17 0 -30.5 6.5z" />
    <glyph glyph-name="uni0200" unicode="&#x200;" horiz-adv-x="516" 
d="M439 0l-54 188h-257l-54 -188h-57l205 685h72l205 -685h-60zM142 237h229l-114 400zM150 935l71 -151l-34 -15l-85 141zM268 935l64 -146l-35 -16l-77 137z" />
    <glyph glyph-name="Adieresis" unicode="&#xc4;" horiz-adv-x="516" 
d="M439 0l-54 188h-257l-54 -188h-57l205 685h72l205 -685h-60zM142 237h229l-114 400zM203.5 855q10.5 -11 10.5 -27q0 -17 -10.5 -28t-27.5 -11q-16 0 -27 11t-11 28q0 16 11 27t27 11q17 0 27.5 -11zM375 855q11 -11 11 -27q0 -17 -11 -28t-27 -11q-17 0 -28 11t-11 28
q0 16 11 27t28 11q16 0 27 -11z" />
    <glyph glyph-name="uni01DE" unicode="&#x1de;" horiz-adv-x="516" 
d="M439 0l-54 188h-257l-54 -188h-57l205 685h72l205 -685h-60zM142 237h229l-114 400zM200.5 809q10.5 -11 10.5 -27q0 -17 -10.5 -28t-27.5 -11q-16 0 -27 11t-11 28q0 16 11 27t27 11q17 0 27.5 -11zM372 809q11 -11 11 -27q0 -17 -11 -28t-27 -11q-17 0 -28 11t-11 28
q0 16 11 27t28 11q16 0 27 -11zM370 878h-219v44h219v-44z" />
    <glyph glyph-name="uni0226" unicode="&#x226;" horiz-adv-x="516" 
d="M439 0l-54 188h-257l-54 -188h-57l205 685h72l205 -685h-60zM142 237h229l-114 400zM288.5 866q11.5 -12 11.5 -29q0 -18 -11.5 -29.5t-29.5 -11.5t-29.5 11.5t-11.5 29.5q0 17 11.5 29t29.5 12t29.5 -12z" />
    <glyph glyph-name="uni1EA0" unicode="&#x1ea0;" horiz-adv-x="516" 
d="M439 0l-54 188h-257l-54 -188h-57l205 685h72l205 -685h-60zM142 237h229l-114 400zM229.5 -157q-11.5 12 -11.5 29q0 18 11.5 29.5t29.5 11.5t29.5 -11.5t11.5 -29.5q0 -17 -11.5 -29t-29.5 -12t-29.5 12z" />
    <glyph glyph-name="uni01E0" unicode="&#x1e0;" horiz-adv-x="516" 
d="M439 0l-54 188h-257l-54 -188h-57l205 685h72l205 -685h-60zM142 237h229l-114 400zM289.5 813q11.5 -12 11.5 -29q0 -18 -11.5 -29.5t-29.5 -11.5t-29.5 11.5t-11.5 29.5q0 17 11.5 29t29.5 12t29.5 -12zM370 878h-219v44h219v-44z" />
    <glyph glyph-name="Agrave" unicode="&#xc0;" horiz-adv-x="516" 
d="M439 0l-54 188h-257l-54 -188h-57l205 685h72l205 -685h-60zM142 237h229l-114 400zM184 885l169 -95l-16 -32l-179 77z" />
    <glyph glyph-name="uni1EA2" unicode="&#x1ea2;" horiz-adv-x="516" 
d="M439 0l-54 188h-257l-54 -188h-57l205 685h72l205 -685h-60zM142 237h229l-114 400zM236 847q31 2 47 12.5t16 34.5q0 20 -11.5 30.5t-31.5 10.5q-25 0 -51 -14l-15 34q32 21 74 21q39 0 61.5 -21.5t22.5 -57.5q0 -33 -17.5 -52t-49.5 -24v-46h-45v72z" />
    <glyph glyph-name="uni0202" unicode="&#x202;" horiz-adv-x="516" 
d="M439 0l-54 188h-257l-54 -188h-57l205 685h72l205 -685h-60zM142 237h229l-114 400zM338.5 874.5q32.5 -29.5 38.5 -80.5l-37 -8q-18 72 -82 72q-63 0 -81 -72l-37 8q6 51 38 80.5t80 29.5t80.5 -29.5z" />
    <glyph glyph-name="uni2C6D" unicode="&#x2c6d;" horiz-adv-x="610" 
d="M517.5 63q9.5 -15 32.5 -26l-18 -45q-37 11 -55.5 29.5t-24.5 49.5q-59 -82 -157 -82q-68 0 -121 37t-84 113.5t-31 189.5q0 119 31 201.5t85.5 124t123.5 41.5q94 0 153 -73l5 62h51v-576q0 -31 9.5 -46zM450 125v442q-55 79 -145 79q-85 0 -135 -77.5t-50 -239.5
q0 -149 49 -219.5t130 -70.5q90 0 151 86z" />
    <glyph glyph-name="Amacron" unicode="&#x100;" horiz-adv-x="516" 
d="M439 0l-54 188h-257l-54 -188h-57l205 685h72l205 -685h-60zM142 237h229l-114 400zM369 803h-219v44h219v-44z" />
    <glyph glyph-name="Aogonek" unicode="&#x104;" horiz-adv-x="516" 
d="M397.5 -56.5q-24.5 -26.5 -24.5 -62.5q0 -52 56 -52q24 0 52 7l-5 -46q-31 -7 -53 -7q-48 0 -74.5 25t-26.5 66q0 43 28 75.5t86 59.5l-51 179h-257l-54 -188h-57l205 685h72l205 -685h-17q-60 -30 -84.5 -56.5zM142 237h229l-114 400z" />
    <glyph glyph-name="Aring" unicode="&#xc5;" horiz-adv-x="516" 
d="M439 0l-54 188h-257l-54 -188h-57l205 685h72l205 -685h-60zM142 237h229l-114 400zM325 920.5q25 -25.5 25 -67.5q0 -43 -25 -68.5t-66 -25.5q-40 0 -65 25.5t-25 68.5q0 42 25 67.5t65 25.5q41 0 66 -25.5zM210 853q0 -60 49 -60q24 0 37 15t13 45q0 59 -50 59
q-49 0 -49 -59z" />
    <glyph glyph-name="Aringacute" unicode="&#x1fa;" horiz-adv-x="516" 
d="M439 0l-54 188h-257l-54 -188h-57l205 685h72l205 -685h-60zM142 237h229l-114 400zM327 888.5q25 -25.5 25 -67.5q0 -43 -25 -68.5t-66 -25.5q-40 0 -65 25.5t-25 68.5q0 42 25 67.5t65 25.5q41 0 66 -25.5zM212 821q0 -60 49 -60q24 0 37 15t13 45q0 59 -50 59
q-49 0 -49 -59zM334 1053l25 -50l-179 -77l-16 33z" />
    <glyph glyph-name="uni023A" unicode="&#x23a;" horiz-adv-x="516" 
d="M440 0l-54 188h-136l-61 -258l-31 7l60 251h-90l-54 -188h-57l205 685h72l23 -78l33 137l31 -7l-45 -191l163 -546h-59zM141 236h88l65 275l-37 131zM262 236h111l-61 212z" />
    <glyph glyph-name="Atilde" unicode="&#xc3;" horiz-adv-x="516" 
d="M439 0l-54 188h-257l-54 -188h-57l205 685h72l205 -685h-60zM142 237h229l-114 400zM281.5 800.5q-13.5 6.5 -33.5 18.5q-27 19 -42 19t-26.5 -9t-24.5 -30l-33 17q33 66 83 66q16 0 29.5 -6.5t29.5 -17.5q17 -11 26.5 -15.5t20.5 -4.5q14 0 25.5 10t25.5 33l33 -17
q-31 -70 -83 -70q-17 0 -30.5 6.5z" />
    <glyph glyph-name="AE" unicode="&#xc6;" horiz-adv-x="707" 
d="M461 49h206v-49h-252l-41 185h-254l-63 -185h-58l241 685h384l-7 -49h-289l58 -257h231v-48h-220zM136 233h228l-90 406z" />
    <glyph glyph-name="AEacute" unicode="&#x1fc;" horiz-adv-x="707" 
d="M461 49h206v-49h-252l-41 185h-254l-63 -185h-58l241 685h384l-7 -49h-289l58 -257h231v-48h-220zM136 233h228l-90 406zM484 885l25 -50l-179 -77l-16 33z" />
    <glyph glyph-name="uni01E2" unicode="&#x1e2;" horiz-adv-x="707" 
d="M461 49h206v-49h-252l-41 185h-254l-63 -185h-58l241 685h384l-7 -49h-289l58 -257h231v-48h-220zM136 233h228l-90 406zM522 803h-219v44h219v-44z" />
    <glyph glyph-name="B" unicode="B" horiz-adv-x="539" 
d="M451 313q41 -41 41 -123q0 -94 -60 -142t-168 -48h-166v685h136q110 0 169.5 -44t59.5 -127q0 -62 -32.5 -100.5t-89.5 -50.5q69 -9 110 -50zM156 637v-253h111q64 0 100.5 33.5t36.5 92.5q0 66 -41.5 96.5t-122.5 30.5h-84zM432 190q0 75 -41.5 111t-117.5 36h-117v-288
h109q167 0 167 141z" />
    <glyph glyph-name="uni1E02" unicode="&#x1e02;" horiz-adv-x="539" 
d="M451 313q41 -41 41 -123q0 -94 -60 -142t-168 -48h-166v685h136q110 0 169.5 -44t59.5 -127q0 -62 -32.5 -100.5t-89.5 -50.5q69 -9 110 -50zM156 637v-253h111q64 0 100.5 33.5t36.5 92.5q0 66 -41.5 96.5t-122.5 30.5h-84zM432 190q0 75 -41.5 111t-117.5 36h-117v-288
h109q167 0 167 141zM295.5 866q11.5 -12 11.5 -29q0 -18 -11.5 -29.5t-29.5 -11.5t-29.5 11.5t-11.5 29.5q0 17 11.5 29t29.5 12t29.5 -12z" />
    <glyph glyph-name="uni1E04" unicode="&#x1e04;" horiz-adv-x="539" 
d="M451 313q41 -41 41 -123q0 -94 -60 -142t-168 -48h-166v685h136q110 0 169.5 -44t59.5 -127q0 -62 -32.5 -100.5t-89.5 -50.5q69 -9 110 -50zM156 637v-253h111q64 0 100.5 33.5t36.5 92.5q0 66 -41.5 96.5t-122.5 30.5h-84zM432 190q0 75 -41.5 111t-117.5 36h-117v-288
h109q167 0 167 141zM250.5 -157q-11.5 12 -11.5 29q0 18 11.5 29.5t29.5 11.5t29.5 -11.5t11.5 -29.5q0 -17 -11.5 -29t-29.5 -12t-29.5 12z" />
    <glyph glyph-name="uniA7B4" unicode="&#xa7b4;" horiz-adv-x="539" 
d="M451 314q41 -40 41 -119q0 -94 -57 -144.5t-152 -50.5q-68 0 -127 23v-220h-58v882h136q110 0 169.5 -44t59.5 -127q0 -62 -32.5 -100.5t-89.5 -50.5q69 -9 110 -49zM391.5 85q40.5 36 40.5 110q0 73 -41.5 107.5t-117.5 34.5h-49l6 47h39q63 0 99 33.5t36 92.5
q0 66 -41.5 96.5t-122.5 30.5h-84v-568q57 -20 126 -20t109.5 36z" />
    <glyph glyph-name="uni0181" unicode="&#x181;" horiz-adv-x="596" 
d="M508 313q41 -41 41 -123q0 -94 -60 -142t-168 -48h-166v637h-23q-66 0 -66 -63q0 -36 21 -76l-40 -21q-16 24 -24.5 46.5t-8.5 52.5q0 49 30.5 79t89.5 30h157q110 0 169.5 -44t59.5 -127q0 -62 -32.5 -100.5t-89.5 -50.5q69 -9 110 -50zM213 637v-253h111
q64 0 100.5 33.5t36.5 92.5q0 66 -41.5 96.5t-122.5 30.5h-84zM489 190q0 75 -41.5 111t-117.5 36h-117v-288h109q167 0 167 141z" />
    <glyph glyph-name="uni0181.ss02" horiz-adv-x="515" 
d="M416.5 366q58.5 -51 58.5 -151q0 -110 -60.5 -162.5t-168.5 -52.5h-148v685h315l-8 -50h-249v-218h94q108 0 166.5 -51zM372.5 87.5q41.5 38.5 41.5 127.5q0 80 -41.5 117t-121.5 37h-95v-320h97q78 0 119.5 38.5z" />
    <glyph glyph-name="uni0243" unicode="&#x243;" horiz-adv-x="543" 
d="M455 313q41 -41 41 -123q0 -94 -60 -142t-168 -48h-166v175h-81v46h81v464h136q110 0 169.5 -44t59.5 -127q0 -62 -32.5 -100.5t-89.5 -50.5q69 -9 110 -50zM160 637v-253h111q64 0 100.5 33.5t36.5 92.5q0 66 -41.5 96.5t-122.5 30.5h-84zM436 190q0 75 -41.5 111
t-117.5 36h-117v-116h155v-46h-155v-126h109q167 0 167 141z" />
    <glyph glyph-name="uni0182" unicode="&#x182;" horiz-adv-x="515" 
d="M416.5 366q58.5 -51 58.5 -151q0 -110 -60.5 -162.5t-168.5 -52.5h-148v685h315l-8 -50h-249v-218h94q108 0 166.5 -51zM372.5 87.5q41.5 38.5 41.5 127.5q0 80 -41.5 117t-121.5 37h-95v-320h97q78 0 119.5 38.5z" />
    <glyph glyph-name="C" unicode="C" horiz-adv-x="497" 
d="M397.5 680.5q36.5 -15.5 72.5 -47.5l-31 -37q-32 26 -60.5 38t-65.5 12q-87 0 -140 -72.5t-53 -230.5q0 -153 53 -228t139 -75q42 0 71.5 14.5t61.5 41.5l32 -37q-70 -70 -167 -70q-73 0 -130 39.5t-89 119t-32 195.5t33 195.5t90 118.5t128 39q51 0 87.5 -15.5z" />
    <glyph glyph-name="Cacute" unicode="&#x106;" horiz-adv-x="497" 
d="M397.5 680.5q36.5 -15.5 72.5 -47.5l-31 -37q-32 26 -60.5 38t-65.5 12q-87 0 -140 -72.5t-53 -230.5q0 -153 53 -228t139 -75q42 0 71.5 14.5t61.5 41.5l32 -37q-70 -70 -167 -70q-73 0 -130 39.5t-89 119t-32 195.5t33 195.5t90 118.5t128 39q51 0 87.5 -15.5zM383 885
l25 -50l-179 -77l-16 33z" />
    <glyph glyph-name="Cacute.loclPLK" horiz-adv-x="497" 
d="M397.5 680.5q36.5 -15.5 72.5 -47.5l-31 -37q-32 26 -60.5 38t-65.5 12q-87 0 -140 -72.5t-53 -230.5q0 -153 53 -228t139 -75q42 0 71.5 14.5t61.5 41.5l32 -37q-70 -70 -167 -70q-73 0 -130 39.5t-89 119t-32 195.5t33 195.5t90 118.5t128 39q51 0 87.5 -15.5zM364 907
l46 -30l-108 -145l-29 18z" />
    <glyph glyph-name="Ccaron" unicode="&#x10c;" horiz-adv-x="497" 
d="M397.5 680.5q36.5 -15.5 72.5 -47.5l-31 -37q-32 26 -60.5 38t-65.5 12q-87 0 -140 -72.5t-53 -230.5q0 -153 53 -228t139 -75q42 0 71.5 14.5t61.5 41.5l32 -37q-70 -70 -167 -70q-73 0 -130 39.5t-89 119t-32 195.5t33 195.5t90 118.5t128 39q51 0 87.5 -15.5zM421 886
l23 -27l-116 -103h-35l-117 103l24 27l111 -81z" />
    <glyph glyph-name="Ccedilla" unicode="&#xc7;" horiz-adv-x="497" 
d="M388 -89q21 -20 21 -52q0 -40 -27.5 -62.5t-69.5 -22.5q-43 0 -73 21l19 33q26 -14 53 -14q22 0 35.5 11.5t13.5 33.5q0 23 -19.5 34t-61.5 11l8 86q-103 9 -165.5 99.5t-62.5 253.5q0 116 33 195.5t90 118.5t128 39q51 0 87.5 -15.5t72.5 -47.5l-31 -37q-32 26 -60.5 38
t-65.5 12q-87 0 -140 -72.5t-53 -230.5q0 -153 53 -228t139 -75q42 0 71.5 14.5t61.5 41.5l32 -37q-65 -65 -152 -70v-54q42 -4 63 -24z" />
    <glyph glyph-name="Ccircumflex" unicode="&#x108;" horiz-adv-x="497" 
d="M397.5 680.5q36.5 -15.5 72.5 -47.5l-31 -37q-32 26 -60.5 38t-65.5 12q-87 0 -140 -72.5t-53 -230.5q0 -153 53 -228t139 -75q42 0 71.5 14.5t61.5 41.5l32 -37q-70 -70 -167 -70q-73 0 -130 39.5t-89 119t-32 195.5t33 195.5t90 118.5t128 39q51 0 87.5 -15.5zM201 763
l-25 27l117 102h35l116 -102l-24 -27l-110 80z" />
    <glyph glyph-name="Cdotaccent" unicode="&#x10a;" horiz-adv-x="497" 
d="M397.5 680.5q36.5 -15.5 72.5 -47.5l-31 -37q-32 26 -60.5 38t-65.5 12q-87 0 -140 -72.5t-53 -230.5q0 -153 53 -228t139 -75q42 0 71.5 14.5t61.5 41.5l32 -37q-70 -70 -167 -70q-73 0 -130 39.5t-89 119t-32 195.5t33 195.5t90 118.5t128 39q51 0 87.5 -15.5z
M340.5 866q11.5 -12 11.5 -29q0 -18 -11.5 -29.5t-29.5 -11.5t-29.5 11.5t-11.5 29.5q0 17 11.5 29t29.5 12t29.5 -12z" />
    <glyph glyph-name="uniA7B3" unicode="&#xa7b3;" horiz-adv-x="458" 
d="M262 317l188 -431h-66l-158 392l-155 -392h-62l183 429l-165 370h65l136 -333l134 333h63z" />
    <glyph glyph-name="uni0187" unicode="&#x187;" horiz-adv-x="497" 
d="M622 790l-24 -36q-16 11 -31.5 17t-35.5 6q-61 0 -61 -77v-67l-29 -33q-33 24 -62 35t-66 11q-87 0 -140 -72.5t-53 -230.5q0 -153 53 -228t139 -75q42 0 71.5 14.5t61.5 41.5l32 -37q-68 -70 -167 -70q-73 0 -130 39.5t-89 119t-32 195.5t33 195.5t89.5 118.5t127.5 39
q61 0 106 -29v31q0 61 30 93.5t83 32.5q52 0 94 -34z" />
    <glyph glyph-name="uni023B" unicode="&#x23b;" horiz-adv-x="497" 
d="M310 -11q-44 0 -80 13l-17 -72l-31 7l19 79q-67 36 -104.5 119t-37.5 208q0 116 33 195.5t90 118.5t128 39q24 0 51 -5l12 53l32 -7l-13 -54q40 -15 78 -50l-31 -37q-30 25 -59 37l-137 -579q33 -14 69 -14q42 0 71.5 14.5t61.5 41.5l32 -37q-70 -70 -167 -70z
M144.5 171.5q24.5 -67.5 69.5 -100.5l135 572q-16 3 -36 3q-87 0 -140 -72.5t-53 -230.5q0 -104 24.5 -171.5z" />
    <glyph glyph-name="D" unicode="D" horiz-adv-x="571" 
d="M432.5 613q79.5 -72 79.5 -265q0 -194 -80.5 -271t-198.5 -77h-135v685h125q130 0 209.5 -72zM156 636v-588h80q95 0 155 65t60 235q0 119 -31 182.5t-78.5 84.5t-110.5 21h-75z" />
    <glyph glyph-name="uni01F1" unicode="&#x1f1;" horiz-adv-x="1010" 
d="M432.5 613q79.5 -72 79.5 -265q0 -194 -80.5 -271t-198.5 -77h-135v685h125q130 0 209.5 -72zM156 636v-588h80q95 0 155 65t60 235q0 119 -31 182.5t-78.5 84.5t-110.5 21h-75zM969 685v-48l-329 -586h324l-7 -51h-380v48l330 587h-297v50h359z" />
    <glyph glyph-name="uni01C4" unicode="&#x1c4;" horiz-adv-x="1010" 
d="M432.5 613q79.5 -72 79.5 -265q0 -194 -80.5 -271t-198.5 -77h-135v685h125q130 0 209.5 -72zM156 636v-588h80q95 0 155 65t60 235q0 119 -31 182.5t-78.5 84.5t-110.5 21h-75zM969 685v-48l-329 -586h324l-7 -51h-380v48l330 587h-297v50h359zM893 886l23 -27
l-116 -103h-35l-117 103l24 27l111 -81z" />
    <glyph glyph-name="uni0189" unicode="&#x189;" horiz-adv-x="576" 
d="M438.5 613q79.5 -72 79.5 -265q0 -194 -80.5 -271t-198.5 -77h-135v329h-83v47h83v309h125q130 0 209.5 -72zM397 113q60 65 60 235q0 119 -31 182.5t-78.5 84.5t-110.5 21h-75v-260h153v-47h-153v-281h80q95 0 155 65z" />
    <glyph glyph-name="Eth" unicode="&#xd0;" horiz-adv-x="576" 
d="M438.5 613q79.5 -72 79.5 -265q0 -194 -80.5 -271t-198.5 -77h-135v329h-83v47h83v309h125q130 0 209.5 -72zM397 113q60 65 60 235q0 119 -31 182.5t-78.5 84.5t-110.5 21h-75v-260h153v-47h-153v-281h80q95 0 155 65z" />
    <glyph glyph-name="Dcaron" unicode="&#x10e;" horiz-adv-x="571" 
d="M432.5 613q79.5 -72 79.5 -265q0 -194 -80.5 -271t-198.5 -77h-135v685h125q130 0 209.5 -72zM156 636v-588h80q95 0 155 65t60 235q0 119 -31 182.5t-78.5 84.5t-110.5 21h-75zM380 886l23 -27l-116 -103h-35l-117 103l24 27l111 -81z" />
    <glyph glyph-name="uni1E12" unicode="&#x1e12;" horiz-adv-x="571" 
d="M432.5 613q79.5 -72 79.5 -265q0 -194 -80.5 -271t-198.5 -77h-135v685h125q130 0 209.5 -72zM156 636v-588h80q95 0 155 65t60 235q0 119 -31 182.5t-78.5 84.5t-110.5 21h-75zM162 -203l-25 26l117 107h34l117 -107l-24 -26l-110 84z" />
    <glyph glyph-name="Dcroat" unicode="&#x110;" horiz-adv-x="576" 
d="M438.5 613q79.5 -72 79.5 -265q0 -194 -80.5 -271t-198.5 -77h-135v329h-83v47h83v309h125q130 0 209.5 -72zM397 113q60 65 60 235q0 119 -31 182.5t-78.5 84.5t-110.5 21h-75v-260h153v-47h-153v-281h80q95 0 155 65z" />
    <glyph glyph-name="uni1E0A" unicode="&#x1e0a;" horiz-adv-x="571" 
d="M432.5 613q79.5 -72 79.5 -265q0 -194 -80.5 -271t-198.5 -77h-135v685h125q130 0 209.5 -72zM156 636v-588h80q95 0 155 65t60 235q0 119 -31 182.5t-78.5 84.5t-110.5 21h-75zM299.5 866q11.5 -12 11.5 -29q0 -18 -11.5 -29.5t-29.5 -11.5t-29.5 11.5t-11.5 29.5
q0 17 11.5 29t29.5 12t29.5 -12z" />
    <glyph glyph-name="uni1E0C" unicode="&#x1e0c;" horiz-adv-x="571" 
d="M432.5 613q79.5 -72 79.5 -265q0 -194 -80.5 -271t-198.5 -77h-135v685h125q130 0 209.5 -72zM156 636v-588h80q95 0 155 65t60 235q0 119 -31 182.5t-78.5 84.5t-110.5 21h-75zM241.5 -157q-11.5 12 -11.5 29q0 18 11.5 29.5t29.5 11.5t29.5 -11.5t11.5 -29.5
q0 -17 -11.5 -29t-29.5 -12t-29.5 12z" />
    <glyph glyph-name="uni018A" unicode="&#x18a;" horiz-adv-x="628" 
d="M489.5 613q79.5 -72 79.5 -265q0 -194 -80.5 -271t-198.5 -77h-135v637h-23q-66 0 -66 -63q0 -36 21 -76l-40 -21q-16 24 -24.5 46.5t-8.5 52.5q0 49 30.5 79t89.5 30h146q130 0 209.5 -72zM448 113q60 65 60 235q0 119 -31 182.5t-78.5 84.5t-110.5 21h-75v-588h80
q95 0 155 65z" />
    <glyph glyph-name="uni1E0E" unicode="&#x1e0e;" horiz-adv-x="571" 
d="M432.5 613q79.5 -72 79.5 -265q0 -194 -80.5 -271t-198.5 -77h-135v685h125q130 0 209.5 -72zM156 636v-588h80q95 0 155 65t60 235q0 119 -31 182.5t-78.5 84.5t-110.5 21h-75zM381 -157h-219v44h219v-44z" />
    <glyph glyph-name="uni018B" unicode="&#x18b;" horiz-adv-x="515" 
d="M417 0h-152q-105 0 -165 50.5t-60 155.5q0 102 60.5 156.5t171.5 54.5h87v218h-254v50h312v-685zM359 49v320h-87q-86 0 -128.5 -40t-42.5 -123q0 -85 42 -121t124 -36h92z" />
    <glyph glyph-name="uni01F2" unicode="&#x1f2;" horiz-adv-x="942" 
d="M432.5 613q79.5 -72 79.5 -265q0 -194 -80.5 -271t-198.5 -77h-135v685h125q130 0 209.5 -72zM156 636v-588h80q95 0 155 65t60 235q0 119 -31 182.5t-78.5 84.5t-110.5 21h-75zM912 523v-44l-264 -430h263l-6 -49h-320v43l265 431h-243v49h305z" />
    <glyph glyph-name="uni01C5" unicode="&#x1c5;" horiz-adv-x="942" 
d="M432.5 613q79.5 -72 79.5 -265q0 -194 -80.5 -271t-198.5 -77h-135v685h125q130 0 209.5 -72zM156 636v-588h80q95 0 155 65t60 235q0 119 -31 182.5t-78.5 84.5t-110.5 21h-75zM912 523v-44l-264 -430h263l-6 -49h-320v43l265 431h-243v49h305zM866 767l24 -27
l-116 -107h-35l-117 107l25 27l110 -85z" />
    <glyph glyph-name="E" unicode="E" horiz-adv-x="461" 
d="M414 685l-7 -49h-251v-257h218v-48h-218v-282h264v-49h-322v685h316z" />
    <glyph glyph-name="Eacute" unicode="&#xc9;" horiz-adv-x="461" 
d="M414 685l-7 -49h-251v-257h218v-48h-218v-282h264v-49h-322v685h316zM332 885l25 -50l-179 -77l-16 33z" />
    <glyph glyph-name="Ebreve" unicode="&#x114;" horiz-adv-x="461" 
d="M414 685l-7 -49h-251v-257h218v-48h-218v-282h264v-49h-322v685h316zM179.5 792.5q-32.5 27.5 -38.5 71.5l37 9q8 -29 29 -45.5t52 -16.5t52.5 16.5t29.5 45.5l37 -9q-6 -44 -38.5 -71.5t-80.5 -27.5q-47 0 -79.5 27.5z" />
    <glyph glyph-name="Ecaron" unicode="&#x11a;" horiz-adv-x="461" 
d="M414 685l-7 -49h-251v-257h218v-48h-218v-282h264v-49h-322v685h316zM370 886l23 -27l-116 -103h-35l-117 103l24 27l111 -81z" />
    <glyph glyph-name="uni0228" unicode="&#x228;" horiz-adv-x="461" 
d="M273 0v-65q42 -4 63 -24t21 -52q0 -40 -27.5 -62.5t-69.5 -22.5q-43 0 -73 21l19 33q26 -14 53 -14q22 0 35.5 11.5t13.5 33.5q0 23 -19.5 34t-61.5 11l9 96h-138v685h316l-7 -49h-251v-257h218v-48h-218v-282h264v-49h-147z" />
    <glyph glyph-name="Ecircumflex" unicode="&#xca;" horiz-adv-x="461" 
d="M414 685l-7 -49h-251v-257h218v-48h-218v-282h264v-49h-322v685h316zM150 763l-25 27l117 102h35l116 -102l-24 -27l-110 80z" />
    <glyph glyph-name="uni1EBE" unicode="&#x1ebe;" horiz-adv-x="461" 
d="M414 685l-7 -49h-251v-257h218v-48h-218v-282h264v-49h-322v685h316zM151 729l-25 27l117 102h35l116 -102l-24 -27l-110 80zM438 987l39 -33l-112 -122l-26 23z" />
    <glyph glyph-name="uni1EC6" unicode="&#x1ec6;" horiz-adv-x="461" 
d="M414 685l-7 -49h-251v-257h218v-48h-218v-282h264v-49h-322v685h316zM150 763l-25 27l117 102h35l116 -102l-24 -27l-110 80zM228.5 -157q-11.5 12 -11.5 29q0 18 11.5 29.5t29.5 11.5t29.5 -11.5t11.5 -29.5q0 -17 -11.5 -29t-29.5 -12t-29.5 12z" />
    <glyph glyph-name="uni1EC0" unicode="&#x1ec0;" horiz-adv-x="461" 
d="M414 685l-7 -49h-251v-257h218v-48h-218v-282h264v-49h-322v685h316zM150 729l-25 27l117 102h35l116 -102l-24 -27l-110 80zM85 987l99 -132l-26 -23l-112 122z" />
    <glyph glyph-name="uni1EC2" unicode="&#x1ec2;" horiz-adv-x="461" 
d="M414 685l-7 -49h-251v-257h218v-48h-218v-282h264v-49h-322v685h316zM150 729l-25 27l117 102h35l116 -102l-24 -27l-110 80zM352 885q31 2 47 12.5t16 34.5q0 20 -11.5 30.5t-31.5 10.5q-25 0 -51 -14l-15 34q32 21 74 21q39 0 61.5 -21.5t22.5 -57.5q0 -33 -17.5 -52
t-49.5 -24v-46h-45v72z" />
    <glyph glyph-name="uni1EC4" unicode="&#x1ec4;" horiz-adv-x="461" 
d="M414 685l-7 -49h-251v-257h218v-48h-218v-282h264v-49h-322v685h316zM149 729l-25 27l117 102h35l116 -102l-24 -27l-110 80zM281.5 904.5q-13.5 6.5 -33.5 18.5q-27 19 -42 19t-26.5 -9t-24.5 -30l-33 17q33 66 83 66q15 0 29 -6.5t30 -17.5q17 -11 26.5 -15.5
t20.5 -4.5q14 0 25.5 10t25.5 33l33 -17q-31 -70 -83 -70q-17 0 -30.5 6.5z" />
    <glyph glyph-name="uni0204" unicode="&#x204;" horiz-adv-x="461" 
d="M414 685l-7 -49h-251v-257h218v-48h-218v-282h264v-49h-322v685h316zM151 935l71 -151l-34 -15l-85 141zM269 935l64 -146l-35 -16l-77 137z" />
    <glyph glyph-name="Edieresis" unicode="&#xcb;" horiz-adv-x="461" 
d="M414 685l-7 -49h-251v-257h218v-48h-218v-282h264v-49h-322v685h316zM204.5 855q10.5 -11 10.5 -27q0 -17 -10.5 -28t-27.5 -11q-16 0 -27 11t-11 28q0 16 11 27t27 11q17 0 27.5 -11zM376 855q11 -11 11 -27q0 -17 -11 -28t-27 -11q-17 0 -28 11t-11 28q0 16 11 27
t28 11q16 0 27 -11z" />
    <glyph glyph-name="Edotaccent" unicode="&#x116;" horiz-adv-x="461" 
d="M414 685l-7 -49h-251v-257h218v-48h-218v-282h264v-49h-322v685h316zM289.5 866q11.5 -12 11.5 -29q0 -18 -11.5 -29.5t-29.5 -11.5t-29.5 11.5t-11.5 29.5q0 17 11.5 29t29.5 12t29.5 -12z" />
    <glyph glyph-name="uni1EB8" unicode="&#x1eb8;" horiz-adv-x="461" 
d="M414 685l-7 -49h-251v-257h218v-48h-218v-282h264v-49h-322v685h316zM228.5 -157q-11.5 12 -11.5 29q0 18 11.5 29.5t29.5 11.5t29.5 -11.5t11.5 -29.5q0 -17 -11.5 -29t-29.5 -12t-29.5 12z" />
    <glyph glyph-name="Egrave" unicode="&#xc8;" horiz-adv-x="461" 
d="M414 685l-7 -49h-251v-257h218v-48h-218v-282h264v-49h-322v685h316zM185 885l169 -95l-16 -32l-179 77z" />
    <glyph glyph-name="uni1EBA" unicode="&#x1eba;" horiz-adv-x="461" 
d="M414 685l-7 -49h-251v-257h218v-48h-218v-282h264v-49h-322v685h316zM237 847q31 2 47 12.5t16 34.5q0 20 -11.5 30.5t-31.5 10.5q-25 0 -51 -14l-15 34q32 21 74 21q39 0 61.5 -21.5t22.5 -57.5q0 -33 -17.5 -52t-49.5 -24v-46h-45v72z" />
    <glyph glyph-name="uni0206" unicode="&#x206;" horiz-adv-x="461" 
d="M414 685l-7 -49h-251v-257h218v-48h-218v-282h264v-49h-322v685h316zM339.5 874.5q32.5 -29.5 38.5 -80.5l-37 -8q-18 72 -82 72q-63 0 -81 -72l-37 8q6 51 38 80.5t80 29.5t80.5 -29.5z" />
    <glyph glyph-name="Emacron" unicode="&#x112;" horiz-adv-x="461" 
d="M414 685l-7 -49h-251v-257h218v-48h-218v-282h264v-49h-322v685h316zM370 803h-219v44h219v-44z" />
    <glyph glyph-name="Eogonek" unicode="&#x118;" horiz-adv-x="461" 
d="M420 49v-49h-28q-60 -30 -84.5 -56.5t-24.5 -62.5q0 -52 56 -52q24 0 52 7l-5 -46q-31 -7 -53 -7q-48 0 -74.5 25t-26.5 66q0 40 23.5 70.5t71.5 55.5h-229v685h316l-7 -49h-251v-257h218v-48h-218v-282h264z" />
    <glyph glyph-name="uni0190" unicode="&#x190;" horiz-adv-x="469" 
d="M433 612l-32 -34q-70 68 -149 68q-59 0 -92.5 -34t-33.5 -89q0 -63 37 -97.5t99 -34.5h55l-8 -49h-49q-74 1 -113 -37t-39 -109q0 -74 41 -115t110 -41q48 0 85.5 19t70.5 55l36 -32q-79 -93 -193 -93q-61 0 -109 25t-75 71.5t-27 110.5q0 78 39.5 122t99.5 52
q-55 13 -87.5 52t-32.5 103q0 76 49 123.5t133 47.5q104 0 185 -84z" />
    <glyph glyph-name="uni018E" unicode="&#x18e;" horiz-adv-x="461" 
d="M47 685h315v-685h-321v49h263v282h-217v48h217v257h-257v49z" />
    <glyph glyph-name="uni01A9" unicode="&#x1a9;" horiz-adv-x="445" 
d="M405 685v-50h-296l192 -279v-33l-193 -273h297v-50h-365v42l208 297l-208 304v42h365z" />
    <glyph glyph-name="uni0246" unicode="&#x246;" horiz-adv-x="461" 
d="M420 49v-49h-218l-17 -70l-31 7l15 63h-71v685h234l14 59l30 -7l-12 -52h50l-7 -49h-55l-61 -257h83v-48h-94l-67 -282h207zM156 636v-257h103l61 257h-164zM156 49h25l67 282h-92v-282z" />
    <glyph glyph-name="uni1EBC" unicode="&#x1ebc;" horiz-adv-x="461" 
d="M414 685l-7 -49h-251v-257h218v-48h-218v-282h264v-49h-322v685h316zM282.5 800.5q-13.5 6.5 -33.5 18.5q-27 19 -42 19t-26.5 -9t-24.5 -30l-33 17q33 66 83 66q16 0 29.5 -6.5t29.5 -17.5q17 -11 26.5 -15.5t20.5 -4.5q14 0 25.5 10t25.5 33l33 -17q-31 -70 -83 -70
q-17 0 -30.5 6.5z" />
    <glyph glyph-name="uni01B7" unicode="&#x1b7;" horiz-adv-x="444" 
d="M351 335.5q52 -49.5 52 -146.5q0 -89 -54.5 -144.5t-148.5 -55.5q-61 0 -106.5 21.5t-80.5 64.5l35 31q32 -36 67 -51.5t83 -15.5q71 0 108 40.5t37 110.5q0 79 -38.5 114.5t-115.5 35.5h-75v44l201 252h-281v49h347v-47l-206 -253h21q103 0 155 -49.5z" />
    <glyph glyph-name="uni01EE" unicode="&#x1ee;" horiz-adv-x="444" 
d="M351 335.5q52 -49.5 52 -146.5q0 -89 -54.5 -144.5t-148.5 -55.5q-61 0 -106.5 21.5t-80.5 64.5l35 31q32 -36 67 -51.5t83 -15.5q71 0 108 40.5t37 110.5q0 79 -38.5 114.5t-115.5 35.5h-75v44l201 252h-281v49h347v-47l-206 -253h21q103 0 155 -49.5zM318 886l23 -27
l-116 -103h-35l-117 103l24 27l111 -81z" />
    <glyph glyph-name="uni01B8" unicode="&#x1b8;" horiz-adv-x="444" 
d="M431 75q-37 -44 -82.5 -65t-108.5 -21q-92 0 -145.5 53.5t-53.5 142.5q0 96 53 148t155 52h20l-206 253v47h347v-49h-280l200 -252v-44h-74q-155 0 -155 -155q0 -69 36 -107.5t104 -38.5q50 0 85 15.5t70 51.5z" />
    <glyph glyph-name="F" unicode="F" horiz-adv-x="433" 
d="M98 0v685h311l-7 -49h-246v-269h213v-48h-213v-319h-58z" />
    <glyph glyph-name="uni1E1E" unicode="&#x1e1e;" horiz-adv-x="433" 
d="M98 0v685h311l-7 -49h-246v-269h213v-48h-213v-319h-58zM292.5 866q11.5 -12 11.5 -29q0 -18 -11.5 -29.5t-29.5 -11.5t-29.5 11.5t-11.5 29.5q0 17 11.5 29t29.5 12t29.5 -12z" />
    <glyph glyph-name="uni0191" unicode="&#x191;" horiz-adv-x="433" 
d="M156 636v-269h213v-48h-213v-400q0 -60 -31.5 -92t-82.5 -32q-53 0 -95 34l25 37q16 -11 31 -17t36 -6q27 0 43 17.5t16 56.5v768h311l-7 -49h-246z" />
    <glyph glyph-name="G" unicode="G" horiz-adv-x="559" 
d="M410 679.5q39 -16.5 79 -51.5l-34 -35q-33 28 -64 40.5t-72 12.5q-53 0 -98 -29.5t-73 -97t-28 -174.5q0 -306 196 -306q69 0 127 35v246h-119l-7 49h182v-324q-86 -56 -183 -56q-121 0 -189 89t-68 267q0 116 36 195t95 117.5t129 38.5q52 0 91 -16.5z" />
    <glyph glyph-name="uni01F4" unicode="&#x1f4;" horiz-adv-x="559" 
d="M410 679.5q39 -16.5 79 -51.5l-34 -35q-33 28 -64 40.5t-72 12.5q-53 0 -98 -29.5t-73 -97t-28 -174.5q0 -306 196 -306q69 0 127 35v246h-119l-7 49h182v-324q-86 -56 -183 -56q-121 0 -189 89t-68 267q0 116 36 195t95 117.5t129 38.5q52 0 91 -16.5zM389 885l25 -50
l-179 -77l-16 33z" />
    <glyph glyph-name="uni0194" unicode="&#x194;" horiz-adv-x="499" 
d="M284 59q30 -68 42 -104t12 -73q0 -40 -23 -63.5t-65 -23.5t-65 23t-23 64q0 33 11.5 67.5t42.5 109.5l-199 626h60l173 -584l174 584h58zM277.5 -62q-7.5 27 -27.5 82q-19 -51 -27 -79.5t-8 -54.5q0 -44 35 -44t35 44q0 25 -7.5 52z" />
    <glyph glyph-name="Gbreve" unicode="&#x11e;" horiz-adv-x="559" 
d="M410 679.5q39 -16.5 79 -51.5l-34 -35q-33 28 -64 40.5t-72 12.5q-53 0 -98 -29.5t-73 -97t-28 -174.5q0 -306 196 -306q69 0 127 35v246h-119l-7 49h182v-324q-86 -56 -183 -56q-121 0 -189 89t-68 267q0 116 36 195t95 117.5t129 38.5q52 0 91 -16.5zM236.5 792.5
q-32.5 27.5 -38.5 71.5l37 9q8 -29 29 -45.5t52 -16.5t52.5 16.5t29.5 45.5l37 -9q-6 -44 -38.5 -71.5t-80.5 -27.5q-47 0 -79.5 27.5z" />
    <glyph glyph-name="Gcaron" unicode="&#x1e6;" horiz-adv-x="559" 
d="M410 679.5q39 -16.5 79 -51.5l-34 -35q-33 28 -64 40.5t-72 12.5q-53 0 -98 -29.5t-73 -97t-28 -174.5q0 -306 196 -306q69 0 127 35v246h-119l-7 49h182v-324q-86 -56 -183 -56q-121 0 -189 89t-68 267q0 116 36 195t95 117.5t129 38.5q52 0 91 -16.5zM427 886l23 -27
l-116 -103h-35l-117 103l24 27l111 -81z" />
    <glyph glyph-name="Gcircumflex" unicode="&#x11c;" horiz-adv-x="559" 
d="M410 679.5q39 -16.5 79 -51.5l-34 -35q-33 28 -64 40.5t-72 12.5q-53 0 -98 -29.5t-73 -97t-28 -174.5q0 -306 196 -306q69 0 127 35v246h-119l-7 49h182v-324q-86 -56 -183 -56q-121 0 -189 89t-68 267q0 116 36 195t95 117.5t129 38.5q52 0 91 -16.5zM207 763l-25 27
l117 102h35l116 -102l-24 -27l-110 80z" />
    <glyph glyph-name="Gcommaaccent" unicode="&#x122;" horiz-adv-x="559" 
d="M410 679.5q39 -16.5 79 -51.5l-34 -35q-33 28 -64 40.5t-72 12.5q-53 0 -98 -29.5t-73 -97t-28 -174.5q0 -306 196 -306q69 0 127 35v246h-119l-7 49h182v-324q-86 -56 -183 -56q-121 0 -189 89t-68 267q0 116 36 195t95 117.5t129 38.5q52 0 91 -16.5zM335.5 -97
q11.5 -12 11.5 -30q0 -11 -4 -23.5t-16 -41.5l-37 -86h-33l30 114q-23 13 -23 37q0 18 11.5 30t30.5 12q18 0 29.5 -12z" />
    <glyph glyph-name="Gdotaccent" unicode="&#x120;" horiz-adv-x="559" 
d="M410 679.5q39 -16.5 79 -51.5l-34 -35q-33 28 -64 40.5t-72 12.5q-53 0 -98 -29.5t-73 -97t-28 -174.5q0 -306 196 -306q69 0 127 35v246h-119l-7 49h182v-324q-86 -56 -183 -56q-121 0 -189 89t-68 267q0 116 36 195t95 117.5t129 38.5q52 0 91 -16.5zM346.5 866
q11.5 -12 11.5 -29q0 -18 -11.5 -29.5t-29.5 -11.5t-29.5 11.5t-11.5 29.5q0 17 11.5 29t29.5 12t29.5 -12z" />
    <glyph glyph-name="uni0193" unicode="&#x193;" horiz-adv-x="516" 
d="M641 790l-24 -36q-16 11 -31.5 17t-35.5 6q-61 0 -61 -77v-72l-30 -32q-34 26 -67.5 38t-73.5 12q-53 0 -97.5 -29.5t-72.5 -97t-28 -174.5q0 -306 196 -306q69 0 127 35v246h-119l-7 49h182v-324q-85 -56 -184 -56q-120 0 -188 89t-68 267q0 116 36 195t94 117.5
t126 38.5q67 0 119 -32v34q0 61 30 93.5t83 32.5q52 0 94 -34z" />
    <glyph glyph-name="uni0241" unicode="&#x241;" horiz-adv-x="414" 
d="M139 304l64 18q62 18 93 55.5t31 112.5q0 71 -35 113.5t-98 42.5q-42 0 -78 -17t-72 -51l-33 34q43 43 87 63.5t99 20.5q58 0 101 -26t66 -72.5t23 -105.5q0 -96 -42.5 -142t-116.5 -67l-31 -9v-274h-58v304z" />
    <glyph glyph-name="uni01E4" unicode="&#x1e4;" horiz-adv-x="571" 
d="M565 193h-66v-148q-86 -56 -184 -56q-120 0 -188 89.5t-68 266.5q0 115 36 194t95 118t127 39q54 0 93.5 -16.5t78.5 -51.5l-34 -36q-33 29 -64 41.5t-72 12.5q-53 0 -98 -30t-73 -97.5t-28 -173.5q0 -157 51 -231.5t144 -74.5q70 0 128 35v119h-118v48h118v79h-119
l-7 49h182v-128h66v-48z" />
    <glyph glyph-name="uni021C" unicode="&#x21c;" horiz-adv-x="451" 
d="M337.5 647q47.5 -49 47.5 -129q0 -67 -32.5 -106t-91.5 -52q65 -8 104.5 -48t39.5 -111q0 -106 -81 -177.5t-264 -112.5l-5 50q108 26 171.5 60t90.5 77.5t27 101.5q0 64 -39.5 98.5t-114.5 33.5h-55l7 49h46q63 0 100 35t37 100q0 60 -32 95t-91 35q-42 0 -78.5 -17.5
t-73.5 -50.5l-32 34q43 42 88 63t99 21q85 0 132.5 -49z" />
    <glyph glyph-name="H" unicode="H" horiz-adv-x="603" 
d="M447 0v336h-291v-336h-58v685h58v-300h291v300h58v-685h-58z" />
    <glyph glyph-name="Hbar" unicode="&#x126;" horiz-adv-x="606" 
d="M565 557v-43h-58v-514h-58v336h-291v-336h-58v514h-59v43h59v128h58v-128h291v128h58v-128h58zM449 385v129h-291v-129h291z" />
    <glyph glyph-name="uni021E" unicode="&#x21e;" horiz-adv-x="603" 
d="M447 0v336h-291v-336h-58v685h58v-300h291v300h58v-685h-58zM411 886l23 -27l-116 -103h-35l-117 103l24 27l111 -81z" />
    <glyph glyph-name="Hcircumflex" unicode="&#x124;" horiz-adv-x="603" 
d="M447 0v336h-291v-336h-58v685h58v-300h291v300h58v-685h-58zM191 763l-25 27l117 102h35l116 -102l-24 -27l-110 80z" />
    <glyph glyph-name="uni1E24" unicode="&#x1e24;" horiz-adv-x="603" 
d="M447 0v336h-291v-336h-58v685h58v-300h291v300h58v-685h-58zM272.5 -157q-11.5 12 -11.5 29q0 18 11.5 29.5t29.5 11.5t29.5 -11.5t11.5 -29.5q0 -17 -11.5 -29t-29.5 -12t-29.5 12z" />
    <glyph glyph-name="uniA7AA" unicode="&#xa7aa;" horiz-adv-x="660" 
d="M562 685v-685h-58v336h-291v-336h-58v637h-23q-66 0 -66 -63q0 -36 21 -76l-40 -21q-16 24 -24.5 46.5t-8.5 52.5q0 49 30.5 79t89.5 30h79v-300h291v300h58z" />
    <glyph glyph-name="uniA78D" unicode="&#xa78d;" horiz-adv-x="536" 
d="M437 685v-685h-58v296q-36 -36 -74.5 -54.5t-88.5 -18.5q-79 0 -127.5 49t-48.5 136v277h58v-274q0 -68 34 -102.5t95 -34.5q47 0 86 20t66 54v337h58z" />
    <glyph glyph-name="uniA78D.ss02" horiz-adv-x="527" 
d="M371 0v266h-323v419h58v-369h265v369h58v-685h-58z" />
    <glyph glyph-name="uni01F6" unicode="&#x1f6;" horiz-adv-x="869" 
d="M796 259q0 -92 -26.5 -152.5t-70.5 -89t-98 -28.5q-67 0 -110.5 42t-43.5 117v188h-291v-336h-58v685h58v-300h291v300h58v-533q0 -58 26.5 -87t71.5 -29q58 0 97 52.5t39 172.5q0 126 -24 262h57q24 -150 24 -264z" />
    <glyph glyph-name="I" unicode="I" horiz-adv-x="255" 
d="M156 685v-685h-58v685h58z" />
    <glyph glyph-name="IJ" unicode="&#x132;" horiz-adv-x="517" 
d="M156 685v-685h-58v685h58zM424 91q0 -59 -14.5 -97t-45 -63.5t-83.5 -48.5l-15 42q42 21 63 42t29 50t8 78v591h58v-594z" />
    <glyph glyph-name="Iacute" unicode="&#xcd;" horiz-adv-x="255" 
d="M156 685v-685h-58v685h58zM199 885l25 -50l-179 -77l-16 33z" />
    <glyph glyph-name="Ibreve" unicode="&#x12c;" horiz-adv-x="255" 
d="M156 685v-685h-58v685h58zM46.5 792.5q-32.5 27.5 -38.5 71.5l37 9q8 -29 29 -45.5t52 -16.5t52.5 16.5t29.5 45.5l37 -9q-6 -44 -38.5 -71.5t-80.5 -27.5q-47 0 -79.5 27.5z" />
    <glyph glyph-name="uni01CF" unicode="&#x1cf;" horiz-adv-x="255" 
d="M156 685v-685h-58v685h58zM237 886l23 -27l-116 -103h-35l-117 103l24 27l111 -81z" />
    <glyph glyph-name="Icircumflex" unicode="&#xce;" horiz-adv-x="255" 
d="M156 685v-685h-58v685h58zM17 763l-25 27l117 102h35l116 -102l-24 -27l-110 80z" />
    <glyph glyph-name="uni0208" unicode="&#x208;" horiz-adv-x="255" 
d="M156 685v-685h-58v685h58zM18 935l71 -151l-34 -15l-85 141zM136 935l64 -146l-35 -16l-77 137z" />
    <glyph glyph-name="Idieresis" unicode="&#xcf;" horiz-adv-x="255" 
d="M156 685v-685h-58v685h58zM71.5 855q10.5 -11 10.5 -27q0 -17 -10.5 -28t-27.5 -11q-16 0 -27 11t-11 28q0 16 11 27t27 11q17 0 27.5 -11zM243 855q11 -11 11 -27q0 -17 -11 -28t-27 -11q-17 0 -28 11t-11 28q0 16 11 27t28 11q16 0 27 -11z" />
    <glyph glyph-name="uni1E2E" unicode="&#x1e2e;" horiz-adv-x="255" 
d="M156 685v-685h-58v685h58zM200 968l39 -33l-112 -122l-26 23zM68.5 810q10.5 -11 10.5 -28q0 -16 -10.5 -27t-27.5 -11q-16 0 -27 11t-11 27q0 17 11 28t27 11q17 0 27.5 -11zM240 810q11 -11 11 -28q0 -16 -11 -27t-27 -11q-17 0 -28 11t-11 27q0 17 11 28t28 11
q16 0 27 -11z" />
    <glyph glyph-name="Idotaccent" unicode="&#x130;" horiz-adv-x="255" 
d="M156 685v-685h-58v685h58zM156.5 866q11.5 -12 11.5 -29q0 -18 -11.5 -29.5t-29.5 -11.5t-29.5 11.5t-11.5 29.5q0 17 11.5 29t29.5 12t29.5 -12z" />
    <glyph glyph-name="uni1ECA" unicode="&#x1eca;" horiz-adv-x="255" 
d="M156 685v-685h-58v685h58zM98.5 -157q-11.5 12 -11.5 29q0 18 11.5 29.5t29.5 11.5t29.5 -11.5t11.5 -29.5q0 -17 -11.5 -29t-29.5 -12t-29.5 12z" />
    <glyph glyph-name="Igrave" unicode="&#xcc;" horiz-adv-x="255" 
d="M156 685v-685h-58v685h58zM52 885l169 -95l-16 -32l-179 77z" />
    <glyph glyph-name="uni1EC8" unicode="&#x1ec8;" horiz-adv-x="255" 
d="M156 685v-685h-58v685h58zM104 847q31 2 47 12.5t16 34.5q0 20 -11.5 30.5t-31.5 10.5q-25 0 -51 -14l-15 34q32 21 74 21q39 0 61.5 -21.5t22.5 -57.5q0 -33 -17.5 -52t-49.5 -24v-46h-45v72z" />
    <glyph glyph-name="uni020A" unicode="&#x20a;" horiz-adv-x="255" 
d="M156 685v-685h-58v685h58zM206.5 874.5q32.5 -29.5 38.5 -80.5l-37 -8q-18 72 -82 72q-63 0 -81 -72l-37 8q6 51 38 80.5t80 29.5t80.5 -29.5z" />
    <glyph glyph-name="Imacron" unicode="&#x12a;" horiz-adv-x="255" 
d="M156 685v-685h-58v685h58zM237 803h-219v44h219v-44z" />
    <glyph glyph-name="Iogonek" unicode="&#x12e;" horiz-adv-x="255" 
d="M156 685v-685h-4q-60 -30 -84.5 -56.5t-24.5 -62.5q0 -52 56 -52q24 0 52 7l-5 -46q-31 -7 -53 -7q-48 0 -74.5 25t-26.5 66q0 42 26 73.5t80 57.5v680h58z" />
    <glyph glyph-name="uni0196" unicode="&#x196;" horiz-adv-x="310" 
d="M297 23q-42 -34 -95 -34q-51 0 -82.5 32t-31.5 92v572h58v-574q0 -39 16 -56.5t43 -17.5q21 0 36 6t31 17z" />
    <glyph glyph-name="uni0197" unicode="&#x197;" horiz-adv-x="284" 
d="M262 384v-47h-91v-337h-58v337h-91v47h91v301h58v-301h91z" />
    <glyph glyph-name="Itilde" unicode="&#x128;" horiz-adv-x="255" 
d="M156 685v-685h-58v685h58zM149.5 800.5q-13.5 6.5 -33.5 18.5q-27 19 -42 19t-26.5 -9t-24.5 -30l-33 17q33 66 83 66q16 0 29.5 -6.5t29.5 -17.5q17 -11 26.5 -15.5t20.5 -4.5q14 0 25.5 10t25.5 33l33 -17q-31 -70 -83 -70q-17 0 -30.5 6.5z" />
    <glyph glyph-name="J" unicode="J" horiz-adv-x="262" 
d="M169 91q0 -59 -14.5 -97t-45 -63.5t-83.5 -48.5l-15 42q42 21 63 42t29 50t8 78v591h58v-594z" />
    <glyph glyph-name="Jcircumflex" unicode="&#x134;" horiz-adv-x="262" 
d="M169 91q0 -59 -14.5 -97t-45 -63.5t-83.5 -48.5l-15 42q42 21 63 42t29 50t8 78v591h58v-594zM29 763l-25 27l117 102h35l116 -102l-24 -27l-110 80z" />
    <glyph glyph-name="uniA7B2" unicode="&#xa7b2;" horiz-adv-x="280" 
d="M260 -89q-35 19 -79 31q-4 -71 -40 -109t-101 -38q-53 0 -82.5 26.5t-29.5 71.5q0 49 36 77t98 28q35 0 62 -5v692h58v-703q51 -15 95 -38zM104.5 -135q19.5 28 19.5 88q-23 6 -62 6q-86 0 -86 -64q0 -58 64 -58q45 0 64.5 28z" />
    <glyph glyph-name="uni0248" unicode="&#x248;" horiz-adv-x="277" 
d="M259 319h-90v-228q0 -59 -14.5 -97t-45 -63.5t-83.5 -48.5l-15 42q42 21 63 42t29 50t8 78v225h-92v48h92v318h58v-318h90v-48z" />
    <glyph glyph-name="K" unicode="K" horiz-adv-x="500" 
d="M156 685v-685h-58v685h58zM481 685l-255 -315l271 -370h-69l-268 367l256 318h65z" />
    <glyph glyph-name="uni01E8" unicode="&#x1e8;" horiz-adv-x="500" 
d="M156 685v-685h-58v685h58zM481 685l-255 -315l271 -370h-69l-268 367l256 318h65zM387 886l23 -27l-116 -103h-35l-117 103l24 27l111 -81z" />
    <glyph glyph-name="Kcommaaccent" unicode="&#x136;" horiz-adv-x="500" 
d="M156 685v-685h-58v685h58zM481 685l-255 -315l271 -370h-69l-268 367l256 318h65zM305.5 -97q11.5 -12 11.5 -30q0 -11 -4 -23.5t-16 -41.5l-37 -86h-33l30 114q-23 13 -23 37q0 18 11.5 30t30.5 12q18 0 29.5 -12z" />
    <glyph glyph-name="uni0198" unicode="&#x198;" horiz-adv-x="526" 
d="M160 367l160 250q27 42 53.5 60.5t64.5 18.5q26 0 46 -10t39 -27l-24 -34q-15 12 -27.5 18t-30.5 6q-22 0 -38 -11.5t-38 -45.5l-140 -222l272 -370h-69zM156 685v-685h-58v685h58z" />
    <glyph glyph-name="L" unicode="L" horiz-adv-x="429" 
d="M156 685v-633h257l-8 -52h-307v685h58z" />
    <glyph glyph-name="uni01C7" unicode="&#x1c7;" horiz-adv-x="674" 
d="M156 685v-633h257l-8 -52h-307v685h58zM581 91q0 -59 -14.5 -97t-45 -63.5t-83.5 -48.5l-15 42q42 21 63 42t29 50t8 78v591h58v-594z" />
    <glyph glyph-name="Lacute" unicode="&#x139;" horiz-adv-x="429" 
d="M156 685v-633h257l-8 -52h-307v685h58zM200 885l25 -50l-179 -77l-16 33z" />
    <glyph glyph-name="uni023D" unicode="&#x23d;" horiz-adv-x="443" 
d="M170 52h257l-8 -52h-307v339h-90v48h90v298h58v-298h92v-48h-92v-287z" />
    <glyph glyph-name="uniA7AD" unicode="&#xa7ad;" horiz-adv-x="467" 
d="M451 52l-8 -52h-307v269q-58 1 -89 26.5t-31 73.5q0 42 26.5 67t66.5 25q6 0 27 -3v227h58v-372q47 1 106 13l7 -40q-62 -14 -113 -15v-219h257zM136 313v105q-14 2 -24 2q-22 0 -35 -13t-13 -38q0 -56 72 -56z" />
    <glyph glyph-name="Lcaron" unicode="&#x13d;" horiz-adv-x="429" 
d="M156 685v-633h257l-8 -52h-307v685h58zM247 522l36 162l-52 7l-18 -164z" />
    <glyph glyph-name="uni1E3C" unicode="&#x1e3c;" horiz-adv-x="429" 
d="M156 685v-633h257l-8 -52h-307v685h58zM145 -203l-25 26l117 107h34l117 -107l-24 -26l-110 84z" />
    <glyph glyph-name="Lcommaaccent" unicode="&#x13b;" horiz-adv-x="429" 
d="M156 685v-633h257l-8 -52h-307v685h58zM282.5 -97q11.5 -12 11.5 -30q0 -11 -4 -23.5t-16 -41.5l-37 -86h-33l30 114q-23 13 -23 37q0 18 11.5 30t30.5 12q18 0 29.5 -12z" />
    <glyph glyph-name="Ldot" unicode="&#x13f;" horiz-adv-x="429" 
d="M156 685v-633h257l-8 -52h-307v685h58zM362.5 397q11.5 -12 11.5 -29q0 -18 -11.5 -29.5t-29.5 -11.5t-29.5 11.5t-11.5 29.5q0 17 11.5 29t29.5 12t29.5 -12z" />
    <glyph glyph-name="uni1E36" unicode="&#x1e36;" horiz-adv-x="429" 
d="M156 685v-633h257l-8 -52h-307v685h58zM224.5 -157q-11.5 12 -11.5 29q0 18 11.5 29.5t29.5 11.5t29.5 -11.5t11.5 -29.5q0 -17 -11.5 -29t-29.5 -12t-29.5 12z" />
    <glyph glyph-name="uni01C8" unicode="&#x1c8;" horiz-adv-x="658" 
d="M156 685v-633h257l-8 -52h-307v685h58zM564 4q0 -61 -14 -98.5t-40.5 -61t-74.5 -47.5l-18 40q35 19 53.5 37.5t28 48.5t9.5 80v520h56v-519zM564.5 740q11.5 -12 11.5 -29q0 -18 -11.5 -29.5t-29.5 -11.5t-29.5 11.5t-11.5 29.5q0 17 11.5 29t29.5 12t29.5 -12z" />
    <glyph glyph-name="Lslash" unicode="&#x141;" horiz-adv-x="440" 
d="M167 52h257l-8 -52h-307v281l-57 -39l-23 38l80 55v350h58v-310l161 110l22 -38l-183 -126v-269z" />
    <glyph glyph-name="M" unicode="M" horiz-adv-x="700" 
d="M636 0h-55l-28 329q-16 179 -22 299l-153 -547h-56l-158 547q-2 -50 -17 -260l-3 -37l-26 -331h-55l59 685h79l150 -535l146 535h80z" />
    <glyph glyph-name="uni1E3E" unicode="&#x1e3e;" horiz-adv-x="700" 
d="M636 0h-55l-28 329q-16 179 -22 299l-153 -547h-56l-158 547q-2 -50 -17 -260l-3 -37l-26 -331h-55l59 685h79l150 -535l146 535h80zM421 885l25 -50l-179 -77l-16 33z" />
    <glyph glyph-name="uni1E40" unicode="&#x1e40;" horiz-adv-x="700" 
d="M636 0h-55l-28 329q-16 179 -22 299l-153 -547h-56l-158 547q-2 -50 -17 -260l-3 -37l-26 -331h-55l59 685h79l150 -535l146 535h80zM378.5 866q11.5 -12 11.5 -29q0 -18 -11.5 -29.5t-29.5 -11.5t-29.5 11.5t-11.5 29.5q0 17 11.5 29t29.5 12t29.5 -12z" />
    <glyph glyph-name="uni019C" unicode="&#x19c;" horiz-adv-x="835" 
d="M736 685v-685h-50l-5 90q-60 -101 -153 -101q-51 0 -85 28.5t-49 79.5q-67 -108 -160 -108q-69 0 -107.5 49.5t-38.5 133.5v513h58v-514q0 -63 25 -97.5t71 -34.5q44 0 78 28.5t65 83.5q-1 7 -1 22v512h57v-514q0 -62 25 -97t71 -35q45 0 79 29t62 84v533h58z" />
    <glyph glyph-name="N" unicode="N" horiz-adv-x="605" 
d="M507 0h-76l-286 620q8 -92 8 -233v-387h-55v685h76l286 -621q-8 120 -8 202v419h55v-685z" />
    <glyph glyph-name="uni01CA" unicode="&#x1ca;" horiz-adv-x="867" 
d="M507 0h-76l-286 620q8 -92 8 -233v-387h-55v685h76l286 -621q-8 120 -8 202v419h55v-685zM774 91q0 -59 -14.5 -97t-45 -63.5t-83.5 -48.5l-15 42q42 21 63 42t29 50t8 78v591h58v-594z" />
    <glyph glyph-name="Nacute" unicode="&#x143;" horiz-adv-x="605" 
d="M507 0h-76l-286 620q8 -92 8 -233v-387h-55v685h76l286 -621q-8 120 -8 202v419h55v-685zM383 885l25 -50l-179 -77l-16 33z" />
    <glyph glyph-name="Nacute.loclPLK" horiz-adv-x="605" 
d="M507 0h-76l-286 620q8 -92 8 -233v-387h-55v685h76l286 -621q-8 120 -8 202v419h55v-685zM364 907l46 -30l-108 -145l-29 18z" />
    <glyph glyph-name="Ncaron" unicode="&#x147;" horiz-adv-x="605" 
d="M507 0h-76l-286 620q8 -92 8 -233v-387h-55v685h76l286 -621q-8 120 -8 202v419h55v-685zM421 886l23 -27l-116 -103h-35l-117 103l24 27l111 -81z" />
    <glyph glyph-name="uni1E4A" unicode="&#x1e4a;" horiz-adv-x="605" 
d="M507 0h-76l-286 620q8 -92 8 -233v-387h-55v685h76l286 -621q-8 120 -8 202v419h55v-685zM194 -203l-25 26l117 107h34l117 -107l-24 -26l-110 84z" />
    <glyph glyph-name="Ncommaaccent" unicode="&#x145;" horiz-adv-x="605" 
d="M507 0h-76l-286 620q8 -92 8 -233v-387h-55v685h76l286 -621q-8 120 -8 202v419h55v-685zM331.5 -97q11.5 -12 11.5 -30q0 -11 -4 -23.5t-16 -41.5l-37 -86h-33l30 114q-23 13 -23 37q0 18 11.5 30t30.5 12q18 0 29.5 -12z" />
    <glyph glyph-name="uni1E44" unicode="&#x1e44;" horiz-adv-x="605" 
d="M507 0h-76l-286 620q8 -92 8 -233v-387h-55v685h76l286 -621q-8 120 -8 202v419h55v-685zM340.5 866q11.5 -12 11.5 -29q0 -18 -11.5 -29.5t-29.5 -11.5t-29.5 11.5t-11.5 29.5q0 17 11.5 29t29.5 12t29.5 -12z" />
    <glyph glyph-name="uni1E46" unicode="&#x1e46;" horiz-adv-x="605" 
d="M507 0h-76l-286 620q8 -92 8 -233v-387h-55v685h76l286 -621q-8 120 -8 202v419h55v-685zM273.5 -157q-11.5 12 -11.5 29q0 18 11.5 29.5t29.5 11.5t29.5 -11.5t11.5 -29.5q0 -17 -11.5 -29t-29.5 -12t-29.5 12z" />
    <glyph glyph-name="uni01F8" unicode="&#x1f8;" horiz-adv-x="605" 
d="M507 0h-76l-286 620q8 -92 8 -233v-387h-55v685h76l286 -621q-8 120 -8 202v419h55v-685zM236 885l169 -95l-16 -32l-179 77z" />
    <glyph glyph-name="Eng" unicode="&#x14a;" horiz-adv-x="605" 
d="M507 685v-766q0 -60 -31.5 -92t-82.5 -32q-53 0 -95 34l25 37q16 -11 31 -17t36 -6q27 0 43 17.5t16 56.5v83h-18l-286 620q8 -92 8 -233v-387h-55v685h76l286 -621q-8 120 -8 202v419h55z" />
    <glyph glyph-name="Eng.ss01" horiz-adv-x="595" 
d="M463 646.5q42 -49.5 42 -138.5v-589q0 -60 -31.5 -92t-82.5 -32q-53 0 -95 34l25 37q16 -11 31 -17t36 -6q27 0 43 17.5t16 56.5v581q0 148 -113 148q-56 0 -97.5 -28.5t-80.5 -80.5v-537h-58v685h51l5 -92q81 103 189 103q78 0 120 -49.5z" />
    <glyph glyph-name="uni019D" unicode="&#x19d;" horiz-adv-x="605" 
d="M507 685v-685h-76l-286 620q8 -92 8 -233v-469q0 -60 -31 -91.5t-82 -31.5q-54 0 -94 34l25 36q16 -11 31 -17t36 -6q60 0 60 74v769h76l286 -621q-8 120 -8 202v419h55z" />
    <glyph glyph-name="uni019D.ss01" horiz-adv-x="595" 
d="M463 646.5q42 -49.5 42 -138.5v-508h-58v498q0 148 -113 148q-56 0 -97.5 -28.5t-80.5 -80.5v-618q0 -60 -31.5 -92t-82.5 -32q-53 0 -95 34l25 37q16 -11 31 -17t36 -6q27 0 43 17.5t16 56.5v768h51l5 -92q81 103 189 103q78 0 120 -49.5z" />
    <glyph glyph-name="uni01CB" unicode="&#x1cb;" horiz-adv-x="849" 
d="M507 0h-76l-286 620q8 -92 8 -233v-387h-55v685h76l286 -621q-8 120 -8 202v419h55v-685zM755 4q0 -61 -14 -98.5t-40.5 -61t-74.5 -47.5l-18 40q35 19 53.5 37.5t28 48.5t9.5 80v520h56v-519zM755.5 740q11.5 -12 11.5 -29q0 -18 -11.5 -29.5t-29.5 -11.5t-29.5 11.5
t-11.5 29.5q0 17 11.5 29t29.5 12t29.5 -12z" />
    <glyph glyph-name="uni0220" unicode="&#x220;" horiz-adv-x="595" 
d="M463 646.5q42 -49.5 42 -138.5v-705h-58v695q0 148 -113 148q-56 0 -97.5 -28.5t-80.5 -80.5v-537h-58v685h51l5 -92q81 103 189 103q78 0 120 -49.5z" />
    <glyph glyph-name="Ntilde" unicode="&#xd1;" horiz-adv-x="605" 
d="M507 0h-76l-286 620q8 -92 8 -233v-387h-55v685h76l286 -621q-8 120 -8 202v419h55v-685zM333.5 800.5q-13.5 6.5 -33.5 18.5q-27 19 -42 19t-26.5 -9t-24.5 -30l-33 17q33 66 83 66q16 0 29.5 -6.5t29.5 -17.5q17 -11 26.5 -15.5t20.5 -4.5q14 0 25.5 10t25.5 33l33 -17
q-31 -70 -83 -70q-17 0 -30.5 6.5z" />
    <glyph glyph-name="O" unicode="O" horiz-adv-x="624" 
d="M496.5 606q67.5 -90 67.5 -264q0 -171 -67.5 -262t-184.5 -91q-76 0 -133 39.5t-88.5 119t-31.5 193.5t31.5 194t88.5 120.5t133 40.5q117 0 184.5 -90zM171 571q-51 -75 -51 -230q0 -153 51.5 -227.5t140.5 -74.5q92 0 142 74t50 229t-50.5 229.5t-141.5 74.5
q-90 0 -141 -75z" />
    <glyph glyph-name="uni0222" unicode="&#x222;" horiz-adv-x="578" 
d="M486 316.5q33 -48.5 33 -117.5q0 -58 -26 -105.5t-78 -76t-126 -28.5q-73 0 -125 27.5t-78.5 75t-26.5 106.5q0 67 33.5 116t95.5 71q-87 39 -87 149v151h58v-149q0 -130 130 -130q72 0 102.5 36t30.5 94v149h58v-151q0 -49 -22.5 -88t-67.5 -60q63 -21 96 -69.5z
M416.5 80.5q41.5 41.5 41.5 118.5q0 76 -41.5 117t-127.5 41q-84 0 -126.5 -42t-42.5 -117q0 -76 42.5 -117.5t126.5 -41.5q86 0 127.5 41.5z" />
    <glyph glyph-name="Oacute" unicode="&#xd3;" horiz-adv-x="624" 
d="M496.5 606q67.5 -90 67.5 -264q0 -171 -67.5 -262t-184.5 -91q-76 0 -133 39.5t-88.5 119t-31.5 193.5t31.5 194t88.5 120.5t133 40.5q117 0 184.5 -90zM171 571q-51 -75 -51 -230q0 -153 51.5 -227.5t140.5 -74.5q92 0 142 74t50 229t-50.5 229.5t-141.5 74.5
q-90 0 -141 -75zM384 885l25 -50l-179 -77l-16 33z" />
    <glyph glyph-name="Oacute.loclPLK" horiz-adv-x="624" 
d="M496.5 606q67.5 -90 67.5 -264q0 -171 -67.5 -262t-184.5 -91q-76 0 -133 39.5t-88.5 119t-31.5 193.5t31.5 194t88.5 120.5t133 40.5q117 0 184.5 -90zM171 571q-51 -75 -51 -230q0 -153 51.5 -227.5t140.5 -74.5q92 0 142 74t50 229t-50.5 229.5t-141.5 74.5
q-90 0 -141 -75zM365 907l46 -30l-108 -145l-29 18z" />
    <glyph glyph-name="Obreve" unicode="&#x14e;" horiz-adv-x="624" 
d="M496.5 606q67.5 -90 67.5 -264q0 -171 -67.5 -262t-184.5 -91q-76 0 -133 39.5t-88.5 119t-31.5 193.5t31.5 194t88.5 120.5t133 40.5q117 0 184.5 -90zM171 571q-51 -75 -51 -230q0 -153 51.5 -227.5t140.5 -74.5q92 0 142 74t50 229t-50.5 229.5t-141.5 74.5
q-90 0 -141 -75zM231.5 792.5q-32.5 27.5 -38.5 71.5l37 9q8 -29 29 -45.5t52 -16.5t52.5 16.5t29.5 45.5l37 -9q-6 -44 -38.5 -71.5t-80.5 -27.5q-47 0 -79.5 27.5z" />
    <glyph glyph-name="uni01D1" unicode="&#x1d1;" horiz-adv-x="624" 
d="M496.5 606q67.5 -90 67.5 -264q0 -171 -67.5 -262t-184.5 -91q-76 0 -133 39.5t-88.5 119t-31.5 193.5t31.5 194t88.5 120.5t133 40.5q117 0 184.5 -90zM171 571q-51 -75 -51 -230q0 -153 51.5 -227.5t140.5 -74.5q92 0 142 74t50 229t-50.5 229.5t-141.5 74.5
q-90 0 -141 -75zM422 886l23 -27l-116 -103h-35l-117 103l24 27l111 -81z" />
    <glyph glyph-name="uni019F" unicode="&#x19f;" horiz-adv-x="624" 
d="M496.5 606q67.5 -90 67.5 -265q0 -170 -67.5 -261t-184.5 -91q-76 0 -133 39.5t-88.5 118.5t-31.5 193q0 115 31.5 195t88.5 120.5t133 40.5q117 0 184.5 -90zM175 578.5q-51 -67.5 -56 -205.5h386q-5 140 -55.5 206.5t-137.5 66.5q-86 0 -137 -67.5zM453.5 109.5
q50.5 70.5 52.5 217.5h-388q2 -145 54 -216.5t140 -71.5q91 0 141.5 70.5z" />
    <glyph glyph-name="Ocircumflex" unicode="&#xd4;" horiz-adv-x="624" 
d="M496.5 606q67.5 -90 67.5 -264q0 -171 -67.5 -262t-184.5 -91q-76 0 -133 39.5t-88.5 119t-31.5 193.5t31.5 194t88.5 120.5t133 40.5q117 0 184.5 -90zM171 571q-51 -75 -51 -230q0 -153 51.5 -227.5t140.5 -74.5q92 0 142 74t50 229t-50.5 229.5t-141.5 74.5
q-90 0 -141 -75zM202 763l-25 27l117 102h35l116 -102l-24 -27l-110 80z" />
    <glyph glyph-name="uni1ED0" unicode="&#x1ed0;" horiz-adv-x="624" 
d="M496.5 606q67.5 -90 67.5 -264q0 -171 -67.5 -262t-184.5 -91q-76 0 -133 39.5t-88.5 119t-31.5 193.5t31.5 194t88.5 120.5t133 40.5q117 0 184.5 -90zM171 571q-51 -75 -51 -230q0 -153 51.5 -227.5t140.5 -74.5q92 0 142 74t50 229t-50.5 229.5t-141.5 74.5
q-90 0 -141 -75zM203 729l-25 27l117 102h35l116 -102l-24 -27l-110 80zM490 987l39 -33l-112 -122l-26 23z" />
    <glyph glyph-name="uni1ED8" unicode="&#x1ed8;" horiz-adv-x="624" 
d="M496.5 606q67.5 -90 67.5 -264q0 -171 -67.5 -262t-184.5 -91q-76 0 -133 39.5t-88.5 119t-31.5 193.5t31.5 194t88.5 120.5t133 40.5q117 0 184.5 -90zM171 571q-51 -75 -51 -230q0 -153 51.5 -227.5t140.5 -74.5q92 0 142 74t50 229t-50.5 229.5t-141.5 74.5
q-90 0 -141 -75zM202 763l-25 27l117 102h35l116 -102l-24 -27l-110 80zM282.5 -157q-11.5 12 -11.5 29q0 18 11.5 29.5t29.5 11.5t29.5 -11.5t11.5 -29.5q0 -17 -11.5 -29t-29.5 -12t-29.5 12z" />
    <glyph glyph-name="uni1ED2" unicode="&#x1ed2;" horiz-adv-x="624" 
d="M496.5 606q67.5 -90 67.5 -264q0 -171 -67.5 -262t-184.5 -91q-76 0 -133 39.5t-88.5 119t-31.5 193.5t31.5 194t88.5 120.5t133 40.5q117 0 184.5 -90zM171 571q-51 -75 -51 -230q0 -153 51.5 -227.5t140.5 -74.5q92 0 142 74t50 229t-50.5 229.5t-141.5 74.5
q-90 0 -141 -75zM202 729l-25 27l117 102h35l116 -102l-24 -27l-110 80zM137 987l99 -132l-26 -23l-112 122z" />
    <glyph glyph-name="uni1ED4" unicode="&#x1ed4;" horiz-adv-x="624" 
d="M496.5 606q67.5 -90 67.5 -264q0 -171 -67.5 -262t-184.5 -91q-76 0 -133 39.5t-88.5 119t-31.5 193.5t31.5 194t88.5 120.5t133 40.5q117 0 184.5 -90zM171 571q-51 -75 -51 -230q0 -153 51.5 -227.5t140.5 -74.5q92 0 142 74t50 229t-50.5 229.5t-141.5 74.5
q-90 0 -141 -75zM202 729l-25 27l117 102h35l116 -102l-24 -27l-110 80zM404 885q31 2 47 12.5t16 34.5q0 20 -11.5 30.5t-31.5 10.5q-25 0 -51 -14l-15 34q32 21 74 21q39 0 61.5 -21.5t22.5 -57.5q0 -33 -17.5 -52t-49.5 -24v-46h-45v72z" />
    <glyph glyph-name="uni1ED6" unicode="&#x1ed6;" horiz-adv-x="624" 
d="M496.5 606q67.5 -90 67.5 -264q0 -171 -67.5 -262t-184.5 -91q-76 0 -133 39.5t-88.5 119t-31.5 193.5t31.5 194t88.5 120.5t133 40.5q117 0 184.5 -90zM171 571q-51 -75 -51 -230q0 -153 51.5 -227.5t140.5 -74.5q92 0 142 74t50 229t-50.5 229.5t-141.5 74.5
q-90 0 -141 -75zM201 729l-25 27l117 102h35l116 -102l-24 -27l-110 80zM333.5 904.5q-13.5 6.5 -33.5 18.5q-27 19 -42 19t-26.5 -9t-24.5 -30l-33 17q33 66 83 66q15 0 29 -6.5t30 -17.5q17 -11 26.5 -15.5t20.5 -4.5q14 0 25.5 10t25.5 33l33 -17q-31 -70 -83 -70
q-17 0 -30.5 6.5z" />
    <glyph glyph-name="uni020C" unicode="&#x20c;" horiz-adv-x="624" 
d="M496.5 606q67.5 -90 67.5 -264q0 -171 -67.5 -262t-184.5 -91q-76 0 -133 39.5t-88.5 119t-31.5 193.5t31.5 194t88.5 120.5t133 40.5q117 0 184.5 -90zM171 571q-51 -75 -51 -230q0 -153 51.5 -227.5t140.5 -74.5q92 0 142 74t50 229t-50.5 229.5t-141.5 74.5
q-90 0 -141 -75zM203 935l71 -151l-34 -15l-85 141zM321 935l64 -146l-35 -16l-77 137z" />
    <glyph glyph-name="Odieresis" unicode="&#xd6;" horiz-adv-x="624" 
d="M496.5 606q67.5 -90 67.5 -264q0 -171 -67.5 -262t-184.5 -91q-76 0 -133 39.5t-88.5 119t-31.5 193.5t31.5 194t88.5 120.5t133 40.5q117 0 184.5 -90zM171 571q-51 -75 -51 -230q0 -153 51.5 -227.5t140.5 -74.5q92 0 142 74t50 229t-50.5 229.5t-141.5 74.5
q-90 0 -141 -75zM256.5 855q10.5 -11 10.5 -27q0 -17 -10.5 -28t-27.5 -11q-16 0 -27 11t-11 28q0 16 11 27t27 11q17 0 27.5 -11zM428 855q11 -11 11 -27q0 -17 -11 -28t-27 -11q-17 0 -28 11t-11 28q0 16 11 27t28 11q16 0 27 -11z" />
    <glyph glyph-name="uni022A" unicode="&#x22a;" horiz-adv-x="624" 
d="M496.5 606q67.5 -90 67.5 -264q0 -171 -67.5 -262t-184.5 -91q-76 0 -133 39.5t-88.5 119t-31.5 193.5t31.5 194t88.5 120.5t133 40.5q117 0 184.5 -90zM171 571q-51 -75 -51 -230q0 -153 51.5 -227.5t140.5 -74.5q92 0 142 74t50 229t-50.5 229.5t-141.5 74.5
q-90 0 -141 -75zM253.5 809q10.5 -11 10.5 -27q0 -17 -10.5 -28t-27.5 -11q-16 0 -27 11t-11 28q0 16 11 27t27 11q17 0 27.5 -11zM425 809q11 -11 11 -27q0 -17 -11 -28t-27 -11q-17 0 -28 11t-11 28q0 16 11 27t28 11q16 0 27 -11zM423 878h-219v44h219v-44z" />
    <glyph glyph-name="uni022E" unicode="&#x22e;" horiz-adv-x="624" 
d="M496.5 606q67.5 -90 67.5 -264q0 -171 -67.5 -262t-184.5 -91q-76 0 -133 39.5t-88.5 119t-31.5 193.5t31.5 194t88.5 120.5t133 40.5q117 0 184.5 -90zM171 571q-51 -75 -51 -230q0 -153 51.5 -227.5t140.5 -74.5q92 0 142 74t50 229t-50.5 229.5t-141.5 74.5
q-90 0 -141 -75zM341.5 866q11.5 -12 11.5 -29q0 -18 -11.5 -29.5t-29.5 -11.5t-29.5 11.5t-11.5 29.5q0 17 11.5 29t29.5 12t29.5 -12z" />
    <glyph glyph-name="uni0230" unicode="&#x230;" horiz-adv-x="624" 
d="M496.5 606q67.5 -90 67.5 -264q0 -171 -67.5 -262t-184.5 -91q-76 0 -133 39.5t-88.5 119t-31.5 193.5t31.5 194t88.5 120.5t133 40.5q117 0 184.5 -90zM171 571q-51 -75 -51 -230q0 -153 51.5 -227.5t140.5 -74.5q92 0 142 74t50 229t-50.5 229.5t-141.5 74.5
q-90 0 -141 -75zM342.5 813q11.5 -12 11.5 -29q0 -18 -11.5 -29.5t-29.5 -11.5t-29.5 11.5t-11.5 29.5q0 17 11.5 29t29.5 12t29.5 -12zM423 878h-219v44h219v-44z" />
    <glyph glyph-name="uni1ECC" unicode="&#x1ecc;" horiz-adv-x="624" 
d="M496.5 606q67.5 -90 67.5 -264q0 -171 -67.5 -262t-184.5 -91q-76 0 -133 39.5t-88.5 119t-31.5 193.5t31.5 194t88.5 120.5t133 40.5q117 0 184.5 -90zM171 571q-51 -75 -51 -230q0 -153 51.5 -227.5t140.5 -74.5q92 0 142 74t50 229t-50.5 229.5t-141.5 74.5
q-90 0 -141 -75zM282.5 -157q-11.5 12 -11.5 29q0 18 11.5 29.5t29.5 11.5t29.5 -11.5t11.5 -29.5q0 -17 -11.5 -29t-29.5 -12t-29.5 12z" />
    <glyph glyph-name="Ograve" unicode="&#xd2;" horiz-adv-x="624" 
d="M496.5 606q67.5 -90 67.5 -264q0 -171 -67.5 -262t-184.5 -91q-76 0 -133 39.5t-88.5 119t-31.5 193.5t31.5 194t88.5 120.5t133 40.5q117 0 184.5 -90zM171 571q-51 -75 -51 -230q0 -153 51.5 -227.5t140.5 -74.5q92 0 142 74t50 229t-50.5 229.5t-141.5 74.5
q-90 0 -141 -75zM237 885l169 -95l-16 -32l-179 77z" />
    <glyph glyph-name="uni1ECE" unicode="&#x1ece;" horiz-adv-x="624" 
d="M496.5 606q67.5 -90 67.5 -264q0 -171 -67.5 -262t-184.5 -91q-76 0 -133 39.5t-88.5 119t-31.5 193.5t31.5 194t88.5 120.5t133 40.5q117 0 184.5 -90zM171 571q-51 -75 -51 -230q0 -153 51.5 -227.5t140.5 -74.5q92 0 142 74t50 229t-50.5 229.5t-141.5 74.5
q-90 0 -141 -75zM289 847q31 2 47 12.5t16 34.5q0 20 -11.5 30.5t-31.5 10.5q-25 0 -51 -14l-15 34q32 21 74 21q39 0 61.5 -21.5t22.5 -57.5q0 -33 -17.5 -52t-49.5 -24v-46h-45v72z" />
    <glyph glyph-name="Ohorn" unicode="&#x1a0;" horiz-adv-x="631" 
d="M503 597q61 -92 61 -255q0 -171 -67.5 -262t-184.5 -91q-76 0 -133 39.5t-88.5 119t-31.5 193.5t31.5 194t88.5 120.5t133 40.5q102 0 165 -67q27 4 39 17.5t12 39.5q0 21 -3.5 37t-9.5 35l42 12q17 -38 17 -83q0 -76 -71 -90zM454 113q50 74 50 229t-50.5 229.5
t-141.5 74.5q-90 0 -141 -75t-51 -230q0 -153 51.5 -227.5t140.5 -74.5q92 0 142 74z" />
    <glyph glyph-name="uni1EDA" unicode="&#x1eda;" horiz-adv-x="631" 
d="M409 835l-179 -77l-16 33l170 94zM503 597q61 -92 61 -255q0 -171 -67.5 -262t-184.5 -91q-76 0 -133 39.5t-88.5 119t-31.5 193.5t31.5 194t88.5 120.5t133 40.5q102 0 165 -67q27 4 39 17.5t12 39.5q0 21 -3.5 37t-9.5 35l42 12q17 -38 17 -83q0 -76 -71 -90zM454 113
q50 74 50 229t-50.5 229.5t-141.5 74.5q-90 0 -141 -75t-51 -230q0 -153 51.5 -227.5t140.5 -74.5q92 0 142 74z" />
    <glyph glyph-name="uni1EE2" unicode="&#x1ee2;" horiz-adv-x="631" 
d="M503 597q61 -92 61 -255q0 -171 -67.5 -262t-184.5 -91q-76 0 -133 39.5t-88.5 119t-31.5 193.5t31.5 194t88.5 120.5t133 40.5q102 0 165 -67q27 4 39 17.5t12 39.5q0 21 -3.5 37t-9.5 35l42 12q17 -38 17 -83q0 -76 -71 -90zM454 113q50 74 50 229t-50.5 229.5
t-141.5 74.5q-90 0 -141 -75t-51 -230q0 -153 51.5 -227.5t140.5 -74.5q92 0 142 74zM341.5 -98.5q11.5 -11.5 11.5 -29.5q0 -17 -11.5 -29t-29.5 -12t-29.5 12t-11.5 29q0 18 11.5 29.5t29.5 11.5t29.5 -11.5z" />
    <glyph glyph-name="uni1EDC" unicode="&#x1edc;" horiz-adv-x="631" 
d="M406 790l-16 -32l-179 77l26 50zM503 597q61 -92 61 -255q0 -171 -67.5 -262t-184.5 -91q-76 0 -133 39.5t-88.5 119t-31.5 193.5t31.5 194t88.5 120.5t133 40.5q102 0 165 -67q27 4 39 17.5t12 39.5q0 21 -3.5 37t-9.5 35l42 12q17 -38 17 -83q0 -76 -71 -90zM454 113
q50 74 50 229t-50.5 229.5t-141.5 74.5q-90 0 -141 -75t-51 -230q0 -153 51.5 -227.5t140.5 -74.5q92 0 142 74z" />
    <glyph glyph-name="uni1EDE" unicode="&#x1ede;" horiz-adv-x="631" 
d="M258 921l-15 34q32 21 74 21q39 0 61.5 -21.5t22.5 -57.5q0 -33 -17.5 -52t-49.5 -24v-46h-45v72q31 2 47 12.5t16 34.5q0 20 -11.5 30.5t-31.5 10.5q-25 0 -51 -14zM503 597q61 -92 61 -255q0 -171 -67.5 -262t-184.5 -91q-76 0 -133 39.5t-88.5 119t-31.5 193.5
t31.5 194t88.5 120.5t133 40.5q102 0 165 -67q27 4 39 17.5t12 39.5q0 21 -3.5 37t-9.5 35l42 12q17 -38 17 -83q0 -76 -71 -90zM454 113q50 74 50 229t-50.5 229.5t-141.5 74.5q-90 0 -141 -75t-51 -230q0 -153 51.5 -227.5t140.5 -74.5q92 0 142 74z" />
    <glyph glyph-name="uni1EE0" unicode="&#x1ee0;" horiz-adv-x="631" 
d="M232.5 829q-11.5 -9 -24.5 -30l-33 17q33 66 83 66q16 0 29.5 -6.5t29.5 -17.5q17 -11 26.5 -15.5t20.5 -4.5q14 0 25.5 10t25.5 33l33 -17q-31 -70 -83 -70q-17 0 -30.5 6.5t-33.5 18.5q-27 19 -42 19t-26.5 -9zM503 597q61 -92 61 -255q0 -171 -67.5 -262t-184.5 -91
q-76 0 -133 39.5t-88.5 119t-31.5 193.5t31.5 194t88.5 120.5t133 40.5q102 0 165 -67q27 4 39 17.5t12 39.5q0 21 -3.5 37t-9.5 35l42 12q17 -38 17 -83q0 -76 -71 -90zM454 113q50 74 50 229t-50.5 229.5t-141.5 74.5q-90 0 -141 -75t-51 -230q0 -153 51.5 -227.5
t140.5 -74.5q92 0 142 74z" />
    <glyph glyph-name="Ohungarumlaut" unicode="&#x150;" horiz-adv-x="624" 
d="M496.5 606q67.5 -90 67.5 -264q0 -171 -67.5 -262t-184.5 -91q-76 0 -133 39.5t-88.5 119t-31.5 193.5t31.5 194t88.5 120.5t133 40.5q117 0 184.5 -90zM171 571q-51 -75 -51 -230q0 -153 51.5 -227.5t140.5 -74.5q92 0 142 74t50 229t-50.5 229.5t-141.5 74.5
q-90 0 -141 -75zM293 935l48 -25l-77 -137l-35 16zM411 935l48 -25l-84 -141l-35 15z" />
    <glyph glyph-name="uni01A2" unicode="&#x1a2;" horiz-adv-x="815" 
d="M683.5 662q33.5 -35 33.5 -103v-756h-58v757q0 48 -19 69t-55 21q-27 0 -50.5 -8t-49.5 -23q79 -93 79 -277q0 -171 -67.5 -262t-184.5 -91q-76 0 -133 39.5t-88.5 119t-31.5 193.5t31.5 194t88.5 120.5t133 40.5q83 0 142 -47q32 23 64 35.5t70 12.5q62 0 95.5 -35z
M454 113q50 74 50 229t-50.5 229.5t-141.5 74.5q-90 0 -141 -75t-51 -230q0 -153 51.5 -227.5t140.5 -74.5q92 0 142 74z" />
    <glyph glyph-name="uni020E" unicode="&#x20e;" horiz-adv-x="624" 
d="M496.5 606q67.5 -90 67.5 -264q0 -171 -67.5 -262t-184.5 -91q-76 0 -133 39.5t-88.5 119t-31.5 193.5t31.5 194t88.5 120.5t133 40.5q117 0 184.5 -90zM171 571q-51 -75 -51 -230q0 -153 51.5 -227.5t140.5 -74.5q92 0 142 74t50 229t-50.5 229.5t-141.5 74.5
q-90 0 -141 -75zM391.5 874.5q32.5 -29.5 38.5 -80.5l-37 -8q-18 72 -82 72q-63 0 -81 -72l-37 8q6 51 38 80.5t80 29.5t80.5 -29.5z" />
    <glyph glyph-name="Omacron" unicode="&#x14c;" horiz-adv-x="624" 
d="M496.5 606q67.5 -90 67.5 -264q0 -171 -67.5 -262t-184.5 -91q-76 0 -133 39.5t-88.5 119t-31.5 193.5t31.5 194t88.5 120.5t133 40.5q117 0 184.5 -90zM171 571q-51 -75 -51 -230q0 -153 51.5 -227.5t140.5 -74.5q92 0 142 74t50 229t-50.5 229.5t-141.5 74.5
q-90 0 -141 -75zM422 803h-219v44h219v-44z" />
    <glyph glyph-name="uni1E52" unicode="&#x1e52;" horiz-adv-x="624" 
d="M496.5 606q67.5 -90 67.5 -264q0 -171 -67.5 -262t-184.5 -91q-76 0 -133 39.5t-88.5 119t-31.5 193.5t31.5 194t88.5 120.5t133 40.5q117 0 184.5 -90zM171 571q-51 -75 -51 -230q0 -153 51.5 -227.5t140.5 -74.5q92 0 142 74t50 229t-50.5 229.5t-141.5 74.5
q-90 0 -141 -75zM422 763h-219v44h219v-44zM383 983l25 -50l-179 -77l-16 33z" />
    <glyph glyph-name="uni1E50" unicode="&#x1e50;" horiz-adv-x="624" 
d="M244 983l169 -95l-16 -32l-179 77zM423 763h-219v44h219v-44zM496.5 606q67.5 -90 67.5 -264q0 -171 -67.5 -262t-184.5 -91q-76 0 -133 39.5t-88.5 119t-31.5 193.5t31.5 194t88.5 120.5t133 40.5q117 0 184.5 -90zM171 571q-51 -75 -51 -230q0 -153 51.5 -227.5
t140.5 -74.5q92 0 142 74t50 229t-50.5 229.5t-141.5 74.5q-90 0 -141 -75z" />
    <glyph glyph-name="uniA7B6" unicode="&#xa7b6;" horiz-adv-x="760" 
d="M679.5 498q16.5 -86 16.5 -207q0 -165 -47.5 -233.5t-132.5 -68.5q-57 0 -90.5 28t-47.5 84q-29 -112 -137 -112q-87 0 -132 70t-45 233q0 120 17 204.5t52 188.5h57q-36 -103 -51.5 -190t-15.5 -202q0 -98 14 -154t40.5 -78t67.5 -22q49 0 76.5 33t27.5 110v215h58v-216
q0 -78 28 -110.5t78 -32.5q39 0 66 20.5t42.5 76.5t15.5 156q0 115 -15.5 202t-50.5 192h58q34 -101 50.5 -187z" />
    <glyph glyph-name="uni01EA" unicode="&#x1ea;" horiz-adv-x="624" 
d="M517.5 114q-46.5 -87 -130.5 -114q-60 -30 -84.5 -56.5t-24.5 -62.5q0 -52 56 -52q24 0 52 7l-5 -46q-32 -7 -53 -7q-48 0 -74.5 25t-26.5 66q0 35 19 63t57 52q-112 4 -178 94.5t-66 257.5q0 114 31.5 194t88.5 120.5t133 40.5q117 0 184.5 -90t67.5 -264
q0 -141 -46.5 -228zM454 113q50 74 50 229t-50.5 229.5t-141.5 74.5q-90 0 -141 -75t-51 -230q0 -153 51.5 -227.5t140.5 -74.5q92 0 142 74z" />
    <glyph glyph-name="uni01EC" unicode="&#x1ec;" horiz-adv-x="624" 
d="M422 847v-44h-219v44h219zM517.5 114q-46.5 -87 -130.5 -114q-60 -30 -84.5 -56.5t-24.5 -62.5q0 -52 56 -52q24 0 52 7l-5 -46q-32 -7 -53 -7q-48 0 -74.5 25t-26.5 66q0 35 19 63t57 52q-112 4 -178 94.5t-66 257.5q0 114 31.5 194t88.5 120.5t133 40.5
q117 0 184.5 -90t67.5 -264q0 -141 -46.5 -228zM454 113q50 74 50 229t-50.5 229.5t-141.5 74.5q-90 0 -141 -75t-51 -230q0 -153 51.5 -227.5t140.5 -74.5q92 0 142 74z" />
    <glyph glyph-name="uni0186" unicode="&#x186;" horiz-adv-x="497" 
d="M375 607q63 -89 63 -264q0 -115 -32 -194.5t-88 -119.5t-129 -40q-97 0 -169 70l32 36q34 -28 64 -41.5t72 -13.5q84 0 136.5 75t52.5 228q0 159 -48 231t-129 72q-41 0 -75.5 -12.5t-67.5 -37.5l-30 37q78 63 175 63q110 0 173 -89z" />
    <glyph glyph-name="Oslash" unicode="&#xd8;" horiz-adv-x="624" 
d="M527.5 550.5q36.5 -82.5 36.5 -208.5q0 -170 -67.5 -261.5t-184.5 -91.5q-37 0 -69 9l-31 -117l-50 13l35 123q-65 37 -101.5 119t-36.5 205q0 114 31.5 194t88.5 120.5t133 40.5q35 0 67 -9l32 123l50 -14l-36 -127q66 -36 102.5 -118.5zM218 65l152 573q-29 8 -58 8
q-91 0 -142 -75t-51 -230q0 -213 99 -276zM453.5 113q49.5 74 50.5 229q0 218 -99 280l-151 -574q27 -9 58 -9q92 0 141.5 74z" />
    <glyph glyph-name="Oslashacute" unicode="&#x1fe;" horiz-adv-x="624" 
d="M527.5 550.5q36.5 -82.5 36.5 -208.5q0 -170 -67.5 -261.5t-184.5 -91.5q-37 0 -69 9l-31 -117l-50 13l35 123q-65 37 -101.5 119t-36.5 205q0 114 31.5 194t88.5 120.5t133 40.5q35 0 67 -9l32 123l50 -14l-36 -127q66 -36 102.5 -118.5zM218 65l152 573q-29 8 -58 8
q-91 0 -142 -75t-51 -230q0 -213 99 -276zM453.5 113q49.5 74 50.5 229q0 218 -99 280l-151 -574q27 -9 58 -9q92 0 141.5 74zM378 897l25 -50l-179 -77l-16 33z" />
    <glyph glyph-name="Otilde" unicode="&#xd5;" horiz-adv-x="624" 
d="M496.5 606q67.5 -90 67.5 -264q0 -171 -67.5 -262t-184.5 -91q-76 0 -133 39.5t-88.5 119t-31.5 193.5t31.5 194t88.5 120.5t133 40.5q117 0 184.5 -90zM171 571q-51 -75 -51 -230q0 -153 51.5 -227.5t140.5 -74.5q92 0 142 74t50 229t-50.5 229.5t-141.5 74.5
q-90 0 -141 -75zM334.5 800.5q-13.5 6.5 -33.5 18.5q-27 19 -42 19t-26.5 -9t-24.5 -30l-33 17q33 66 83 66q16 0 29.5 -6.5t29.5 -17.5q17 -11 26.5 -15.5t20.5 -4.5q14 0 25.5 10t25.5 33l33 -17q-31 -70 -83 -70q-17 0 -30.5 6.5z" />
    <glyph glyph-name="uni1E4C" unicode="&#x1e4c;" horiz-adv-x="624" 
d="M496.5 606q67.5 -90 67.5 -264q0 -171 -67.5 -262t-184.5 -91q-76 0 -133 39.5t-88.5 119t-31.5 193.5t31.5 194t88.5 120.5t133 40.5q117 0 184.5 -90zM171 571q-51 -75 -51 -230q0 -153 51.5 -227.5t140.5 -74.5q92 0 142 74t50 229t-50.5 229.5t-141.5 74.5
q-90 0 -141 -75zM335.5 764.5q-13.5 6.5 -33.5 18.5q-27 19 -42 19t-26.5 -9t-24.5 -30l-33 17q33 66 83 66q16 0 29.5 -6.5t29.5 -17.5q17 -11 26.5 -15.5t20.5 -4.5q14 0 25.5 10t25.5 33l33 -17q-31 -70 -83 -70q-17 0 -30.5 6.5zM385 1004l25 -50l-179 -77l-16 33z" />
    <glyph glyph-name="uni022C" unicode="&#x22c;" horiz-adv-x="624" 
d="M496.5 606q67.5 -90 67.5 -264q0 -171 -67.5 -262t-184.5 -91q-76 0 -133 39.5t-88.5 119t-31.5 193.5t31.5 194t88.5 120.5t133 40.5q117 0 184.5 -90zM171 571q-51 -75 -51 -230q0 -153 51.5 -227.5t140.5 -74.5q92 0 142 74t50 229t-50.5 229.5t-141.5 74.5
q-90 0 -141 -75zM335.5 764.5q-13.5 6.5 -33.5 18.5q-27 19 -42 19t-26.5 -9t-24.5 -30l-33 17q33 66 83 66q16 0 29.5 -6.5t29.5 -17.5q17 -11 26.5 -15.5t20.5 -4.5q14 0 25.5 10t25.5 33l33 -17q-31 -70 -83 -70q-17 0 -30.5 6.5zM419 894h-219v44h219v-44z" />
    <glyph glyph-name="OE" unicode="&#x152;" horiz-adv-x="785" 
d="M744 0h-379q-31 -11 -64 -11q-70 0 -125 41t-86 120t-31 191q0 111 31 191.5t86 122t125 41.5q35 0 66 -11h371l-7 -49h-286q45 -38 71 -103t30 -153h152v-49h-151q-2 -99 -29 -170t-76 -112h302v-49zM170 115.5q50 -76.5 133 -76.5q86 0 134.5 76.5t48.5 231.5
q0 148 -49.5 223.5t-133.5 75.5q-83 0 -133 -76.5t-50 -228.5q0 -149 50 -225.5z" />
    <glyph glyph-name="P" unicode="P" horiz-adv-x="512" 
d="M475 480q0 -109 -64.5 -160.5t-181.5 -51.5h-73v-268h-58v685h132q245 0 245 -205zM367.5 353q46.5 37 46.5 126q0 84 -45 121t-138 37h-75v-321h73q92 0 138.5 37z" />
    <glyph glyph-name="uni1E54" unicode="&#x1e54;" horiz-adv-x="512" 
d="M475 480q0 -109 -64.5 -160.5t-181.5 -51.5h-73v-268h-58v685h132q245 0 245 -205zM367.5 353q46.5 37 46.5 126q0 84 -45 121t-138 37h-75v-321h73q92 0 138.5 37zM330 885l25 -50l-179 -77l-16 33z" />
    <glyph glyph-name="uni1E56" unicode="&#x1e56;" horiz-adv-x="512" 
d="M475 480q0 -109 -64.5 -160.5t-181.5 -51.5h-73v-268h-58v685h132q245 0 245 -205zM367.5 353q46.5 37 46.5 126q0 84 -45 121t-138 37h-75v-321h73q92 0 138.5 37zM287.5 866q11.5 -12 11.5 -29q0 -18 -11.5 -29.5t-29.5 -11.5t-29.5 11.5t-11.5 29.5q0 17 11.5 29
t29.5 12t29.5 -12z" />
    <glyph glyph-name="uni01A4" unicode="&#x1a4;" horiz-adv-x="568" 
d="M532 480q0 -109 -64.5 -160.5t-181.5 -51.5h-73v-268h-58v637h-23q-66 0 -66 -63q0 -36 21 -76l-40 -21q-16 24 -24.5 46.5t-8.5 52.5q0 49 30.5 79t89.5 30h153q245 0 245 -205zM424.5 353q46.5 37 46.5 126q0 84 -45 121t-138 37h-75v-321h73q92 0 138.5 37z" />
    <glyph glyph-name="Thorn" unicode="&#xde;" horiz-adv-x="512" 
d="M475 356q0 -114 -64 -166.5t-179 -52.5h-76v-137h-58v685h58v-123h77q242 0 242 -206zM367.5 223q46.5 38 46.5 132q0 85 -44.5 122t-137.5 37h-76v-329h74q91 0 137.5 38z" />
    <glyph glyph-name="Q" unicode="Q" horiz-adv-x="623" 
d="M588 -46l-39 -46q-48 48 -100.5 65.5t-137.5 17.5q-76 0 -132.5 39.5t-88 118t-31.5 192.5t31.5 194t88.5 120.5t133 40.5q117 0 184.5 -90.5t67.5 -263.5q0 -138 -41 -213t-115 -106q108 -2 180 -69zM171.5 113.5q51.5 -74.5 140.5 -74.5q92 0 142 74t50 229
t-50.5 229.5t-141.5 74.5q-90 0 -141 -75t-51 -230q0 -153 51.5 -227.5z" />
    <glyph glyph-name="uni024A" unicode="&#x24a;" horiz-adv-x="596" 
d="M648 -171q-42 -34 -95 -34q-51 0 -82.5 32t-31.5 92v135q-57 -65 -146 -65q-67 0 -120 37t-83.5 113.5t-30.5 189.5q0 119 31 201.5t84.5 124t121.5 41.5q87 0 146 -64l4 53h51v-768q0 -39 16 -56.5t43 -17.5q21 0 36 6t31 17zM439 111v468q-53 67 -137 67
q-83 0 -132.5 -77.5t-49.5 -239.5q0 -149 49 -219.5t129 -70.5q85 0 141 72z" />
    <glyph glyph-name="R" unicode="R" horiz-adv-x="532" 
d="M437 0l-159 309l-16 -1h-106v-308h-58v685h141q232 0 232 -186q0 -70 -35.5 -115.5t-101.5 -63.5l169 -320h-66zM369 391q41 35 41 108q0 70 -40 104t-133 34h-81v-281h90q82 0 123 35z" />
    <glyph glyph-name="Racute" unicode="&#x154;" horiz-adv-x="532" 
d="M437 0l-159 309l-16 -1h-106v-308h-58v685h141q232 0 232 -186q0 -70 -35.5 -115.5t-101.5 -63.5l169 -320h-66zM369 391q41 35 41 108q0 70 -40 104t-133 34h-81v-281h90q82 0 123 35zM335 885l25 -50l-179 -77l-16 33z" />
    <glyph glyph-name="Rcaron" unicode="&#x158;" horiz-adv-x="532" 
d="M437 0l-159 309l-16 -1h-106v-308h-58v685h141q232 0 232 -186q0 -70 -35.5 -115.5t-101.5 -63.5l169 -320h-66zM369 391q41 35 41 108q0 70 -40 104t-133 34h-81v-281h90q82 0 123 35zM373 886l23 -27l-116 -103h-35l-117 103l24 27l111 -81z" />
    <glyph glyph-name="Rcommaaccent" unicode="&#x156;" horiz-adv-x="532" 
d="M437 0l-159 309l-16 -1h-106v-308h-58v685h141q232 0 232 -186q0 -70 -35.5 -115.5t-101.5 -63.5l169 -320h-66zM369 391q41 35 41 108q0 70 -40 104t-133 34h-81v-281h90q82 0 123 35zM305.5 -97q11.5 -12 11.5 -30q0 -11 -4 -23.5t-16 -41.5l-37 -86h-33l30 114
q-23 13 -23 37q0 18 11.5 30t30.5 12q18 0 29.5 -12z" />
    <glyph glyph-name="uni0210" unicode="&#x210;" horiz-adv-x="532" 
d="M437 0l-159 309l-16 -1h-106v-308h-58v685h141q232 0 232 -186q0 -70 -35.5 -115.5t-101.5 -63.5l169 -320h-66zM369 391q41 35 41 108q0 70 -40 104t-133 34h-81v-281h90q82 0 123 35zM154 935l71 -151l-34 -15l-85 141zM272 935l64 -146l-35 -16l-77 137z" />
    <glyph glyph-name="uni1E5A" unicode="&#x1e5a;" horiz-adv-x="532" 
d="M437 0l-159 309l-16 -1h-106v-308h-58v685h141q232 0 232 -186q0 -70 -35.5 -115.5t-101.5 -63.5l169 -320h-66zM369 391q41 35 41 108q0 70 -40 104t-133 34h-81v-281h90q82 0 123 35zM247.5 -157q-11.5 12 -11.5 29q0 18 11.5 29.5t29.5 11.5t29.5 -11.5t11.5 -29.5
q0 -17 -11.5 -29t-29.5 -12t-29.5 12z" />
    <glyph glyph-name="uni0212" unicode="&#x212;" horiz-adv-x="532" 
d="M437 0l-159 309l-16 -1h-106v-308h-58v685h141q232 0 232 -186q0 -70 -35.5 -115.5t-101.5 -63.5l169 -320h-66zM369 391q41 35 41 108q0 70 -40 104t-133 34h-81v-281h90q82 0 123 35zM342.5 874.5q32.5 -29.5 38.5 -80.5l-37 -8q-18 72 -82 72q-63 0 -81 -72l-37 8
q6 51 38 80.5t80 29.5t80.5 -29.5z" />
    <glyph glyph-name="uni024C" unicode="&#x24c;" horiz-adv-x="536" 
d="M441 0l-159 309l-16 -1h-106v-308h-58v308h-81v48h81v329h141q232 0 232 -186q0 -70 -35.5 -115.5t-101.5 -63.5l169 -320h-66zM373 391q41 35 41 108q0 70 -40 104t-133 34h-81v-281h90q82 0 123 35z" />
    <glyph glyph-name="uni2C64" unicode="&#x2c64;" horiz-adv-x="532" 
d="M172 -139.5q16 -17.5 43 -17.5q21 0 36 6t31 17l25 -37q-42 -34 -95 -34q-51 0 -82.5 32t-31.5 92v766h141q232 0 232 -186q0 -70 -35.5 -115.5t-101.5 -63.5l169 -320h-66l-159 309l-16 -1h-106v-391q0 -39 16 -56.5zM156 637v-281h90q82 0 123 35t41 108q0 70 -40 104
t-133 34h-81z" />
    <glyph glyph-name="uni2C64.ss01" horiz-adv-x="367" 
d="M172 -139.5q16 -17.5 43 -17.5q21 0 36 6t31 17l25 -37q-42 -34 -95 -34q-51 0 -82.5 32t-31.5 92v766h51l4 -103q21 56 59 85t92 29q36 0 60 -10l-13 -54q-21 7 -51 7q-106 0 -144 -151v-571q0 -39 16 -56.5z" />
    <glyph glyph-name="S" unicode="S" horiz-adv-x="486" 
d="M339.5 677q41.5 -19 80.5 -57l-33 -35q-35 32 -68.5 46.5t-75.5 14.5q-56 0 -91 -32t-35 -84t31 -82.5t112 -58.5q92 -32 135 -76t43 -126q0 -56 -25.5 -101.5t-72.5 -71t-108 -25.5q-116 0 -199 86l33 34q38 -35 76 -52.5t89 -17.5q66 0 107 39.5t41 106.5
q0 41 -13.5 68t-44.5 47.5t-87 40.5q-94 33 -135 75.5t-41 111.5q0 47 23.5 85.5t65.5 60.5t95 22q56 0 97.5 -19z" />
    <glyph glyph-name="Sacute" unicode="&#x15a;" horiz-adv-x="486" 
d="M339.5 677q41.5 -19 80.5 -57l-33 -35q-35 32 -68.5 46.5t-75.5 14.5q-56 0 -91 -32t-35 -84t31 -82.5t112 -58.5q92 -32 135 -76t43 -126q0 -56 -25.5 -101.5t-72.5 -71t-108 -25.5q-116 0 -199 86l33 34q38 -35 76 -52.5t89 -17.5q66 0 107 39.5t41 106.5
q0 41 -13.5 68t-44.5 47.5t-87 40.5q-94 33 -135 75.5t-41 111.5q0 47 23.5 85.5t65.5 60.5t95 22q56 0 97.5 -19zM317 885l25 -50l-179 -77l-16 33z" />
    <glyph glyph-name="Sacute.loclPLK" horiz-adv-x="486" 
d="M339.5 677q41.5 -19 80.5 -57l-33 -35q-35 32 -68.5 46.5t-75.5 14.5q-56 0 -91 -32t-35 -84t31 -82.5t112 -58.5q92 -32 135 -76t43 -126q0 -56 -25.5 -101.5t-72.5 -71t-108 -25.5q-116 0 -199 86l33 34q38 -35 76 -52.5t89 -17.5q66 0 107 39.5t41 106.5
q0 41 -13.5 68t-44.5 47.5t-87 40.5q-94 33 -135 75.5t-41 111.5q0 47 23.5 85.5t65.5 60.5t95 22q56 0 97.5 -19zM298 907l46 -30l-108 -145l-29 18z" />
    <glyph glyph-name="uniA78B" unicode="&#xa78b;" horiz-adv-x="195" 
d="M74 354l-8 331h62l-8 -331h-46z" />
    <glyph glyph-name="Scaron" unicode="&#x160;" horiz-adv-x="486" 
d="M339.5 677q41.5 -19 80.5 -57l-33 -35q-35 32 -68.5 46.5t-75.5 14.5q-56 0 -91 -32t-35 -84t31 -82.5t112 -58.5q92 -32 135 -76t43 -126q0 -56 -25.5 -101.5t-72.5 -71t-108 -25.5q-116 0 -199 86l33 34q38 -35 76 -52.5t89 -17.5q66 0 107 39.5t41 106.5
q0 41 -13.5 68t-44.5 47.5t-87 40.5q-94 33 -135 75.5t-41 111.5q0 47 23.5 85.5t65.5 60.5t95 22q56 0 97.5 -19zM355 886l23 -27l-116 -103h-35l-117 103l24 27l111 -81z" />
    <glyph glyph-name="Scedilla" unicode="&#x15e;" horiz-adv-x="486" 
d="M387.5 51.5q-50.5 -54.5 -134.5 -61.5v-55q42 -4 63 -24t21 -52q0 -40 -27.5 -62.5t-69.5 -22.5q-43 0 -73 21l19 33q26 -14 53 -14q22 0 35.5 11.5t13.5 33.5q0 23 -19.5 34t-61.5 11l8 85q-106 7 -182 86l33 34q38 -35 76 -52.5t89 -17.5q66 0 107 39.5t41 106.5
q0 41 -13.5 68t-44.5 47.5t-87 40.5q-94 33 -135 75.5t-41 111.5q0 47 23.5 85.5t65.5 60.5t95 22q56 0 97.5 -19t80.5 -57l-33 -35q-35 32 -68.5 46.5t-75.5 14.5q-56 0 -91 -32t-35 -84t31 -82.5t112 -58.5q92 -32 135 -76t43 -126q0 -81 -50.5 -135.5z" />
    <glyph glyph-name="Scircumflex" unicode="&#x15c;" horiz-adv-x="486" 
d="M339.5 677q41.5 -19 80.5 -57l-33 -35q-35 32 -68.5 46.5t-75.5 14.5q-56 0 -91 -32t-35 -84t31 -82.5t112 -58.5q92 -32 135 -76t43 -126q0 -56 -25.5 -101.5t-72.5 -71t-108 -25.5q-116 0 -199 86l33 34q38 -35 76 -52.5t89 -17.5q66 0 107 39.5t41 106.5
q0 41 -13.5 68t-44.5 47.5t-87 40.5q-94 33 -135 75.5t-41 111.5q0 47 23.5 85.5t65.5 60.5t95 22q56 0 97.5 -19zM135 763l-25 27l117 102h35l116 -102l-24 -27l-110 80z" />
    <glyph glyph-name="Scommaaccent" unicode="&#x218;" horiz-adv-x="486" 
d="M339.5 677q41.5 -19 80.5 -57l-33 -35q-35 32 -68.5 46.5t-75.5 14.5q-56 0 -91 -32t-35 -84t31 -82.5t112 -58.5q92 -32 135 -76t43 -126q0 -56 -25.5 -101.5t-72.5 -71t-108 -25.5q-116 0 -199 86l33 34q38 -35 76 -52.5t89 -17.5q66 0 107 39.5t41 106.5
q0 41 -13.5 68t-44.5 47.5t-87 40.5q-94 33 -135 75.5t-41 111.5q0 47 23.5 85.5t65.5 60.5t95 22q56 0 97.5 -19zM266.5 -97q11.5 -12 11.5 -30q0 -11 -4 -23.5t-16 -41.5l-37 -86h-33l30 114q-23 13 -23 37q0 18 11.5 30t30.5 12q18 0 29.5 -12z" />
    <glyph glyph-name="uni1E60" unicode="&#x1e60;" horiz-adv-x="486" 
d="M339.5 677q41.5 -19 80.5 -57l-33 -35q-35 32 -68.5 46.5t-75.5 14.5q-56 0 -91 -32t-35 -84t31 -82.5t112 -58.5q92 -32 135 -76t43 -126q0 -56 -25.5 -101.5t-72.5 -71t-108 -25.5q-116 0 -199 86l33 34q38 -35 76 -52.5t89 -17.5q66 0 107 39.5t41 106.5
q0 41 -13.5 68t-44.5 47.5t-87 40.5q-94 33 -135 75.5t-41 111.5q0 47 23.5 85.5t65.5 60.5t95 22q56 0 97.5 -19zM274.5 866q11.5 -12 11.5 -29q0 -18 -11.5 -29.5t-29.5 -11.5t-29.5 11.5t-11.5 29.5q0 17 11.5 29t29.5 12t29.5 -12z" />
    <glyph glyph-name="uni1E62" unicode="&#x1e62;" horiz-adv-x="486" 
d="M339.5 677q41.5 -19 80.5 -57l-33 -35q-35 32 -68.5 46.5t-75.5 14.5q-56 0 -91 -32t-35 -84t31 -82.5t112 -58.5q92 -32 135 -76t43 -126q0 -56 -25.5 -101.5t-72.5 -71t-108 -25.5q-116 0 -199 86l33 34q38 -35 76 -52.5t89 -17.5q66 0 107 39.5t41 106.5
q0 41 -13.5 68t-44.5 47.5t-87 40.5q-94 33 -135 75.5t-41 111.5q0 47 23.5 85.5t65.5 60.5t95 22q56 0 97.5 -19zM208.5 -157q-11.5 12 -11.5 29q0 18 11.5 29.5t29.5 11.5t29.5 -11.5t11.5 -29.5q0 -17 -11.5 -29t-29.5 -12t-29.5 12z" />
    <glyph glyph-name="uni1E9E" unicode="&#x1e9e;" horiz-adv-x="585" 
d="M502 633v-40l-172 -208q208 -26 208 -199q0 -92 -51 -144.5t-136 -52.5q-64 0 -105 23l19 42q37 -15 82 -15q62 0 96.5 37.5t34.5 108.5q0 77 -49.5 114.5t-153.5 44.5v48l174 215q-40 19 -78.5 29t-81.5 10q-64 0 -98.5 -36.5t-34.5 -108.5v-501h-58v504q0 90 50 141
t140 51q102 0 214 -63z" />
    <glyph glyph-name="uni018F" unicode="&#x18f;" horiz-adv-x="583" 
d="M524 346q0 -182 -64 -269.5t-175 -87.5q-113 0 -174.5 85.5t-61.5 257.5q0 11 2 41h413q-4 147 -49.5 210t-130.5 63q-48 0 -87.5 -16.5t-78.5 -51.5l-31 36q44 42 92 62t108 20q237 0 237 -350zM465 325h-358q1 -287 178 -287q172 0 180 287z" />
    <glyph glyph-name="T" unicode="T" horiz-adv-x="447" 
d="M438 685l-6 -51h-180v-634h-57v634h-182v51h425z" />
    <glyph glyph-name="Tbar" unicode="&#x166;" horiz-adv-x="447" 
d="M432 633h-180v-249h112v-46h-112v-339h-57v339h-111v46h111v249h-182v51h425z" />
    <glyph glyph-name="Tcaron" unicode="&#x164;" horiz-adv-x="447" 
d="M438 685l-6 -51h-180v-634h-57v634h-182v51h425zM334 886l23 -27l-116 -103h-35l-117 103l24 27l111 -81z" />
    <glyph glyph-name="uni0162" unicode="&#x162;" horiz-adv-x="447" 
d="M316 -88.5q21 -19.5 21 -51.5q0 -40 -28 -63t-70 -23t-72 21l18 35q25 -16 52 -16q22 0 36.5 11.5t14.5 34.5q0 22 -19.5 33t-60.5 11l8 96h-21v634h-182v51h425l-6 -51h-180v-699q43 -4 64 -23.5z" />
    <glyph glyph-name="uni1E70" unicode="&#x1e70;" horiz-adv-x="447" 
d="M438 685l-6 -51h-180v-634h-57v634h-182v51h425zM115 -203l-25 26l117 107h34l117 -107l-24 -26l-110 84z" />
    <glyph glyph-name="uni021A" unicode="&#x21a;" horiz-adv-x="447" 
d="M438 685l-6 -51h-180v-634h-57v634h-182v51h425zM252.5 -97q11.5 -12 11.5 -30q0 -11 -4 -23.5t-16 -41.5l-37 -86h-33l30 114q-23 13 -23 37q0 18 11.5 30t30.5 12q18 0 29.5 -12z" />
    <glyph glyph-name="uni023E" unicode="&#x23e;" horiz-adv-x="447" 
d="M432 634h-97l-84 -276v-358h-56v174l-74 -244l-31 10l105 344v350h-182v51h304l19 62l30 -10l-16 -52h88zM251 468l51 166h-51v-166z" />
    <glyph glyph-name="uni1E6A" unicode="&#x1e6a;" horiz-adv-x="447" 
d="M438 685l-6 -51h-180v-634h-57v634h-182v51h425zM253.5 866q11.5 -12 11.5 -29q0 -18 -11.5 -29.5t-29.5 -11.5t-29.5 11.5t-11.5 29.5q0 17 11.5 29t29.5 12t29.5 -12z" />
    <glyph glyph-name="uni1E6C" unicode="&#x1e6c;" horiz-adv-x="447" 
d="M438 685l-6 -51h-180v-634h-57v634h-182v51h425zM194.5 -157q-11.5 12 -11.5 29q0 18 11.5 29.5t29.5 11.5t29.5 -11.5t11.5 -29.5q0 -17 -11.5 -29t-29.5 -12t-29.5 12z" />
    <glyph glyph-name="uni01AC" unicode="&#x1ac;" horiz-adv-x="473" 
d="M458 634h-179v-634h-58v634h-90q-32 0 -48 -16.5t-16 -44.5q0 -21 5 -37.5t16 -36.5l-42 -22q-15 23 -23.5 45.5t-8.5 51.5q0 51 32 81t92 30h327z" />
    <glyph glyph-name="uni1E6E" unicode="&#x1e6e;" horiz-adv-x="447" 
d="M438 685l-6 -51h-180v-634h-57v634h-182v51h425zM334 -157h-219v44h219v-44z" />
    <glyph glyph-name="uni01BC" unicode="&#x1bc;" horiz-adv-x="450" 
d="M375 638h-251v-240q51 33 109 33q78 0 124.5 -55.5t46.5 -156.5q0 -104 -54 -167t-145 -63q-54 0 -96.5 20.5t-78.5 60.5l35 32q30 -33 63 -49t77 -16q66 0 103.5 48t37.5 135q0 85 -34 125t-93 40q-31 0 -54.5 -7.5t-50.5 -24.5h-43v332h313z" />
    <glyph glyph-name="uni0184" unicode="&#x184;" horiz-adv-x="507" 
d="M415.5 370.5q59.5 -51.5 59.5 -153.5q0 -111 -60.5 -164t-169.5 -53h-147v551l-48 34q36 39 55 100h51v-263h90q110 0 169.5 -51.5zM372 88q42 39 42 129q0 82 -42 119.5t-124 37.5h-92v-325h95q79 0 121 39z" />
    <glyph glyph-name="uni01A7" unicode="&#x1a7;" horiz-adv-x="478" 
d="M380.5 651q47.5 -45 47.5 -117q0 -73 -40.5 -114.5t-135.5 -75.5q-56 -20 -87 -42t-44 -50.5t-13 -71.5q0 -66 38.5 -103.5t99.5 -37.5q51 0 90 18t76 52l33 -34q-84 -86 -200 -86q-57 0 -102.5 24t-70.5 67.5t-25 99.5q0 83 43.5 128t135.5 79q56 20 86 39t43 44t13 64
q0 53 -31 82.5t-86 29.5q-45 0 -80 -14t-72 -47l-32 35q43 39 85.5 57.5t100.5 18.5q80 0 127.5 -45z" />
    <glyph glyph-name="uni01AE" unicode="&#x1ae;" horiz-adv-x="447" 
d="M268 -139.5q16 -17.5 43 -17.5q21 0 36 6t31 17l25 -37q-42 -34 -95 -34q-51 0 -82.5 32t-31.5 92v82h1v633h-182v51h425l-6 -51h-180v-717q0 -39 16 -56.5z" />
    <glyph glyph-name="U" unicode="U" horiz-adv-x="585" 
d="M496 194q0 -91 -52.5 -148t-151.5 -57q-100 0 -152 57t-52 148v491h58v-486q0 -76 36 -117.5t110 -41.5q75 0 110.5 42t35.5 117v486h58v-491z" />
    <glyph glyph-name="Uacute" unicode="&#xda;" horiz-adv-x="585" 
d="M496 194q0 -91 -52.5 -148t-151.5 -57q-100 0 -152 57t-52 148v491h58v-486q0 -76 36 -117.5t110 -41.5q75 0 110.5 42t35.5 117v486h58v-491zM364 885l25 -50l-179 -77l-16 33z" />
    <glyph glyph-name="uni0244" unicode="&#x244;" horiz-adv-x="607" 
d="M566 514h-59v-320q0 -91 -52.5 -148t-151.5 -57q-100 0 -152 57t-52 148v320h-58v43h58v128h58v-128h292v128h58v-128h59v-43zM449 514h-292v-315q0 -76 36 -117.5t110 -41.5q75 0 110.5 42t35.5 117v315z" />
    <glyph glyph-name="Ubreve" unicode="&#x16c;" horiz-adv-x="585" 
d="M496 194q0 -91 -52.5 -148t-151.5 -57q-100 0 -152 57t-52 148v491h58v-486q0 -76 36 -117.5t110 -41.5q75 0 110.5 42t35.5 117v486h58v-491zM211.5 792.5q-32.5 27.5 -38.5 71.5l37 9q8 -29 29 -45.5t52 -16.5t52.5 16.5t29.5 45.5l37 -9q-6 -44 -38.5 -71.5
t-80.5 -27.5q-47 0 -79.5 27.5z" />
    <glyph glyph-name="uni01D3" unicode="&#x1d3;" horiz-adv-x="585" 
d="M496 194q0 -91 -52.5 -148t-151.5 -57q-100 0 -152 57t-52 148v491h58v-486q0 -76 36 -117.5t110 -41.5q75 0 110.5 42t35.5 117v486h58v-491zM402 886l23 -27l-116 -103h-35l-117 103l24 27l111 -81z" />
    <glyph glyph-name="Ucircumflex" unicode="&#xdb;" horiz-adv-x="585" 
d="M496 194q0 -91 -52.5 -148t-151.5 -57q-100 0 -152 57t-52 148v491h58v-486q0 -76 36 -117.5t110 -41.5q75 0 110.5 42t35.5 117v486h58v-491zM182 763l-25 27l117 102h35l116 -102l-24 -27l-110 80z" />
    <glyph glyph-name="uni0214" unicode="&#x214;" horiz-adv-x="585" 
d="M496 194q0 -91 -52.5 -148t-151.5 -57q-100 0 -152 57t-52 148v491h58v-486q0 -76 36 -117.5t110 -41.5q75 0 110.5 42t35.5 117v486h58v-491zM183 935l71 -151l-34 -15l-85 141zM301 935l64 -146l-35 -16l-77 137z" />
    <glyph glyph-name="Udieresis" unicode="&#xdc;" horiz-adv-x="585" 
d="M496 194q0 -91 -52.5 -148t-151.5 -57q-100 0 -152 57t-52 148v491h58v-486q0 -76 36 -117.5t110 -41.5q75 0 110.5 42t35.5 117v486h58v-491zM236.5 855q10.5 -11 10.5 -27q0 -17 -10.5 -28t-27.5 -11q-16 0 -27 11t-11 28q0 16 11 27t27 11q17 0 27.5 -11zM408 855
q11 -11 11 -27q0 -17 -11 -28t-27 -11q-17 0 -28 11t-11 28q0 16 11 27t28 11q16 0 27 -11z" />
    <glyph glyph-name="uni01D7" unicode="&#x1d7;" horiz-adv-x="585" 
d="M496 194q0 -91 -52.5 -148t-151.5 -57q-100 0 -152 57t-52 148v491h58v-486q0 -76 36 -117.5t110 -41.5q75 0 110.5 42t35.5 117v486h58v-491zM365 968l39 -33l-112 -122l-26 23zM233.5 810q10.5 -11 10.5 -28q0 -16 -10.5 -27t-27.5 -11q-16 0 -27 11t-11 27q0 17 11 28
t27 11q17 0 27.5 -11zM405 810q11 -11 11 -28q0 -16 -11 -27t-27 -11q-17 0 -28 11t-11 27q0 17 11 28t28 11q16 0 27 -11z" />
    <glyph glyph-name="uni01D9" unicode="&#x1d9;" horiz-adv-x="585" 
d="M496 194q0 -91 -52.5 -148t-151.5 -57q-100 0 -152 57t-52 148v491h58v-486q0 -76 36 -117.5t110 -41.5q75 0 110.5 42t35.5 117v486h58v-491zM400 957l23 -27l-116 -103h-35l-117 103l24 27l111 -81zM233.5 810q10.5 -11 10.5 -28q0 -16 -10.5 -27t-27.5 -11
q-16 0 -27 11t-11 27q0 17 11 28t27 11q17 0 27.5 -11zM405 810q11 -11 11 -28q0 -16 -11 -27t-27 -11t-27 11t-11 27q0 17 11 28t27 11t27 -11z" />
    <glyph glyph-name="uni01DB" unicode="&#x1db;" horiz-adv-x="585" 
d="M496 194q0 -91 -52.5 -148t-151.5 -57q-100 0 -152 57t-52 148v491h58v-486q0 -76 36 -117.5t110 -41.5q75 0 110.5 42t35.5 117v486h58v-491zM226 968l99 -132l-26 -23l-112 122zM233.5 810q10.5 -11 10.5 -28q0 -16 -10.5 -27t-27.5 -11q-16 0 -27 11t-11 27
q0 17 11 28t27 11q17 0 27.5 -11zM405 810q11 -11 11 -28q0 -16 -11 -27t-27 -11q-17 0 -28 11t-11 27q0 17 11 28t28 11q16 0 27 -11z" />
    <glyph glyph-name="uni01D5" unicode="&#x1d5;" horiz-adv-x="585" 
d="M496 194q0 -91 -52.5 -148t-151.5 -57q-100 0 -152 57t-52 148v491h58v-486q0 -76 36 -117.5t110 -41.5q75 0 110.5 42t35.5 117v486h58v-491zM233.5 809q10.5 -11 10.5 -27q0 -17 -10.5 -28t-27.5 -11q-16 0 -27 11t-11 28q0 16 11 27t27 11q17 0 27.5 -11zM405 809
q11 -11 11 -27q0 -17 -11 -28t-27 -11q-17 0 -28 11t-11 28q0 16 11 27t28 11q16 0 27 -11zM403 878h-219v44h219v-44z" />
    <glyph glyph-name="uni1EE4" unicode="&#x1ee4;" horiz-adv-x="585" 
d="M496 194q0 -91 -52.5 -148t-151.5 -57q-100 0 -152 57t-52 148v491h58v-486q0 -76 36 -117.5t110 -41.5q75 0 110.5 42t35.5 117v486h58v-491zM262.5 -157q-11.5 12 -11.5 29q0 18 11.5 29.5t29.5 11.5t29.5 -11.5t11.5 -29.5q0 -17 -11.5 -29t-29.5 -12t-29.5 12z" />
    <glyph glyph-name="Ugrave" unicode="&#xd9;" horiz-adv-x="585" 
d="M496 194q0 -91 -52.5 -148t-151.5 -57q-100 0 -152 57t-52 148v491h58v-486q0 -76 36 -117.5t110 -41.5q75 0 110.5 42t35.5 117v486h58v-491zM217 885l169 -95l-16 -32l-179 77z" />
    <glyph glyph-name="uni1EE6" unicode="&#x1ee6;" horiz-adv-x="585" 
d="M496 194q0 -91 -52.5 -148t-151.5 -57q-100 0 -152 57t-52 148v491h58v-486q0 -76 36 -117.5t110 -41.5q75 0 110.5 42t35.5 117v486h58v-491zM269 847q31 2 47 12.5t16 34.5q0 20 -11.5 30.5t-31.5 10.5q-25 0 -51 -14l-15 34q32 21 74 21q39 0 61.5 -21.5t22.5 -57.5
q0 -33 -17.5 -52t-49.5 -24v-46h-45v72z" />
    <glyph glyph-name="Uhorn" unicode="&#x1af;" horiz-adv-x="594" 
d="M496 594v-400q0 -91 -52.5 -148t-151.5 -57q-100 0 -152 57t-52 148v491h58v-486q0 -76 36 -117.5t110 -41.5q75 0 110.5 42t35.5 117v486h58v-56q25 5 36 18.5t11 38.5q0 21 -3.5 37t-9.5 35l42 12q17 -38 17 -83q0 -87 -93 -93z" />
    <glyph glyph-name="uni1EE8" unicode="&#x1ee8;" horiz-adv-x="594" 
d="M389 835l-179 -77l-16 33l170 94zM496 594v-400q0 -91 -52.5 -148t-151.5 -57q-100 0 -152 57t-52 148v491h58v-486q0 -76 36 -117.5t110 -41.5q75 0 110.5 42t35.5 117v486h58v-56q25 5 36 18.5t11 38.5q0 21 -3.5 37t-9.5 35l42 12q17 -38 17 -83q0 -87 -93 -93z" />
    <glyph glyph-name="uni1EF0" unicode="&#x1ef0;" horiz-adv-x="594" 
d="M496 594v-400q0 -91 -52.5 -148t-151.5 -57q-100 0 -152 57t-52 148v491h58v-486q0 -76 36 -117.5t110 -41.5q75 0 110.5 42t35.5 117v486h58v-56q25 5 36 18.5t11 38.5q0 21 -3.5 37t-9.5 35l42 12q17 -38 17 -83q0 -87 -93 -93zM321.5 -98.5q11.5 -11.5 11.5 -29.5
q0 -17 -11.5 -29t-29.5 -12t-29.5 12t-11.5 29q0 18 11.5 29.5t29.5 11.5t29.5 -11.5z" />
    <glyph glyph-name="uni1EEA" unicode="&#x1eea;" horiz-adv-x="594" 
d="M386 790l-16 -32l-179 77l26 50zM496 594v-400q0 -91 -52.5 -148t-151.5 -57q-100 0 -152 57t-52 148v491h58v-486q0 -76 36 -117.5t110 -41.5q75 0 110.5 42t35.5 117v486h58v-56q25 5 36 18.5t11 38.5q0 21 -3.5 37t-9.5 35l42 12q17 -38 17 -83q0 -87 -93 -93z" />
    <glyph glyph-name="uni1EEC" unicode="&#x1eec;" horiz-adv-x="594" 
d="M238 921l-15 34q32 21 74 21q39 0 61.5 -21.5t22.5 -57.5q0 -33 -17.5 -52t-49.5 -24v-46h-45v72q31 2 47 12.5t16 34.5q0 20 -11.5 30.5t-31.5 10.5q-25 0 -51 -14zM496 594v-400q0 -91 -52.5 -148t-151.5 -57q-100 0 -152 57t-52 148v491h58v-486q0 -76 36 -117.5
t110 -41.5q75 0 110.5 42t35.5 117v486h58v-56q25 5 36 18.5t11 38.5q0 21 -3.5 37t-9.5 35l42 12q17 -38 17 -83q0 -87 -93 -93z" />
    <glyph glyph-name="uni1EEE" unicode="&#x1eee;" horiz-adv-x="594" 
d="M212.5 829q-11.5 -9 -24.5 -30l-33 17q33 66 83 66q16 0 29.5 -6.5t29.5 -17.5q17 -11 26.5 -15.5t20.5 -4.5q14 0 25.5 10t25.5 33l33 -17q-31 -70 -83 -70q-17 0 -30.5 6.5t-33.5 18.5q-27 19 -42 19t-26.5 -9zM496 594v-400q0 -91 -52.5 -148t-151.5 -57
q-100 0 -152 57t-52 148v491h58v-486q0 -76 36 -117.5t110 -41.5q75 0 110.5 42t35.5 117v486h58v-56q25 5 36 18.5t11 38.5q0 21 -3.5 37t-9.5 35l42 12q17 -38 17 -83q0 -87 -93 -93z" />
    <glyph glyph-name="Uhungarumlaut" unicode="&#x170;" horiz-adv-x="585" 
d="M496 194q0 -91 -52.5 -148t-151.5 -57q-100 0 -152 57t-52 148v491h58v-486q0 -76 36 -117.5t110 -41.5q75 0 110.5 42t35.5 117v486h58v-491zM273 935l48 -25l-77 -137l-35 16zM391 935l48 -25l-84 -141l-35 15z" />
    <glyph glyph-name="uni0216" unicode="&#x216;" horiz-adv-x="585" 
d="M496 194q0 -91 -52.5 -148t-151.5 -57q-100 0 -152 57t-52 148v491h58v-486q0 -76 36 -117.5t110 -41.5q75 0 110.5 42t35.5 117v486h58v-491zM371.5 874.5q32.5 -29.5 38.5 -80.5l-37 -8q-18 72 -82 72q-63 0 -81 -72l-37 8q6 51 38 80.5t80 29.5t80.5 -29.5z" />
    <glyph glyph-name="Umacron" unicode="&#x16a;" horiz-adv-x="585" 
d="M496 194q0 -91 -52.5 -148t-151.5 -57q-100 0 -152 57t-52 148v491h58v-486q0 -76 36 -117.5t110 -41.5q75 0 110.5 42t35.5 117v486h58v-491zM402 803h-219v44h219v-44z" />
    <glyph glyph-name="Uogonek" unicode="&#x172;" horiz-adv-x="585" 
d="M496 685v-491q0 -73 -34 -125t-100 -71q-57 -29 -81 -55t-24 -61q0 -25 14 -38.5t43 -13.5q21 0 51 6l-5 -46q-31 -7 -53 -7q-48 0 -74.5 25.5t-26.5 65.5q0 72 85 115q-99 0 -151 57t-52 148v491h58v-486q0 -76 36 -117.5t110 -41.5q75 0 110.5 42t35.5 117v486h58z" />
    <glyph glyph-name="uni01B1" unicode="&#x1b1;" horiz-adv-x="622" 
d="M177 26.5q-57 37.5 -88 110.5t-31 176q0 122 33.5 196.5t89.5 125.5h-103v50h168v-49q-61 -48 -94 -124t-33 -199q0 -137 51 -205.5t141 -68.5q89 0 140.5 69t51.5 206q0 121 -33.5 197t-93.5 125v49h169v-50h-104q57 -48 90 -122.5t33 -198.5q0 -102 -31.5 -175.5
t-88.5 -111.5t-133 -38q-77 0 -134 37.5z" />
    <glyph glyph-name="Uring" unicode="&#x16e;" horiz-adv-x="585" 
d="M496 194q0 -91 -52.5 -148t-151.5 -57q-100 0 -152 57t-52 148v491h58v-486q0 -76 36 -117.5t110 -41.5q75 0 110.5 42t35.5 117v486h58v-491zM358 920.5q25 -25.5 25 -67.5q0 -43 -25 -68.5t-66 -25.5q-40 0 -65 25.5t-25 68.5q0 42 25 67.5t65 25.5q41 0 66 -25.5z
M243 853q0 -60 49 -60q24 0 37 15t13 45q0 59 -50 59q-49 0 -49 -59z" />
    <glyph glyph-name="Utilde" unicode="&#x168;" horiz-adv-x="585" 
d="M496 194q0 -91 -52.5 -148t-151.5 -57q-100 0 -152 57t-52 148v491h58v-486q0 -76 36 -117.5t110 -41.5q75 0 110.5 42t35.5 117v486h58v-491zM314.5 800.5q-13.5 6.5 -33.5 18.5q-27 19 -42 19t-26.5 -9t-24.5 -30l-33 17q33 66 83 66q16 0 29.5 -6.5t29.5 -17.5
q17 -11 26.5 -15.5t20.5 -4.5q14 0 25.5 10t25.5 33l33 -17q-31 -70 -83 -70q-17 0 -30.5 6.5z" />
    <glyph glyph-name="uni1E78" unicode="&#x1e78;" horiz-adv-x="585" 
d="M496 194q0 -91 -52.5 -148t-151.5 -57q-100 0 -152 57t-52 148v491h58v-486q0 -76 36 -117.5t110 -41.5q75 0 110.5 42t35.5 117v486h58v-491zM315.5 764.5q-13.5 6.5 -33.5 18.5q-27 19 -42 19t-26.5 -9t-24.5 -30l-33 17q33 66 83 66q16 0 29.5 -6.5t29.5 -17.5
q17 -11 26.5 -15.5t20.5 -4.5q14 0 25.5 10t25.5 33l33 -17q-31 -70 -83 -70q-17 0 -30.5 6.5zM365 1004l25 -50l-179 -77l-16 33z" />
    <glyph glyph-name="V" unicode="V" horiz-adv-x="499" 
d="M482 685l-199 -685h-66l-200 685h60l174 -625l173 625h58z" />
    <glyph glyph-name="uni01B2" unicode="&#x1b2;" horiz-adv-x="585" 
d="M472.5 670q23.5 -26 23.5 -76v-317q0 -90 -28.5 -155t-79 -99t-116.5 -34q-84 0 -134 52t-50 136v508h58v-505q0 -67 33.5 -103.5t92.5 -36.5q76 0 121 62t45 178v314q0 28 -9.5 41t-30.5 13q-20 0 -36 -8l-16 40q28 16 60 16q43 0 66.5 -26z" />
    <glyph glyph-name="uni0245" unicode="&#x245;" horiz-adv-x="516" 
d="M294 685l205 -685h-60l-182 637l-182 -637h-58l205 685h72z" />
    <glyph glyph-name="W" unicode="W" horiz-adv-x="735" 
d="M706 685l-134 -685h-74l-131 620l-132 -620h-72l-134 685h57l116 -631l132 631h66l135 -631l116 631h55z" />
    <glyph glyph-name="Wacute" unicode="&#x1e82;" horiz-adv-x="735" 
d="M706 685l-134 -685h-74l-131 620l-132 -620h-72l-134 685h57l116 -631l132 631h66l135 -631l116 631h55zM439 885l25 -50l-179 -77l-16 33z" />
    <glyph glyph-name="Wcircumflex" unicode="&#x174;" horiz-adv-x="735" 
d="M706 685l-134 -685h-74l-131 620l-132 -620h-72l-134 685h57l116 -631l132 631h66l135 -631l116 631h55zM257 763l-25 27l117 102h35l116 -102l-24 -27l-110 80z" />
    <glyph glyph-name="Wdieresis" unicode="&#x1e84;" horiz-adv-x="735" 
d="M706 685l-134 -685h-74l-131 620l-132 -620h-72l-134 685h57l116 -631l132 631h66l135 -631l116 631h55zM311.5 855q10.5 -11 10.5 -27q0 -17 -10.5 -28t-27.5 -11q-16 0 -27 11t-11 28q0 16 11 27t27 11q17 0 27.5 -11zM483 855q11 -11 11 -27q0 -17 -11 -28t-27 -11
q-17 0 -28 11t-11 28q0 16 11 27t28 11q16 0 27 -11z" />
    <glyph glyph-name="Wgrave" unicode="&#x1e80;" horiz-adv-x="735" 
d="M706 685l-134 -685h-74l-131 620l-132 -620h-72l-134 685h57l116 -631l132 631h66l135 -631l116 631h55zM292 885l169 -95l-16 -32l-179 77z" />
    <glyph glyph-name="uni2C72" unicode="&#x2c72;" horiz-adv-x="768" 
d="M163 0h72l132 620l131 -620h74l108 586q6 37 20 50.5t39 13.5q17 0 29.5 -6t27.5 -18l24 33q-19 17 -39 27t-46 10q-87 0 -104 -101l-96 -542l-135 632h-66l-132 -632l-116 632h-57z" />
    <glyph glyph-name="uni01F7" unicode="&#x1f7;" horiz-adv-x="512" 
d="M428.5 647q46.5 -49 46.5 -133q0 -71 -30 -120.5t-79.5 -82.5t-121.5 -63l-88 -36v-212h-58v685h58v-54q69 65 152 65q74 0 120.5 -49zM369 382.5q45 49.5 45 131.5q0 64 -30.5 98t-84.5 34q-81 0 -143 -64v-320l86 36q82 35 127 84.5z" />
    <glyph glyph-name="X" unicode="X" horiz-adv-x="464" 
d="M264 371l192 -371h-63l-163 331l-161 -331h-60l186 368l-168 317h63l140 -280l141 280h60z" />
    <glyph glyph-name="Y" unicode="Y" horiz-adv-x="473" 
d="M462 685l-196 -417v-268h-58v267l-197 418h63l165 -365l162 365h61z" />
    <glyph glyph-name="Yacute" unicode="&#xdd;" horiz-adv-x="473" 
d="M462 685l-196 -417v-268h-58v267l-197 418h63l165 -365l162 365h61zM308 885l25 -50l-179 -77l-16 33z" />
    <glyph glyph-name="Ycircumflex" unicode="&#x176;" horiz-adv-x="473" 
d="M462 685l-196 -417v-268h-58v267l-197 418h63l165 -365l162 365h61zM126 763l-25 27l117 102h35l116 -102l-24 -27l-110 80z" />
    <glyph glyph-name="Ydieresis" unicode="&#x178;" horiz-adv-x="473" 
d="M462 685l-196 -417v-268h-58v267l-197 418h63l165 -365l162 365h61zM180.5 855q10.5 -11 10.5 -27q0 -17 -10.5 -28t-27.5 -11q-16 0 -27 11t-11 28q0 16 11 27t27 11q17 0 27.5 -11zM352 855q11 -11 11 -27q0 -17 -11 -28t-27 -11q-17 0 -28 11t-11 28q0 16 11 27t28 11
q16 0 27 -11z" />
    <glyph glyph-name="uni1EF4" unicode="&#x1ef4;" horiz-adv-x="473" 
d="M462 685l-196 -417v-268h-58v267l-197 418h63l165 -365l162 365h61zM208.5 -157q-11.5 12 -11.5 29q0 18 11.5 29.5t29.5 11.5t29.5 -11.5t11.5 -29.5q0 -17 -11.5 -29t-29.5 -12t-29.5 12z" />
    <glyph glyph-name="Ygrave" unicode="&#x1ef2;" horiz-adv-x="473" 
d="M462 685l-196 -417v-268h-58v267l-197 418h63l165 -365l162 365h61zM161 885l169 -95l-16 -32l-179 77z" />
    <glyph glyph-name="uni01B3" unicode="&#x1b3;" horiz-adv-x="495" 
d="M208 267l-197 418h63l164 -366l117 289q19 46 44 67t63 21q26 0 46 -10t39 -27l-24 -33q-15 12 -27.5 18t-29.5 6q-22 0 -35 -13t-29 -48l-136 -321v-268h-58v267z" />
    <glyph glyph-name="uni1EF6" unicode="&#x1ef6;" horiz-adv-x="473" 
d="M462 685l-196 -417v-268h-58v267l-197 418h63l165 -365l162 365h61zM213 847q31 2 47 12.5t16 34.5q0 20 -11.5 30.5t-31.5 10.5q-25 0 -51 -14l-15 34q32 21 74 21q39 0 61.5 -21.5t22.5 -57.5q0 -33 -17.5 -52t-49.5 -24v-46h-45v72z" />
    <glyph glyph-name="uni0232" unicode="&#x232;" horiz-adv-x="473" 
d="M462 685l-196 -417v-268h-58v267l-197 418h63l165 -365l162 365h61zM346 803h-219v44h219v-44z" />
    <glyph glyph-name="uni01A6" unicode="&#x1a6;" horiz-adv-x="533" 
d="M438 -126l-160 309l-16 -1h-106v-182h-58v685h58v-126h84q118 0 175 -48t57 -138q0 -71 -35.5 -116.5t-102.5 -63.5l170 -319h-66zM369.5 264q40.5 35 40.5 109q0 70 -39.5 104t-132.5 34l-82 -1v-281h91q82 0 122.5 35z" />
    <glyph glyph-name="uni024E" unicode="&#x24e;" horiz-adv-x="473" 
d="M462 685l-43 -91h43v-43h-63l-133 -283v-268h-58v267l-134 284h-61v43h41l-43 91h63l41 -91h246l40 91h61zM239 319l103 232h-208z" />
    <glyph glyph-name="uni1EF8" unicode="&#x1ef8;" horiz-adv-x="473" 
d="M462 685l-196 -417v-268h-58v267l-197 418h63l165 -365l162 365h61zM258.5 800.5q-13.5 6.5 -33.5 18.5q-27 19 -42 19t-26.5 -9t-24.5 -30l-33 17q33 66 83 66q16 0 29.5 -6.5t29.5 -17.5q17 -11 26.5 -15.5t20.5 -4.5q14 0 25.5 10t25.5 33l33 -17q-31 -70 -83 -70
q-17 0 -30.5 6.5z" />
    <glyph glyph-name="Z" unicode="Z" horiz-adv-x="464" 
d="M423 685v-48l-329 -586h324l-7 -51h-380v48l330 587h-297v50h359z" />
    <glyph glyph-name="Zacute" unicode="&#x179;" horiz-adv-x="464" 
d="M423 685v-48l-329 -586h324l-7 -51h-380v48l330 587h-297v50h359zM309 885l25 -50l-179 -77l-16 33z" />
    <glyph glyph-name="Zacute.loclPLK" horiz-adv-x="464" 
d="M423 685v-48l-329 -586h324l-7 -51h-380v48l330 587h-297v50h359zM290 907l46 -30l-108 -145l-29 18z" />
    <glyph glyph-name="Zcaron" unicode="&#x17d;" horiz-adv-x="464" 
d="M423 685v-48l-329 -586h324l-7 -51h-380v48l330 587h-297v50h359zM347 886l23 -27l-116 -103h-35l-117 103l24 27l111 -81z" />
    <glyph glyph-name="Zdotaccent" unicode="&#x17b;" horiz-adv-x="464" 
d="M423 685v-48l-329 -586h324l-7 -51h-380v48l330 587h-297v50h359zM266.5 866q11.5 -12 11.5 -29q0 -18 -11.5 -29.5t-29.5 -11.5t-29.5 11.5t-11.5 29.5q0 17 11.5 29t29.5 12t29.5 -12z" />
    <glyph glyph-name="uni1E92" unicode="&#x1e92;" horiz-adv-x="464" 
d="M423 685v-48l-329 -586h324l-7 -51h-380v48l330 587h-297v50h359zM203.5 -157q-11.5 12 -11.5 29q0 18 11.5 29.5t29.5 11.5t29.5 -11.5t11.5 -29.5q0 -17 -11.5 -29t-29.5 -12t-29.5 12z" />
    <glyph glyph-name="uni0224" unicode="&#x224;" horiz-adv-x="464" 
d="M423 637l-329 -586h320v-132q0 -60 -31.5 -92t-82.5 -32q-54 0 -94 34l25 37q17 -11 32 -17t35 -6q60 0 60 74v83h-327v48l330 587h-297v50h359v-48z" />
    <glyph glyph-name="uni01B5" unicode="&#x1b5;" horiz-adv-x="464" 
d="M423 685v-48l-151 -269h96v-47h-123l-152 -270h325l-7 -51h-380v48l154 273h-91v47h117l151 267h-298v50h359z" />
    <glyph glyph-name="uni0299" unicode="&#x299;" horiz-adv-x="496" 
d="M408 246q31 -32 31 -90q0 -78 -52 -117t-140 -39h-153v518q92 16 146 16q82 0 127.5 -37t45.5 -100q0 -92 -93 -113q57 -6 88 -38zM150 481v-180h108q47 0 73 23.5t26 70.5q0 45 -29 69t-87 24q-40 0 -91 -7zM381 156q0 53 -29 77t-88 24h-114v-211h96q135 0 135 110z
" />
    <glyph glyph-name="uni0262" unicode="&#x262;" horiz-adv-x="501" 
d="M351 521q35 -14 69 -43l-32 -35q-29 23 -56.5 33.5t-60.5 10.5q-66 0 -110.5 -53.5t-44.5 -168.5q0 -121 39 -174t113 -53q58 0 104 26v175h-98l-7 46h160v-248q-34 -22 -75 -34t-84 -12q-100 0 -155.5 66.5t-55.5 207.5q0 88 29 149t78 91t107 30q45 0 80 -14z" />
    <glyph glyph-name="uni029B" unicode="&#x29b;" horiz-adv-x="500" 
d="M571 709l-24 -36q-17 11 -31.5 17t-34.5 6q-61 0 -61 -77v-141l-29 -31q-30 20 -58.5 30t-61.5 10q-67 0 -111 -53.5t-44 -168.5q0 -121 39 -174t113 -53q58 0 104 26v175h-98l-7 46h160v-248q-34 -22 -75 -34t-84 -12q-100 0 -155.5 66.5t-55.5 207.5q0 88 29 149
t77.5 91t106.5 30q55 0 95 -25v106q0 62 30 94.5t82 32.5q54 0 94 -34z" />
    <glyph glyph-name="uni029C" unicode="&#x29c;" horiz-adv-x="530" 
d="M380 0v247h-230v-247h-56v523h56v-229h230v229h56v-523h-56z" />
    <glyph glyph-name="uni026A" unicode="&#x26a;" horiz-adv-x="289" 
d="M264 477h-92v-431h92v-46h-239v46h91v431h-91v46h239v-46z" />
    <glyph glyph-name="uni029F" unicode="&#x29f;" horiz-adv-x="376" 
d="M150 523v-474h215l-7 -49h-264v523h56z" />
    <glyph glyph-name="uni0274" unicode="&#x274;" horiz-adv-x="531" 
d="M437 0h-72l-225 466q6 -94 6 -205v-261h-52v523h72l226 -467q-7 84 -7 168v299h52v-523z" />
    <glyph glyph-name="uni0276" unicode="&#x276;" horiz-adv-x="657" 
d="M623 0h-304q-31 -11 -62 -11q-94 0 -147 71t-53 201q0 131 53.5 202t147.5 71q37 0 66 -11h295l-6 -46h-228q30 -26 49.5 -72.5t23.5 -110.5h126v-45h-125q-2 -76 -22.5 -124.5t-56.5 -78.5h243v-46zM153 92q37 -56 105 -56q66 0 104.5 58t38.5 171q0 110 -39 165.5
t-104 55.5q-68 0 -105 -55t-37 -170q0 -113 37 -169z" />
    <glyph glyph-name="uni0280" unicode="&#x280;" horiz-adv-x="475" 
d="M367 0l-126 218q-7 -1 -22 -1h-69v-217h-56v523h118q95 0 143.5 -39.5t48.5 -113.5q0 -54 -28 -91t-82 -53l134 -226h-61zM223 262q123 0 123 108q0 54 -32 80.5t-103 26.5h-61v-215h73z" />
    <glyph glyph-name="uni0281" unicode="&#x281;" horiz-adv-x="475" 
d="M376 246q28 -37 28 -91q0 -75 -48 -115t-144 -40h-118v523h56v-217h71q13 0 20 -1l126 218h61l-134 -226q54 -14 82 -51zM314 72.5q32 26.5 32 82.5q0 106 -123 106h-73v-215h61q71 0 103 26.5z" />
    <glyph glyph-name="uni028F" unicode="&#x28f;" horiz-adv-x="386" 
d="M382 523l-160 -317v-206h-56v205l-162 318h59l132 -276l130 276h57z" />
    <glyph glyph-name="a" unicode="a" horiz-adv-x="484" 
d="M400 54q9 -17 30 -26l-13 -39q-33 8 -51 27.5t-24 57.5q-51 -85 -145 -85q-68 0 -107.5 42.5t-39.5 113.5q0 82 53 125.5t149 43.5h83v56q0 60 -25 88.5t-80 28.5q-57 0 -130 -30l-16 42q83 35 152 35q79 0 117 -41t38 -119v-267q0 -36 9 -53zM335 130v143h-76
q-150 0 -150 -126q0 -55 25.5 -84t71.5 -29q85 0 129 96z" />
    <glyph glyph-name="a.ss04" horiz-adv-x="527" 
d="M439.5 63.5q9.5 -16.5 32.5 -27.5l-17 -44q-36 12 -53.5 31t-23.5 51q-23 -39 -58.5 -62t-81.5 -23q-84 0 -132.5 70.5t-48.5 199.5q0 84 23 146t65.5 95.5t99.5 33.5q83 0 132 -74l4 63h49v-408q0 -35 9.5 -51.5zM319 59.5q31 23.5 55 71.5v278q-50 78 -121 78
q-63 0 -100 -57.5t-36 -169.5q0 -113 33.5 -168.5t94.5 -55.5q43 0 74 23.5z" />
    <glyph glyph-name="aacute" unicode="&#xe1;" horiz-adv-x="484" 
d="M400 54q9 -17 30 -26l-13 -39q-33 8 -51 27.5t-24 57.5q-51 -85 -145 -85q-68 0 -107.5 42.5t-39.5 113.5q0 82 53 125.5t149 43.5h83v56q0 60 -25 88.5t-80 28.5q-57 0 -130 -30l-16 42q83 35 152 35q79 0 117 -41t38 -119v-267q0 -36 9 -53zM335 130v143h-76
q-150 0 -150 -126q0 -55 25.5 -84t71.5 -29q85 0 129 96zM300 779l26 -49l-177 -84l-18 31z" />
    <glyph glyph-name="abreve" unicode="&#x103;" horiz-adv-x="484" 
d="M400 54q9 -17 30 -26l-13 -39q-33 8 -51 27.5t-24 57.5q-51 -85 -145 -85q-68 0 -107.5 42.5t-39.5 113.5q0 82 53 125.5t149 43.5h83v56q0 60 -25 88.5t-80 28.5q-57 0 -130 -30l-16 42q83 35 152 35q79 0 117 -41t38 -119v-267q0 -36 9 -53zM335 130v143h-76
q-150 0 -150 -126q0 -55 25.5 -84t71.5 -29q85 0 129 96zM153 682.5q-32 29.5 -38 80.5l37 8q18 -72 81 -72q64 0 82 72l37 -8q-6 -51 -38.5 -80.5t-80.5 -29.5t-80 29.5z" />
    <glyph glyph-name="uni1EAF" unicode="&#x1eaf;" horiz-adv-x="484" 
d="M400 54q9 -17 30 -26l-13 -39q-33 8 -51 27.5t-24 57.5q-51 -85 -145 -85q-68 0 -107.5 42.5t-39.5 113.5q0 82 53 125.5t149 43.5h83v56q0 60 -25 88.5t-80 28.5q-57 0 -130 -30l-16 42q83 35 152 35q79 0 117 -41t38 -119v-267q0 -36 9 -53zM335 130v143h-76
q-150 0 -150 -126q0 -55 25.5 -84t71.5 -29q85 0 129 96zM151.5 623.5q-32.5 27.5 -38.5 71.5l37 9q8 -29 29 -45.5t52 -16.5t52.5 16.5t29.5 45.5l37 -9q-6 -44 -38.5 -71.5t-80.5 -27.5q-47 0 -79.5 27.5zM307 873l39 -33l-112 -122l-26 23z" />
    <glyph glyph-name="uni1EB7" unicode="&#x1eb7;" horiz-adv-x="484" 
d="M400 54q9 -17 30 -26l-13 -39q-33 8 -51 27.5t-24 57.5q-51 -85 -145 -85q-68 0 -107.5 42.5t-39.5 113.5q0 82 53 125.5t149 43.5h83v56q0 60 -25 88.5t-80 28.5q-57 0 -130 -30l-16 42q83 35 152 35q79 0 117 -41t38 -119v-267q0 -36 9 -53zM335 130v143h-76
q-150 0 -150 -126q0 -55 25.5 -84t71.5 -29q85 0 129 96zM153 682.5q-32 29.5 -38 80.5l37 8q18 -72 81 -72q64 0 82 72l37 -8q-6 -51 -38.5 -80.5t-80.5 -29.5t-80 29.5zM204.5 -157q-11.5 12 -11.5 29q0 18 11.5 29.5t29.5 11.5t29.5 -11.5t11.5 -29.5q0 -17 -11.5 -29
t-29.5 -12t-29.5 12z" />
    <glyph glyph-name="uni1EB1" unicode="&#x1eb1;" horiz-adv-x="484" 
d="M400 54q9 -17 30 -26l-13 -39q-33 8 -51 27.5t-24 57.5q-51 -85 -145 -85q-68 0 -107.5 42.5t-39.5 113.5q0 82 53 125.5t149 43.5h83v56q0 60 -25 88.5t-80 28.5q-57 0 -130 -30l-16 42q83 35 152 35q79 0 117 -41t38 -119v-267q0 -36 9 -53zM335 130v143h-76
q-150 0 -150 -126q0 -55 25.5 -84t71.5 -29q85 0 129 96zM156.5 623.5q-32.5 27.5 -38.5 71.5l37 9q8 -29 29 -45.5t52 -16.5t52.5 16.5t29.5 45.5l37 -9q-6 -44 -38.5 -71.5t-80.5 -27.5q-47 0 -79.5 27.5zM166 873l99 -132l-26 -23l-112 122z" />
    <glyph glyph-name="uni1EB3" unicode="&#x1eb3;" horiz-adv-x="484" 
d="M400 54q9 -17 30 -26l-13 -39q-33 8 -51 27.5t-24 57.5q-51 -85 -145 -85q-68 0 -107.5 42.5t-39.5 113.5q0 82 53 125.5t149 43.5h83v56q0 60 -25 88.5t-80 28.5q-57 0 -130 -30l-16 42q83 35 152 35q79 0 117 -41t38 -119v-267q0 -36 9 -53zM335 130v143h-76
q-150 0 -150 -126q0 -55 25.5 -84t71.5 -29q85 0 129 96zM153.5 623.5q-32.5 27.5 -38.5 71.5l37 9q8 -29 29 -45.5t52 -16.5t52.5 16.5t29.5 45.5l37 -9q-6 -44 -38.5 -71.5t-80.5 -27.5q-47 0 -79.5 27.5zM209 781q31 2 47 12.5t16 34.5q0 20 -11.5 30.5t-31.5 10.5
q-26 0 -51 -13l-15 33q34 22 74 22q39 0 61.5 -21.5t22.5 -57.5q0 -34 -17.5 -53t-49.5 -24v-56h-45v82z" />
    <glyph glyph-name="uni1EB5" unicode="&#x1eb5;" horiz-adv-x="484" 
d="M400 54q9 -17 30 -26l-13 -39q-33 8 -51 27.5t-24 57.5q-51 -85 -145 -85q-68 0 -107.5 42.5t-39.5 113.5q0 82 53 125.5t149 43.5h83v56q0 60 -25 88.5t-80 28.5q-57 0 -130 -30l-16 42q83 35 152 35q79 0 117 -41t38 -119v-267q0 -36 9 -53zM335 130v143h-76
q-150 0 -150 -126q0 -55 25.5 -84t71.5 -29q85 0 129 96zM154.5 623.5q-32.5 27.5 -38.5 71.5l37 9q8 -29 29 -45.5t52 -16.5t52.5 16.5t29.5 45.5l37 -9q-6 -44 -38.5 -71.5t-80.5 -27.5q-47 0 -79.5 27.5zM257.5 756.5q-13.5 6.5 -33.5 18.5q-27 19 -42 19t-26.5 -9
t-24.5 -30l-33 17q33 66 83 66q15 0 29 -6.5t30 -17.5q17 -11 26.5 -15.5t20.5 -4.5q14 0 25.5 10t25.5 33l33 -17q-31 -70 -83 -70q-17 0 -30.5 6.5z" />
    <glyph glyph-name="uni01CE" unicode="&#x1ce;" horiz-adv-x="484" 
d="M400 54q9 -17 30 -26l-13 -39q-33 8 -51 27.5t-24 57.5q-51 -85 -145 -85q-68 0 -107.5 42.5t-39.5 113.5q0 82 53 125.5t149 43.5h83v56q0 60 -25 88.5t-80 28.5q-57 0 -130 -30l-16 42q83 35 152 35q79 0 117 -41t38 -119v-267q0 -36 9 -53zM335 130v143h-76
q-150 0 -150 -126q0 -55 25.5 -84t71.5 -29q85 0 129 96zM343 767l24 -27l-116 -107h-35l-117 107l25 27l110 -85z" />
    <glyph glyph-name="acircumflex" unicode="&#xe2;" horiz-adv-x="484" 
d="M400 54q9 -17 30 -26l-13 -39q-33 8 -51 27.5t-24 57.5q-51 -85 -145 -85q-68 0 -107.5 42.5t-39.5 113.5q0 82 53 125.5t149 43.5h83v56q0 60 -25 88.5t-80 28.5q-57 0 -130 -30l-16 42q83 35 152 35q79 0 117 -41t38 -119v-267q0 -36 9 -53zM335 130v143h-76
q-150 0 -150 -126q0 -55 25.5 -84t71.5 -29q85 0 129 96zM124 645l-25 27l117 107h34l117 -107l-24 -27l-110 85z" />
    <glyph glyph-name="uni1EA5" unicode="&#x1ea5;" horiz-adv-x="484" 
d="M400 54q9 -17 30 -26l-13 -39q-33 8 -51 27.5t-24 57.5q-51 -85 -145 -85q-68 0 -107.5 42.5t-39.5 113.5q0 82 53 125.5t149 43.5h83v56q0 60 -25 88.5t-80 28.5q-57 0 -130 -30l-16 42q83 35 152 35q79 0 117 -41t38 -119v-267q0 -36 9 -53zM335 130v143h-76
q-150 0 -150 -126q0 -55 25.5 -84t71.5 -29q85 0 129 96zM123 587l-25 27l117 102h35l116 -102l-24 -27l-110 80zM410 845l39 -33l-112 -122l-26 23z" />
    <glyph glyph-name="uni1EAD" unicode="&#x1ead;" horiz-adv-x="484" 
d="M400 54q9 -17 30 -26l-13 -39q-33 8 -51 27.5t-24 57.5q-51 -85 -145 -85q-68 0 -107.5 42.5t-39.5 113.5q0 82 53 125.5t149 43.5h83v56q0 60 -25 88.5t-80 28.5q-57 0 -130 -30l-16 42q83 35 152 35q79 0 117 -41t38 -119v-267q0 -36 9 -53zM335 130v143h-76
q-150 0 -150 -126q0 -55 25.5 -84t71.5 -29q85 0 129 96zM124 645l-25 27l117 107h34l117 -107l-24 -27l-110 85zM204.5 -157q-11.5 12 -11.5 29q0 18 11.5 29.5t29.5 11.5t29.5 -11.5t11.5 -29.5q0 -17 -11.5 -29t-29.5 -12t-29.5 12z" />
    <glyph glyph-name="uni1EA7" unicode="&#x1ea7;" horiz-adv-x="484" 
d="M400 54q9 -17 30 -26l-13 -39q-33 8 -51 27.5t-24 57.5q-51 -85 -145 -85q-68 0 -107.5 42.5t-39.5 113.5q0 82 53 125.5t149 43.5h83v56q0 60 -25 88.5t-80 28.5q-57 0 -130 -30l-16 42q83 35 152 35q79 0 117 -41t38 -119v-267q0 -36 9 -53zM335 130v143h-76
q-150 0 -150 -126q0 -55 25.5 -84t71.5 -29q85 0 129 96zM122 587l-25 27l117 102h35l116 -102l-24 -27l-110 80zM57 845l99 -132l-26 -23l-112 122z" />
    <glyph glyph-name="uni1EA9" unicode="&#x1ea9;" horiz-adv-x="484" 
d="M400 54q9 -17 30 -26l-13 -39q-33 8 -51 27.5t-24 57.5q-51 -85 -145 -85q-68 0 -107.5 42.5t-39.5 113.5q0 82 53 125.5t149 43.5h83v56q0 60 -25 88.5t-80 28.5q-57 0 -130 -30l-16 42q83 35 152 35q79 0 117 -41t38 -119v-267q0 -36 9 -53zM335 130v143h-76
q-150 0 -150 -126q0 -55 25.5 -84t71.5 -29q85 0 129 96zM123 587l-25 27l117 102h35l116 -102l-24 -27l-110 80zM324 769q31 2 47 12.5t16 34.5q0 20 -11.5 30.5t-31.5 10.5q-26 0 -51 -13l-15 33q34 22 74 22q39 0 61.5 -21.5t22.5 -57.5q0 -34 -17.5 -53t-49.5 -24v-56
h-45v82z" />
    <glyph glyph-name="uni1EAB" unicode="&#x1eab;" horiz-adv-x="484" 
d="M400 54q9 -17 30 -26l-13 -39q-33 8 -51 27.5t-24 57.5q-51 -85 -145 -85q-68 0 -107.5 42.5t-39.5 113.5q0 82 53 125.5t149 43.5h83v56q0 60 -25 88.5t-80 28.5q-57 0 -130 -30l-16 42q83 35 152 35q79 0 117 -41t38 -119v-267q0 -36 9 -53zM335 130v143h-76
q-150 0 -150 -126q0 -55 25.5 -84t71.5 -29q85 0 129 96zM123 577l-25 27l117 102h35l116 -102l-24 -27l-110 80zM255.5 753.5q-13.5 6.5 -33.5 18.5q-27 19 -42 19t-26.5 -9t-24.5 -30l-33 17q33 66 83 66q15 0 29 -6.5t30 -17.5q17 -11 26.5 -15.5t20.5 -4.5q14 0 25.5 10
t25.5 33l33 -17q-31 -70 -83 -70q-17 0 -30.5 6.5z" />
    <glyph glyph-name="uni0201" unicode="&#x201;" horiz-adv-x="484" 
d="M400 54q9 -17 30 -26l-13 -39q-33 8 -51 27.5t-24 57.5q-51 -85 -145 -85q-68 0 -107.5 42.5t-39.5 113.5q0 82 53 125.5t149 43.5h83v56q0 60 -25 88.5t-80 28.5q-57 0 -130 -30l-16 42q83 35 152 35q79 0 117 -41t38 -119v-267q0 -36 9 -53zM335 130v143h-76
q-150 0 -150 -126q0 -55 25.5 -84t71.5 -29q85 0 129 96zM133 809l71 -151l-34 -15l-85 141zM251 809l64 -146l-35 -16l-77 137z" />
    <glyph glyph-name="adieresis" unicode="&#xe4;" horiz-adv-x="484" 
d="M400 54q9 -17 30 -26l-13 -39q-33 8 -51 27.5t-24 57.5q-51 -85 -145 -85q-68 0 -107.5 42.5t-39.5 113.5q0 82 53 125.5t149 43.5h83v56q0 60 -25 88.5t-80 28.5q-57 0 -130 -30l-16 42q83 35 152 35q79 0 117 -41t38 -119v-267q0 -36 9 -53zM335 130v143h-76
q-150 0 -150 -126q0 -55 25.5 -84t71.5 -29q85 0 129 96zM175.5 729q10.5 -11 10.5 -27q0 -17 -10.5 -28t-27.5 -11q-16 0 -27 11t-11 28q0 16 11 27t27 11q17 0 27.5 -11zM347 729q11 -11 11 -27q0 -17 -11 -28t-27 -11q-17 0 -28 11t-11 28q0 16 11 27t28 11q16 0 27 -11z
" />
    <glyph glyph-name="uni01DF" unicode="&#x1df;" horiz-adv-x="484" 
d="M400 54q9 -17 30 -26l-13 -39q-33 8 -51 27.5t-24 57.5q-51 -85 -145 -85q-68 0 -107.5 42.5t-39.5 113.5q0 82 53 125.5t149 43.5h83v56q0 60 -25 88.5t-80 28.5q-57 0 -130 -30l-16 42q83 35 152 35q79 0 117 -41t38 -119v-267q0 -36 9 -53zM335 130v143h-76
q-150 0 -150 -126q0 -55 25.5 -84t71.5 -29q85 0 129 96zM175.5 699q10.5 -11 10.5 -27q0 -17 -10.5 -28t-27.5 -11q-16 0 -27 11t-11 28q0 16 11 27t27 11q17 0 27.5 -11zM347 699q11 -11 11 -27q0 -17 -11 -28t-27 -11q-17 0 -28 11t-11 28q0 16 11 27t28 11q16 0 27 -11z
M344 773h-219v44h219v-44z" />
    <glyph glyph-name="uni0227" unicode="&#x227;" horiz-adv-x="484" 
d="M400 54q9 -17 30 -26l-13 -39q-33 8 -51 27.5t-24 57.5q-51 -85 -145 -85q-68 0 -107.5 42.5t-39.5 113.5q0 82 53 125.5t149 43.5h83v56q0 60 -25 88.5t-80 28.5q-57 0 -130 -30l-16 42q83 35 152 35q79 0 117 -41t38 -119v-267q0 -36 9 -53zM335 130v143h-76
q-150 0 -150 -126q0 -55 25.5 -84t71.5 -29q85 0 129 96zM263.5 740q11.5 -12 11.5 -29q0 -18 -11.5 -29.5t-29.5 -11.5t-29.5 11.5t-11.5 29.5q0 17 11.5 29t29.5 12t29.5 -12z" />
    <glyph glyph-name="uni1EA1" unicode="&#x1ea1;" horiz-adv-x="484" 
d="M400 54q9 -17 30 -26l-13 -39q-33 8 -51 27.5t-24 57.5q-51 -85 -145 -85q-68 0 -107.5 42.5t-39.5 113.5q0 82 53 125.5t149 43.5h83v56q0 60 -25 88.5t-80 28.5q-57 0 -130 -30l-16 42q83 35 152 35q79 0 117 -41t38 -119v-267q0 -36 9 -53zM335 130v143h-76
q-150 0 -150 -126q0 -55 25.5 -84t71.5 -29q85 0 129 96zM204.5 -157q-11.5 12 -11.5 29q0 18 11.5 29.5t29.5 11.5t29.5 -11.5t11.5 -29.5q0 -17 -11.5 -29t-29.5 -12t-29.5 12z" />
    <glyph glyph-name="uni01E1" unicode="&#x1e1;" horiz-adv-x="484" 
d="M400 54q9 -17 30 -26l-13 -39q-33 8 -51 27.5t-24 57.5q-51 -85 -145 -85q-68 0 -107.5 42.5t-39.5 113.5q0 82 53 125.5t149 43.5h83v56q0 60 -25 88.5t-80 28.5q-57 0 -130 -30l-16 42q83 35 152 35q79 0 117 -41t38 -119v-267q0 -36 9 -53zM335 130v143h-76
q-150 0 -150 -126q0 -55 25.5 -84t71.5 -29q85 0 129 96zM263.5 690q11.5 -12 11.5 -29q0 -18 -11.5 -29.5t-29.5 -11.5t-29.5 11.5t-11.5 29.5q0 17 11.5 29t29.5 12t29.5 -12zM344 758h-219v44h219v-44z" />
    <glyph glyph-name="agrave" unicode="&#xe0;" horiz-adv-x="484" 
d="M400 54q9 -17 30 -26l-13 -39q-33 8 -51 27.5t-24 57.5q-51 -85 -145 -85q-68 0 -107.5 42.5t-39.5 113.5q0 82 53 125.5t149 43.5h83v56q0 60 -25 88.5t-80 28.5q-57 0 -130 -30l-16 42q83 35 152 35q79 0 117 -41t38 -119v-267q0 -36 9 -53zM335 130v143h-76
q-150 0 -150 -126q0 -55 25.5 -84t71.5 -29q85 0 129 96zM167 779l169 -102l-19 -31l-177 84z" />
    <glyph glyph-name="uni1EA3" unicode="&#x1ea3;" horiz-adv-x="484" 
d="M400 54q9 -17 30 -26l-13 -39q-33 8 -51 27.5t-24 57.5q-51 -85 -145 -85q-68 0 -107.5 42.5t-39.5 113.5q0 82 53 125.5t149 43.5h83v56q0 60 -25 88.5t-80 28.5q-57 0 -130 -30l-16 42q83 35 152 35q79 0 117 -41t38 -119v-267q0 -36 9 -53zM335 130v143h-76
q-150 0 -150 -126q0 -55 25.5 -84t71.5 -29q85 0 129 96zM211 699q31 2 47 12.5t16 34.5q0 20 -11.5 30.5t-31.5 10.5q-26 0 -51 -13l-15 33q34 22 74 22q39 0 61.5 -21.5t22.5 -57.5q0 -34 -17.5 -53t-49.5 -24v-56h-45v82z" />
    <glyph glyph-name="uni0203" unicode="&#x203;" horiz-adv-x="484" 
d="M400 54q9 -17 30 -26l-13 -39q-33 8 -51 27.5t-24 57.5q-51 -85 -145 -85q-68 0 -107.5 42.5t-39.5 113.5q0 82 53 125.5t149 43.5h83v56q0 60 -25 88.5t-80 28.5q-57 0 -130 -30l-16 42q83 35 152 35q79 0 117 -41t38 -119v-267q0 -36 9 -53zM335 130v143h-76
q-150 0 -150 -126q0 -55 25.5 -84t71.5 -29q85 0 129 96zM313.5 712.5q32.5 -29.5 38.5 -80.5l-37 -8q-18 72 -82 72q-63 0 -81 -72l-37 8q6 51 38 80.5t80 29.5t80.5 -29.5z" />
    <glyph glyph-name="uni0251" unicode="&#x251;" horiz-adv-x="527" 
d="M439.5 63.5q9.5 -16.5 32.5 -27.5l-17 -44q-36 12 -53.5 31t-23.5 51q-23 -39 -58.5 -62t-81.5 -23q-84 0 -132.5 70.5t-48.5 199.5q0 84 23 146t65.5 95.5t99.5 33.5q83 0 132 -74l4 63h49v-408q0 -35 9.5 -51.5zM319 59.5q31 23.5 55 71.5v278q-50 78 -121 78
q-63 0 -100 -57.5t-36 -169.5q0 -113 33.5 -168.5t94.5 -55.5q43 0 74 23.5z" />
    <glyph glyph-name="uni0252" unicode="&#x252;" horiz-adv-x="527" 
d="M421.5 463.5q48.5 -70.5 48.5 -199.5q0 -84 -23 -146t-65.5 -95.5t-99.5 -33.5q-83 0 -132 74l-4 -63h-49v408q0 35 -9.5 51.5t-32.5 27.5l17 44q36 -12 53.5 -31t23.5 -51q23 39 58.5 62t81.5 23q84 0 132.5 -70.5zM373 92.5q37 56.5 37 166.5q0 116 -33 172t-95 56
q-43 0 -74 -23.5t-55 -71.5v-278q50 -78 121 -78q62 0 99 56.5z" />
    <glyph glyph-name="amacron" unicode="&#x101;" horiz-adv-x="484" 
d="M400 54q9 -17 30 -26l-13 -39q-33 8 -51 27.5t-24 57.5q-51 -85 -145 -85q-68 0 -107.5 42.5t-39.5 113.5q0 82 53 125.5t149 43.5h83v56q0 60 -25 88.5t-80 28.5q-57 0 -130 -30l-16 42q83 35 152 35q79 0 117 -41t38 -119v-267q0 -36 9 -53zM335 130v143h-76
q-150 0 -150 -126q0 -55 25.5 -84t71.5 -29q85 0 129 96zM344 677h-219v44h219v-44z" />
    <glyph glyph-name="aogonek" unicode="&#x105;" horiz-adv-x="484" 
d="M332.5 -67.5q-24.5 -26.5 -24.5 -62.5q0 -52 56 -52q24 0 52 7l-5 -46q-32 -7 -53 -7q-48 0 -74.5 25t-26.5 66q0 45 30.5 78.5t93.5 61.5q-32 21 -39 71q-51 -85 -145 -85q-68 0 -107.5 42.5t-39.5 113.5q0 82 53 125.5t149 43.5h83v56q0 60 -25 88.5t-80 28.5
q-57 0 -130 -30l-16 42q83 35 152 35q79 0 117 -41t38 -119v-267q0 -36 9 -53t30 -26l-13 -39q-60 -30 -84.5 -56.5zM335 130v143h-76q-150 0 -150 -126q0 -55 25.5 -84t71.5 -29q85 0 129 96z" />
    <glyph glyph-name="aring" unicode="&#xe5;" horiz-adv-x="484" 
d="M400 54q9 -17 30 -26l-13 -39q-33 8 -51 27.5t-24 57.5q-51 -85 -145 -85q-68 0 -107.5 42.5t-39.5 113.5q0 82 53 125.5t149 43.5h83v56q0 60 -25 88.5t-80 28.5q-57 0 -130 -30l-16 42q83 35 152 35q79 0 117 -41t38 -119v-267q0 -36 9 -53zM335 130v143h-76
q-150 0 -150 -126q0 -55 25.5 -84t71.5 -29q85 0 129 96zM300 794.5q25 -25.5 25 -67.5q0 -43 -25 -68.5t-66 -25.5q-40 0 -65 25.5t-25 68.5q0 42 25 67.5t65 25.5q41 0 66 -25.5zM185 727q0 -60 49 -60q24 0 37 15t13 45q0 59 -50 59q-49 0 -49 -59z" />
    <glyph glyph-name="aringacute" unicode="&#x1fb;" horiz-adv-x="484" 
d="M332 859l-179 -77l-16 33l170 94zM169 748.5q25 25.5 65 25.5q41 0 66 -25.5t25 -67.5q0 -43 -25 -68.5t-66 -25.5q-40 0 -65 25.5t-25 68.5q0 42 25 67.5zM234 740q-49 0 -49 -59q0 -60 49 -60q24 0 37 15t13 45q0 59 -50 59zM400 54q9 -17 30 -26l-13 -39
q-33 8 -51 27.5t-24 57.5q-51 -85 -145 -85q-68 0 -107.5 42.5t-39.5 113.5q0 82 53 125.5t149 43.5h83v56q0 60 -25 88.5t-80 28.5q-57 0 -130 -30l-16 42q83 35 152 35q79 0 117 -41t38 -119v-267q0 -36 9 -53zM335 130v143h-76q-150 0 -150 -126q0 -55 25.5 -84t71.5 -29
q85 0 129 96z" />
    <glyph glyph-name="uni2C65" unicode="&#x2c65;" horiz-adv-x="484" 
d="M400 54q9 -17 30 -26l-13 -39q-33 8 -51 27.5t-24 57.5q-51 -85 -145 -85h-8l-15 -59l-29 7l14 56q-51 11 -80 51.5t-29 100.5q0 79 49 122t139 47l40 166q-18 7 -48 7q-57 0 -130 -30l-16 42q83 35 152 35q30 0 54 -6l16 64l30 -7l-17 -68q72 -35 72 -143v-267
q0 -36 9 -53zM306 463l-37 -149h66v56q0 65 -29 93zM335 130v143h-76l-59 -239h6q85 0 129 96zM125 77q16 -27 45 -37l57 231q-118 -12 -118 -124q0 -43 16 -70z" />
    <glyph glyph-name="atilde" unicode="&#xe3;" horiz-adv-x="484" 
d="M400 54q9 -17 30 -26l-13 -39q-33 8 -51 27.5t-24 57.5q-51 -85 -145 -85q-68 0 -107.5 42.5t-39.5 113.5q0 82 53 125.5t149 43.5h83v56q0 60 -25 88.5t-80 28.5q-57 0 -130 -30l-16 42q83 35 152 35q79 0 117 -41t38 -119v-267q0 -36 9 -53zM335 130v143h-76
q-150 0 -150 -126q0 -55 25.5 -84t71.5 -29q85 0 129 96zM256.5 674.5q-13.5 6.5 -33.5 18.5q-27 19 -42 19t-26.5 -9t-24.5 -30l-33 17q33 66 83 66q16 0 29.5 -6.5t29.5 -17.5q17 -11 26.5 -15.5t20.5 -4.5q14 0 25.5 10t25.5 33l33 -17q-31 -70 -83 -70q-17 0 -30.5 6.5z
" />
    <glyph glyph-name="uni0250" unicode="&#x250;" horiz-adv-x="484" 
d="M384 66l16 -42q-83 -35 -152 -35q-79 0 -117 41t-38 119v267q0 36 -9 53t-30 26l13 39q33 -8 51 -27.5t24 -57.5q51 85 145 85q68 0 107.5 -42.5t39.5 -113.5q0 -82 -53 -125.5t-149 -43.5h-83v-56q0 -60 25 -88.5t80 -28.5q57 0 130 30zM149 393v-143h76q150 0 150 126
q0 55 -25.5 84t-71.5 29q-85 0 -129 -96z" />
    <glyph glyph-name="ae" unicode="&#xe6;" horiz-adv-x="763" 
d="M709 239h-314q5 -103 44 -152.5t102 -49.5q36 0 65 12t60 38l27 -34q-35 -32 -72.5 -48t-83.5 -16q-57 0 -100 27.5t-69 78.5q-36 -57 -76 -81.5t-93 -24.5q-69 0 -109 42.5t-40 113.5q0 82 53.5 125.5t148.5 43.5h84v51q0 63 -25 92t-83 29q-53 0 -127 -29l-15 42
q84 35 150 35q60 0 94.5 -25.5t48.5 -74.5q52 100 152 100q88 0 134 -66t46 -187q0 -22 -2 -42zM656 299q0 91 -31.5 139.5t-94.5 48.5q-59 0 -95.5 -50.5t-40.5 -153.5h262v16zM284.5 59.5q33.5 25.5 66.5 81.5q-15 50 -15 115v17h-78q-72 0 -110 -31.5t-38 -94.5
q0 -54 26 -83.5t72 -29.5q43 0 76.5 25.5z" />
    <glyph glyph-name="aeacute" unicode="&#x1fd;" horiz-adv-x="763" 
d="M709 239h-314q5 -103 44 -152.5t102 -49.5q36 0 65 12t60 38l27 -34q-35 -32 -72.5 -48t-83.5 -16q-57 0 -100 27.5t-69 78.5q-36 -57 -76 -81.5t-93 -24.5q-69 0 -109 42.5t-40 113.5q0 82 53.5 125.5t148.5 43.5h84v51q0 63 -25 92t-83 29q-53 0 -127 -29l-15 42
q84 35 150 35q60 0 94.5 -25.5t48.5 -74.5q52 100 152 100q88 0 134 -66t46 -187q0 -22 -2 -42zM656 299q0 91 -31.5 139.5t-94.5 48.5q-59 0 -95.5 -50.5t-40.5 -153.5h262v16zM284.5 59.5q33.5 25.5 66.5 81.5q-15 50 -15 115v17h-78q-72 0 -110 -31.5t-38 -94.5
q0 -54 26 -83.5t72 -29.5q43 0 76.5 25.5zM449 779l26 -49l-177 -84l-18 31z" />
    <glyph glyph-name="uni01E3" unicode="&#x1e3;" horiz-adv-x="763" 
d="M709 239h-314q5 -103 44 -152.5t102 -49.5q36 0 65 12t60 38l27 -34q-35 -32 -72.5 -48t-83.5 -16q-57 0 -100 27.5t-69 78.5q-36 -57 -76 -81.5t-93 -24.5q-69 0 -109 42.5t-40 113.5q0 82 53.5 125.5t148.5 43.5h84v51q0 63 -25 92t-83 29q-53 0 -127 -29l-15 42
q84 35 150 35q60 0 94.5 -25.5t48.5 -74.5q52 100 152 100q88 0 134 -66t46 -187q0 -22 -2 -42zM656 299q0 91 -31.5 139.5t-94.5 48.5q-59 0 -95.5 -50.5t-40.5 -153.5h262v16zM284.5 59.5q33.5 25.5 66.5 81.5q-15 50 -15 115v17h-78q-72 0 -110 -31.5t-38 -94.5
q0 -54 26 -83.5t72 -29.5q43 0 76.5 25.5zM493 677h-219v44h219v-44z" />
    <glyph glyph-name="b" unicode="b" horiz-adv-x="522" 
d="M418 465.5q45 -68.5 45 -201.5q0 -130 -47.5 -202.5t-132.5 -72.5q-42 0 -76 21t-59 56l-5 -66h-49v736l56 7v-293q55 84 141 84q82 0 127 -68.5zM369.5 92q33.5 56 33.5 172t-31 169.5t-91 53.5q-42 0 -73 -24t-58 -66v-278q52 -83 124 -83q62 0 95.5 56z" />
    <glyph glyph-name="uni1E03" unicode="&#x1e03;" horiz-adv-x="522" 
d="M418 465.5q45 -68.5 45 -201.5q0 -130 -47.5 -202.5t-132.5 -72.5q-42 0 -76 21t-59 56l-5 -66h-49v736l56 7v-293q55 84 141 84q82 0 127 -68.5zM369.5 92q33.5 56 33.5 172t-31 169.5t-91 53.5q-42 0 -73 -24t-58 -66v-278q52 -83 124 -83q62 0 95.5 56zM302.5 917
q11.5 -12 11.5 -29q0 -18 -11.5 -29.5t-29.5 -11.5t-29.5 11.5t-11.5 29.5q0 17 11.5 29t29.5 12t29.5 -12z" />
    <glyph glyph-name="uni1E05" unicode="&#x1e05;" horiz-adv-x="522" 
d="M418 465.5q45 -68.5 45 -201.5q0 -130 -47.5 -202.5t-132.5 -72.5q-42 0 -76 21t-59 56l-5 -66h-49v736l56 7v-293q55 84 141 84q82 0 127 -68.5zM369.5 92q33.5 56 33.5 172t-31 169.5t-91 53.5q-42 0 -73 -24t-58 -66v-278q52 -83 124 -83q62 0 95.5 56zM243.5 -157
q-11.5 12 -11.5 29q0 18 11.5 29.5t29.5 11.5t29.5 -11.5t11.5 -29.5q0 -17 -11.5 -29t-29.5 -12t-29.5 12z" />
    <glyph glyph-name="uniA7B5" unicode="&#xa7b5;" horiz-adv-x="531" 
d="M431.5 348.5q53.5 -48.5 53.5 -146.5q0 -65 -25.5 -113.5t-68.5 -74t-93 -25.5q-86 0 -148 63v-248l-56 -10v747q0 98 48 150t129 52q74 0 121.5 -46.5t47.5 -128.5q0 -75 -38 -116.5t-106 -50.5q82 -4 135.5 -52.5zM389.5 79.5q38.5 43.5 38.5 118.5q0 87 -47 132.5
t-133 45.5h-42l6 45h39q54 0 94.5 33.5t40.5 112.5q-1 66 -32 98t-83 32q-57 0 -89 -38.5t-32 -118.5v-437q31 -35 64.5 -51t77.5 -16q59 0 97.5 43.5z" />
    <glyph glyph-name="uni0253" unicode="&#x253;" horiz-adv-x="522" 
d="M418 465.5q45 -68.5 45 -201.5q0 -130 -47.5 -202.5t-132.5 -72.5q-42 0 -76 21t-59 56l-5 -66h-49v612q0 61 35.5 96t97.5 35q58 0 111 -28l-20 -41q-47 22 -87 22q-81 0 -81 -85v-161q55 84 141 84q82 0 127 -68.5zM369.5 92q33.5 56 33.5 172t-31 169.5t-91 53.5
q-42 0 -73 -24t-58 -66v-278q52 -83 124 -83q62 0 95.5 56z" />
    <glyph glyph-name="uni02AD" unicode="&#x2ad;" horiz-adv-x="300" 
d="M30 400v131h240v-131h-42v90h-156v-90h-42zM30 0v131h240v-131h-42v90h-156v-90h-42z" />
    <glyph glyph-name="uni0298" unicode="&#x298;" horiz-adv-x="714" 
d="M513 655.5q67 -40.5 104.5 -120t37.5 -193.5q0 -111 -37 -190.5t-104.5 -121t-156.5 -41.5q-88 0 -155.5 40.5t-105 120t-37.5 191.5t38 192t105 121.5t155 41.5q89 0 156 -40.5zM179.5 571q-65.5 -77 -65.5 -230q0 -151 66 -228t177 -77q114 0 178.5 77t64.5 229
q0 153 -65 229.5t-178 76.5q-112 0 -177.5 -77zM386.5 371q11.5 -12 11.5 -29q0 -18 -11.5 -29.5t-29.5 -11.5t-29.5 11.5t-11.5 29.5q0 17 11.5 29t29.5 12t29.5 -12z" />
    <glyph glyph-name="uni02AC" unicode="&#x2ac;" horiz-adv-x="416" 
d="M379 663l-63 -263h-55l-52 218l-53 -218h-55l-64 263h47l47 -223l55 223h49l53 -223l48 223h43zM379 263l-63 -263h-55l-52 218l-53 -218h-55l-64 263h47l47 -223l55 223h49l53 -223l48 223h43z" />
    <glyph glyph-name="uni0180" unicode="&#x180;" horiz-adv-x="527" 
d="M423 465.5q45 -68.5 45 -201.5q0 -130 -47.5 -202.5t-132.5 -72.5q-42 0 -76 21t-59 56l-5 -66h-49v617h-68v45h68v74l56 7v-81h147v-45h-147v-167q55 84 141 84q82 0 127 -68.5zM374.5 92q33.5 56 33.5 172t-31 169.5t-91 53.5q-42 0 -73 -24t-58 -66v-278
q52 -83 124 -83q62 0 95.5 56z" />
    <glyph glyph-name="uni0183" unicode="&#x183;" horiz-adv-x="522" 
d="M418 465.5q45 -68.5 45 -201.5q0 -130 -47.5 -202.5t-132.5 -72.5q-42 0 -76 21t-59 56l-5 -66h-49v736h268l-8 -46h-204v-240q55 84 141 84q82 0 127 -68.5zM369.5 92q33.5 56 33.5 172t-31 169.5t-91 53.5q-42 0 -73 -24t-58 -66v-278q52 -83 124 -83q62 0 95.5 56z
" />
    <glyph glyph-name="c" unicode="c" horiz-adv-x="420" 
d="M330 521.5q32 -12.5 62 -40.5l-28 -36q-23 21 -48 31t-56 10q-66 0 -104.5 -56.5t-38.5 -170.5q0 -113 38 -167t105 -54q31 0 56 10.5t51 31.5l28 -35q-59 -56 -136 -56q-94 0 -148 69.5t-54 199.5t54.5 203t147.5 73q39 0 71 -12.5z" />
    <glyph glyph-name="cacute" unicode="&#x107;" horiz-adv-x="420" 
d="M330 521.5q32 -12.5 62 -40.5l-28 -36q-23 21 -48 31t-56 10q-66 0 -104.5 -56.5t-38.5 -170.5q0 -113 38 -167t105 -54q31 0 56 10.5t51 31.5l28 -35q-59 -56 -136 -56q-94 0 -148 69.5t-54 199.5t54.5 203t147.5 73q39 0 71 -12.5zM324 779l26 -49l-177 -84l-18 31z
" />
    <glyph glyph-name="cacute.loclPLK" horiz-adv-x="420" 
d="M330 521.5q32 -12.5 62 -40.5l-28 -36q-23 21 -48 31t-56 10q-66 0 -104.5 -56.5t-38.5 -170.5q0 -113 38 -167t105 -54q31 0 56 10.5t51 31.5l28 -35q-59 -56 -136 -56q-94 0 -148 69.5t-54 199.5t54.5 203t147.5 73q39 0 71 -12.5zM312 762l46 -31l-109 -153l-29 18z
" />
    <glyph glyph-name="ccaron" unicode="&#x10d;" horiz-adv-x="420" 
d="M330 521.5q32 -12.5 62 -40.5l-28 -36q-23 21 -48 31t-56 10q-66 0 -104.5 -56.5t-38.5 -170.5q0 -113 38 -167t105 -54q31 0 56 10.5t51 31.5l28 -35q-59 -56 -136 -56q-94 0 -148 69.5t-54 199.5t54.5 203t147.5 73q39 0 71 -12.5zM367 767l24 -27l-116 -107h-35
l-117 107l25 27l110 -85z" />
    <glyph glyph-name="ccedilla" unicode="&#xe7;" horiz-adv-x="420" 
d="M334 -89q21 -20 21 -52q0 -40 -27.5 -62.5t-69.5 -22.5q-43 0 -73 21l19 33q26 -14 53 -14q22 0 35.5 11.5t13.5 33.5q0 23 -19.5 34t-61.5 11l8 86q-83 10 -129.5 78.5t-46.5 189.5q0 130 54.5 203t147.5 73q39 0 71 -12.5t62 -40.5l-28 -36q-23 21 -48 31t-56 10
q-66 0 -104.5 -56.5t-38.5 -170.5q0 -113 38 -167t105 -54q31 0 56 10.5t51 31.5l28 -35q-55 -52 -124 -56v-54q42 -4 63 -24z" />
    <glyph glyph-name="ccircumflex" unicode="&#x109;" horiz-adv-x="420" 
d="M330 521.5q32 -12.5 62 -40.5l-28 -36q-23 21 -48 31t-56 10q-66 0 -104.5 -56.5t-38.5 -170.5q0 -113 38 -167t105 -54q31 0 56 10.5t51 31.5l28 -35q-59 -56 -136 -56q-94 0 -148 69.5t-54 199.5t54.5 203t147.5 73q39 0 71 -12.5zM148 645l-25 27l117 107h34l117 -107
l-24 -27l-110 85z" />
    <glyph glyph-name="uni0255" unicode="&#x255;" horiz-adv-x="433" 
d="M382.5 188q26.5 -27 26.5 -72q0 -59 -40 -93t-108 -34q-43 0 -80 17l-29 -71l-38 16l31 76q-42 34 -65 92.5t-23 138.5q0 130 54.5 203t147.5 73q39 0 71 -12.5t62 -40.5l-28 -36q-23 21 -48 31t-56 10q-66 0 -104.5 -56.5t-38.5 -170.5q0 -127 52 -182q27 74 60.5 106
t80.5 32q46 0 72.5 -27zM334 56.5q26 18.5 26 59.5q0 27 -13 42t-39 15q-32 0 -55.5 -25.5t-51.5 -94.5q32 -15 65 -15q42 0 68 18.5z" />
    <glyph glyph-name="cdotaccent" unicode="&#x10b;" horiz-adv-x="420" 
d="M330 521.5q32 -12.5 62 -40.5l-28 -36q-23 21 -48 31t-56 10q-66 0 -104.5 -56.5t-38.5 -170.5q0 -113 38 -167t105 -54q31 0 56 10.5t51 31.5l28 -35q-59 -56 -136 -56q-94 0 -148 69.5t-54 199.5t54.5 203t147.5 73q39 0 71 -12.5zM287.5 740q11.5 -12 11.5 -29
q0 -18 -11.5 -29.5t-29.5 -11.5t-29.5 11.5t-11.5 29.5q0 17 11.5 29t29.5 12t29.5 -12z" />
    <glyph glyph-name="uni0188" unicode="&#x188;" horiz-adv-x="420" 
d="M544 709l-24 -36q-18 12 -32.5 17.5t-34.5 5.5q-61 0 -61 -77v-138l-24 -31q-27 18 -52 27t-56 9q-66 0 -104.5 -56.5t-38.5 -170.5q0 -113 38 -167t105 -54q31 0 56 10.5t51 31.5l28 -35q-59 -56 -136 -56q-94 0 -148 69.5t-54 199.5t54.5 203t147.5 73q45 0 78 -20v102
q0 62 30.5 94.5t82.5 32.5t94 -34z" />
    <glyph glyph-name="uni0297" unicode="&#x297;" horiz-adv-x="438" 
d="M349 521.5q31 -12.5 61 -40.5l-27 -36q-25 21 -49 31t-54 10q-68 0 -107 -81.5t-39 -244.5q0 -161 39 -240t106 -79q30 0 55.5 11t50.5 32l28 -36q-61 -56 -134 -56q-96 0 -150.5 94t-54.5 273t55 277t151 98q38 0 69 -12.5z" />
    <glyph glyph-name="uni023C" unicode="&#x23c;" horiz-adv-x="420" 
d="M259 -11q-34 0 -63 9l-17 -68l-30 7l18 73q-53 28 -81.5 91t-28.5 157q0 130 54.5 203t147.5 73q19 0 37 -3l15 61l30 -7l-15 -62q37 -15 66 -42l-28 -36q-26 23 -50 32l-106 -429q23 -10 52 -10q31 0 56 10.5t51 31.5l28 -35q-59 -56 -136 -56zM180 64l104 420
q-14 2 -24 2q-66 0 -104.5 -56.5t-38.5 -170.5q0 -143 63 -195z" />
    <glyph glyph-name="d" unicode="d" horiz-adv-x="526" 
d="M432 736v-736h-49l-5 78q-23 -41 -57.5 -65t-82.5 -24q-84 0 -131.5 71.5t-47.5 198.5q0 82 23 144.5t65 96.5t98 34q80 0 131 -70v279zM320 60q31 24 56 72v275q-50 80 -122 80q-63 0 -99.5 -58.5t-35.5 -168.5q0 -111 33.5 -167.5t93.5 -56.5q43 0 74 24z" />
    <glyph glyph-name="eth" unicode="&#xf0;" horiz-adv-x="503" 
d="M405.5 509q35.5 -91 35.5 -228q0 -141 -52.5 -216.5t-141.5 -75.5q-87 0 -138.5 65t-51.5 179q0 63 20.5 117t61 86t95.5 32q44 0 78.5 -19.5t65.5 -57.5q-10 76 -38 133.5t-81 103.5l-69 -77l-40 19l74 84q-57 35 -109 46l11 44q69 -15 131 -55l63 72l34 -28l-61 -70
q77 -63 112.5 -154zM347.5 99q36.5 63 36.5 184l-1 48q-61 91 -142 91q-62 0 -94 -52t-32 -137q0 -95 34.5 -146t96.5 -51q65 0 101.5 63z" />
    <glyph glyph-name="uni0238" unicode="&#x238;" horiz-adv-x="768" 
d="M665.5 466q42.5 -68 42.5 -202q0 -130 -45.5 -202.5t-123.5 -72.5q-41 0 -73 24t-53 61l-6 -74h-42l-6 75q-22 -38 -55.5 -62t-75.5 -24q-77 0 -123 71t-46 199q0 84 21.5 146t61.5 95.5t93 33.5q72 0 123 -75v277l56 7v-287q54 78 132 78q77 0 119.5 -68zM304 59.5
q29 23.5 54 69.5v277q-26 40 -53 60.5t-61 20.5q-57 0 -91.5 -57.5t-33.5 -169.5q0 -112 31.5 -168t86.5 -56q38 0 67 23.5zM617.5 92q31.5 56 31.5 172q0 118 -29.5 170.5t-84.5 52.5q-38 0 -66 -22t-55 -62v-271q23 -47 51 -71.5t66 -24.5q55 0 86.5 56z" />
    <glyph glyph-name="dcaron" unicode="&#x10f;" horiz-adv-x="532" 
d="M432 736v-736h-49l-5 78q-23 -41 -57.5 -65t-82.5 -24q-84 0 -131.5 71.5t-47.5 198.5q0 82 23 144.5t65 96.5t98 34q80 0 131 -70v279zM320 60q31 24 56 72v275q-50 80 -122 80q-63 0 -99.5 -58.5t-35.5 -168.5q0 -111 33.5 -167.5t93.5 -56.5q43 0 74 24zM519 573
l36 162l-52 7l-18 -164z" />
    <glyph glyph-name="uni1E13" unicode="&#x1e13;" horiz-adv-x="526" 
d="M432 736v-736h-49l-5 78q-23 -41 -57.5 -65t-82.5 -24q-84 0 -131.5 71.5t-47.5 198.5q0 82 23 144.5t65 96.5t98 34q80 0 131 -70v279zM320 60q31 24 56 72v275q-50 80 -122 80q-63 0 -99.5 -58.5t-35.5 -168.5q0 -111 33.5 -167.5t93.5 -56.5q43 0 74 24zM162 -203
l-25 26l117 107h34l117 -107l-24 -26l-110 84z" />
    <glyph glyph-name="dcroat" unicode="&#x111;" horiz-adv-x="531" 
d="M500 662v-45h-68v-617h-49l-5 78q-23 -41 -57.5 -65t-82.5 -24q-84 0 -131.5 71.5t-47.5 198.5q0 82 23 144.5t65 96.5t98 34q80 0 131 -70v153h-147v45h147v81l56 -7v-74h68zM320 60q31 24 56 72v275q-50 80 -122 80q-63 0 -99.5 -58.5t-35.5 -168.5q0 -111 33.5 -167.5
t93.5 -56.5q43 0 74 24z" />
    <glyph glyph-name="uni0221" unicode="&#x221;" horiz-adv-x="625" 
d="M623 174.5q25 -25.5 25 -66.5q0 -55 -37.5 -87t-97.5 -32q-42 0 -75 18l-32 -72l-37 17l37 81q-18 23 -25 51q-23 -44 -58.5 -69.5t-84.5 -25.5q-84 0 -131.5 71.5t-47.5 198.5q0 82 23 144.5t65 96.5t98 34q80 0 131 -70v279l56 -7v-615q0 -10 2 -28q23 53 52 80t71 27
q41 0 66 -25.5zM320 60q31 24 56 72v275q-50 80 -122 80q-63 0 -99.5 -58.5t-35.5 -168.5q0 -111 33.5 -167.5t93.5 -56.5q43 0 74 24zM576.5 56.5q22.5 18.5 22.5 51.5q0 23 -12 36t-34 13q-29 0 -48.5 -23t-46.5 -82q22 -14 57 -14q39 0 61.5 18.5z" />
    <glyph glyph-name="uni1E0B" unicode="&#x1e0b;" horiz-adv-x="526" 
d="M432 736v-736h-49l-5 78q-23 -41 -57.5 -65t-82.5 -24q-84 0 -131.5 71.5t-47.5 198.5q0 82 23 144.5t65 96.5t98 34q80 0 131 -70v279zM320 60q31 24 56 72v275q-50 80 -122 80q-63 0 -99.5 -58.5t-35.5 -168.5q0 -111 33.5 -167.5t93.5 -56.5q43 0 74 24zM287.5 917
q11.5 -12 11.5 -29q0 -18 -11.5 -29.5t-29.5 -11.5t-29.5 11.5t-11.5 29.5q0 17 11.5 29t29.5 12t29.5 -12z" />
    <glyph glyph-name="uni1E0D" unicode="&#x1e0d;" horiz-adv-x="526" 
d="M432 736v-736h-49l-5 78q-23 -41 -57.5 -65t-82.5 -24q-84 0 -131.5 71.5t-47.5 198.5q0 82 23 144.5t65 96.5t98 34q80 0 131 -70v279zM320 60q31 24 56 72v275q-50 80 -122 80q-63 0 -99.5 -58.5t-35.5 -168.5q0 -111 33.5 -167.5t93.5 -56.5q43 0 74 24zM241.5 -157
q-11.5 12 -11.5 29q0 18 11.5 29.5t29.5 11.5t29.5 -11.5t11.5 -29.5q0 -17 -11.5 -29t-29.5 -12t-29.5 12z" />
    <glyph glyph-name="uni018D" unicode="&#x18d;" horiz-adv-x="512" 
d="M384 -2.5q22 -31.5 22 -75.5q0 -56 -41.5 -94t-111.5 -38q-44 0 -79 12t-68 37l29 35q29 -20 55 -28.5t59 -8.5q48 0 74 23.5t26 62.5q0 26 -9.5 44t-34.5 35t-74 38q-92 40 -133 97t-41 155q0 110 53.5 176t147.5 66q92 0 144.5 -62.5t52.5 -178.5q0 -85 -38 -145
t-105 -94q50 -25 72 -56.5zM130.5 194q14.5 -39 48 -67.5t93.5 -54.5q124 65 124 221q0 96 -35.5 145t-102.5 49q-69 0 -105.5 -49.5t-36.5 -145.5q0 -59 14.5 -98z" />
    <glyph glyph-name="uni02A4" unicode="&#x2a4;" horiz-adv-x="817" 
d="M735.5 150q52.5 -50 52.5 -146q0 -93 -54 -151t-146 -58q-57 0 -100 21.5t-78 64.5l34 30q32 -36 66 -52t77 -16q69 0 105.5 43t36.5 119q0 80 -38 115t-122 35h-58v44l192 276h-271v-475h-49l-5 78q-23 -41 -57.5 -65t-82.5 -24q-84 0 -131.5 71.5t-47.5 198.5
q0 82 23 144.5t65 96.5t98 34q80 0 131 -70v279l56 -7v-213h334v-44l-198 -279h8q107 0 159.5 -50zM320 60q31 24 56 72v275q-50 80 -122 80q-63 0 -99.5 -58.5t-35.5 -168.5q0 -111 33.5 -167.5t93.5 -56.5q43 0 74 24z" />
    <glyph glyph-name="uni0257" unicode="&#x257;" horiz-adv-x="526" 
d="M584 709l-24 -36q-17 11 -32 17t-35 6q-61 0 -61 -77v-619h-49l-5 78q-23 -41 -57.5 -65t-82.5 -24q-84 0 -131.5 71.5t-47.5 198.5q0 82 23 144.5t65 96.5t98 34q80 0 131 -70v152q0 62 30.5 94.5t83.5 32.5q52 0 94 -34zM320 60q31 24 56 72v275q-50 80 -122 80
q-63 0 -99.5 -58.5t-35.5 -168.5q0 -111 33.5 -167.5t93.5 -56.5q43 0 74 24z" />
    <glyph glyph-name="uni1E0F" unicode="&#x1e0f;" horiz-adv-x="526" 
d="M432 736v-736h-49l-5 78q-23 -41 -57.5 -65t-82.5 -24q-84 0 -131.5 71.5t-47.5 198.5q0 82 23 144.5t65 96.5t98 34q80 0 131 -70v279zM320 60q31 24 56 72v275q-50 80 -122 80q-63 0 -99.5 -58.5t-35.5 -168.5q0 -111 33.5 -167.5t93.5 -56.5q43 0 74 24zM381 -157
h-219v44h219v-44z" />
    <glyph glyph-name="uni0256" unicode="&#x256;" horiz-adv-x="526" 
d="M585 -171q-42 -34 -95 -34q-51 0 -82.5 31.5t-31.5 91.5v157q-48 -86 -138 -86q-84 0 -131.5 71.5t-47.5 198.5q0 82 23 144.5t65 96.5t98 34q80 0 131 -70v279l56 -7v-820q0 -74 61 -74q21 0 36 5.5t31 16.5zM320 60q31 24 56 72v275q-50 80 -122 80q-63 0 -99.5 -58.5
t-35.5 -168.5q0 -111 33.5 -167.5t93.5 -56.5q43 0 74 24z" />
    <glyph glyph-name="uni018C" unicode="&#x18c;" horiz-adv-x="526" 
d="M432 0h-49l-5 78q-23 -41 -57.5 -65t-82.5 -24q-84 0 -131.5 71.5t-47.5 198.5q0 82 23 144.5t65 96.5t98 34q80 0 131 -70v226h-208v46h264v-736zM320 60q31 24 56 72v275q-50 80 -122 80q-63 0 -99.5 -58.5t-35.5 -168.5q0 -111 33.5 -167.5t93.5 -56.5q43 0 74 24z
" />
    <glyph glyph-name="uni01F3" unicode="&#x1f3;" horiz-adv-x="907" 
d="M432 736v-736h-49l-5 78q-23 -41 -57.5 -65t-82.5 -24q-84 0 -131.5 71.5t-47.5 198.5q0 82 23 144.5t65 96.5t98 34q80 0 131 -70v279zM320 60q31 24 56 72v275q-50 80 -122 80q-63 0 -99.5 -58.5t-35.5 -168.5q0 -111 33.5 -167.5t93.5 -56.5q43 0 74 24zM877 523v-44
l-264 -430h263l-6 -49h-320v43l265 431h-243v49h305z" />
    <glyph glyph-name="uni02A3" unicode="&#x2a3;" horiz-adv-x="795" 
d="M764 479l-271 -430h270l-6 -49h-374l-5 78q-23 -41 -57.5 -65t-82.5 -24q-84 0 -131.5 71.5t-47.5 198.5q0 82 23 144.5t65 96.5t98 34q80 0 131 -70v279l56 -7v-213h332v-44zM320 60q31 24 56 72v275q-50 80 -122 80q-63 0 -99.5 -58.5t-35.5 -168.5q0 -111 33.5 -167.5
t93.5 -56.5q43 0 74 24zM432 43l271 431h-271v-431z" />
    <glyph glyph-name="uni01C6" unicode="&#x1c6;" horiz-adv-x="907" 
d="M432 736v-736h-49l-5 78q-23 -41 -57.5 -65t-82.5 -24q-84 0 -131.5 71.5t-47.5 198.5q0 82 23 144.5t65 96.5t98 34q80 0 131 -70v279zM320 60q31 24 56 72v275q-50 80 -122 80q-63 0 -99.5 -58.5t-35.5 -168.5q0 -111 33.5 -167.5t93.5 -56.5q43 0 74 24zM877 523v-44
l-264 -430h263l-6 -49h-320v43l265 431h-243v49h305zM831 767l24 -27l-116 -107h-35l-117 107l25 27l110 -85z" />
    <glyph glyph-name="uni02A5" unicode="&#x2a5;" horiz-adv-x="807" 
d="M784 27.5q-41 -26.5 -128 -27.5q-2 -38 -2 -110h-42q-1 49 2 110h-231l-5 78q-23 -41 -57.5 -65t-82.5 -24q-84 0 -131.5 71.5t-47.5 198.5q0 82 23 144.5t65 96.5t98 34q80 0 131 -70v279l56 -7v-213h333v-44l-271 -430h126q8 76 38.5 115t78.5 39q39 0 63.5 -24
t24.5 -67q0 -58 -41 -84.5zM320 60q31 24 56 72v275q-50 80 -122 80q-63 0 -99.5 -58.5t-35.5 -168.5q0 -111 33.5 -167.5t93.5 -56.5q43 0 74 24zM432 474v-429l270 429h-270zM751 62.5q26 14.5 26 49.5q0 24 -11 37t-31 13q-60 0 -72 -113q62 -1 88 13.5z" />
    <glyph glyph-name="e" unicode="e" horiz-adv-x="484" 
d="M430 239h-315q4 -105 43 -153.5t103 -48.5q37 0 65.5 12t59.5 38l28 -35q-35 -31 -72.5 -47t-82.5 -16q-94 0 -148 70t-54 198q0 130 51.5 203.5t140.5 73.5t136 -66t47 -187q0 -22 -2 -42zM377 299q0 91 -32 139.5t-96 48.5q-58 0 -94 -49t-40 -155h262v16z" />
    <glyph glyph-name="eacute" unicode="&#xe9;" horiz-adv-x="484" 
d="M430 239h-315q4 -105 43 -153.5t103 -48.5q37 0 65.5 12t59.5 38l28 -35q-35 -31 -72.5 -47t-82.5 -16q-94 0 -148 70t-54 198q0 130 51.5 203.5t140.5 73.5t136 -66t47 -187q0 -22 -2 -42zM377 299q0 91 -32 139.5t-96 48.5q-58 0 -94 -49t-40 -155h262v16zM316 779
l26 -49l-177 -84l-18 31z" />
    <glyph glyph-name="ebreve" unicode="&#x115;" horiz-adv-x="484" 
d="M430 239h-315q4 -105 43 -153.5t103 -48.5q37 0 65.5 12t59.5 38l28 -35q-35 -31 -72.5 -47t-82.5 -16q-94 0 -148 70t-54 198q0 130 51.5 203.5t140.5 73.5t136 -66t47 -187q0 -22 -2 -42zM377 299q0 91 -32 139.5t-96 48.5q-58 0 -94 -49t-40 -155h262v16zM169 682.5
q-32 29.5 -38 80.5l37 8q18 -72 81 -72q64 0 82 72l37 -8q-6 -51 -38.5 -80.5t-80.5 -29.5t-80 29.5z" />
    <glyph glyph-name="ecaron" unicode="&#x11b;" horiz-adv-x="484" 
d="M430 239h-315q4 -105 43 -153.5t103 -48.5q37 0 65.5 12t59.5 38l28 -35q-35 -31 -72.5 -47t-82.5 -16q-94 0 -148 70t-54 198q0 130 51.5 203.5t140.5 73.5t136 -66t47 -187q0 -22 -2 -42zM377 299q0 91 -32 139.5t-96 48.5q-58 0 -94 -49t-40 -155h262v16zM359 767
l24 -27l-116 -107h-35l-117 107l25 27l110 -85z" />
    <glyph glyph-name="uni0229" unicode="&#x229;" horiz-adv-x="484" 
d="M430 239h-315q4 -105 43 -153.5t103 -48.5q37 0 65.5 12t59.5 38l28 -35q-65 -57 -138 -62v-55q42 -4 63 -24t21 -52q0 -40 -27.5 -62.5t-69.5 -22.5q-43 0 -73 21l19 33q26 -14 53 -14q22 0 35.5 11.5t13.5 33.5q0 23 -19.5 34t-61.5 11l8 86q-85 8 -133 77t-48 190
q0 130 51.5 203.5t140.5 73.5t136 -66t47 -187q0 -22 -2 -42zM377 299q0 91 -32 139.5t-96 48.5q-58 0 -94 -49t-40 -155h262v16z" />
    <glyph glyph-name="ecircumflex" unicode="&#xea;" horiz-adv-x="484" 
d="M430 239h-315q4 -105 43 -153.5t103 -48.5q37 0 65.5 12t59.5 38l28 -35q-35 -31 -72.5 -47t-82.5 -16q-94 0 -148 70t-54 198q0 130 51.5 203.5t140.5 73.5t136 -66t47 -187q0 -22 -2 -42zM377 299q0 91 -32 139.5t-96 48.5q-58 0 -94 -49t-40 -155h262v16zM140 645
l-25 27l117 107h34l117 -107l-24 -27l-110 85z" />
    <glyph glyph-name="uni1EBF" unicode="&#x1ebf;" horiz-adv-x="484" 
d="M430 239h-315q4 -105 43 -153.5t103 -48.5q37 0 65.5 12t59.5 38l28 -35q-35 -31 -72.5 -47t-82.5 -16q-94 0 -148 70t-54 198q0 130 51.5 203.5t140.5 73.5t136 -66t47 -187q0 -22 -2 -42zM377 299q0 91 -32 139.5t-96 48.5q-58 0 -94 -49t-40 -155h262v16zM139 587
l-25 27l117 102h35l116 -102l-24 -27l-110 80zM426 845l39 -33l-112 -122l-26 23z" />
    <glyph glyph-name="uni1EC7" unicode="&#x1ec7;" horiz-adv-x="484" 
d="M430 239h-315q4 -105 43 -153.5t103 -48.5q37 0 65.5 12t59.5 38l28 -35q-35 -31 -72.5 -47t-82.5 -16q-94 0 -148 70t-54 198q0 130 51.5 203.5t140.5 73.5t136 -66t47 -187q0 -22 -2 -42zM377 299q0 91 -32 139.5t-96 48.5q-58 0 -94 -49t-40 -155h262v16zM140 645
l-25 27l117 107h34l117 -107l-24 -27l-110 85zM231.5 -157q-11.5 12 -11.5 29q0 18 11.5 29.5t29.5 11.5t29.5 -11.5t11.5 -29.5q0 -17 -11.5 -29t-29.5 -12t-29.5 12z" />
    <glyph glyph-name="uni1EC1" unicode="&#x1ec1;" horiz-adv-x="484" 
d="M430 239h-315q4 -105 43 -153.5t103 -48.5q37 0 65.5 12t59.5 38l28 -35q-35 -31 -72.5 -47t-82.5 -16q-94 0 -148 70t-54 198q0 130 51.5 203.5t140.5 73.5t136 -66t47 -187q0 -22 -2 -42zM377 299q0 91 -32 139.5t-96 48.5q-58 0 -94 -49t-40 -155h262v16zM138 587
l-25 27l117 102h35l116 -102l-24 -27l-110 80zM73 845l99 -132l-26 -23l-112 122z" />
    <glyph glyph-name="uni1EC3" unicode="&#x1ec3;" horiz-adv-x="484" 
d="M430 239h-315q4 -105 43 -153.5t103 -48.5q37 0 65.5 12t59.5 38l28 -35q-35 -31 -72.5 -47t-82.5 -16q-94 0 -148 70t-54 198q0 130 51.5 203.5t140.5 73.5t136 -66t47 -187q0 -22 -2 -42zM377 299q0 91 -32 139.5t-96 48.5q-58 0 -94 -49t-40 -155h262v16zM139 587
l-25 27l117 102h35l116 -102l-24 -27l-110 80zM340 769q31 2 47 12.5t16 34.5q0 20 -11.5 30.5t-31.5 10.5q-26 0 -51 -13l-15 33q34 22 74 22q39 0 61.5 -21.5t22.5 -57.5q0 -34 -17.5 -53t-49.5 -24v-56h-45v82z" />
    <glyph glyph-name="uni1EC5" unicode="&#x1ec5;" horiz-adv-x="484" 
d="M430 239h-315q4 -105 43 -153.5t103 -48.5q37 0 65.5 12t59.5 38l28 -35q-35 -31 -72.5 -47t-82.5 -16q-94 0 -148 70t-54 198q0 130 51.5 203.5t140.5 73.5t136 -66t47 -187q0 -22 -2 -42zM377 299q0 91 -32 139.5t-96 48.5q-58 0 -94 -49t-40 -155h262v16zM139 577
l-25 27l117 102h35l116 -102l-24 -27l-110 80zM271.5 753.5q-13.5 6.5 -33.5 18.5q-27 19 -42 19t-26.5 -9t-24.5 -30l-33 17q33 66 83 66q15 0 29 -6.5t30 -17.5q17 -11 26.5 -15.5t20.5 -4.5q14 0 25.5 10t25.5 33l33 -17q-31 -70 -83 -70q-17 0 -30.5 6.5z" />
    <glyph glyph-name="uni0205" unicode="&#x205;" horiz-adv-x="484" 
d="M430 239h-315q4 -105 43 -153.5t103 -48.5q37 0 65.5 12t59.5 38l28 -35q-35 -31 -72.5 -47t-82.5 -16q-94 0 -148 70t-54 198q0 130 51.5 203.5t140.5 73.5t136 -66t47 -187q0 -22 -2 -42zM377 299q0 91 -32 139.5t-96 48.5q-58 0 -94 -49t-40 -155h262v16zM149 809
l71 -151l-34 -15l-85 141zM267 809l64 -146l-35 -16l-77 137z" />
    <glyph glyph-name="edieresis" unicode="&#xeb;" horiz-adv-x="484" 
d="M430 239h-315q4 -105 43 -153.5t103 -48.5q37 0 65.5 12t59.5 38l28 -35q-35 -31 -72.5 -47t-82.5 -16q-94 0 -148 70t-54 198q0 130 51.5 203.5t140.5 73.5t136 -66t47 -187q0 -22 -2 -42zM377 299q0 91 -32 139.5t-96 48.5q-58 0 -94 -49t-40 -155h262v16zM191.5 729
q10.5 -11 10.5 -27q0 -17 -10.5 -28t-27.5 -11q-16 0 -27 11t-11 28q0 16 11 27t27 11q17 0 27.5 -11zM363 729q11 -11 11 -27q0 -17 -11 -28t-27 -11q-17 0 -28 11t-11 28q0 16 11 27t28 11q16 0 27 -11z" />
    <glyph glyph-name="edotaccent" unicode="&#x117;" horiz-adv-x="484" 
d="M430 239h-315q4 -105 43 -153.5t103 -48.5q37 0 65.5 12t59.5 38l28 -35q-35 -31 -72.5 -47t-82.5 -16q-94 0 -148 70t-54 198q0 130 51.5 203.5t140.5 73.5t136 -66t47 -187q0 -22 -2 -42zM377 299q0 91 -32 139.5t-96 48.5q-58 0 -94 -49t-40 -155h262v16zM279.5 740
q11.5 -12 11.5 -29q0 -18 -11.5 -29.5t-29.5 -11.5t-29.5 11.5t-11.5 29.5q0 17 11.5 29t29.5 12t29.5 -12z" />
    <glyph glyph-name="uni1EB9" unicode="&#x1eb9;" horiz-adv-x="484" 
d="M430 239h-315q4 -105 43 -153.5t103 -48.5q37 0 65.5 12t59.5 38l28 -35q-35 -31 -72.5 -47t-82.5 -16q-94 0 -148 70t-54 198q0 130 51.5 203.5t140.5 73.5t136 -66t47 -187q0 -22 -2 -42zM377 299q0 91 -32 139.5t-96 48.5q-58 0 -94 -49t-40 -155h262v16zM231.5 -157
q-11.5 12 -11.5 29q0 18 11.5 29.5t29.5 11.5t29.5 -11.5t11.5 -29.5q0 -17 -11.5 -29t-29.5 -12t-29.5 12z" />
    <glyph glyph-name="egrave" unicode="&#xe8;" horiz-adv-x="484" 
d="M430 239h-315q4 -105 43 -153.5t103 -48.5q37 0 65.5 12t59.5 38l28 -35q-35 -31 -72.5 -47t-82.5 -16q-94 0 -148 70t-54 198q0 130 51.5 203.5t140.5 73.5t136 -66t47 -187q0 -22 -2 -42zM377 299q0 91 -32 139.5t-96 48.5q-58 0 -94 -49t-40 -155h262v16zM183 779
l169 -102l-19 -31l-177 84z" />
    <glyph glyph-name="uni1EBB" unicode="&#x1ebb;" horiz-adv-x="484" 
d="M430 239h-315q4 -105 43 -153.5t103 -48.5q37 0 65.5 12t59.5 38l28 -35q-35 -31 -72.5 -47t-82.5 -16q-94 0 -148 70t-54 198q0 130 51.5 203.5t140.5 73.5t136 -66t47 -187q0 -22 -2 -42zM377 299q0 91 -32 139.5t-96 48.5q-58 0 -94 -49t-40 -155h262v16zM227 699
q31 2 47 12.5t16 34.5q0 20 -11.5 30.5t-31.5 10.5q-26 0 -51 -13l-15 33q34 22 74 22q39 0 61.5 -21.5t22.5 -57.5q0 -34 -17.5 -53t-49.5 -24v-56h-45v82z" />
    <glyph glyph-name="uni0207" unicode="&#x207;" horiz-adv-x="484" 
d="M430 239h-315q4 -105 43 -153.5t103 -48.5q37 0 65.5 12t59.5 38l28 -35q-35 -31 -72.5 -47t-82.5 -16q-94 0 -148 70t-54 198q0 130 51.5 203.5t140.5 73.5t136 -66t47 -187q0 -22 -2 -42zM377 299q0 91 -32 139.5t-96 48.5q-58 0 -94 -49t-40 -155h262v16zM329.5 712.5
q32.5 -29.5 38.5 -80.5l-37 -8q-18 72 -82 72q-63 0 -81 -72l-37 8q6 51 38 80.5t80 29.5t80.5 -29.5z" />
    <glyph glyph-name="emacron" unicode="&#x113;" horiz-adv-x="484" 
d="M430 239h-315q4 -105 43 -153.5t103 -48.5q37 0 65.5 12t59.5 38l28 -35q-35 -31 -72.5 -47t-82.5 -16q-94 0 -148 70t-54 198q0 130 51.5 203.5t140.5 73.5t136 -66t47 -187q0 -22 -2 -42zM377 299q0 91 -32 139.5t-96 48.5q-58 0 -94 -49t-40 -155h262v16zM360 677
h-219v44h219v-44z" />
    <glyph glyph-name="eogonek" unicode="&#x119;" horiz-adv-x="484" 
d="M430 239h-315q4 -105 43 -153.5t103 -48.5q37 0 65.5 12t59.5 38l28 -35q-35 -32 -76 -48q-58 -29 -82 -55.5t-24 -61.5q0 -25 14 -38.5t43 -13.5q21 0 51 6l-5 -46q-31 -7 -53 -7q-48 0 -74.5 25.5t-26.5 65.5q0 67 76 110q-93 1 -146.5 70.5t-53.5 197.5
q0 130 51.5 203.5t140.5 73.5t136 -66t47 -187q0 -22 -2 -42zM377 299q0 91 -32 139.5t-96 48.5q-58 0 -94 -49t-40 -155h262v16z" />
    <glyph glyph-name="uni025B" unicode="&#x25b;" horiz-adv-x="415" 
d="M381 487l-26 -35q-27 18 -54 26.5t-61 8.5q-51 0 -79 -25t-28 -70q0 -42 30 -69t80 -27h54l-7 -45h-51q-63 0 -93 -26.5t-30 -82.5q0 -49 32 -77.5t87 -28.5q41 0 70.5 12.5t60.5 38.5l29 -35q-68 -63 -163 -63q-78 0 -126.5 41t-48.5 112q0 61 32.5 94t88.5 41
q-102 25 -102 118q0 64 44 101.5t115 37.5q83 0 146 -47z" />
    <glyph glyph-name="uni029A" unicode="&#x29a;" 
d="M107 31.5q-50 42.5 -50 119.5q0 60 32 90t93 38q-50 12 -75 39.5t-25 75.5q0 63 44 101.5t114 38.5q98 0 152.5 -71t54.5 -202t-53 -201.5t-154 -70.5q-83 0 -133 42.5zM351.5 91.5q36.5 55.5 36.5 169.5q0 115 -38 170.5t-109 55.5q-48 0 -75 -25.5t-27 -68.5
q0 -46 31 -71t85 -25h23l3 -45h-33q-63 0 -97.5 -23t-34.5 -78q0 -60 33 -87.5t92 -27.5q74 0 110.5 55.5z" />
    <glyph glyph-name="uni025C" unicode="&#x25c;" horiz-adv-x="435" 
d="M309 497q44 -37 44 -101q0 -49 -25.5 -77.5t-75.5 -39.5q62 -8 94 -38t32 -90q0 -78 -50.5 -120t-131.5 -42q-103 0 -176 68l31 33q33 -27 66 -40.5t77 -13.5q57 0 91 27.5t34 87.5q0 55 -35.5 78t-103.5 23h-54l4 45h44q59 0 90.5 25t31.5 73q0 44 -28 68t-75 24
q-40 0 -68.5 -10.5t-61.5 -32.5l-27 34q36 28 74.5 42t87.5 14q67 0 111 -37z" />
    <glyph glyph-name="uni025E" unicode="&#x25e;" 
d="M110 59.5q-53 70.5 -53 201.5t54.5 202t152.5 71q70 0 114 -38.5t44 -101.5q0 -48 -25 -75.5t-75 -39.5q61 -8 93 -38t32 -90q0 -77 -50 -119.5t-133 -42.5q-101 0 -154 70.5zM355 63.5q33 27.5 33 87.5q0 55 -34.5 78t-97.5 23h-33l3 45h23q54 0 85 25t31 71
q0 43 -27 68.5t-75 25.5q-71 0 -109 -55.5t-38 -170.5q0 -114 36.5 -169.5t110.5 -55.5q59 0 92 27.5z" />
    <glyph glyph-name="uni025D" unicode="&#x25d;" horiz-adv-x="605" 
d="M630 357q-42 -34 -93 -34t-80.5 30.5t-29.5 86.5v35l-78 -44q4 -15 4 -35q0 -49 -25.5 -77.5t-75.5 -39.5q62 -8 94 -38t32 -90q0 -78 -50.5 -120t-131.5 -42q-103 0 -176 68l31 33q33 -27 66 -40.5t77 -13.5q57 0 91 27.5t34 87.5q0 55 -35.5 78t-103.5 23h-54l4 45h44
q59 0 90.5 25t31.5 73q0 44 -28 68t-75 24q-40 0 -68.5 -10.5t-61.5 -32.5l-27 34q36 28 74.5 42t87.5 14q44 0 79 -16.5t55 -46.5l94 52h53v-78q0 -75 61 -75q20 0 35 5.5t31 16.5z" />
    <glyph glyph-name="uni0258" unicode="&#x258;" horiz-adv-x="484" 
d="M379 463.5q48 -70.5 48 -206.5q0 -128 -54 -198t-148 -70q-46 0 -83.5 16t-71.5 47l28 35q30 -26 59 -38t69 -12q135 0 143 202h-315q-2 20 -2 42q0 120 48.5 186.5t138.5 66.5q92 0 140 -70.5zM107 283h262q-4 112 -36.5 158t-93.5 46q-64 0 -98 -49t-34 -139v-16z" />
    <glyph glyph-name="uni0283" unicode="&#x283;" horiz-adv-x="244" 
d="M302 709l-24 -36q-17 11 -32 17t-35 6q-61 0 -61 -77v-701q0 -60 -31.5 -91.5t-82.5 -31.5q-53 0 -95 34l25 35q16 -11 31 -16.5t36 -5.5q61 0 61 74v700q0 62 30.5 94.5t83.5 32.5q52 0 94 -34z" />
    <glyph glyph-name="uni0286" unicode="&#x286;" horiz-adv-x="261" 
d="M166 619v-96h1v-541q44 -13 94 -38l-15 -33q-33 16 -80 31q-5 -71 -39 -109t-96 -38q-49 0 -77.5 26.5t-28.5 70.5q0 50 33.5 78t89.5 28q35 0 63 -5v529h-1v94q0 62 30.5 94.5t83.5 32.5q52 0 94 -34l-24 -36q-17 11 -32 17t-35 6q-61 0 -61 -77zM90.5 -135.5
q19.5 28.5 20.5 88.5q-27 7 -62 7q-39 0 -58.5 -17t-19.5 -49q0 -28 15.5 -43t44.5 -15q40 0 59.5 28.5z" />
    <glyph glyph-name="uni01AA" unicode="&#x1aa;" horiz-adv-x="262" 
d="M320 -171q-42 -34 -95 -34q-51 0 -82.5 31.5t-31.5 91.5v83h1v512q-26 -12 -54 -12q-47 0 -76 31t-29 88t30 90t78 33q50 0 78.5 -31t28.5 -87v-625h-1v-84q0 -74 61 -74q21 0 36 5.5t31 16.5zM112 558v70q0 69 -51 69q-26 0 -39.5 -19t-13.5 -56q0 -40 14.5 -57.5
t42.5 -17.5q25 0 47 11z" />
    <glyph glyph-name="uni0285" unicode="&#x285;" horiz-adv-x="363" 
d="M362 23q-42 -34 -95 -34q-51 0 -82.5 31.5t-31.5 91.5v298q0 77 -61 77q-20 0 -35 -6t-32 -17l-24 36q42 34 94 34q53 0 83.5 -32.5t30.5 -94.5v-297q0 -74 61 -74q21 0 36 5.5t31 16.5z" />
    <glyph glyph-name="uni0247" unicode="&#x247;" horiz-adv-x="484" 
d="M250 239l-47 -190q27 -12 58 -12q37 0 66 12t60 38l27 -34q-35 -32 -72.5 -48t-82.5 -16q-35 0 -68 11l-17 -70l-30 7l19 76q-51 29 -78.5 91.5t-27.5 152.5q0 129 51.5 203t140.5 74q25 0 42 -4l15 62l29 -7l-16 -64q55 -23 84 -84.5t29 -155.5q0 -22 -2 -42h-180z
M155 438q-36 -49 -40 -155h115l49 201q-13 3 -30 3q-58 0 -94 -49zM308 474l-47 -191h116v16q0 137 -69 175zM219 239h-104q6 -126 61 -173z" />
    <glyph glyph-name="uni1EBD" unicode="&#x1ebd;" horiz-adv-x="484" 
d="M430 239h-315q4 -105 43 -153.5t103 -48.5q37 0 65.5 12t59.5 38l28 -35q-35 -31 -72.5 -47t-82.5 -16q-94 0 -148 70t-54 198q0 130 51.5 203.5t140.5 73.5t136 -66t47 -187q0 -22 -2 -42zM377 299q0 91 -32 139.5t-96 48.5q-58 0 -94 -49t-40 -155h262v16zM272.5 674.5
q-13.5 6.5 -33.5 18.5q-27 19 -42 19t-26.5 -9t-24.5 -30l-33 17q33 66 83 66q16 0 29.5 -6.5t29.5 -17.5q17 -11 26.5 -15.5t20.5 -4.5q14 0 25.5 10t25.5 33l33 -17q-31 -70 -83 -70q-17 0 -30.5 6.5z" />
    <glyph glyph-name="uni01DD" unicode="&#x1dd;" horiz-adv-x="489" 
d="M383.5 466.5q48.5 -67.5 48.5 -202.5q0 -138 -51 -206.5t-142 -68.5q-88 0 -137.5 66.5t-49.5 190.5q0 16 2 38h320q-6 202 -134 202q-36 0 -66.5 -11.5t-62.5 -37.5l-27 37q69 60 157 60q94 0 142.5 -67.5zM338.5 83q34.5 47 35.5 157h-266v-6q0 -99 34 -148.5t97 -49.5
q65 0 99.5 47z" />
    <glyph glyph-name="uni0259" unicode="&#x259;" horiz-adv-x="489" 
d="M383.5 466.5q48.5 -67.5 48.5 -202.5q0 -138 -51 -206.5t-142 -68.5q-88 0 -137.5 66.5t-49.5 190.5q0 16 2 38h320q-6 202 -134 202q-36 0 -66.5 -11.5t-62.5 -37.5l-27 37q69 60 157 60q94 0 142.5 -67.5zM338.5 83q34.5 47 35.5 157h-266v-6q0 -99 34 -148.5t97 -49.5
q65 0 99.5 47z" />
    <glyph glyph-name="uni025A" unicode="&#x25a;" horiz-adv-x="658" 
d="M683 357q-43 -34 -93 -34q-51 0 -80.5 30.5t-29.5 86.5v35l-77 -43q29 -64 29 -168q0 -138 -51 -206.5t-142 -68.5q-88 0 -137.5 66.5t-49.5 190.5q0 16 2 38h320q-6 202 -134 202q-36 0 -66.5 -11.5t-62.5 -37.5l-27 37q69 60 157 60q94 0 141 -65l97 54h53v-78
q0 -75 61 -75q20 0 35 5.5t31 16.5zM338.5 83q34.5 47 35.5 157h-266v-6q0 -99 34 -148.5t97 -49.5q65 0 99.5 47z" />
    <glyph glyph-name="uni0292" unicode="&#x292;" horiz-adv-x="416" 
d="M334.5 150q52.5 -50 52.5 -146q0 -93 -54 -151t-146 -58q-57 0 -100 21.5t-78 64.5l34 30q32 -36 66 -52t77 -16q69 0 105.5 43t36.5 119q0 80 -38 115t-122 35h-58v44l192 276h-272v48h335v-44l-198 -279h8q107 0 159.5 -50z" />
    <glyph glyph-name="uni01EF" unicode="&#x1ef;" horiz-adv-x="416" 
d="M334.5 150q52.5 -50 52.5 -146q0 -93 -54 -151t-146 -58q-57 0 -100 21.5t-78 64.5l34 30q32 -36 66 -52t77 -16q69 0 105.5 43t36.5 119q0 80 -38 115t-122 35h-58v44l192 276h-272v48h335v-44l-198 -279h8q107 0 159.5 -50zM306 767l24 -27l-116 -107h-35l-117 107
l25 27l110 -85z" />
    <glyph glyph-name="uni0293" unicode="&#x293;" horiz-adv-x="416" 
d="M354 -115q-33 -51 -97 -73l23 -56l-40 -16l-25 60q-32 -5 -63 -5q-83 0 -125.5 31.5t-42.5 89.5q0 46 27.5 75t72.5 29q34 0 59 -14.5t48 -49.5t47 -99q45 17 67.5 55.5t22.5 94.5q0 78 -38.5 113t-121.5 35h-58v44l192 276h-272v48h335v-44l-198 -279h9
q106 0 158.5 -49.5t52.5 -143.5q0 -71 -33 -122zM63 -140q30 -17 89 -17q25 0 44 3q-30 77 -53.5 104.5t-55.5 27.5q-25 0 -39.5 -16t-14.5 -45q0 -40 30 -57z" />
    <glyph glyph-name="uni01B9" unicode="&#x1b9;" horiz-adv-x="416" 
d="M408 -119q-36 -43 -79.5 -64.5t-102.5 -21.5q-90 0 -143.5 55t-53.5 145q0 96 54 150.5t159 54.5h7l-198 279v44h335v-48h-271l192 -276v-44h-59q-82 0 -121 -39.5t-39 -119.5q0 -73 36 -113t103 -40q46 0 80 16t67 52z" />
    <glyph glyph-name="uni01BA" unicode="&#x1ba;" horiz-adv-x="412" 
d="M55.5 -150.5q-26.5 29.5 -26.5 69.5q0 47 37.5 73t116.5 37q78 12 110.5 35.5t32.5 77.5q0 83 -98 83h-126v45l188 205h-263v48h331v-44l-195 -209h67q74 0 114.5 -33.5t40.5 -95.5q-1 -71 -45 -106t-132 -50q-69 -11 -95.5 -25t-26.5 -45q0 -24 16 -42.5t52 -39.5
l-19 -39q-53 26 -79.5 55.5z" />
    <glyph glyph-name="f" unicode="f" horiz-adv-x="291" 
d="M176 676q-20 -20 -20 -63v-90h124l-7 -46h-117v-477h-56v477h-81v46h81v92q0 59 35.5 93.5t97.5 34.5q57 0 110 -28l-19 -41q-44 22 -87 22q-41 0 -61 -20z" />
    <glyph glyph-name="uni1E1F" unicode="&#x1e1f;" horiz-adv-x="291" 
d="M176 676q-20 -20 -20 -63v-90h124l-7 -46h-117v-477h-56v477h-81v46h81v92q0 59 35.5 93.5t97.5 34.5q57 0 110 -28l-19 -41q-44 22 -87 22q-41 0 -61 -20zM259.5 917q11.5 -12 11.5 -29q0 -18 -11.5 -29.5t-29.5 -11.5t-29.5 11.5t-11.5 29.5q0 17 11.5 29t29.5 12
t29.5 -12z" />
    <glyph glyph-name="uni02A9" unicode="&#x2a9;" horiz-adv-x="783" 
d="M659.5 493q34.5 -41 34.5 -114v-461q0 -60 -31.5 -91.5t-82.5 -31.5q-53 0 -95 34l25 35q16 -11 31 -16.5t36 -5.5q61 0 61 74v455q0 60 -21.5 88.5t-64.5 28.5t-78 -29t-67 -82v-377h-56v477h-195v-477h-56v477h-81v46h81v92q0 59 35.5 93.5t97.5 34.5q57 0 110 -28
l-19 -41q-44 22 -87 22q-41 0 -61 -20t-20 -63v-90h243l6 -91q62 102 157 102q63 0 97.5 -41z" />
    <glyph glyph-name="g" unicode="g" horiz-adv-x="455" 
d="M447 513q-23 -8 -53.5 -11t-76.5 -4q81 -42 81 -143q0 -79 -46 -125.5t-126 -46.5q-33 0 -61 11q-36 -25 -36 -61q0 -56 78 -56h68q73 0 115 -36.5t42 -95.5q0 -70 -52 -110t-154 -40q-105 0 -151 36.5t-46 113.5h51q1 -56 33 -79.5t114 -23.5q149 0 149 100
q0 42 -28.5 65t-82.5 23h-62q-62 0 -94 25t-32 66q0 51 53 88q-41 23 -60.5 59.5t-19.5 88.5q0 80 48 128.5t127 48.5q85 -1 124.5 6.5t80.5 25.5zM136 455q-30 -35 -30 -98q0 -62 32 -97.5t86 -35.5q57 0 87 33.5t30 98.5q0 63 -29.5 98.5t-86.5 35.5q-59 0 -89 -35z" />
    <glyph glyph-name="g.ss04" horiz-adv-x="526" 
d="M432 523v-537q0 -91 -44.5 -141t-137.5 -50q-79 0 -137 38l21 38q24 -14 50.5 -21.5t62.5 -7.5q70 0 99.5 35t29.5 107v111q-47 -86 -138 -86q-83 0 -131 69.5t-48 190.5q0 79 22.5 138.5t65 93t100.5 33.5q80 0 133 -73l4 62h48zM320.5 80q30.5 24 55.5 73v254
q-50 80 -121 80q-63 0 -100 -56t-36 -161q0 -105 33.5 -159.5t93.5 -54.5q44 0 74.5 24z" />
    <glyph glyph-name="uni01F5" unicode="&#x1f5;" horiz-adv-x="455" 
d="M447 513q-23 -8 -53.5 -11t-76.5 -4q81 -42 81 -143q0 -79 -46 -125.5t-126 -46.5q-33 0 -61 11q-36 -25 -36 -61q0 -56 78 -56h68q73 0 115 -36.5t42 -95.5q0 -70 -52 -110t-154 -40q-105 0 -151 36.5t-46 113.5h51q1 -56 33 -79.5t114 -23.5q149 0 149 100
q0 42 -28.5 65t-82.5 23h-62q-62 0 -94 25t-32 66q0 51 53 88q-41 23 -60.5 59.5t-19.5 88.5q0 80 48 128.5t127 48.5q85 -1 124.5 6.5t80.5 25.5zM136 455q-30 -35 -30 -98q0 -62 32 -97.5t86 -35.5q57 0 87 33.5t30 98.5q0 63 -29.5 98.5t-86.5 35.5q-59 0 -89 -35z
M294 779l26 -49l-177 -84l-18 31z" />
    <glyph glyph-name="uni0263" unicode="&#x263;" horiz-adv-x="428" 
d="M245 53q29 -58 42 -96.5t13 -75.5q0 -39 -22.5 -62.5t-62.5 -23.5t-62.5 23t-22.5 62q0 35 13 74.5t41 97.5l-168 471h59l140 -430l139 430h58zM241 -60.5q-8 27.5 -26 73.5q-19 -49 -27 -75t-8 -54q0 -44 35 -44q34 0 34 44q0 28 -8 55.5z" />
    <glyph glyph-name="gbreve" unicode="&#x11f;" horiz-adv-x="455" 
d="M447 513q-23 -8 -53.5 -11t-76.5 -4q81 -42 81 -143q0 -79 -46 -125.5t-126 -46.5q-33 0 -61 11q-36 -25 -36 -61q0 -56 78 -56h68q73 0 115 -36.5t42 -95.5q0 -70 -52 -110t-154 -40q-105 0 -151 36.5t-46 113.5h51q1 -56 33 -79.5t114 -23.5q149 0 149 100
q0 42 -28.5 65t-82.5 23h-62q-62 0 -94 25t-32 66q0 51 53 88q-41 23 -60.5 59.5t-19.5 88.5q0 80 48 128.5t127 48.5q85 -1 124.5 6.5t80.5 25.5zM136 455q-30 -35 -30 -98q0 -62 32 -97.5t86 -35.5q57 0 87 33.5t30 98.5q0 63 -29.5 98.5t-86.5 35.5q-59 0 -89 -35z
M147 682.5q-32 29.5 -38 80.5l37 8q18 -72 81 -72q64 0 82 72l37 -8q-6 -51 -38.5 -80.5t-80.5 -29.5t-80 29.5z" />
    <glyph glyph-name="gcaron" unicode="&#x1e7;" horiz-adv-x="455" 
d="M447 513q-23 -8 -53.5 -11t-76.5 -4q81 -42 81 -143q0 -79 -46 -125.5t-126 -46.5q-33 0 -61 11q-36 -25 -36 -61q0 -56 78 -56h68q73 0 115 -36.5t42 -95.5q0 -70 -52 -110t-154 -40q-105 0 -151 36.5t-46 113.5h51q1 -56 33 -79.5t114 -23.5q149 0 149 100
q0 42 -28.5 65t-82.5 23h-62q-62 0 -94 25t-32 66q0 51 53 88q-41 23 -60.5 59.5t-19.5 88.5q0 80 48 128.5t127 48.5q85 -1 124.5 6.5t80.5 25.5zM136 455q-30 -35 -30 -98q0 -62 32 -97.5t86 -35.5q57 0 87 33.5t30 98.5q0 63 -29.5 98.5t-86.5 35.5q-59 0 -89 -35z
M337 767l24 -27l-116 -107h-35l-117 107l25 27l110 -85z" />
    <glyph glyph-name="gcircumflex" unicode="&#x11d;" horiz-adv-x="455" 
d="M447 513q-23 -8 -53.5 -11t-76.5 -4q81 -42 81 -143q0 -79 -46 -125.5t-126 -46.5q-33 0 -61 11q-36 -25 -36 -61q0 -56 78 -56h68q73 0 115 -36.5t42 -95.5q0 -70 -52 -110t-154 -40q-105 0 -151 36.5t-46 113.5h51q1 -56 33 -79.5t114 -23.5q149 0 149 100
q0 42 -28.5 65t-82.5 23h-62q-62 0 -94 25t-32 66q0 51 53 88q-41 23 -60.5 59.5t-19.5 88.5q0 80 48 128.5t127 48.5q85 -1 124.5 6.5t80.5 25.5zM136 455q-30 -35 -30 -98q0 -62 32 -97.5t86 -35.5q57 0 87 33.5t30 98.5q0 63 -29.5 98.5t-86.5 35.5q-59 0 -89 -35z
M118 645l-25 27l117 107h34l117 -107l-24 -27l-110 85z" />
    <glyph glyph-name="gcommaaccent" unicode="&#x123;" horiz-adv-x="455" 
d="M447 513q-23 -8 -53.5 -11t-76.5 -4q81 -42 81 -143q0 -79 -46 -125.5t-126 -46.5q-33 0 -61 11q-36 -25 -36 -61q0 -56 78 -56h68q73 0 115 -36.5t42 -95.5q0 -70 -52 -110t-154 -40q-105 0 -151 36.5t-46 113.5h51q1 -56 33 -79.5t114 -23.5q149 0 149 100
q0 42 -28.5 65t-82.5 23h-62q-62 0 -94 25t-32 66q0 51 53 88q-41 23 -60.5 59.5t-19.5 88.5q0 80 48 128.5t127 48.5q85 -1 124.5 6.5t80.5 25.5zM136 455q-30 -35 -30 -98q0 -62 32 -97.5t86 -35.5q57 0 87 33.5t30 98.5q0 63 -29.5 98.5t-86.5 35.5q-59 0 -89 -35z
M197.5 601q-11.5 12 -11.5 30q0 11 4 23.5t16 41.5l37 86h33l-30 -114q23 -13 23 -37q0 -18 -11.5 -30t-30.5 -12q-18 0 -29.5 12z" />
    <glyph glyph-name="gdotaccent" unicode="&#x121;" horiz-adv-x="455" 
d="M447 513q-23 -8 -53.5 -11t-76.5 -4q81 -42 81 -143q0 -79 -46 -125.5t-126 -46.5q-33 0 -61 11q-36 -25 -36 -61q0 -56 78 -56h68q73 0 115 -36.5t42 -95.5q0 -70 -52 -110t-154 -40q-105 0 -151 36.5t-46 113.5h51q1 -56 33 -79.5t114 -23.5q149 0 149 100
q0 42 -28.5 65t-82.5 23h-62q-62 0 -94 25t-32 66q0 51 53 88q-41 23 -60.5 59.5t-19.5 88.5q0 80 48 128.5t127 48.5q85 -1 124.5 6.5t80.5 25.5zM136 455q-30 -35 -30 -98q0 -62 32 -97.5t86 -35.5q57 0 87 33.5t30 98.5q0 63 -29.5 98.5t-86.5 35.5q-59 0 -89 -35z
M257.5 740q11.5 -12 11.5 -29q0 -18 -11.5 -29.5t-29.5 -11.5t-29.5 11.5t-11.5 29.5q0 17 11.5 29t29.5 12t29.5 -12z" />
    <glyph glyph-name="uni0260" unicode="&#x260;" horiz-adv-x="526" 
d="M584 709l-24 -36q-17 11 -32 17t-35 6q-61 0 -61 -77v-633q0 -91 -44.5 -141t-137.5 -50q-79 0 -137 38l21 38q24 -14 50.5 -21.5t62.5 -7.5q70 0 99.5 35t29.5 107v111q-47 -86 -138 -86q-83 0 -131 69.5t-48 190.5q0 79 22.5 138.5t65 93t100.5 33.5q77 0 129 -68v150
q0 62 30.5 94.5t83.5 32.5q52 0 94 -34zM320.5 80q30.5 24 55.5 73v254q-50 80 -121 80q-63 0 -100 -56t-36 -161q0 -105 33.5 -159.5t93.5 -54.5q44 0 74.5 24z" />
    <glyph glyph-name="uni01BE" unicode="&#x1be;" horiz-adv-x="449" 
d="M346.5 353q45.5 -48 45.5 -145q0 -99 -52 -157t-142 -58q-52 0 -92.5 20t-80.5 61l32 32q33 -33 65.5 -49t74.5 -16q66 0 101 43.5t35 124.5q0 78 -34.5 116t-93.5 55l-60 16v162h-62v45h62v133l56 7v-140h105v-45h-105v-131l29 -7q71 -19 116.5 -67z" />
    <glyph glyph-name="uni0294" unicode="&#x294;" horiz-adv-x="392" 
d="M119 340l56 16q60 18 94 55.5t34 115.5q0 81 -34.5 124.5t-99.5 43.5q-42 0 -75 -16t-66 -49l-32 32q39 41 80 61t95 20q89 0 140.5 -58t51.5 -157q0 -98 -45 -144t-118 -68l-24 -7v-309h-57v340z" />
    <glyph glyph-name="uni0296" unicode="&#x296;" horiz-adv-x="449" 
d="M201 743v-316l29 -7q71 -19 116.5 -67t45.5 -145q0 -99 -52 -157t-142 -58q-52 0 -92.5 20t-80.5 61l32 32q33 -33 65.5 -49t74.5 -16q66 0 101 43.5t35 124.5q0 78 -34.5 116t-93.5 55l-60 16v340z" />
    <glyph glyph-name="uni0295" unicode="&#x295;" horiz-adv-x="392" 
d="M216 0v309l-24 7q-73 22 -118 68t-45 144t53 156.5t143 58.5q52 0 92 -20t79 -61l-32 -32q-34 33 -65.5 49t-72.5 16q-66 0 -102 -44t-36 -124q0 -78 34.5 -115.5t93.5 -55.5l57 -16v-340h-57z" />
    <glyph glyph-name="uni0242" unicode="&#x242;" horiz-adv-x="385" 
d="M113 185l64 18q108 31 108 146q0 63 -32 99.5t-87 36.5q-41 0 -70 -14.5t-59 -41.5l-32 34q35 35 73.5 53t89.5 18q80 0 128.5 -51t48.5 -133q0 -146 -143 -186l-33 -9v-155h-56v185z" />
    <glyph glyph-name="uni02A1" unicode="&#x2a1;" horiz-adv-x="392" 
d="M176 309v-100h102v-45h-102v-164h-57v164h-61v45h61v131l56 16q60 18 94 55.5t34 115.5q0 81 -34.5 124.5t-99.5 43.5q-42 0 -75 -16t-66 -49l-32 32q39 41 80 61t95 20q89 0 140.5 -58t51.5 -157q0 -98 -45 -144t-118 -68z" />
    <glyph glyph-name="uni02A2" unicode="&#x2a2;" horiz-adv-x="392" 
d="M124 651q-36 -44 -36 -124q0 -78 34.5 -115.5t93.5 -55.5l57 -16v-131h62v-45h-62v-164h-57v164h-100v45h100v100l-24 7q-73 22 -118 68t-45 144t53 156.5t143 58.5q52 0 92 -20t79 -61l-32 -32q-34 33 -65.5 49t-72.5 16q-66 0 -102 -44z" />
    <glyph glyph-name="uni0261" unicode="&#x261;" horiz-adv-x="526" 
d="M432 523v-537q0 -91 -44.5 -141t-137.5 -50q-79 0 -137 38l21 38q24 -14 50.5 -21.5t62.5 -7.5q70 0 99.5 35t29.5 107v111q-47 -86 -138 -86q-83 0 -131 69.5t-48 190.5q0 79 22.5 138.5t65 93t100.5 33.5q80 0 133 -73l4 62h48zM320.5 80q30.5 24 55.5 73v254
q-50 80 -121 80q-63 0 -100 -56t-36 -161q0 -105 33.5 -159.5t93.5 -54.5q44 0 74.5 24z" />
    <glyph glyph-name="uni01E5" unicode="&#x1e5;" horiz-adv-x="455" 
d="M481 -79h-51q-8 -59 -60 -92.5t-144 -33.5q-105 0 -151 36.5t-46 113.5h51q1 -56 33 -79.5t114 -23.5q136 0 151 79h-137v44h137q-8 32 -36.5 49t-76.5 17h-62q-63 0 -94.5 25t-31.5 65q0 51 53 88q-41 23 -60.5 59.5t-19.5 88.5q0 80 48 128.5t127 48.5q85 -1 124.5 6.5
t80.5 25.5l17 -53q-23 -8 -53.5 -11t-76.5 -4q81 -42 81 -143q0 -79 -46 -125.5t-126 -46.5q-33 0 -61 11q-36 -25 -36 -61q0 -56 78 -56h68q66 0 107 -30.5t49 -81.5h50v-44zM138 259.5q32 -35.5 86 -35.5q57 0 87 33.5t30 98.5q0 63 -29.5 98.5t-86.5 35.5q-59 0 -89 -35
t-30 -98q0 -62 32 -97.5z" />
    <glyph glyph-name="uni021D" unicode="&#x21d;" horiz-adv-x="419" 
d="M294 496.5q44 -37.5 44 -104.5q0 -52 -24.5 -81t-71.5 -42q55 -2 87.5 -32t32.5 -85q0 -82 -76 -145t-224 -102l-8 43q130 41 189 89t59 114q0 91 -108 91h-77l4 45h50q50 0 79.5 26t29.5 76q0 48 -27.5 73t-75.5 25q-39 0 -67 -10t-61 -33l-29 34q36 28 75 42t86 14
q69 0 113 -37.5z" />
    <glyph glyph-name="h" unicode="h" horiz-adv-x="526" 
d="M402.5 492.5q34.5 -41.5 34.5 -113.5v-379h-56v371q0 117 -87 117q-43 0 -77.5 -29t-66.5 -82v-377h-56v736l56 7v-308q31 47 68.5 73t86.5 26q63 0 97.5 -41.5z" />
    <glyph glyph-name="hbar" unicode="&#x127;" horiz-adv-x="531" 
d="M407.5 492.5q34.5 -41.5 34.5 -113.5v-379h-56v371q0 117 -87 117q-43 0 -77.5 -29t-66.5 -82v-377h-56v617h-68v45h68v74l56 7v-81h147v-45h-147v-182q31 47 68.5 73t86.5 26q63 0 97.5 -41.5z" />
    <glyph glyph-name="uni021F" unicode="&#x21f;" horiz-adv-x="526" 
d="M402.5 492.5q34.5 -41.5 34.5 -113.5v-379h-56v371q0 117 -87 117q-43 0 -77.5 -29t-66.5 -82v-377h-56v736l56 7v-308q31 47 68.5 73t86.5 26q63 0 97.5 -41.5zM375 937l23 -27l-116 -103h-35l-117 103l24 27l111 -81z" />
    <glyph glyph-name="hcircumflex" unicode="&#x125;" horiz-adv-x="526" 
d="M402.5 492.5q34.5 -41.5 34.5 -113.5v-379h-56v371q0 117 -87 117q-43 0 -77.5 -29t-66.5 -82v-377h-56v736l56 7v-308q31 47 68.5 73t86.5 26q63 0 97.5 -41.5zM155 814l-25 27l117 102h35l116 -102l-24 -27l-110 80z" />
    <glyph glyph-name="uni1E25" unicode="&#x1e25;" horiz-adv-x="526" 
d="M402.5 492.5q34.5 -41.5 34.5 -113.5v-379h-56v371q0 117 -87 117q-43 0 -77.5 -29t-66.5 -82v-377h-56v736l56 7v-308q31 47 68.5 73t86.5 26q63 0 97.5 -41.5zM236.5 -157q-11.5 12 -11.5 29q0 18 11.5 29.5t29.5 11.5t29.5 -11.5t11.5 -29.5q0 -17 -11.5 -29
t-29.5 -12t-29.5 12z" />
    <glyph glyph-name="uni0267" unicode="&#x267;" horiz-adv-x="526" 
d="M402.5 491.5q34.5 -42.5 34.5 -118.5v-455q0 -60 -31.5 -91.5t-82.5 -31.5q-53 0 -95 34l25 35q16 -11 31 -16.5t36 -5.5q61 0 61 74v450q0 63 -22 92.5t-65 29.5t-77.5 -29t-66.5 -82v-377h-56v612q0 61 35.5 96t97.5 35q58 0 111 -28l-20 -41q-47 22 -87 22
q-81 0 -81 -85v-176q31 47 68.5 73t86.5 26q63 0 97.5 -42.5z" />
    <glyph glyph-name="uni0266" unicode="&#x266;" horiz-adv-x="526" 
d="M402.5 491.5q34.5 -42.5 34.5 -118.5v-373h-56v366q0 63 -22 92.5t-65 29.5t-77.5 -29t-66.5 -82v-377h-56v612q0 61 35.5 96t97.5 35q58 0 111 -28l-20 -41q-47 22 -87 22q-81 0 -81 -85v-176q31 47 68.5 73t86.5 26q63 0 97.5 -42.5z" />
    <glyph glyph-name="uni0265" unicode="&#x265;" horiz-adv-x="526" 
d="M432 523v-728l-56 8v285q-31 -47 -68.5 -73t-86.5 -26q-63 0 -97.5 41.5t-34.5 113.5v379h56v-371q0 -117 86 -117q43 0 78 29t67 82v377h56z" />
    <glyph glyph-name="uni02AE" unicode="&#x2ae;" horiz-adv-x="603" 
d="M509 523v-728l-56 8v285q-31 -47 -68.5 -73t-86.5 -26q-63 0 -97.5 41.5t-34.5 113.5v184h1v84q0 74 -61 74q-21 0 -36 -5.5t-31 -16.5l-25 35q42 34 95 34q51 0 82.5 -31.5t31.5 -91.5v-83h-1v-175q0 -117 86 -117q43 0 78 29t67 82v377h56z" />
    <glyph glyph-name="uni02AF" unicode="&#x2af;" horiz-adv-x="603" 
d="M661 -171q-42 -34 -95 -34q-51 0 -82.5 31.5t-31.5 91.5v83h1v87q-31 -47 -68.5 -73t-86.5 -26q-63 0 -97.5 41.5t-34.5 113.5v184h1v84q0 74 -61 74q-21 0 -36 -5.5t-31 -16.5l-25 35q42 34 95 34q51 0 82.5 -31.5t31.5 -91.5v-83h-1v-175q0 -117 86 -117q43 0 78 29
t67 82v377h56v-523h-1v-84q0 -74 61 -74q21 0 36 5.5t31 16.5z" />
    <glyph glyph-name="uni0195" unicode="&#x195;" horiz-adv-x="800" 
d="M727 259q0 -92 -26.5 -152.5t-70 -89t-97.5 -28.5q-66 0 -109 42t-43 117v223q0 117 -87 117q-43 0 -77.5 -29t-66.5 -82v-377h-56v736l56 7v-308q31 47 68.5 73t86.5 26q63 0 97.5 -41.5t34.5 -113.5v-228q0 -58 26 -86.5t72 -28.5q58 0 97 52.5t39 172.5q0 116 -24 262
h56q24 -139 24 -264z" />
    <glyph glyph-name="i" unicode="i" horiz-adv-x="244" 
d="M150 523v-523h-56v523h56zM151.5 740q11.5 -12 11.5 -29q0 -18 -11.5 -29.5t-29.5 -11.5t-29.5 11.5t-11.5 29.5q0 17 11.5 29t29.5 12t29.5 -12z" />
    <glyph glyph-name="dotlessi" unicode="&#x131;" horiz-adv-x="244" 
d="M150 523v-523h-56v523h56z" />
    <glyph glyph-name="iacute" unicode="&#xed;" horiz-adv-x="244" 
d="M150 523v-523h-56v523h56zM188 779l26 -49l-177 -84l-18 31z" />
    <glyph glyph-name="ibreve" unicode="&#x12d;" horiz-adv-x="244" 
d="M150 523v-523h-56v523h56zM41 682.5q-32 29.5 -38 80.5l37 8q18 -72 81 -72q64 0 82 72l37 -8q-6 -51 -38.5 -80.5t-80.5 -29.5t-80 29.5z" />
    <glyph glyph-name="uni01D0" unicode="&#x1d0;" horiz-adv-x="244" 
d="M150 523v-523h-56v523h56zM231 767l24 -27l-116 -107h-35l-117 107l25 27l110 -85z" />
    <glyph glyph-name="icircumflex" unicode="&#xee;" horiz-adv-x="244" 
d="M150 523v-523h-56v523h56zM12 645l-25 27l117 107h34l117 -107l-24 -27l-110 85z" />
    <glyph glyph-name="uni0209" unicode="&#x209;" horiz-adv-x="244" 
d="M150 523v-523h-56v523h56zM21 809l71 -151l-34 -15l-85 141zM139 809l64 -146l-35 -16l-77 137z" />
    <glyph glyph-name="idieresis" unicode="&#xef;" horiz-adv-x="244" 
d="M150 523v-523h-56v523h56zM63.5 729q10.5 -11 10.5 -27q0 -17 -10.5 -28t-27.5 -11q-16 0 -27 11t-11 28q0 16 11 27t27 11q17 0 27.5 -11zM235 729q11 -11 11 -27q0 -17 -11 -28t-27 -11q-17 0 -28 11t-11 28q0 16 11 27t28 11q16 0 27 -11z" />
    <glyph glyph-name="uni1E2F" unicode="&#x1e2f;" horiz-adv-x="244" 
d="M150 523v-523h-56v523h56zM195 858l39 -33l-112 -122l-26 23zM63.5 699q10.5 -11 10.5 -27q0 -17 -10.5 -28t-27.5 -11q-16 0 -27 11t-11 28q0 16 11 27t27 11q17 0 27.5 -11zM235 699q11 -11 11 -27q0 -17 -11 -28t-27 -11q-17 0 -28 11t-11 28q0 16 11 27t28 11
q16 0 27 -11z" />
    <glyph glyph-name="i.loclTRK" horiz-adv-x="244" 
d="M150 523v-523h-56v523h56zM151.5 740q11.5 -12 11.5 -29q0 -18 -11.5 -29.5t-29.5 -11.5t-29.5 11.5t-11.5 29.5q0 17 11.5 29t29.5 12t29.5 -12z" />
    <glyph glyph-name="uni1ECB" unicode="&#x1ecb;" horiz-adv-x="244" 
d="M150 523v-523h-56v523h56zM151.5 740q11.5 -12 11.5 -29q0 -18 -11.5 -29.5t-29.5 -11.5t-29.5 11.5t-11.5 29.5q0 17 11.5 29t29.5 12t29.5 -12zM92.5 -157q-11.5 12 -11.5 29q0 18 11.5 29.5t29.5 11.5t29.5 -11.5t11.5 -29.5q0 -17 -11.5 -29t-29.5 -12t-29.5 12z" />
    <glyph glyph-name="igrave" unicode="&#xec;" horiz-adv-x="244" 
d="M150 523v-523h-56v523h56zM55 779l169 -102l-19 -31l-177 84z" />
    <glyph glyph-name="uni1EC9" unicode="&#x1ec9;" horiz-adv-x="244" 
d="M150 523v-523h-56v523h56zM99 699q31 2 47 12.5t16 34.5q0 20 -11.5 30.5t-31.5 10.5q-26 0 -51 -13l-15 33q34 22 74 22q39 0 61.5 -21.5t22.5 -57.5q0 -34 -17.5 -53t-49.5 -24v-56h-45v82z" />
    <glyph glyph-name="uni020B" unicode="&#x20b;" horiz-adv-x="244" 
d="M150 523v-523h-56v523h56zM201.5 712.5q32.5 -29.5 38.5 -80.5l-37 -8q-18 72 -82 72q-63 0 -81 -72l-37 8q6 51 38 80.5t80 29.5t80.5 -29.5z" />
    <glyph glyph-name="ij" unicode="&#x133;" horiz-adv-x="488" 
d="M150 523v-523h-56v523h56zM151.5 740q11.5 -12 11.5 -29q0 -18 -11.5 -29.5t-29.5 -11.5t-29.5 11.5t-11.5 29.5q0 17 11.5 29t29.5 12t29.5 -12zM394 4q0 -61 -14 -98.5t-40.5 -61t-74.5 -47.5l-18 40q35 19 53.5 37.5t28 48.5t9.5 80v520h56v-519zM394.5 740
q11.5 -12 11.5 -29q0 -18 -11.5 -29.5t-29.5 -11.5t-29.5 11.5t-11.5 29.5q0 17 11.5 29t29.5 12t29.5 -12z" />
    <glyph glyph-name="imacron" unicode="&#x12b;" horiz-adv-x="244" 
d="M150 523v-523h-56v523h56zM232 677h-219v44h219v-44z" />
    <glyph glyph-name="iogonek" unicode="&#x12f;" horiz-adv-x="244" 
d="M151.5 740q11.5 -12 11.5 -29q0 -18 -11.5 -29.5t-29.5 -11.5t-29.5 11.5t-11.5 29.5q0 17 11.5 29t29.5 12t29.5 -12zM94 523h56v-523h-1q-60 -30 -84.5 -56.5t-24.5 -62.5q0 -52 56 -52q24 0 52 7l-5 -46q-32 -7 -53 -7q-48 0 -74.5 25t-26.5 66t26 72.5t79 58.5v518z
" />
    <glyph glyph-name="uni0269" unicode="&#x269;" horiz-adv-x="257" 
d="M112 13q-23 24 -23 69v441h56v-440q0 -46 38 -46q16 0 32 7l14 -41q-24 -14 -55 -14q-39 0 -62 24z" />
    <glyph glyph-name="uni0268" unicode="&#x268;" horiz-adv-x="267" 
d="M104.5 681.5q-11.5 11.5 -11.5 29.5q0 17 11.5 29t29.5 12t29.5 -12t11.5 -29q0 -18 -11.5 -29.5t-29.5 -11.5t-29.5 11.5zM253 305v-46h-91v-259h-56v259h-93v46h93v218h56v-218h91z" />
    <glyph glyph-name="itilde" unicode="&#x129;" horiz-adv-x="244" 
d="M150 523v-523h-56v523h56zM144.5 674.5q-13.5 6.5 -33.5 18.5q-27 19 -42 19t-26.5 -9t-24.5 -30l-33 17q33 66 83 66q16 0 29.5 -6.5t29.5 -17.5q17 -11 26.5 -15.5t20.5 -4.5q14 0 25.5 10t25.5 33l33 -17q-31 -70 -83 -70q-17 0 -30.5 6.5z" />
    <glyph glyph-name="j" unicode="j" horiz-adv-x="244" 
d="M150 4q0 -61 -14 -98.5t-40.5 -61t-74.5 -47.5l-18 40q35 19 53.5 37.5t28 48.5t9.5 80v520h56v-519zM151.5 740q11.5 -12 11.5 -29q0 -18 -11.5 -29.5t-29.5 -11.5t-29.5 11.5t-11.5 29.5q0 17 11.5 29t29.5 12t29.5 -12z" />
    <glyph glyph-name="uni0237" unicode="&#x237;" horiz-adv-x="244" 
d="M150 4q0 -61 -14 -98.5t-40.5 -61t-74.5 -47.5l-18 40q35 19 53.5 37.5t28 48.5t9.5 80v520h56v-519z" />
    <glyph glyph-name="uni01F0" unicode="&#x1f0;" horiz-adv-x="244" 
d="M150 4q0 -61 -14 -98.5t-40.5 -61t-74.5 -47.5l-18 40q35 19 53.5 37.5t28 48.5t9.5 80v520h56v-519zM231 767l24 -27l-116 -107h-35l-117 107l25 27l110 -85z" />
    <glyph glyph-name="jcircumflex" unicode="&#x135;" horiz-adv-x="244" 
d="M150 4q0 -61 -14 -98.5t-40.5 -61t-74.5 -47.5l-18 40q35 19 53.5 37.5t28 48.5t9.5 80v520h56v-519zM12 645l-25 27l117 107h34l117 -107l-24 -27l-110 85z" />
    <glyph glyph-name="uni029D" unicode="&#x29d;" horiz-adv-x="261" 
d="M246 -89q-33 16 -80 31q-4 -70 -38.5 -108.5t-96.5 -38.5q-49 0 -77.5 27t-28.5 70q0 50 33.5 78t89.5 28q35 0 63 -5v530h56v-541q44 -13 94 -38zM91 -135q19 28 20 88q-27 7 -62 7q-39 0 -58.5 -17t-19.5 -49q0 -27 15.5 -42t44.5 -15q41 0 60 28zM168.5 740
q11.5 -12 11.5 -29q0 -18 -11.5 -29.5t-29.5 -11.5t-29.5 11.5t-11.5 29.5q0 17 11.5 29t29.5 12t29.5 -12z" />
    <glyph glyph-name="uni025F" unicode="&#x25f;" horiz-adv-x="270" 
d="M256 224h-91v-220q0 -61 -14 -98.5t-40.5 -61t-74.5 -47.5l-18 40q35 19 53.5 37.5t28 48.5t9.5 80v221h-93v46h93v253h56v-253h91v-46z" />
    <glyph glyph-name="uni0284" unicode="&#x284;" horiz-adv-x="273" 
d="M258 44v-44h-93q0 -59 -14.5 -95.5t-41 -59.5t-73.5 -48l-17 40q34 19 53 37.5t28 47.5t9 78h-91v44h91v572q0 62 30.5 94.5t83.5 32.5q52 0 94 -34l-24 -36q-17 11 -32 17t-35 6q-61 0 -61 -77v-575h93z" />
    <glyph glyph-name="uni0249" unicode="&#x249;" horiz-adv-x="270" 
d="M256 224h-91v-220q0 -61 -14 -98.5t-40.5 -61t-74.5 -47.5l-18 40q35 19 53.5 37.5t28 48.5t9.5 80v221h-93v46h93v253h56v-253h91v-46zM166.5 740q11.5 -12 11.5 -29q0 -18 -11.5 -29.5t-29.5 -11.5t-29.5 11.5t-11.5 29.5q0 17 11.5 29t29.5 12t29.5 -12z" />
    <glyph glyph-name="k" unicode="k" horiz-adv-x="442" 
d="M150 743v-743h-56v736zM415 523l-197 -234l218 -289h-65l-215 286l197 237h62z" />
    <glyph glyph-name="uni01E9" unicode="&#x1e9;" horiz-adv-x="442" 
d="M150 743v-743h-56v736zM415 523l-197 -234l218 -289h-65l-215 286l197 237h62zM354 937l23 -27l-116 -103h-35l-117 103l24 27l111 -81z" />
    <glyph glyph-name="kcommaaccent" unicode="&#x137;" horiz-adv-x="442" 
d="M150 743v-743h-56v736zM415 523l-197 -234l218 -289h-65l-215 286l197 237h62zM268.5 -97q11.5 -12 11.5 -30q0 -11 -4 -23.5t-16 -41.5l-37 -86h-33l30 114q-23 13 -23 37q0 18 11.5 30t30.5 12q18 0 29.5 -12z" />
    <glyph glyph-name="kgreenlandic" unicode="&#x138;" horiz-adv-x="441" 
d="M150 523v-523h-56v523h56zM415 523l-198 -244l218 -279h-65l-215 276l197 247h63z" />
    <glyph glyph-name="uni0199" unicode="&#x199;" horiz-adv-x="442" 
d="M150 611v-611h-56v612q0 61 35.5 96t97.5 35q58 0 111 -28l-20 -41q-47 22 -87 22q-81 0 -81 -85zM218 289l218 -289h-65l-215 286l197 237h62z" />
    <glyph glyph-name="uni029E" unicode="&#x29e;" horiz-adv-x="442" 
d="M27 0l197 234l-218 289h65l215 -286l-197 -237h-62zM292 -197v720h56v-728z" />
    <glyph glyph-name="l" unicode="l" horiz-adv-x="257" 
d="M112 13q-23 24 -23 69v654l56 7v-660q0 -46 38 -46q16 0 32 7l14 -41q-24 -14 -55 -14q-39 0 -62 24z" />
    <glyph glyph-name="lacute" unicode="&#x13a;" horiz-adv-x="257" 
d="M112 13q-23 24 -23 69v654l56 7v-660q0 -46 38 -46q16 0 32 7l14 -41q-24 -14 -55 -14q-39 0 -62 24zM189 936l25 -50l-179 -77l-16 33z" />
    <glyph glyph-name="uni019B" unicode="&#x19b;" horiz-adv-x="425" 
d="M321.5 256.5q26.5 -91.5 51.5 -141.5t61 -103l-52 -21q-37 57 -61.5 108t-50 139t-50.5 229l-140 -476l-53 14l158 507h26q-14 73 -33 109l-63 -70l-37 19l76 86q-30 32 -86 45l8 43q72 -17 110 -53l61 70l33 -28l-67 -75q17 -27 29.5 -64.5t23.5 -93.5
q29 -152 55.5 -243.5z" />
    <glyph glyph-name="uni019A" unicode="&#x19a;" horiz-adv-x="267" 
d="M162 349v-266q0 -46 38 -46q16 0 32 7l14 -41q-25 -14 -55 -14q-39 0 -62 24t-23 69v267h-93v46h93v341l56 7v-348h91v-46h-91z" />
    <glyph glyph-name="uni026C" unicode="&#x26c;" horiz-adv-x="298" 
d="M267 3q-25 -14 -55 -14q-39 0 -62 24t-23 69v185q-58 1 -88 25.5t-30 71.5q0 41 26.5 65.5t65.5 24.5q15 0 26 -3v285l56 7v-435q28 1 73 10l7 -38q-43 -10 -80 -11v-186q0 -46 38 -46q16 0 32 7zM127 308v105q-14 2 -23 2q-23 0 -36 -12.5t-13 -37.5q0 -57 72 -57z" />
    <glyph glyph-name="lcaron" unicode="&#x13e;" horiz-adv-x="257" 
d="M112 13q-23 24 -23 69v654l56 7v-660q0 -46 38 -46q16 0 32 7l14 -41q-24 -14 -55 -14q-39 0 -62 24zM232 573l36 162l-52 7l-18 -164z" />
    <glyph glyph-name="uni1E3D" unicode="&#x1e3d;" horiz-adv-x="257" 
d="M112 13q-23 24 -23 69v654l56 7v-660q0 -46 38 -46q16 0 32 7l14 -41q-24 -14 -55 -14q-39 0 -62 24zM52 -203l-25 26l117 107h34l117 -107l-24 -26l-110 84z" />
    <glyph glyph-name="lcommaaccent" unicode="&#x13c;" horiz-adv-x="257" 
d="M112 13q-23 24 -23 69v654l56 7v-660q0 -46 38 -46q16 0 32 7l14 -41q-24 -14 -55 -14q-39 0 -62 24zM191.5 -97q11.5 -12 11.5 -30q0 -11 -4 -23.5t-16 -41.5l-37 -86h-33l30 114q-23 13 -23 37q0 18 11.5 30t30.5 12q18 0 29.5 -12z" />
    <glyph glyph-name="uni0234" unicode="&#x234;" horiz-adv-x="338" 
d="M336 174.5q25 -25.5 25 -66.5q0 -55 -37.5 -87t-97.5 -32q-42 0 -75 18l-32 -72l-37 17l37 81q-30 37 -30 92v611l56 7v-622q0 -10 2 -28q23 53 52 80t71 27q41 0 66 -25.5zM289.5 56.5q22.5 18.5 22.5 51.5q0 23 -12 36t-34 13q-29 0 -48.5 -23t-46.5 -82q22 -14 57 -14
q39 0 61.5 18.5z" />
    <glyph glyph-name="ldot" unicode="&#x140;" horiz-adv-x="275" 
d="M112 13q-23 24 -23 69v654l56 7v-660q0 -46 38 -46q16 0 32 7l14 -41q-24 -14 -55 -14q-39 0 -62 24zM282.5 405q11.5 -12 11.5 -29q0 -18 -11.5 -29.5t-29.5 -11.5t-29.5 11.5t-11.5 29.5q0 17 11.5 29t29.5 12t29.5 -12z" />
    <glyph glyph-name="uni1E37" unicode="&#x1e37;" horiz-adv-x="257" 
d="M112 13q-23 24 -23 69v654l56 7v-660q0 -46 38 -46q16 0 32 7l14 -41q-24 -14 -55 -14q-39 0 -62 24zM131.5 -157q-11.5 12 -11.5 29q0 18 11.5 29.5t29.5 11.5t29.5 -11.5t11.5 -29.5q0 -17 -11.5 -29t-29.5 -12t-29.5 12z" />
    <glyph glyph-name="uni026E" unicode="&#x26e;" horiz-adv-x="569" 
d="M487 150q53 -50 53 -147q0 -93 -54.5 -150.5t-146.5 -57.5q-53 0 -94 19t-75 56l33 31q31 -31 62.5 -44.5t72.5 -13.5q69 0 106 43t37 118q0 80 -38.5 115.5t-122.5 35.5h-58v44l193 276h-310v-392q0 -46 38 -46q16 0 32 7l14 -41q-24 -14 -55 -14q-39 0 -62 24t-23 69
v654l56 7v-220h372v-44l-198 -279h8q107 0 160 -50z" />
    <glyph glyph-name="uni026D" unicode="&#x26d;" horiz-adv-x="244" 
d="M303 -171q-42 -34 -95 -34q-51 0 -82.5 31.5t-31.5 91.5v818l56 7v-827q0 -74 61 -74q21 0 36 5.5t31 16.5z" />
    <glyph glyph-name="uni01C9" unicode="&#x1c9;" horiz-adv-x="501" 
d="M112 13q-23 24 -23 69v654l56 7v-660q0 -46 38 -46q16 0 32 7l14 -41q-24 -14 -55 -14q-39 0 -62 24zM407 4q0 -61 -14 -98.5t-40.5 -61t-74.5 -47.5l-18 40q35 19 53.5 37.5t28 48.5t9.5 80v520h56v-519zM408.5 740q11.5 -12 11.5 -29q0 -18 -11.5 -29.5t-29.5 -11.5
t-29.5 11.5t-11.5 29.5q0 17 11.5 29t29.5 12t29.5 -12z" />
    <glyph glyph-name="uni026B" unicode="&#x26b;" horiz-adv-x="300" 
d="M176 321v-238q0 -46 38 -46q16 0 32 7l14 -41q-25 -14 -55 -14q-39 0 -62 24t-23 69v271q-25 14 -40 14q-20 0 -33.5 -11.5t-29.5 -34.5l-35 19q20 34 43.5 54t57.5 20q16 0 37 -7v329l56 7v-368q30 -17 48 -17q19 0 32 10.5t28 32.5l34 -19q-18 -33 -41 -52t-56 -19
q-22 0 -45 10z" />
    <glyph glyph-name="uni02AA" unicode="&#x2aa;" horiz-adv-x="583" 
d="M145.5 37q-56.5 48 -56.5 133v566l56 7v-574q0 -63 41 -97.5t123 -34.5q86 0 129 26t43 81q0 41 -22 65t-87 46q-75 24 -104 56.5t-29 87.5q0 59 43.5 97t106.5 38q79 0 146 -58l-26 -36q-31 24 -58.5 35.5t-60.5 11.5q-41 0 -67.5 -24t-26.5 -64q0 -38 22.5 -60
t82.5 -41q74 -25 106 -59.5t32 -91.5q0 -77 -60.5 -117.5t-170.5 -40.5q-106 0 -162.5 48z" />
    <glyph glyph-name="lslash" unicode="&#x142;" horiz-adv-x="272" 
d="M222 44l14 -41q-25 -14 -55 -14q-39 0 -62 24t-23 69v241l-51 -34l-22 36l73 49v362l56 7v-332l87 58l21 -37l-108 -72v-277q0 -46 38 -46q16 0 32 7z" />
    <glyph glyph-name="uni02AB" unicode="&#x2ab;" horiz-adv-x="571" 
d="M541 479l-266 -430h265l-6 -49h-311q-24 -11 -49 -11q-39 0 -62 24t-23 69v654l56 7v-660q0 -46 38 -46q15 0 31 7v-1l265 431h-243v49h305v-44z" />
    <glyph glyph-name="m" unicode="m" horiz-adv-x="768" 
d="M645 492q33 -42 33 -113v-379h-55v371q0 59 -20.5 88t-57.5 29q-39 0 -70.5 -28.5t-60.5 -79.5v-380h-55v371q0 59 -20.5 88t-57.5 29q-39 0 -70.5 -28.5t-60.5 -79.5v-380h-56v523h48l5 -87q60 98 144 98q45 0 75.5 -27t41.5 -75q62 102 147 102q57 0 90 -42z" />
    <glyph glyph-name="uni1E3F" unicode="&#x1e3f;" horiz-adv-x="768" 
d="M645 492q33 -42 33 -113v-379h-55v371q0 59 -20.5 88t-57.5 29q-39 0 -70.5 -28.5t-60.5 -79.5v-380h-55v371q0 59 -20.5 88t-57.5 29q-39 0 -70.5 -28.5t-60.5 -79.5v-380h-56v523h48l5 -87q60 98 144 98q45 0 75.5 -27t41.5 -75q62 102 147 102q57 0 90 -42zM450 779
l26 -49l-177 -84l-18 31z" />
    <glyph glyph-name="uni1E41" unicode="&#x1e41;" horiz-adv-x="768" 
d="M645 492q33 -42 33 -113v-379h-55v371q0 59 -20.5 88t-57.5 29q-39 0 -70.5 -28.5t-60.5 -79.5v-380h-55v371q0 59 -20.5 88t-57.5 29q-39 0 -70.5 -28.5t-60.5 -79.5v-380h-56v523h48l5 -87q60 98 144 98q45 0 75.5 -27t41.5 -75q62 102 147 102q57 0 90 -42zM413.5 740
q11.5 -12 11.5 -29q0 -18 -11.5 -29.5t-29.5 -11.5t-29.5 11.5t-11.5 29.5q0 17 11.5 29t29.5 12t29.5 -12z" />
    <glyph glyph-name="uni0271" unicode="&#x271;" horiz-adv-x="768" 
d="M645 492q33 -42 33 -113v-460q0 -60 -31.5 -92t-82.5 -32q-52 0 -94 34l25 35q16 -11 31 -16.5t36 -5.5q61 0 61 74v455q0 59 -20.5 88t-57.5 29q-39 0 -70.5 -28.5t-60.5 -79.5v-380h-55v371q0 59 -20.5 88t-57.5 29q-39 0 -70.5 -28.5t-60.5 -79.5v-380h-56v523h48
l5 -87q60 98 144 98q45 0 75.5 -27t41.5 -75q62 102 147 102q57 0 90 -42z" />
    <glyph glyph-name="uni0270" unicode="&#x270;" horiz-adv-x="768" 
d="M674 0h-1v-205l-56 8v278q-58 -92 -140 -92q-45 0 -75.5 27t-41.5 75q-62 -102 -147 -102q-57 0 -90 42t-33 113v379h55v-371q0 -59 20.5 -88t57.5 -29q39 0 70.5 28.5t60.5 79.5v380h55v-371q0 -59 20.5 -88t57.5 -29q39 0 70.5 28.5t60.5 79.5v380h56v-523z" />
    <glyph glyph-name="uni026F" unicode="&#x26f;" horiz-adv-x="768" 
d="M674 523v-523h-48l-5 87q-60 -98 -144 -98q-45 0 -75.5 27t-41.5 75q-62 -102 -147 -102q-57 0 -90 42t-33 113v379h55v-371q0 -59 20.5 -88t57.5 -29q39 0 70.5 28.5t60.5 79.5v380h55v-371q0 -59 20.5 -88t57.5 -29q39 0 70.5 28.5t60.5 79.5v380h56z" />
    <glyph glyph-name="n" unicode="n" horiz-adv-x="526" 
d="M402.5 493q34.5 -41 34.5 -114v-379h-56v371q0 60 -21.5 88.5t-64.5 28.5t-78 -29t-67 -82v-377h-56v523h48l6 -91q62 102 157 102q63 0 97.5 -41z" />
    <glyph glyph-name="nacute" unicode="&#x144;" horiz-adv-x="526" 
d="M402.5 493q34.5 -41 34.5 -114v-379h-56v371q0 60 -21.5 88.5t-64.5 28.5t-78 -29t-67 -82v-377h-56v523h48l6 -91q62 102 157 102q63 0 97.5 -41zM334 779l26 -49l-177 -84l-18 31z" />
    <glyph glyph-name="nacute.loclPLK" horiz-adv-x="526" 
d="M402.5 493q34.5 -41 34.5 -114v-379h-56v371q0 60 -21.5 88.5t-64.5 28.5t-78 -29t-67 -82v-377h-56v523h48l6 -91q62 102 157 102q63 0 97.5 -41zM322 762l46 -31l-109 -153l-29 18z" />
    <glyph glyph-name="napostrophe" unicode="&#x149;" horiz-adv-x="605" 
d="M121 732.5q11 -11.5 11 -29.5q0 -9 -3.5 -20.5t-8 -23.5t-7.5 -22l-33 -89h-33l25 118q-22 13 -22 37q0 18 11.5 29.5t29.5 11.5q19 0 30 -11.5zM481.5 493q34.5 -41 34.5 -114v-379h-56v371q0 60 -21.5 88.5t-64.5 28.5t-78 -29t-67 -82v-377h-56v523h48l6 -91
q62 102 157 102q63 0 97.5 -41z" />
    <glyph glyph-name="ncaron" unicode="&#x148;" horiz-adv-x="526" 
d="M402.5 493q34.5 -41 34.5 -114v-379h-56v371q0 60 -21.5 88.5t-64.5 28.5t-78 -29t-67 -82v-377h-56v523h48l6 -91q62 102 157 102q63 0 97.5 -41zM377 767l24 -27l-116 -107h-35l-117 107l25 27l110 -85z" />
    <glyph glyph-name="uni1E4B" unicode="&#x1e4b;" horiz-adv-x="526" 
d="M402.5 493q34.5 -41 34.5 -114v-379h-56v371q0 60 -21.5 88.5t-64.5 28.5t-78 -29t-67 -82v-377h-56v523h48l6 -91q62 102 157 102q63 0 97.5 -41zM153 -203l-25 26l117 107h34l117 -107l-24 -26l-110 84z" />
    <glyph glyph-name="ncommaaccent" unicode="&#x146;" horiz-adv-x="526" 
d="M402.5 493q34.5 -41 34.5 -114v-379h-56v371q0 60 -21.5 88.5t-64.5 28.5t-78 -29t-67 -82v-377h-56v523h48l6 -91q62 102 157 102q63 0 97.5 -41zM292.5 -97q11.5 -12 11.5 -30q0 -11 -4 -23.5t-16 -41.5l-37 -86h-33l30 114q-23 13 -23 37q0 18 11.5 30t30.5 12
q18 0 29.5 -12z" />
    <glyph glyph-name="uni0235" unicode="&#x235;" horiz-adv-x="630" 
d="M628 174.5q25 -25.5 25 -66.5q0 -55 -37.5 -87t-97.5 -32q-42 0 -75 18l-32 -72l-38 17l38 82q-30 35 -30 91v246q0 60 -21.5 88.5t-64.5 28.5t-78 -29t-67 -82v-377h-56v523h48l6 -91q62 102 157 102q63 0 97.5 -41t34.5 -114v-258q0 -10 2 -28q23 53 51.5 80t71.5 27
q41 0 66 -25.5zM580.5 56.5q22.5 18.5 22.5 51.5q0 23 -12 36t-33 13q-29 0 -48.5 -22.5t-46.5 -82.5q20 -14 56 -14q39 0 61.5 18.5z" />
    <glyph glyph-name="uni1E45" unicode="&#x1e45;" horiz-adv-x="526" 
d="M402.5 493q34.5 -41 34.5 -114v-379h-56v371q0 60 -21.5 88.5t-64.5 28.5t-78 -29t-67 -82v-377h-56v523h48l6 -91q62 102 157 102q63 0 97.5 -41zM297.5 740q11.5 -12 11.5 -29q0 -18 -11.5 -29.5t-29.5 -11.5t-29.5 11.5t-11.5 29.5q0 17 11.5 29t29.5 12t29.5 -12z
" />
    <glyph glyph-name="uni1E47" unicode="&#x1e47;" horiz-adv-x="526" 
d="M402.5 493q34.5 -41 34.5 -114v-379h-56v371q0 60 -21.5 88.5t-64.5 28.5t-78 -29t-67 -82v-377h-56v523h48l6 -91q62 102 157 102q63 0 97.5 -41zM232.5 -157q-11.5 12 -11.5 29q0 18 11.5 29.5t29.5 11.5t29.5 -11.5t11.5 -29.5q0 -17 -11.5 -29t-29.5 -12t-29.5 12z
" />
    <glyph glyph-name="uni01F9" unicode="&#x1f9;" horiz-adv-x="526" 
d="M402.5 493q34.5 -41 34.5 -114v-379h-56v371q0 60 -21.5 88.5t-64.5 28.5t-78 -29t-67 -82v-377h-56v523h48l6 -91q62 102 157 102q63 0 97.5 -41zM201 779l169 -102l-19 -31l-177 84z" />
    <glyph glyph-name="eng" unicode="&#x14b;" horiz-adv-x="526" 
d="M402.5 493q34.5 -41 34.5 -114v-461q0 -60 -31.5 -91.5t-82.5 -31.5q-53 0 -95 34l25 35q16 -11 31 -16.5t36 -5.5q61 0 61 74v455q0 60 -21.5 88.5t-64.5 28.5t-78 -29t-67 -82v-377h-56v523h48l6 -91q62 102 157 102q63 0 97.5 -41z" />
    <glyph glyph-name="uni0272" unicode="&#x272;" horiz-adv-x="526" 
d="M402.5 493q34.5 -41 34.5 -114v-379h-56v371q0 60 -21.5 88.5t-64.5 28.5t-78 -29t-67 -82v-459q0 -60 -31.5 -91.5t-82.5 -31.5q-53 0 -95 34l25 35q16 -11 31 -16.5t36 -5.5q61 0 61 74v607h48l6 -91q62 102 157 102q63 0 97.5 -41z" />
    <glyph glyph-name="uni0273" unicode="&#x273;" horiz-adv-x="525" 
d="M589 -171q-42 -34 -95 -34q-51 0 -82.5 31.5t-31.5 91.5v83h1v370q0 60 -21.5 88.5t-64.5 28.5t-78 -29t-67 -82v-377h-56v523h48l6 -91q62 102 157 102q63 0 97.5 -41t34.5 -114v-379h-1v-84q0 -74 61 -74q21 0 36 5.5t31 16.5z" />
    <glyph glyph-name="uni01CC" unicode="&#x1cc;" horiz-adv-x="770" 
d="M402.5 493q34.5 -41 34.5 -114v-379h-56v371q0 60 -21.5 88.5t-64.5 28.5t-78 -29t-67 -82v-377h-56v523h48l6 -91q62 102 157 102q63 0 97.5 -41zM676 4q0 -61 -14 -98.5t-40.5 -61t-74.5 -47.5l-18 40q35 19 53.5 37.5t28 48.5t9.5 80v520h56v-519zM677.5 740
q11.5 -12 11.5 -29q0 -18 -11.5 -29.5t-29.5 -11.5t-29.5 11.5t-11.5 29.5q0 17 11.5 29t29.5 12t29.5 -12z" />
    <glyph glyph-name="uni019E" unicode="&#x19e;" horiz-adv-x="526" 
d="M402.5 493q34.5 -41 34.5 -114v-584l-56 8v568q0 60 -21.5 88.5t-64.5 28.5t-78 -29t-67 -82v-377h-56v523h48l6 -91q62 102 157 102q63 0 97.5 -41z" />
    <glyph glyph-name="ntilde" unicode="&#xf1;" horiz-adv-x="526" 
d="M402.5 493q34.5 -41 34.5 -114v-379h-56v371q0 60 -21.5 88.5t-64.5 28.5t-78 -29t-67 -82v-377h-56v523h48l6 -91q62 102 157 102q63 0 97.5 -41zM290.5 674.5q-13.5 6.5 -33.5 18.5q-27 19 -42 19t-26.5 -9t-24.5 -30l-33 17q33 66 83 66q16 0 29.5 -6.5t29.5 -17.5
q17 -11 26.5 -15.5t20.5 -4.5q14 0 25.5 10t25.5 33l33 -17q-31 -70 -83 -70q-17 0 -30.5 6.5z" />
    <glyph glyph-name="o" unicode="o" horiz-adv-x="516" 
d="M406 464q53 -70 53 -201q0 -129 -54 -201.5t-148 -72.5t-147 71.5t-53 200.5t53.5 201t147.5 72q95 0 148 -70zM153 430.5q-37 -55.5 -37 -169.5q0 -113 36.5 -169t104.5 -56t105 56t37 171q0 113 -36 168t-105 55q-68 0 -105 -55.5z" />
    <glyph glyph-name="oacute" unicode="&#xf3;" horiz-adv-x="516" 
d="M406 464q53 -70 53 -201q0 -129 -54 -201.5t-148 -72.5t-147 71.5t-53 200.5t53.5 201t147.5 72q95 0 148 -70zM153 430.5q-37 -55.5 -37 -169.5q0 -113 36.5 -169t104.5 -56t105 56t37 171q0 113 -36 168t-105 55q-68 0 -105 -55.5zM324 779l26 -49l-177 -84l-18 31z
" />
    <glyph glyph-name="oacute.loclPLK" horiz-adv-x="516" 
d="M406 464q53 -70 53 -201q0 -129 -54 -201.5t-148 -72.5t-147 71.5t-53 200.5t53.5 201t147.5 72q95 0 148 -70zM153 430.5q-37 -55.5 -37 -169.5q0 -113 36.5 -169t104.5 -56t105 56t37 171q0 113 -36 168t-105 55q-68 0 -105 -55.5zM312 762l46 -31l-109 -153l-29 18z
" />
    <glyph glyph-name="uni0275" unicode="&#x275;" horiz-adv-x="516" 
d="M406 464q53 -70 53 -201q0 -129 -54 -201.5t-148 -72.5t-147 71.5t-53 200.5t53.5 201t147.5 72q95 0 148 -70zM157 437.5q-37 -49.5 -41 -149.5h284q-9 199 -142 199q-64 0 -101 -49.5zM359.5 87q36.5 51 40.5 156h-285q3 -104 40 -155.5t102 -51.5q66 0 102.5 51z" />
    <glyph glyph-name="obreve" unicode="&#x14f;" horiz-adv-x="516" 
d="M406 464q53 -70 53 -201q0 -129 -54 -201.5t-148 -72.5t-147 71.5t-53 200.5t53.5 201t147.5 72q95 0 148 -70zM153 430.5q-37 -55.5 -37 -169.5q0 -113 36.5 -169t104.5 -56t105 56t37 171q0 113 -36 168t-105 55q-68 0 -105 -55.5zM177 682.5q-32 29.5 -38 80.5l37 8
q18 -72 81 -72q64 0 82 72l37 -8q-6 -51 -38.5 -80.5t-80.5 -29.5t-80 29.5z" />
    <glyph glyph-name="uni01D2" unicode="&#x1d2;" horiz-adv-x="516" 
d="M406 464q53 -70 53 -201q0 -129 -54 -201.5t-148 -72.5t-147 71.5t-53 200.5t53.5 201t147.5 72q95 0 148 -70zM153 430.5q-37 -55.5 -37 -169.5q0 -113 36.5 -169t104.5 -56t105 56t37 171q0 113 -36 168t-105 55q-68 0 -105 -55.5zM367 767l24 -27l-116 -107h-35
l-117 107l25 27l110 -85z" />
    <glyph glyph-name="ocircumflex" unicode="&#xf4;" horiz-adv-x="516" 
d="M406 464q53 -70 53 -201q0 -129 -54 -201.5t-148 -72.5t-147 71.5t-53 200.5t53.5 201t147.5 72q95 0 148 -70zM153 430.5q-37 -55.5 -37 -169.5q0 -113 36.5 -169t104.5 -56t105 56t37 171q0 113 -36 168t-105 55q-68 0 -105 -55.5zM148 645l-25 27l117 107h34l117 -107
l-24 -27l-110 85z" />
    <glyph glyph-name="uni1ED1" unicode="&#x1ed1;" horiz-adv-x="516" 
d="M406 464q53 -70 53 -201q0 -129 -54 -201.5t-148 -72.5t-147 71.5t-53 200.5t53.5 201t147.5 72q95 0 148 -70zM153 430.5q-37 -55.5 -37 -169.5q0 -113 36.5 -169t104.5 -56t105 56t37 171q0 113 -36 168t-105 55q-68 0 -105 -55.5zM147 587l-25 27l117 102h35l116 -102
l-24 -27l-110 80zM434 845l39 -33l-112 -122l-26 23z" />
    <glyph glyph-name="uni1ED9" unicode="&#x1ed9;" horiz-adv-x="516" 
d="M406 464q53 -70 53 -201q0 -129 -54 -201.5t-148 -72.5t-147 71.5t-53 200.5t53.5 201t147.5 72q95 0 148 -70zM153 430.5q-37 -55.5 -37 -169.5q0 -113 36.5 -169t104.5 -56t105 56t37 171q0 113 -36 168t-105 55q-68 0 -105 -55.5zM148 645l-25 27l117 107h34l117 -107
l-24 -27l-110 85zM228.5 -157q-11.5 12 -11.5 29q0 18 11.5 29.5t29.5 11.5t29.5 -11.5t11.5 -29.5q0 -17 -11.5 -29t-29.5 -12t-29.5 12z" />
    <glyph glyph-name="uni1ED3" unicode="&#x1ed3;" horiz-adv-x="516" 
d="M406 464q53 -70 53 -201q0 -129 -54 -201.5t-148 -72.5t-147 71.5t-53 200.5t53.5 201t147.5 72q95 0 148 -70zM153 430.5q-37 -55.5 -37 -169.5q0 -113 36.5 -169t104.5 -56t105 56t37 171q0 113 -36 168t-105 55q-68 0 -105 -55.5zM146 587l-25 27l117 102h35l116 -102
l-24 -27l-110 80zM81 845l99 -132l-26 -23l-112 122z" />
    <glyph glyph-name="uni1ED5" unicode="&#x1ed5;" horiz-adv-x="516" 
d="M406 464q53 -70 53 -201q0 -129 -54 -201.5t-148 -72.5t-147 71.5t-53 200.5t53.5 201t147.5 72q95 0 148 -70zM153 430.5q-37 -55.5 -37 -169.5q0 -113 36.5 -169t104.5 -56t105 56t37 171q0 113 -36 168t-105 55q-68 0 -105 -55.5zM147 587l-25 27l117 102h35l116 -102
l-24 -27l-110 80zM348 769q31 2 47 12.5t16 34.5q0 20 -11.5 30.5t-31.5 10.5q-26 0 -51 -13l-15 33q34 22 74 22q39 0 61.5 -21.5t22.5 -57.5q0 -34 -17.5 -53t-49.5 -24v-56h-45v82z" />
    <glyph glyph-name="uni1ED7" unicode="&#x1ed7;" horiz-adv-x="516" 
d="M406 464q53 -70 53 -201q0 -129 -54 -201.5t-148 -72.5t-147 71.5t-53 200.5t53.5 201t147.5 72q95 0 148 -70zM153 430.5q-37 -55.5 -37 -169.5q0 -113 36.5 -169t104.5 -56t105 56t37 171q0 113 -36 168t-105 55q-68 0 -105 -55.5zM147 577l-25 27l117 102h35l116 -102
l-24 -27l-110 80zM279.5 753.5q-13.5 6.5 -33.5 18.5q-27 19 -42 19t-26.5 -9t-24.5 -30l-33 17q33 66 83 66q15 0 29 -6.5t30 -17.5q17 -11 26.5 -15.5t20.5 -4.5q14 0 25.5 10t25.5 33l33 -17q-31 -70 -83 -70q-17 0 -30.5 6.5z" />
    <glyph glyph-name="uni020D" unicode="&#x20d;" horiz-adv-x="516" 
d="M406 464q53 -70 53 -201q0 -129 -54 -201.5t-148 -72.5t-147 71.5t-53 200.5t53.5 201t147.5 72q95 0 148 -70zM153 430.5q-37 -55.5 -37 -169.5q0 -113 36.5 -169t104.5 -56t105 56t37 171q0 113 -36 168t-105 55q-68 0 -105 -55.5zM157 809l71 -151l-34 -15l-85 141z
M275 809l64 -146l-35 -16l-77 137z" />
    <glyph glyph-name="odieresis" unicode="&#xf6;" horiz-adv-x="516" 
d="M406 464q53 -70 53 -201q0 -129 -54 -201.5t-148 -72.5t-147 71.5t-53 200.5t53.5 201t147.5 72q95 0 148 -70zM153 430.5q-37 -55.5 -37 -169.5q0 -113 36.5 -169t104.5 -56t105 56t37 171q0 113 -36 168t-105 55q-68 0 -105 -55.5zM199.5 729q10.5 -11 10.5 -27
q0 -17 -10.5 -28t-27.5 -11q-16 0 -27 11t-11 28q0 16 11 27t27 11q17 0 27.5 -11zM371 729q11 -11 11 -27q0 -17 -11 -28t-27 -11q-17 0 -28 11t-11 28q0 16 11 27t28 11q16 0 27 -11z" />
    <glyph glyph-name="uni022B" unicode="&#x22b;" horiz-adv-x="516" 
d="M406 464q53 -70 53 -201q0 -129 -54 -201.5t-148 -72.5t-147 71.5t-53 200.5t53.5 201t147.5 72q95 0 148 -70zM153 430.5q-37 -55.5 -37 -169.5q0 -113 36.5 -169t104.5 -56t105 56t37 171q0 113 -36 168t-105 55q-68 0 -105 -55.5zM199.5 699q10.5 -11 10.5 -27
q0 -17 -10.5 -28t-27.5 -11q-16 0 -27 11t-11 28q0 16 11 27t27 11q17 0 27.5 -11zM371 699q11 -11 11 -27q0 -17 -11 -28t-27 -11q-17 0 -28 11t-11 28q0 16 11 27t28 11q16 0 27 -11zM368 773h-219v44h219v-44z" />
    <glyph glyph-name="uni022F" unicode="&#x22f;" horiz-adv-x="516" 
d="M406 464q53 -70 53 -201q0 -129 -54 -201.5t-148 -72.5t-147 71.5t-53 200.5t53.5 201t147.5 72q95 0 148 -70zM153 430.5q-37 -55.5 -37 -169.5q0 -113 36.5 -169t104.5 -56t105 56t37 171q0 113 -36 168t-105 55q-68 0 -105 -55.5zM287.5 740q11.5 -12 11.5 -29
q0 -18 -11.5 -29.5t-29.5 -11.5t-29.5 11.5t-11.5 29.5q0 17 11.5 29t29.5 12t29.5 -12z" />
    <glyph glyph-name="uni0231" unicode="&#x231;" horiz-adv-x="516" 
d="M406 464q53 -70 53 -201q0 -129 -54 -201.5t-148 -72.5t-147 71.5t-53 200.5t53.5 201t147.5 72q95 0 148 -70zM153 430.5q-37 -55.5 -37 -169.5q0 -113 36.5 -169t104.5 -56t105 56t37 171q0 113 -36 168t-105 55q-68 0 -105 -55.5zM287.5 690q11.5 -12 11.5 -29
q0 -18 -11.5 -29.5t-29.5 -11.5t-29.5 11.5t-11.5 29.5q0 17 11.5 29t29.5 12t29.5 -12zM368 758h-219v44h219v-44z" />
    <glyph glyph-name="uni1ECD" unicode="&#x1ecd;" horiz-adv-x="516" 
d="M406 464q53 -70 53 -201q0 -129 -54 -201.5t-148 -72.5t-147 71.5t-53 200.5t53.5 201t147.5 72q95 0 148 -70zM153 430.5q-37 -55.5 -37 -169.5q0 -113 36.5 -169t104.5 -56t105 56t37 171q0 113 -36 168t-105 55q-68 0 -105 -55.5zM228.5 -157q-11.5 12 -11.5 29
q0 18 11.5 29.5t29.5 11.5t29.5 -11.5t11.5 -29.5q0 -17 -11.5 -29t-29.5 -12t-29.5 12z" />
    <glyph glyph-name="ograve" unicode="&#xf2;" horiz-adv-x="516" 
d="M406 464q53 -70 53 -201q0 -129 -54 -201.5t-148 -72.5t-147 71.5t-53 200.5t53.5 201t147.5 72q95 0 148 -70zM153 430.5q-37 -55.5 -37 -169.5q0 -113 36.5 -169t104.5 -56t105 56t37 171q0 113 -36 168t-105 55q-68 0 -105 -55.5zM191 779l169 -102l-19 -31l-177 84z
" />
    <glyph glyph-name="uni1ECF" unicode="&#x1ecf;" horiz-adv-x="516" 
d="M406 464q53 -70 53 -201q0 -129 -54 -201.5t-148 -72.5t-147 71.5t-53 200.5t53.5 201t147.5 72q95 0 148 -70zM153 430.5q-37 -55.5 -37 -169.5q0 -113 36.5 -169t104.5 -56t105 56t37 171q0 113 -36 168t-105 55q-68 0 -105 -55.5zM235 699q31 2 47 12.5t16 34.5
q0 20 -11.5 30.5t-31.5 10.5q-26 0 -51 -13l-15 33q34 22 74 22q39 0 61.5 -21.5t22.5 -57.5q0 -34 -17.5 -53t-49.5 -24v-56h-45v82z" />
    <glyph glyph-name="ohorn" unicode="&#x1a1;" horiz-adv-x="526" 
d="M426 431q33 -65 33 -168q0 -129 -54 -201.5t-148 -72.5t-147 71.5t-53 200.5t53.5 201t147.5 72q96 0 147 -69q28 4 40 17.5t12 39.5q0 21 -3.5 37t-9.5 35l43 11q17 -40 17 -82q0 -78 -78 -92zM362 92q37 56 37 171q0 113 -36 168t-105 55q-68 0 -105 -55.5t-37 -169.5
q0 -113 36.5 -169t104.5 -56t105 56z" />
    <glyph glyph-name="uni1EDB" unicode="&#x1edb;" horiz-adv-x="526" 
d="M350 730l-177 -84l-18 31l169 102zM426 431q33 -65 33 -168q0 -129 -54 -201.5t-148 -72.5t-147 71.5t-53 200.5t53.5 201t147.5 72q96 0 147 -69q28 4 40 17.5t12 39.5q0 21 -3.5 37t-9.5 35l43 11q17 -40 17 -82q0 -78 -78 -92zM362 92q37 56 37 171q0 113 -36 168
t-105 55q-68 0 -105 -55.5t-37 -169.5q0 -113 36.5 -169t104.5 -56t105 56z" />
    <glyph glyph-name="uni1EE3" unicode="&#x1ee3;" horiz-adv-x="526" 
d="M426 431q33 -65 33 -168q0 -129 -54 -201.5t-148 -72.5t-147 71.5t-53 200.5t53.5 201t147.5 72q96 0 147 -69q28 4 40 17.5t12 39.5q0 21 -3.5 37t-9.5 35l43 11q17 -40 17 -82q0 -78 -78 -92zM362 92q37 56 37 171q0 113 -36 168t-105 55q-68 0 -105 -55.5t-37 -169.5
q0 -113 36.5 -169t104.5 -56t105 56zM287.5 -98.5q11.5 -11.5 11.5 -29.5q0 -17 -11.5 -29t-29.5 -12t-29.5 12t-11.5 29q0 18 11.5 29.5t29.5 11.5t29.5 -11.5z" />
    <glyph glyph-name="uni1EDD" unicode="&#x1edd;" horiz-adv-x="526" 
d="M360 677l-19 -31l-177 84l27 49zM426 431q33 -65 33 -168q0 -129 -54 -201.5t-148 -72.5t-147 71.5t-53 200.5t53.5 201t147.5 72q96 0 147 -69q28 4 40 17.5t12 39.5q0 21 -3.5 37t-9.5 35l43 11q17 -40 17 -82q0 -78 -78 -92zM362 92q37 56 37 171q0 113 -36 168
t-105 55q-68 0 -105 -55.5t-37 -169.5q0 -113 36.5 -169t104.5 -56t105 56z" />
    <glyph glyph-name="uni1EDF" unicode="&#x1edf;" horiz-adv-x="526" 
d="M204 774l-15 33q34 22 74 22q39 0 61.5 -21.5t22.5 -57.5q0 -34 -17.5 -53t-49.5 -24v-56h-45v82q31 2 47 12.5t16 34.5q0 20 -11.5 30.5t-31.5 10.5q-26 0 -51 -13zM426 431q33 -65 33 -168q0 -129 -54 -201.5t-148 -72.5t-147 71.5t-53 200.5t53.5 201t147.5 72
q96 0 147 -69q28 4 40 17.5t12 39.5q0 21 -3.5 37t-9.5 35l43 11q17 -40 17 -82q0 -78 -78 -92zM362 92q37 56 37 171q0 113 -36 168t-105 55q-68 0 -105 -55.5t-37 -169.5q0 -113 36.5 -169t104.5 -56t105 56z" />
    <glyph glyph-name="uni1EE1" unicode="&#x1ee1;" horiz-adv-x="526" 
d="M178.5 703q-11.5 -9 -24.5 -30l-33 17q33 66 83 66q16 0 29.5 -6.5t29.5 -17.5q17 -11 26.5 -15.5t20.5 -4.5q14 0 25.5 10t25.5 33l33 -17q-31 -70 -83 -70q-17 0 -30.5 6.5t-33.5 18.5q-27 19 -42 19t-26.5 -9zM426 431q33 -65 33 -168q0 -129 -54 -201.5t-148 -72.5
t-147 71.5t-53 200.5t53.5 201t147.5 72q96 0 147 -69q28 4 40 17.5t12 39.5q0 21 -3.5 37t-9.5 35l43 11q17 -40 17 -82q0 -78 -78 -92zM362 92q37 56 37 171q0 113 -36 168t-105 55q-68 0 -105 -55.5t-37 -169.5q0 -113 36.5 -169t104.5 -56t105 56z" />
    <glyph glyph-name="ohungarumlaut" unicode="&#x151;" horiz-adv-x="516" 
d="M406 464q53 -70 53 -201q0 -129 -54 -201.5t-148 -72.5t-147 71.5t-53 200.5t53.5 201t147.5 72q95 0 148 -70zM153 430.5q-37 -55.5 -37 -169.5q0 -113 36.5 -169t104.5 -56t105 56t37 171q0 113 -36 168t-105 55q-68 0 -105 -55.5zM244 809l48 -25l-77 -137l-35 16z
M362 809l48 -25l-84 -141l-35 15z" />
    <glyph glyph-name="uni01A3" unicode="&#x1a3;" horiz-adv-x="693" 
d="M565.5 498q33.5 -36 33.5 -103v-600l-56 8v593q0 91 -76 91q-37 0 -68 -14q60 -73 60 -210q0 -129 -54 -201.5t-148 -72.5t-147 71.5t-53 200.5t53.5 201t147.5 72q61 0 106 -30q51 30 108 30q60 0 93.5 -36zM362 92q37 56 37 171q0 113 -36 168t-105 55
q-68 0 -105 -55.5t-37 -169.5q0 -113 36.5 -169t104.5 -56t105 56z" />
    <glyph glyph-name="uni020F" unicode="&#x20f;" horiz-adv-x="516" 
d="M406 464q53 -70 53 -201q0 -129 -54 -201.5t-148 -72.5t-147 71.5t-53 200.5t53.5 201t147.5 72q95 0 148 -70zM153 430.5q-37 -55.5 -37 -169.5q0 -113 36.5 -169t104.5 -56t105 56t37 171q0 113 -36 168t-105 55q-68 0 -105 -55.5zM337.5 712.5q32.5 -29.5 38.5 -80.5
l-37 -8q-18 72 -82 72q-63 0 -81 -72l-37 8q6 51 38 80.5t80 29.5t80.5 -29.5z" />
    <glyph glyph-name="omacron" unicode="&#x14d;" horiz-adv-x="516" 
d="M406 464q53 -70 53 -201q0 -129 -54 -201.5t-148 -72.5t-147 71.5t-53 200.5t53.5 201t147.5 72q95 0 148 -70zM153 430.5q-37 -55.5 -37 -169.5q0 -113 36.5 -169t104.5 -56t105 56t37 171q0 113 -36 168t-105 55q-68 0 -105 -55.5zM368 677h-219v44h219v-44z" />
    <glyph glyph-name="uni1E53" unicode="&#x1e53;" horiz-adv-x="516" 
d="M406 464q53 -70 53 -201q0 -129 -54 -201.5t-148 -72.5t-147 71.5t-53 200.5t53.5 201t147.5 72q95 0 148 -70zM153 430.5q-37 -55.5 -37 -169.5q0 -113 36.5 -169t104.5 -56t105 56t37 171q0 113 -36 168t-105 55q-68 0 -105 -55.5zM368 621h-219v44h219v-44zM331 847
l25 -50l-179 -77l-16 33z" />
    <glyph glyph-name="uni1E51" unicode="&#x1e51;" horiz-adv-x="516" 
d="M406 464q53 -70 53 -201q0 -129 -54 -201.5t-148 -72.5t-147 71.5t-53 200.5t53.5 201t147.5 72q95 0 148 -70zM153 430.5q-37 -55.5 -37 -169.5q0 -113 36.5 -169t104.5 -56t105 56t37 171q0 113 -36 168t-105 55q-68 0 -105 -55.5zM368 621h-219v44h219v-44zM187 847
l169 -95l-16 -32l-179 77z" />
    <glyph glyph-name="uniA7B7" unicode="&#xa7b7;" horiz-adv-x="698" 
d="M630 237q0 -132 -44 -190t-115 -58q-51 0 -83 28t-39 82q-10 -55 -41.5 -82.5t-83.5 -27.5q-73 0 -114.5 60.5t-41.5 188.5q0 84 14 151.5t38 133.5h56q-26 -75 -38.5 -144t-12.5 -143q0 -107 27.5 -153.5t77.5 -46.5q92 0 92 138v179l54 8v-188q0 -72 24.5 -104.5
t65.5 -32.5q49 0 78.5 44t29.5 156q0 72 -13 140.5t-38 146.5h56q51 -140 51 -286z" />
    <glyph glyph-name="uni0277" unicode="&#x277;" horiz-adv-x="677" 
d="M550 455.5q70 -78.5 70 -218.5q0 -132 -44 -190t-116 -58q-51 0 -82.5 28t-38.5 82q-10 -55 -42 -82.5t-83 -27.5q-73 0 -115 60.5t-42 188.5q0 139 71 217.5t211 78.5q141 0 211 -78.5zM533.5 80q29.5 44 29.5 156q0 124 -54 187.5t-170 63.5q-117 0 -171 -63.5
t-54 -187.5q0 -107 27.5 -153.5t77.5 -46.5q92 0 92 138v132l54 8v-141q0 -72 24.5 -104.5t65.5 -32.5q49 0 78.5 44z" />
    </font>
</defs>
</svg>
