<?xml version="1.0" standalone="no"?>
<!DOCTYPE svg PUBLIC "-//W3C//DTD SVG 1.1//EN" "http://www.w3.org/Graphics/SVG/1.1/DTD/svg11.dtd" >
<svg>
<metadata>
Created by FontForge 20120731 at Fri May  5 09:36:36 2017
 By www-data
Digitized data copyright 2012-2016, The Mozilla Foundation and Telefonica S.A.
</metadata>
<defs>
<font id="FiraSansCondensed-ExtraLightItalic" horiz-adv-x="504" >
  <font-face 
    font-family="Fira Sans Condensed ExtraLight"
    font-weight="275"
    font-style="italic"
    font-stretch="condensed"
    units-per-em="1000"
    panose-1="2 11 4 3 5 0 0 2 0 4"
    ascent="800"
    descent="-200"
    x-height="522"
    cap-height="684"
    bbox="-685 -350 1417 1050"
    underline-thickness="50"
    underline-position="-50"
    slope="-8"
    unicode-range="U+000D-FEFF"
  />
<missing-glyph horiz-adv-x="664" 
d="M653 1050l-198 -1400h-419l198 1400h419zM591 998h-310l-183 -1296h310zM422.5 425.5q23.5 -25.5 23.5 -66.5q0 -8 -2 -26q-7 -52 -33 -80t-77 -35l-7 -47q-1 -10 -9 -16t-17 -6q-11 0 -18 7.5t-6 18.5l11 82q53 3 75 21t28 59q1 7 1 20q0 22 -11 34t-39 12
q-17 0 -29 -2.5t-25 -9.5l-13 -2q-12 0 -18.5 7.5t-4.5 18.5q2 18 32 27t63 9q52 0 75.5 -25.5zM315 111q9 -9 9 -23q0 -17 -11 -28.5t-26 -11.5t-23.5 9.5t-8.5 24.5q0 16 10.5 27t26.5 11q14 0 23 -9z" />
    <glyph glyph-name="fi" unicode="fi" horiz-adv-x="509" 
d="M375 0h-45l68 484h-217l-66 -476q-9 -64 -26.5 -102t-45 -60.5t-76.5 -45.5l-13 34q37 19 59 38t36 51t22 87l65 474h-80l5 38h80l13 91q9 61 48.5 94.5t104.5 33.5q63 0 122 -41l-20 -31q-49 34 -102 34q-48 0 -75 -23t-34 -71l-12 -87h262z" />
    <glyph glyph-name="fl" unicode="fl" horiz-adv-x="528" 
d="M439.5 32q10.5 3 13.5 4l10 -34q-26 -13 -52 -13q-33 0 -51.5 18t-18.5 53q0 6 2 22l84 596q-31 12 -59 18t-63 6q-46 0 -73 -22.5t-34 -70.5l-12 -87h126l-12 -38h-119l-66 -476q-9 -64 -26.5 -102t-45 -60.5t-76.5 -45.5l-13 34q37 19 59 38t36 51t22 87l65 474h-81
l6 38h80l13 91q9 61 48.5 94.5t104.5 33.5q70 0 129 -28l41 6l-90 -640q-1 -5 -1 -14q0 -36 32 -36q11 0 21.5 3z" />
    <glyph glyph-name=".notdef" horiz-adv-x="664" 
d="M653 1050l-198 -1400h-419l198 1400h419zM591 998h-310l-183 -1296h310zM422.5 425.5q23.5 -25.5 23.5 -66.5q0 -8 -2 -26q-7 -52 -33 -80t-77 -35l-7 -47q-1 -10 -9 -16t-17 -6q-11 0 -18 7.5t-6 18.5l11 82q53 3 75 21t28 59q1 7 1 20q0 22 -11 34t-39 12
q-17 0 -29 -2.5t-25 -9.5l-13 -2q-12 0 -18.5 7.5t-4.5 18.5q2 18 32 27t63 9q52 0 75.5 -25.5zM315 111q9 -9 9 -23q0 -17 -11 -28.5t-26 -11.5t-23.5 9.5t-8.5 24.5q0 16 10.5 27t26.5 11q14 0 23 -9z" />
    <glyph glyph-name="nonmarkingreturn" unicode="&#xd;" horiz-adv-x="252" 
 />
    <glyph glyph-name="space" unicode=" " horiz-adv-x="252" 
 />
    <glyph glyph-name="A" unicode="A" horiz-adv-x="512" 
d="M407 0l-29 193h-264l-83 -193h-48l303 684h58l111 -684h-48zM132 233h240l-62 412z" />
    <glyph glyph-name="Aacute" unicode="&#xc1;" horiz-adv-x="512" 
d="M407 0l-29 193h-264l-83 -193h-48l303 684h58l111 -684h-48zM132 233h240l-62 412zM407 877l18 -43l-183 -75l-13 27z" />
    <glyph glyph-name="Abreve" unicode="&#x102;" horiz-adv-x="512" 
d="M407 0l-29 193h-264l-83 -193h-48l303 684h58l111 -684h-48zM132 233h240l-62 412zM252 794q-27 27 -28 67l30 4q5 -28 23 -43.5t49 -15.5q32 0 55 16.5t36 44.5l31 -9q-11 -40 -45 -65.5t-78 -25.5q-46 0 -73 27z" />
    <glyph glyph-name="uni1EAE" unicode="&#x1eae;" horiz-adv-x="512" 
d="M453 960l-122 -118l-20 19l113 129zM251 765q-27 27 -28 67l30 4q5 -28 23 -43.5t49 -15.5q32 0 55 16.5t36 44.5l31 -9q-11 -40 -45 -65.5t-78 -25.5q-46 0 -73 27zM407 0l-29 193h-264l-83 -193h-48l303 684h58l111 -684h-48zM132 233h240l-62 412z" />
    <glyph glyph-name="uni1EB6" unicode="&#x1eb6;" horiz-adv-x="512" 
d="M407 0l-29 193h-264l-83 -193h-48l303 684h58l111 -684h-48zM132 233h240l-62 412zM252 794q-27 27 -28 67l30 4q5 -28 23 -43.5t49 -15.5q32 0 55 16.5t36 44.5l31 -9q-11 -40 -45 -65.5t-78 -25.5q-46 0 -73 27zM228.5 -99.5q8.5 -8.5 8.5 -21.5q0 -16 -11 -27t-27 -11
q-13 0 -22 8.5t-9 21.5q0 16 10.5 27t27.5 11q14 0 22.5 -8.5z" />
    <glyph glyph-name="uni1EB0" unicode="&#x1eb0;" horiz-adv-x="512" 
d="M354 859l-23 -17l-90 122l36 25zM252 765q-27 27 -28 67l30 4q5 -28 23 -43.5t49 -15.5q32 0 55 16.5t36 44.5l31 -9q-11 -40 -45 -65.5t-78 -25.5q-46 0 -73 27zM407 0l-29 193h-264l-83 -193h-48l303 684h58l111 -684h-48zM132 233h240l-62 412z" />
    <glyph glyph-name="uni1EB2" unicode="&#x1eb2;" horiz-adv-x="512" 
d="M407 0l-29 193h-264l-83 -193h-48l303 684h58l111 -684h-48zM132 233h240l-62 412zM251 765q-27 27 -28 67l30 4q5 -28 23 -43.5t49 -15.5q32 0 55 16.5t36 44.5l31 -9q-11 -40 -45 -65.5t-78 -25.5q-46 0 -73 27zM316 888q71 4 71 55q0 35 -37 35q-26 0 -52 -14l-12 31
q33 19 69 19q34 0 54 -19.5t20 -51.5q0 -34 -20.5 -54t-56.5 -25l-5 -45h-38z" />
    <glyph glyph-name="uni1EB4" unicode="&#x1eb4;" horiz-adv-x="512" 
d="M264 908.5q-12 -8.5 -29 -30.5l-25 17q41 59 82 59q15 0 28.5 -6t29.5 -18q13 -10 23.5 -15t21.5 -5q14 0 27 10t29 33l27 -16q-39 -65 -83 -65q-17 0 -29.5 6.5t-30.5 18.5q-15 11 -23.5 15.5t-19.5 4.5q-16 0 -28 -8.5zM381 793.5q23 16.5 36 44.5l31 -9
q-11 -40 -45 -65.5t-78 -25.5q-46 0 -73 27t-28 67l30 4q5 -28 23 -43.5t49 -15.5q32 0 55 16.5zM286 684h58l111 -684h-48l-29 193h-264l-83 -193h-48zM132 233h240l-62 412z" />
    <glyph glyph-name="uni01CD" unicode="&#x1cd;" horiz-adv-x="512" 
d="M407 0l-29 193h-264l-83 -193h-48l303 684h58l111 -684h-48zM132 233h240l-62 412zM448 879l19 -24l-129 -98h-26l-102 99l22 23l97 -79z" />
    <glyph glyph-name="Acircumflex" unicode="&#xc2;" horiz-adv-x="512" 
d="M407 0l-29 193h-264l-83 -193h-48l303 684h58l111 -684h-48zM132 233h240l-62 412zM215 763l-19 25l129 98h27l101 -100l-22 -23l-96 80z" />
    <glyph glyph-name="uni1EA4" unicode="&#x1ea4;" horiz-adv-x="512" 
d="M540 948l-122 -118l-20 19l113 129zM331 811l-120 -80l-19 25l129 98h27l101 -100l-22 -23zM286 684h58l111 -684h-48l-29 193h-264l-83 -193h-48zM132 233h240l-62 412z" />
    <glyph glyph-name="uni1EAC" unicode="&#x1eac;" horiz-adv-x="512" 
d="M407 0l-29 193h-264l-83 -193h-48l303 684h58l111 -684h-48zM132 233h240l-62 412zM215 763l-19 25l129 98h27l101 -100l-22 -23l-96 80zM228.5 -99.5q8.5 -8.5 8.5 -21.5q0 -16 -11 -27t-27 -11q-13 0 -22 8.5t-9 21.5q0 16 10.5 27t27.5 11q14 0 22.5 -8.5z" />
    <glyph glyph-name="uni1EA6" unicode="&#x1ea6;" horiz-adv-x="512" 
d="M258 847l-23 -17l-90 122l36 25zM209 731l-19 25l129 98h27l101 -100l-22 -23l-96 80zM407 0l-29 193h-264l-83 -193h-48l303 684h58l111 -684h-48zM132 233h240l-62 412z" />
    <glyph glyph-name="uni1EA8" unicode="&#x1ea8;" horiz-adv-x="512" 
d="M407 0l-29 193h-264l-83 -193h-48l303 684h58l111 -684h-48zM132 233h240l-62 412zM209 731l-19 25l129 98h27l101 -100l-22 -23l-96 80zM421 880q71 4 71 55q0 35 -37 35q-26 0 -52 -14l-12 31q33 19 69 19q34 0 54 -19.5t20 -51.5q0 -34 -20.5 -54t-56.5 -25l-5 -45
h-38z" />
    <glyph glyph-name="uni1EAA" unicode="&#x1eaa;" horiz-adv-x="512" 
d="M262 924.5q-12 -8.5 -29 -30.5l-25 17q41 59 82 59q15 0 28.5 -6t29.5 -18q13 -10 23.5 -15t21.5 -5q14 0 27 10t29 33l27 -16q-39 -65 -83 -65q-17 0 -29.5 6.5t-30.5 18.5q-15 11 -23.5 15.5t-19.5 4.5q-16 0 -28 -8.5zM329 811l-120 -80l-19 25l129 98h27l101 -100
l-22 -23zM286 684h58l111 -684h-48l-29 193h-264l-83 -193h-48zM132 233h240l-62 412z" />
    <glyph glyph-name="uni0200" unicode="&#x200;" horiz-adv-x="512" 
d="M407 0l-29 193h-264l-83 -193h-48l303 684h58l111 -684h-48zM132 233h240l-62 412zM241 929l49 -145l-33 -13l-62 138zM351 929l44 -140l-33 -13l-56 132z" />
    <glyph glyph-name="Adieresis" unicode="&#xc4;" horiz-adv-x="512" 
d="M407 0l-29 193h-264l-83 -193h-48l303 684h58l111 -684h-48zM132 233h240l-62 412zM228 801q-8 8 -8 20q0 15 10 25.5t26 10.5q13 0 21 -8t8 -20q0 -16 -10 -26t-26 -10q-13 0 -21 8zM394 801q-8 8 -8 20q0 15 10 25.5t25 10.5q13 0 21 -8t8 -20q0 -16 -10 -26t-25 -10
q-13 0 -21 8z" />
    <glyph glyph-name="uni01DE" unicode="&#x1de;" horiz-adv-x="512" 
d="M407 0l-29 193h-264l-83 -193h-48l303 684h58l111 -684h-48zM132 233h240l-62 412zM217 752q-8 8 -8 20q0 15 10 25.5t26 10.5q13 0 21 -8t8 -20q0 -16 -10 -26t-26 -10q-13 0 -21 8zM383 752q-8 8 -8 20q0 15 10 25.5t25 10.5q13 0 21 -8t8 -20q0 -16 -10 -26t-25 -10
q-13 0 -21 8zM438 869h-208l6 39h208z" />
    <glyph glyph-name="uni0226" unicode="&#x226;" horiz-adv-x="512" 
d="M407 0l-29 193h-264l-83 -193h-48l303 684h58l111 -684h-48zM132 233h240l-62 412zM309.5 809.5q-8.5 8.5 -8.5 21.5q0 16 11 27t27 11q13 0 22 -8.5t9 -21.5q0 -16 -10.5 -27t-27.5 -11q-14 0 -22.5 8.5z" />
    <glyph glyph-name="uni1EA0" unicode="&#x1ea0;" horiz-adv-x="512" 
d="M407 0l-29 193h-264l-83 -193h-48l303 684h58l111 -684h-48zM132 233h240l-62 412zM228.5 -99.5q8.5 -8.5 8.5 -21.5q0 -16 -11 -27t-27 -11q-13 0 -22 8.5t-9 21.5q0 16 10.5 27t27.5 11q14 0 22.5 -8.5z" />
    <glyph glyph-name="uni01E0" unicode="&#x1e0;" horiz-adv-x="512" 
d="M407 0l-29 193h-264l-83 -193h-48l303 684h58l111 -684h-48zM132 233h240l-62 412zM299.5 752.5q-8.5 8.5 -8.5 21.5q0 16 11 27t27 11q13 0 22 -8.5t9 -21.5q0 -16 -10.5 -27t-27.5 -11q-14 0 -22.5 8.5zM439 868h-208l6 39h208z" />
    <glyph glyph-name="Agrave" unicode="&#xc0;" horiz-adv-x="512" 
d="M407 0l-29 193h-264l-83 -193h-48l303 684h58l111 -684h-48zM132 233h240l-62 412zM272 876l153 -90l-17 -27l-160 75z" />
    <glyph glyph-name="uni1EA2" unicode="&#x1ea2;" horiz-adv-x="512" 
d="M407 0l-29 193h-264l-83 -193h-48l303 684h58l111 -684h-48zM132 233h240l-62 412zM317 847q71 4 71 55q0 35 -37 35q-26 0 -52 -14l-12 31q33 19 69 19q34 0 54 -19.5t20 -51.5q0 -34 -20.5 -54t-56.5 -25l-5 -45h-38z" />
    <glyph glyph-name="uni0202" unicode="&#x202;" horiz-adv-x="512" 
d="M407 0l-29 193h-264l-83 -193h-48l303 684h58l111 -684h-48zM132 233h240l-62 412zM216 797q13 47 46 74t78 27q46 0 73 -28.5t27 -75.5l-31 -4q-7 69 -71 69q-65 0 -93 -71z" />
    <glyph glyph-name="uni2C6D" unicode="&#x2c6d;" horiz-adv-x="603" 
d="M473 73q0 -18 6.5 -30t22.5 -20l-13 -34q-29 7 -45.5 29.5t-14.5 61.5q-68 -91 -168 -91q-88 0 -141 67.5t-53 196.5q0 113 36.5 214.5t103 164t152.5 62.5q47 0 81.5 -21.5t60.5 -64.5l15 76h41l-82 -582q-2 -22 -2 -29zM356 56.5q42 25.5 78 79.5l59 422q-27 49 -58 72
t-76 23q-74 0 -129.5 -58.5t-85 -151t-29.5 -191.5q0 -111 40.5 -166t108.5 -55q50 0 92 25.5z" />
    <glyph glyph-name="Amacron" unicode="&#x100;" horiz-adv-x="512" 
d="M407 0l-29 193h-264l-83 -193h-48l303 684h58l111 -684h-48zM132 233h240l-62 412zM436 805h-208l6 39h208z" />
    <glyph glyph-name="Aogonek" unicode="&#x104;" horiz-adv-x="512" 
d="M347.5 -60.5q-29.5 -28.5 -29.5 -66.5q0 -46 51 -46q21 0 52 6l-9 -39q-27 -6 -49 -6q-41 0 -64.5 21.5t-23.5 56.5q0 47 30.5 80.5t100.5 63.5l-28 183h-264l-83 -193h-48l303 684h58l111 -684h-10q-68 -32 -97.5 -60.5zM132 233h240l-62 412z" />
    <glyph glyph-name="Aring" unicode="&#xc5;" horiz-adv-x="512" 
d="M407 0l-29 193h-264l-83 -193h-48l303 684h58l111 -684h-48zM132 233h240l-62 412zM405 919q21 -22 21 -56q0 -44 -28 -72.5t-69 -28.5q-35 0 -55.5 22t-20.5 56q0 44 28 72.5t68 28.5q35 0 56 -22zM304.5 891q-15.5 -20 -15.5 -51q0 -23 11 -35.5t31 -12.5
q28 0 43.5 20.5t15.5 50.5q0 22 -11 35t-31 13q-28 0 -43.5 -20z" />
    <glyph glyph-name="Aringacute" unicode="&#x1fa;" horiz-adv-x="512" 
d="M407 0l-29 193h-264l-83 -193h-48l303 684h58l111 -684h-48zM132 233h240l-62 412zM393 884q21 -22 21 -56q0 -44 -28 -72.5t-69 -28.5q-35 0 -55.5 22t-20.5 56q0 44 28 72.5t68 28.5q35 0 56 -22zM292.5 856q-15.5 -20 -15.5 -51q0 -23 11 -35.5t31 -12.5
q28 0 43.5 20.5t15.5 50.5q0 22 -11 35t-31 13q-28 0 -43.5 -20zM426 1031l18 -43l-183 -75l-13 27z" />
    <glyph glyph-name="uni023A" unicode="&#x23a;" horiz-adv-x="512" 
d="M408 0l-29 193h-147l-100 -263l-27 8l97 255h-88l-84 -193h-47l303 684h58l13 -81l53 139l27 -7l-71 -187l89 -548h-47zM131 232h86l111 294l-18 120zM246 232h127l-36 238z" />
    <glyph glyph-name="Atilde" unicode="&#xc3;" horiz-adv-x="512" 
d="M407 0l-29 193h-264l-83 -193h-48l303 684h58l111 -684h-48zM132 233h240l-62 412zM358.5 802.5q-12.5 6.5 -30.5 18.5q-15 11 -23.5 15.5t-19.5 4.5q-16 0 -28 -8.5t-29 -30.5l-25 17q41 59 82 59q15 0 28.5 -6t29.5 -18q13 -10 23.5 -15t21.5 -5q14 0 27 10t29 33
l27 -16q-39 -65 -83 -65q-17 0 -29.5 6.5z" />
    <glyph glyph-name="AE" unicode="&#xc6;" horiz-adv-x="699" 
d="M664 643h-295l24 -267h232l-5 -39h-223l27 -296h206l-7 -41h-240l-16 188h-259l-91 -188h-48l335 684h371zM127 228h237l-36 418z" />
    <glyph glyph-name="AEacute" unicode="&#x1fc;" horiz-adv-x="699" 
d="M664 643h-295l24 -267h232l-5 -39h-223l27 -296h206l-7 -41h-240l-16 188h-259l-91 -188h-48l335 684h371zM127 228h237l-36 418zM560 877l18 -43l-183 -75l-13 27z" />
    <glyph glyph-name="uni01E2" unicode="&#x1e2;" horiz-adv-x="699" 
d="M664 643h-295l24 -267h232l-5 -39h-223l27 -296h206l-7 -41h-240l-16 188h-259l-91 -188h-48l335 684h371zM127 228h237l-36 418zM589 805h-208l6 39h208z" />
    <glyph glyph-name="B" unicode="B" horiz-adv-x="542" 
d="M447.5 319.5q33.5 -33.5 33.5 -97.5q0 -56 -23.5 -106t-78.5 -83t-145 -33h-169l96 684h156q88 0 137 -37.5t49 -109.5q0 -70 -39.5 -116.5t-107.5 -58.5q58 -9 91.5 -42.5zM202 643l-37 -263h127q80 0 122 44t42 112q0 107 -138 107h-116zM388.5 94q44.5 53 44.5 128
q0 119 -137 119h-137l-42 -300h122q105 0 149.5 53z" />
    <glyph glyph-name="uni1E02" unicode="&#x1e02;" horiz-adv-x="542" 
d="M447.5 319.5q33.5 -33.5 33.5 -97.5q0 -56 -23.5 -106t-78.5 -83t-145 -33h-169l96 684h156q88 0 137 -37.5t49 -109.5q0 -70 -39.5 -116.5t-107.5 -58.5q58 -9 91.5 -42.5zM202 643l-37 -263h127q80 0 122 44t42 112q0 107 -138 107h-116zM388.5 94q44.5 53 44.5 128
q0 119 -137 119h-137l-42 -300h122q105 0 149.5 53zM318.5 809.5q-8.5 8.5 -8.5 21.5q0 16 11 27t27 11q13 0 22 -8.5t9 -21.5q0 -16 -10.5 -27t-27.5 -11q-14 0 -22.5 8.5z" />
    <glyph glyph-name="uni1E04" unicode="&#x1e04;" horiz-adv-x="542" 
d="M447.5 319.5q33.5 -33.5 33.5 -97.5q0 -56 -23.5 -106t-78.5 -83t-145 -33h-169l96 684h156q88 0 137 -37.5t49 -109.5q0 -70 -39.5 -116.5t-107.5 -58.5q58 -9 91.5 -42.5zM202 643l-37 -263h127q80 0 122 44t42 112q0 107 -138 107h-116zM388.5 94q44.5 53 44.5 128
q0 119 -137 119h-137l-42 -300h122q105 0 149.5 53zM254.5 -99.5q8.5 -8.5 8.5 -21.5q0 -16 -11 -27t-27 -11q-13 0 -22 8.5t-9 21.5q0 16 10.5 27t27.5 11q14 0 22.5 -8.5z" />
    <glyph glyph-name="uniA7B4" unicode="&#xa7b4;" horiz-adv-x="538" 
d="M445.5 321q33.5 -33 33.5 -97q0 -59 -27 -110t-79 -82.5t-122 -31.5q-75 0 -136 27l-31 -222h-46l123 879h148q88 0 136.5 -38t48.5 -110q0 -69 -38 -115.5t-100 -58.5q56 -8 89.5 -41zM349 66.5q41 25.5 61.5 67.5t20.5 90q0 60 -35.5 88.5t-100.5 28.5h-64l11 39h50
q73 0 114 43.5t41 111.5q0 57 -35.5 82.5t-102.5 25.5h-107l-81 -578q58 -24 130 -24q57 0 98 25.5z" />
    <glyph glyph-name="uni0181" unicode="&#x181;" horiz-adv-x="592" 
d="M497.5 319.5q33.5 -33.5 33.5 -97.5q0 -56 -23.5 -106t-78.5 -83t-145 -33h-169l90 644h-23q-40 0 -59.5 -22.5t-19.5 -59.5q0 -30 13 -63l-36 -15q-21 38 -21 79q0 54 33.5 87.5t93.5 33.5h181q88 0 137 -37.5t49 -109.5q0 -70 -39.5 -116.5t-107.5 -58.5
q58 -9 91.5 -42.5zM252 643l-37 -263h127q80 0 122 44t42 112q0 107 -138 107h-116zM438.5 94q44.5 53 44.5 128q0 119 -137 119h-137l-42 -300h122q105 0 149.5 53z" />
    <glyph glyph-name="uni0243" unicode="&#x243;" horiz-adv-x="548" 
d="M453.5 319.5q33.5 -33.5 33.5 -97.5q0 -56 -23.5 -106t-78.5 -83t-145 -33h-169l25 177h-81l6 38h80l66 469h156q88 0 137 -37.5t49 -109.5q0 -70 -39.5 -116.5t-107.5 -58.5q58 -9 91.5 -42.5zM208 643l-37 -263h127q80 0 122 44t42 112q0 107 -138 107h-116zM394.5 94
q44.5 53 44.5 128q0 119 -137 119h-137l-17 -126h160l-5 -38h-161l-19 -136h122q105 0 149.5 53z" />
    <glyph glyph-name="uni0182" unicode="&#x182;" horiz-adv-x="510" 
d="M412.5 370q50.5 -43 50.5 -126q0 -62 -24 -117.5t-79.5 -91t-143.5 -35.5h-151l96 684h305l-13 -41h-251l-33 -230h101q92 0 142.5 -43zM337 72q42 31 59.5 76.5t17.5 94.5q0 130 -144 130h-106l-47 -332h109q69 0 111 31z" />
    <glyph glyph-name="C" unicode="C" horiz-adv-x="495" 
d="M458.5 678.5q34.5 -15.5 64.5 -46.5l-28 -28q-28 26 -55 37.5t-64 11.5q-90 0 -149 -63t-86 -157t-27 -188q0 -105 42 -159t114 -54q45 0 78 14.5t68 42.5l23 -33q-78 -67 -172 -67q-91 0 -146 67t-55 190q0 104 33 207.5t102.5 172t173.5 68.5q49 0 83.5 -15.5z" />
    <glyph glyph-name="Cacute" unicode="&#x106;" horiz-adv-x="495" 
d="M458.5 678.5q34.5 -15.5 64.5 -46.5l-28 -28q-28 26 -55 37.5t-64 11.5q-90 0 -149 -63t-86 -157t-27 -188q0 -105 42 -159t114 -54q45 0 78 14.5t68 42.5l23 -33q-78 -67 -172 -67q-91 0 -146 67t-55 190q0 104 33 207.5t102.5 172t173.5 68.5q49 0 83.5 -15.5zM465 877
l18 -43l-183 -75l-13 27z" />
    <glyph glyph-name="Ccaron" unicode="&#x10c;" horiz-adv-x="495" 
d="M458.5 678.5q34.5 -15.5 64.5 -46.5l-28 -28q-28 26 -55 37.5t-64 11.5q-90 0 -149 -63t-86 -157t-27 -188q0 -105 42 -159t114 -54q45 0 78 14.5t68 42.5l23 -33q-78 -67 -172 -67q-91 0 -146 67t-55 190q0 104 33 207.5t102.5 172t173.5 68.5q49 0 83.5 -15.5zM506 879
l19 -24l-129 -98h-26l-102 99l22 23l97 -79z" />
    <glyph glyph-name="Ccedilla" unicode="&#xc7;" horiz-adv-x="495" 
d="M227 590q-59 -63 -86 -157t-27 -188q0 -105 42 -159t114 -54q45 0 78 14.5t68 42.5l23 -33q-72 -63 -159 -67l-10 -57q74 -6 74 -69q0 -38 -27.5 -61.5t-71.5 -23.5q-39 0 -70 21l18 28q24 -14 52 -14q26 0 42 12.5t16 36.5q0 23 -16 33t-57 10l18 85q-84 7 -133 73.5
t-49 182.5q0 104 33 207.5t102.5 172t173.5 68.5q49 0 83.5 -15.5t64.5 -46.5l-28 -28q-28 26 -55 37.5t-64 11.5q-90 0 -149 -63z" />
    <glyph glyph-name="Ccircumflex" unicode="&#x108;" horiz-adv-x="495" 
d="M458.5 678.5q34.5 -15.5 64.5 -46.5l-28 -28q-28 26 -55 37.5t-64 11.5q-90 0 -149 -63t-86 -157t-27 -188q0 -105 42 -159t114 -54q45 0 78 14.5t68 42.5l23 -33q-78 -67 -172 -67q-91 0 -146 67t-55 190q0 104 33 207.5t102.5 172t173.5 68.5q49 0 83.5 -15.5zM273 763
l-19 25l129 98h27l101 -100l-22 -23l-96 80z" />
    <glyph glyph-name="Cdotaccent" unicode="&#x10a;" horiz-adv-x="495" 
d="M458.5 678.5q34.5 -15.5 64.5 -46.5l-28 -28q-28 26 -55 37.5t-64 11.5q-90 0 -149 -63t-86 -157t-27 -188q0 -105 42 -159t114 -54q45 0 78 14.5t68 42.5l23 -33q-78 -67 -172 -67q-91 0 -146 67t-55 190q0 104 33 207.5t102.5 172t173.5 68.5q49 0 83.5 -15.5z
M367.5 809.5q-8.5 8.5 -8.5 21.5q0 16 11 27t27 11q13 0 22 -8.5t9 -21.5q0 -16 -10.5 -27t-27.5 -11q-14 0 -22.5 8.5z" />
    <glyph glyph-name="uniA7B3" unicode="&#xa7b3;" horiz-adv-x="449" 
d="M472 684l-216 -367l131 -426h-50l-111 393l-217 -393h-51l245 426l-115 367h50l95 -337l187 337h52z" />
    <glyph glyph-name="uni0187" unicode="&#x187;" horiz-adv-x="489" 
d="M694 788l-22 -28q-16 12 -30 17.5t-34 5.5q-30 0 -50 -20t-25 -62l-10 -69l-26 -25q-29 24 -57 35t-64 11q-90 0 -149 -63t-86 -157t-27 -188q0 -105 42 -159t114 -54q45 0 78 14.5t68 42.5l23 -33q-78 -67 -172 -67q-91 0 -146 67t-55 190q0 104 33 207.5t102 172
t173 68.5q63 0 108 -32l6 44q8 56 39.5 85.5t79.5 29.5q47 0 87 -33z" />
    <glyph glyph-name="uni023B" unicode="&#x23b;" horiz-adv-x="495" 
d="M427 646l-226 -598q31 -16 69 -16q45 0 78 14.5t68 42.5l23 -33q-78 -67 -172 -67q-44 0 -81 17l-29 -76l-28 8l31 82q-45 30 -69.5 87.5t-24.5 138.5q0 104 33 207.5t102.5 172t173.5 68.5q20 0 40 -3l19 51l27 -7l-19 -50q44 -15 81 -53l-28 -28q-36 33 -68 42z
M400 652q-8 1 -24 1q-90 0 -149 -63t-86 -157t-27 -188q0 -64 16.5 -110t46.5 -71z" />
    <glyph glyph-name="D" unicode="D" horiz-adv-x="574" 
d="M530 443q0 -118 -34 -218t-109 -162.5t-193 -62.5h-129l96 684h131q238 0 238 -241zM202 643l-85 -603h85q100 0 163 58.5t90.5 150t27.5 194.5q0 115 -52 157.5t-139 42.5h-90z" />
    <glyph glyph-name="uni01F1" unicode="&#x1f1;" horiz-adv-x="1009" 
d="M530 443q0 -118 -34 -218t-109 -162.5t-193 -62.5h-129l96 684h131q238 0 238 -241zM202 643l-85 -603h85q100 0 163 58.5t90.5 150t27.5 194.5q0 115 -52 157.5t-139 42.5h-90zM544 0l6 40l418 602h-301l7 42h352l-5 -40l-418 -602l327 1l-13 -43h-373z" />
    <glyph glyph-name="uni01C4" unicode="&#x1c4;" horiz-adv-x="1009" 
d="M530 443q0 -118 -34 -218t-109 -162.5t-193 -62.5h-129l96 684h131q238 0 238 -241zM202 643l-85 -603h85q100 0 163 58.5t90.5 150t27.5 194.5q0 115 -52 157.5t-139 42.5h-90zM544 0l6 40l418 602h-301l7 42h352l-5 -40l-418 -602l327 1l-13 -43h-373zM975 879l19 -24
l-129 -98h-26l-102 99l22 23l97 -79z" />
    <glyph glyph-name="uni0189" unicode="&#x189;" horiz-adv-x="578" 
d="M534 443q0 -118 -34 -218t-109 -162.5t-193 -62.5h-129l47 334h-79l5 38h79l44 312h131q238 0 238 -241zM369 98.5q63 58.5 90.5 150t27.5 194.5q0 115 -52 157.5t-139 42.5h-90l-38 -271h163l-6 -38h-163l-41 -294h85q100 0 163 58.5z" />
    <glyph glyph-name="Eth" unicode="&#xd0;" horiz-adv-x="578" 
d="M534 443q0 -118 -34 -218t-109 -162.5t-193 -62.5h-129l47 334h-79l5 38h79l44 312h131q238 0 238 -241zM369 98.5q63 58.5 90.5 150t27.5 194.5q0 115 -52 157.5t-139 42.5h-90l-38 -271h163l-6 -38h-163l-41 -294h85q100 0 163 58.5z" />
    <glyph glyph-name="Dcaron" unicode="&#x10e;" horiz-adv-x="574" 
d="M530 443q0 -118 -34 -218t-109 -162.5t-193 -62.5h-129l96 684h131q238 0 238 -241zM202 643l-85 -603h85q100 0 163 58.5t90.5 150t27.5 194.5q0 115 -52 157.5t-139 42.5h-90zM474 879l19 -24l-129 -98h-26l-102 99l22 23l97 -79z" />
    <glyph glyph-name="uni1E12" unicode="&#x1e12;" horiz-adv-x="574" 
d="M530 443q0 -118 -34 -218t-109 -162.5t-193 -62.5h-129l96 684h131q238 0 238 -241zM202 643l-85 -603h85q100 0 163 58.5t90.5 150t27.5 194.5q0 115 -52 157.5t-139 42.5h-90zM97 -198l-20 24l130 104h27l100 -104l-22 -24l-97 85z" />
    <glyph glyph-name="Dcroat" unicode="&#x110;" horiz-adv-x="578" 
d="M534 443q0 -118 -34 -218t-109 -162.5t-193 -62.5h-129l47 334h-79l5 38h79l44 312h131q238 0 238 -241zM369 98.5q63 58.5 90.5 150t27.5 194.5q0 115 -52 157.5t-139 42.5h-90l-38 -271h163l-6 -38h-163l-41 -294h85q100 0 163 58.5z" />
    <glyph glyph-name="uni1E0A" unicode="&#x1e0a;" horiz-adv-x="574" 
d="M530 443q0 -118 -34 -218t-109 -162.5t-193 -62.5h-129l96 684h131q238 0 238 -241zM202 643l-85 -603h85q100 0 163 58.5t90.5 150t27.5 194.5q0 115 -52 157.5t-139 42.5h-90zM335.5 809.5q-8.5 8.5 -8.5 21.5q0 16 11 27t27 11q13 0 22 -8.5t9 -21.5q0 -16 -10.5 -27
t-27.5 -11q-14 0 -22.5 8.5z" />
    <glyph glyph-name="uni1E0C" unicode="&#x1e0c;" horiz-adv-x="574" 
d="M530 443q0 -118 -34 -218t-109 -162.5t-193 -62.5h-129l96 684h131q238 0 238 -241zM202 643l-85 -603h85q100 0 163 58.5t90.5 150t27.5 194.5q0 115 -52 157.5t-139 42.5h-90zM238.5 -99.5q8.5 -8.5 8.5 -21.5q0 -16 -11 -27t-27 -11q-13 0 -22 8.5t-9 21.5
q0 16 10.5 27t27.5 11q14 0 22.5 -8.5z" />
    <glyph glyph-name="uni018A" unicode="&#x18a;" horiz-adv-x="624" 
d="M580 443q0 -118 -34 -218t-109 -162.5t-193 -62.5h-129l90 644h-23q-40 0 -59.5 -22.5t-19.5 -59.5q0 -30 13 -63l-36 -15q-21 38 -21 79q0 54 33.5 87.5t93.5 33.5h156q238 0 238 -241zM415 98.5q63 58.5 90.5 150t27.5 194.5q0 115 -52 157.5t-139 42.5h-90l-85 -603
h85q100 0 163 58.5z" />
    <glyph glyph-name="uni1E0E" unicode="&#x1e0e;" horiz-adv-x="574" 
d="M530 443q0 -118 -34 -218t-109 -162.5t-193 -62.5h-129l96 684h131q238 0 238 -241zM202 643l-85 -603h85q100 0 163 58.5t90.5 150t27.5 194.5q0 115 -52 157.5t-139 42.5h-90zM114 -115h208l-6 -39h-208z" />
    <glyph glyph-name="uni018B" unicode="&#x18b;" horiz-adv-x="511" 
d="M373 0h-142q-93 0 -145 44.5t-52 135.5q0 110 67 171.5t182 61.5h101l32 230h-255l5 41h303zM378 373h-99q-94 0 -145.5 -50.5t-51.5 -142.5q0 -72 38 -105.5t115 -33.5h97z" />
    <glyph glyph-name="uni01F2" unicode="&#x1f2;" horiz-adv-x="939" 
d="M530 443q0 -118 -34 -218t-109 -162.5t-193 -62.5h-129l96 684h131q238 0 238 -241zM202 643l-85 -603h85q100 0 163 58.5t90.5 150t27.5 194.5q0 115 -52 157.5t-139 42.5h-90zM946 522l-6 -36l-328 -446h263l-11 -40h-312l6 36l328 445h-244l6 41h298z" />
    <glyph glyph-name="uni01C5" unicode="&#x1c5;" horiz-adv-x="939" 
d="M530 443q0 -118 -34 -218t-109 -162.5t-193 -62.5h-129l96 684h131q238 0 238 -241zM202 643l-85 -603h85q100 0 163 58.5t90.5 150t27.5 194.5q0 115 -52 157.5t-139 42.5h-90zM946 522l-6 -36l-328 -446h263l-11 -40h-312l6 36l328 445h-244l6 41h298zM936 763l19 -24
l-129 -104h-27l-101 104l23 24l94 -85z" />
    <glyph glyph-name="E" unicode="E" horiz-adv-x="453" 
d="M468 684l-12 -41h-254l-37 -266h220l-6 -40h-220l-42 -296h267l-7 -41h-312l96 684h307z" />
    <glyph glyph-name="Eacute" unicode="&#xc9;" horiz-adv-x="453" 
d="M468 684l-12 -41h-254l-37 -266h220l-6 -40h-220l-42 -296h267l-7 -41h-312l96 684h307zM411 877l18 -43l-183 -75l-13 27z" />
    <glyph glyph-name="Ebreve" unicode="&#x114;" horiz-adv-x="453" 
d="M468 684l-12 -41h-254l-37 -266h220l-6 -40h-220l-42 -296h267l-7 -41h-312l96 684h307zM256 794q-27 27 -28 67l30 4q5 -28 23 -43.5t49 -15.5q32 0 55 16.5t36 44.5l31 -9q-11 -40 -45 -65.5t-78 -25.5q-46 0 -73 27z" />
    <glyph glyph-name="Ecaron" unicode="&#x11a;" horiz-adv-x="453" 
d="M468 684l-12 -41h-254l-37 -266h220l-6 -40h-220l-42 -296h267l-7 -41h-312l96 684h307zM452 879l19 -24l-129 -98h-26l-102 99l22 23l97 -79z" />
    <glyph glyph-name="uni0228" unicode="&#x228;" horiz-adv-x="453" 
d="M202 643l-37 -266h220l-6 -40h-220l-42 -296h267l-7 -41h-143l-11 -68q74 -6 74 -68q0 -38 -27.5 -62t-71.5 -24q-39 0 -70 21l18 28q24 -14 52 -14q26 0 42 12.5t16 36.5q0 23 -16 33t-57 10l20 95h-138l96 684h307l-12 -41h-254z" />
    <glyph glyph-name="Ecircumflex" unicode="&#xca;" horiz-adv-x="453" 
d="M468 684l-12 -41h-254l-37 -266h220l-6 -40h-220l-42 -296h267l-7 -41h-312l96 684h307zM219 763l-19 25l129 98h27l101 -100l-22 -23l-96 80z" />
    <glyph glyph-name="uni1EBE" unicode="&#x1ebe;" horiz-adv-x="453" 
d="M515 978l29 -30l-122 -118l-20 19zM215 731l-19 25l129 98h27l101 -100l-22 -23l-96 80zM468 684l-12 -41h-254l-37 -266h220l-6 -40h-220l-42 -296h267l-7 -41h-312l96 684h307z" />
    <glyph glyph-name="uni1EC6" unicode="&#x1ec6;" horiz-adv-x="453" 
d="M468 684l-12 -41h-254l-37 -266h220l-6 -40h-220l-42 -296h267l-7 -41h-312l96 684h307zM219 763l-19 25l129 98h27l101 -100l-22 -23l-96 80zM228.5 -99.5q8.5 -8.5 8.5 -21.5q0 -16 -11 -27t-27 -11q-13 0 -22 8.5t-9 21.5q0 16 10.5 27t27.5 11q14 0 22.5 -8.5z" />
    <glyph glyph-name="uni1EC0" unicode="&#x1ec0;" horiz-adv-x="453" 
d="M185 977l77 -130l-23 -17l-90 122zM213 731l-19 25l129 98h27l101 -100l-22 -23l-96 80zM468 684l-12 -41h-254l-37 -266h220l-6 -40h-220l-42 -296h267l-7 -41h-312l96 684h307z" />
    <glyph glyph-name="uni1EC2" unicode="&#x1ec2;" horiz-adv-x="453" 
d="M468 684l-12 -41h-254l-37 -266h220l-6 -40h-220l-42 -296h267l-7 -41h-312l96 684h307zM213 731l-19 25l129 98h27l101 -100l-22 -23l-96 80zM425 880q71 4 71 55q0 35 -37 35q-26 0 -52 -14l-12 31q33 19 69 19q34 0 54 -19.5t20 -51.5q0 -34 -20.5 -54t-56.5 -25
l-5 -45h-38z" />
    <glyph glyph-name="uni1EC4" unicode="&#x1ec4;" horiz-adv-x="453" 
d="M367.5 894.5q-12.5 6.5 -30.5 18.5q-15 11 -23.5 15.5t-19.5 4.5q-16 0 -28 -8.5t-29 -30.5l-25 17q41 59 82 59q15 0 28.5 -6t29.5 -18q13 -10 23.5 -15t21.5 -5q14 0 27 10t29 33l27 -16q-39 -65 -83 -65q-17 0 -29.5 6.5zM213 731l-19 25l129 98h27l101 -100l-22 -23
l-96 80zM468 684l-12 -41h-254l-37 -266h220l-6 -40h-220l-42 -296h267l-7 -41h-312l96 684h307z" />
    <glyph glyph-name="uni0204" unicode="&#x204;" horiz-adv-x="453" 
d="M468 684l-12 -41h-254l-37 -266h220l-6 -40h-220l-42 -296h267l-7 -41h-312l96 684h307zM245 929l49 -145l-33 -13l-62 138zM355 929l44 -140l-33 -13l-56 132z" />
    <glyph glyph-name="Edieresis" unicode="&#xcb;" horiz-adv-x="453" 
d="M468 684l-12 -41h-254l-37 -266h220l-6 -40h-220l-42 -296h267l-7 -41h-312l96 684h307zM232 801q-8 8 -8 20q0 15 10 25.5t26 10.5q13 0 21 -8t8 -20q0 -16 -10 -26t-26 -10q-13 0 -21 8zM398 801q-8 8 -8 20q0 15 10 25.5t25 10.5q13 0 21 -8t8 -20q0 -16 -10 -26
t-25 -10q-13 0 -21 8z" />
    <glyph glyph-name="Edotaccent" unicode="&#x116;" horiz-adv-x="453" 
d="M468 684l-12 -41h-254l-37 -266h220l-6 -40h-220l-42 -296h267l-7 -41h-312l96 684h307zM313.5 809.5q-8.5 8.5 -8.5 21.5q0 16 11 27t27 11q13 0 22 -8.5t9 -21.5q0 -16 -10.5 -27t-27.5 -11q-14 0 -22.5 8.5z" />
    <glyph glyph-name="uni1EB8" unicode="&#x1eb8;" horiz-adv-x="453" 
d="M468 684l-12 -41h-254l-37 -266h220l-6 -40h-220l-42 -296h267l-7 -41h-312l96 684h307zM228.5 -99.5q8.5 -8.5 8.5 -21.5q0 -16 -11 -27t-27 -11q-13 0 -22 8.5t-9 21.5q0 16 10.5 27t27.5 11q14 0 22.5 -8.5z" />
    <glyph glyph-name="Egrave" unicode="&#xc8;" horiz-adv-x="453" 
d="M468 684l-12 -41h-254l-37 -266h220l-6 -40h-220l-42 -296h267l-7 -41h-312l96 684h307zM276 876l153 -90l-17 -27l-160 75z" />
    <glyph glyph-name="uni1EBA" unicode="&#x1eba;" horiz-adv-x="453" 
d="M468 684l-12 -41h-254l-37 -266h220l-6 -40h-220l-42 -296h267l-7 -41h-312l96 684h307zM321 847q71 4 71 55q0 35 -37 35q-26 0 -52 -14l-12 31q33 19 69 19q34 0 54 -19.5t20 -51.5q0 -34 -20.5 -54t-56.5 -25l-5 -45h-38z" />
    <glyph glyph-name="uni0206" unicode="&#x206;" horiz-adv-x="453" 
d="M468 684l-12 -41h-254l-37 -266h220l-6 -40h-220l-42 -296h267l-7 -41h-312l96 684h307zM220 797q13 47 46 74t78 27q46 0 73 -28.5t27 -75.5l-31 -4q-7 69 -71 69q-65 0 -93 -71z" />
    <glyph glyph-name="Emacron" unicode="&#x112;" horiz-adv-x="453" 
d="M468 684l-12 -41h-254l-37 -266h220l-6 -40h-220l-42 -296h267l-7 -41h-312l96 684h307zM440 805h-208l6 39h208z" />
    <glyph glyph-name="Eogonek" unicode="&#x118;" horiz-adv-x="453" 
d="M202 643l-37 -266h220l-6 -40h-220l-42 -296h267l-7 -41h-25q-68 -32 -97.5 -60.5t-29.5 -66.5q0 -46 51 -46q21 0 52 6l-9 -39q-27 -6 -49 -6q-41 0 -64.5 21.5t-23.5 56.5q0 43 25.5 74.5t83.5 59.5h-226l96 684h307l-12 -41h-254z" />
    <glyph glyph-name="uni0190" unicode="&#x190;" horiz-adv-x="471" 
d="M411 673q41 -21 77 -63l-30 -27q-29 34 -64 52t-81 18q-67 0 -109.5 -43t-42.5 -111q0 -53 33.5 -82t93.5 -29h48l-12 -41l-44 1q-88 1 -139 -49t-51 -135q0 -64 35 -98.5t96 -34.5q92 0 174 79l28 -30q-95 -91 -204 -91q-80 0 -129 47t-49 127q0 88 48.5 143t125.5 64
q-47 12 -74 44t-27 84q0 57 25.5 101.5t71 69.5t102.5 25t98 -21z" />
    <glyph glyph-name="uni018E" unicode="&#x18e;" horiz-adv-x="453" 
d="M103 684h307l-96 -684h-313l6 41h266l42 296h-221l6 40h221l37 266h-260z" />
    <glyph glyph-name="uni01A9" unicode="&#x1a9;" horiz-adv-x="447" 
d="M461 684l-5 -41h-300l155 -295l-3 -24l-232 -283h295l-6 -41h-357l4 31l254 309l-166 313l4 31h357z" />
    <glyph glyph-name="uni0246" unicode="&#x246;" horiz-adv-x="453" 
d="M456 643h-47l-101 -266h77l-6 -40h-86l-112 -296h203l-7 -41h-211l-27 -70l-27 8l23 62h-70l96 684h233l22 58l28 -7l-19 -51h43zM278 377l101 266h-177l-37 -266h113zM151 41l112 296h-104l-42 -296h34z" />
    <glyph glyph-name="uni1EBC" unicode="&#x1ebc;" horiz-adv-x="453" 
d="M468 684l-12 -41h-254l-37 -266h220l-6 -40h-220l-42 -296h267l-7 -41h-312l96 684h307zM362.5 802.5q-12.5 6.5 -30.5 18.5q-15 11 -23.5 15.5t-19.5 4.5q-16 0 -28 -8.5t-29 -30.5l-25 17q41 59 82 59q15 0 28.5 -6t29.5 -18q13 -10 23.5 -15t21.5 -5q14 0 27 10t29 33
l27 -16q-39 -65 -83 -65q-17 0 -29.5 6.5z" />
    <glyph glyph-name="uni01B7" unicode="&#x1b7;" horiz-adv-x="436" 
d="M425 645l-244 -263h23q91 0 137 -41.5t46 -117.5q0 -68 -29.5 -121t-81 -83t-115.5 -30q-60 0 -101 22t-72 65l31 24q29 -36 61.5 -52.5t80.5 -16.5q80 0 128.5 53t48.5 139q0 120 -138 120h-76l5 39l237 261h-280l6 41h338z" />
    <glyph glyph-name="uni01EE" unicode="&#x1ee;" horiz-adv-x="436" 
d="M425 645l-244 -263h23q91 0 137 -41.5t46 -117.5q0 -68 -29.5 -121t-81 -83t-115.5 -30q-60 0 -101 22t-72 65l31 24q29 -36 61.5 -52.5t80.5 -16.5q80 0 128.5 53t48.5 139q0 120 -138 120h-76l5 39l237 261h-280l6 41h338zM394 879l19 -24l-129 -98h-26l-102 99l22 23
l97 -79z" />
    <glyph glyph-name="uni01B8" unicode="&#x1b8;" horiz-adv-x="437" 
d="M457 643h-284l167 -261l-5 -39h-74q-86 0 -134.5 -49.5t-48.5 -133.5q0 -61 33 -95t93 -34q51 0 89.5 16.5t77.5 53.5l26 -28q-42 -42 -88.5 -63t-106.5 -21q-78 0 -125 47t-47 124q0 67 29 117t81 77.5t120 27.5h34l-174 263l5 39h338z" />
    <glyph glyph-name="F" unicode="F" horiz-adv-x="428" 
d="M463 684l-12 -41h-249l-39 -279h216l-6 -40h-216l-46 -324h-46l96 684h302z" />
    <glyph glyph-name="uni1E1E" unicode="&#x1e1e;" horiz-adv-x="428" 
d="M463 684l-12 -41h-249l-39 -279h216l-6 -40h-216l-46 -324h-46l96 684h302zM306.5 809.5q-8.5 8.5 -8.5 21.5q0 16 11 27t27 11q13 0 22 -8.5t9 -21.5q0 -16 -10.5 -27t-27.5 -11q-14 0 -22.5 8.5z" />
    <glyph glyph-name="uni0191" unicode="&#x191;" horiz-adv-x="428" 
d="M202 643l-39 -279h216l-6 -40h-216l-46 -324l-11 -83q-9 -59 -41.5 -89t-80.5 -30q-49 0 -86 33l22 29q16 -12 29.5 -17.5t33.5 -5.5q29 0 49.5 20t26.5 63l12 80l96 684h302l-12 -41h-249z" />
    <glyph glyph-name="G" unicode="G" horiz-adv-x="554" 
d="M467 678q38 -16 72 -49l-30 -28q-29 28 -59.5 40t-71.5 12q-85 0 -144.5 -59t-89 -153.5t-29.5 -200.5q0 -105 42.5 -157t121.5 -52q71 0 139 37l36 256h-121v41h173l-44 -321q-93 -55 -187 -55q-99 0 -154 65t-55 190q0 115 36 218t107 167.5t171 64.5q49 0 87 -16z" />
    <glyph glyph-name="uni01F4" unicode="&#x1f4;" horiz-adv-x="554" 
d="M467 678q38 -16 72 -49l-30 -28q-29 28 -59.5 40t-71.5 12q-85 0 -144.5 -59t-89 -153.5t-29.5 -200.5q0 -105 42.5 -157t121.5 -52q71 0 139 37l36 256h-121v41h173l-44 -321q-93 -55 -187 -55q-99 0 -154 65t-55 190q0 115 36 218t107 167.5t171 64.5q49 0 87 -16z
M471 877l18 -43l-183 -75l-13 27z" />
    <glyph glyph-name="uni0194" unicode="&#x194;" horiz-adv-x="495" 
d="M245 56q17 -58 24 -89.5t7 -61.5q0 -49 -25 -78t-67 -29q-33 0 -51.5 19.5t-18.5 53.5q0 36 18 77.5t60 111.5l-112 624h47l96 -590l262 590h49zM228.5 -44.5q-4.5 25.5 -15.5 69.5q-29 -53 -43 -88.5t-14 -63.5q0 -36 30 -36q23 0 35 18t12 49q0 26 -4.5 51.5z" />
    <glyph glyph-name="Gbreve" unicode="&#x11e;" horiz-adv-x="554" 
d="M467 678q38 -16 72 -49l-30 -28q-29 28 -59.5 40t-71.5 12q-85 0 -144.5 -59t-89 -153.5t-29.5 -200.5q0 -105 42.5 -157t121.5 -52q71 0 139 37l36 256h-121v41h173l-44 -321q-93 -55 -187 -55q-99 0 -154 65t-55 190q0 115 36 218t107 167.5t171 64.5q49 0 87 -16z
M316 794q-27 27 -28 67l30 4q5 -28 23 -43.5t49 -15.5q32 0 55 16.5t36 44.5l31 -9q-11 -40 -45 -65.5t-78 -25.5q-46 0 -73 27z" />
    <glyph glyph-name="Gcaron" unicode="&#x1e6;" horiz-adv-x="554" 
d="M467 678q38 -16 72 -49l-30 -28q-29 28 -59.5 40t-71.5 12q-85 0 -144.5 -59t-89 -153.5t-29.5 -200.5q0 -105 42.5 -157t121.5 -52q71 0 139 37l36 256h-121v41h173l-44 -321q-93 -55 -187 -55q-99 0 -154 65t-55 190q0 115 36 218t107 167.5t171 64.5q49 0 87 -16z
M512 879l19 -24l-129 -98h-26l-102 99l22 23l97 -79z" />
    <glyph glyph-name="Gcircumflex" unicode="&#x11c;" horiz-adv-x="554" 
d="M467 678q38 -16 72 -49l-30 -28q-29 28 -59.5 40t-71.5 12q-85 0 -144.5 -59t-89 -153.5t-29.5 -200.5q0 -105 42.5 -157t121.5 -52q71 0 139 37l36 256h-121v41h173l-44 -321q-93 -55 -187 -55q-99 0 -154 65t-55 190q0 115 36 218t107 167.5t171 64.5q49 0 87 -16z
M279 763l-19 25l129 98h27l101 -100l-22 -23l-96 80z" />
    <glyph glyph-name="Gcommaaccent" unicode="&#x122;" horiz-adv-x="554" 
d="M467 678q38 -16 72 -49l-30 -28q-29 28 -59.5 40t-71.5 12q-85 0 -144.5 -59t-89 -153.5t-29.5 -200.5q0 -105 42.5 -157t121.5 -52q71 0 139 37l36 256h-121v41h173l-44 -321q-93 -55 -187 -55q-99 0 -154 65t-55 190q0 115 36 218t107 167.5t171 64.5q49 0 87 -16z
M285 -97.5q9 -9.5 9 -23.5q0 -12 -4.5 -23t-19.5 -38l-52 -91h-28l46 115q-16 11 -16 30q0 17 11 28.5t29 11.5q16 0 25 -9.5z" />
    <glyph glyph-name="Gdotaccent" unicode="&#x120;" horiz-adv-x="554" 
d="M467 678q38 -16 72 -49l-30 -28q-29 28 -59.5 40t-71.5 12q-85 0 -144.5 -59t-89 -153.5t-29.5 -200.5q0 -105 42.5 -157t121.5 -52q71 0 139 37l36 256h-121v41h173l-44 -321q-93 -55 -187 -55q-99 0 -154 65t-55 190q0 115 36 218t107 167.5t171 64.5q49 0 87 -16z
M373.5 809.5q-8.5 8.5 -8.5 21.5q0 16 11 27t27 11q13 0 22 -8.5t9 -21.5q0 -16 -10.5 -27t-27.5 -11q-14 0 -22.5 8.5z" />
    <glyph glyph-name="uni0193" unicode="&#x193;" horiz-adv-x="506" 
d="M712 788l-23 -28q-28 23 -63 23q-30 0 -50.5 -21t-26.5 -66l-10 -67l-26 -25q-31 26 -62 37.5t-72 11.5q-86 0 -145.5 -59t-89 -153.5t-29.5 -200.5q0 -105 42.5 -157t121.5 -52q73 0 139 37l36 256h-121v41h173l-44 -321q-93 -55 -187 -55q-98 0 -153 65t-55 190
q0 115 36 218t106.5 167.5t169.5 64.5q73 0 120 -36l6 42q8 60 39.5 90.5t79.5 30.5t88 -33z" />
    <glyph glyph-name="uni0241" unicode="&#x241;" horiz-adv-x="415" 
d="M149 299l62 17q80 22 119.5 71.5t39.5 132.5q0 63 -30.5 98t-88.5 35q-43 0 -82 -18t-81 -53l-24 30q46 41 92 61.5t98 20.5q77 0 121 -47t44 -125q0 -99 -48.5 -157t-141.5 -83l-37 -10l-39 -272h-46z" />
    <glyph glyph-name="uni01E4" unicode="&#x1e4;" horiz-adv-x="562" 
d="M552 199h-69l-21 -155q-93 -55 -187 -55q-99 0 -154 65t-55 190q0 115 36 218t107 167.5t171 64.5q49 0 87 -16t72 -49l-30 -28q-29 28 -59.5 40t-71.5 12q-85 0 -144.5 -59t-89 -153.5t-29.5 -200.5q0 -105 42.5 -157t121.5 -52q71 0 139 37l18 131h-118l6 40h118l12 85
h-121v41h173l-17 -126h68z" />
    <glyph glyph-name="uni021C" unicode="&#x21c;" horiz-adv-x="447" 
d="M378 654.5q41 -39.5 41 -108.5q0 -76 -39.5 -122.5t-109.5 -64.5q118 -16 118 -129q0 -129 -104 -202.5t-283 -112.5l-1 39q159 38 248.5 101.5t89.5 173.5q0 56 -34 83t-104 26l-55 -1l12 41h45q75 0 122 46t47 119q0 53 -28 81.5t-79 28.5q-46 0 -85.5 -18t-83.5 -53
l-23 30q48 42 94.5 62t100.5 20q70 0 111 -39.5z" />
    <glyph glyph-name="H" unicode="H" horiz-adv-x="599" 
d="M111 0h-46l96 684h47l-43 -304h303l42 304h47l-96 -684h-47l48 340h-303z" />
    <glyph glyph-name="Hbar" unicode="&#x126;" horiz-adv-x="597" 
d="M595 551l-6 -35h-56l-72 -516h-47l48 340h-303l-48 -340h-46l72 516h-56l5 35h56l19 133h47l-19 -133h303l18 133h47l-19 -133h57zM468 380l19 136h-303l-19 -136h303z" />
    <glyph glyph-name="uni021E" unicode="&#x21e;" horiz-adv-x="599" 
d="M111 0h-46l96 684h47l-43 -304h303l42 304h47l-96 -684h-47l48 340h-303zM491 879l19 -24l-129 -98h-26l-102 99l22 23l97 -79z" />
    <glyph glyph-name="Hcircumflex" unicode="&#x124;" horiz-adv-x="599" 
d="M111 0h-46l96 684h47l-43 -304h303l42 304h47l-96 -684h-47l48 340h-303zM258 763l-19 25l129 98h27l101 -100l-22 -23l-96 80z" />
    <glyph glyph-name="uni1E24" unicode="&#x1e24;" horiz-adv-x="599" 
d="M111 0h-46l96 684h47l-43 -304h303l42 304h47l-96 -684h-47l48 340h-303zM270.5 -99.5q8.5 -8.5 8.5 -21.5q0 -16 -11 -27t-27 -11q-13 0 -22 8.5t-9 21.5q0 16 10.5 27t27.5 11q14 0 22.5 -8.5z" />
    <glyph glyph-name="uniA7AA" unicode="&#xa7aa;" horiz-adv-x="650" 
d="M607 684l-96 -684h-47l48 340h-303l-48 -340h-46l90 644h-23q-40 0 -59.5 -22.5t-19.5 -59.5q0 -30 13 -63l-36 -15q-21 38 -21 79q0 54 33.5 87.5t93.5 33.5h72l-43 -304h303l42 304h47z" />
    <glyph glyph-name="uniA78D" unicode="&#xa78d;" horiz-adv-x="532" 
d="M489 684l-96 -684h-46l42 299q-80 -74 -173 -74q-70 0 -111.5 41t-41.5 110q0 15 3 33l38 275h47l-39 -275q-2 -20 -2 -29q0 -54 30 -83.5t85 -29.5q49 0 93.5 22.5t77.5 60.5l47 334h46z" />
    <glyph glyph-name="uni01F6" unicode="&#x1f6;" horiz-adv-x="865" 
d="M467.5 25.5q-34.5 36.5 -34.5 95.5q0 8 2 28l27 191h-303l-48 -340h-46l96 684h47l-43 -304h303l42 304h47l-76 -535q-2 -18 -2 -26q0 -46 23.5 -70t66.5 -24q106 0 146.5 119.5t40.5 286.5q0 45 -3 87h43q4 -60 4 -89q0 -190 -52 -317t-183 -127q-63 0 -97.5 36.5z" />
    <glyph glyph-name="I" unicode="I" horiz-adv-x="250" 
d="M208 684l-97 -684h-46l96 684h47z" />
    <glyph glyph-name="IJ" unicode="&#x132;" horiz-adv-x="511" 
d="M208 684l-97 -684h-46l96 684h47zM390 89q-8 -58 -25.5 -93.5t-49 -59.5t-87.5 -48l-11 34q45 22 70 43.5t37.5 50.5t19.5 78l83 590h47z" />
    <glyph glyph-name="Iacute" unicode="&#xcd;" horiz-adv-x="250" 
d="M208 684l-97 -684h-46l96 684h47zM277 877l18 -43l-183 -75l-13 27z" />
    <glyph glyph-name="Ibreve" unicode="&#x12c;" horiz-adv-x="250" 
d="M208 684l-97 -684h-46l96 684h47zM122 794q-27 27 -28 67l30 4q5 -28 23 -43.5t49 -15.5q32 0 55 16.5t36 44.5l31 -9q-11 -40 -45 -65.5t-78 -25.5q-46 0 -73 27z" />
    <glyph glyph-name="uni01CF" unicode="&#x1cf;" horiz-adv-x="250" 
d="M208 684l-97 -684h-46l96 684h47zM318 879l19 -24l-129 -98h-26l-102 99l22 23l97 -79z" />
    <glyph glyph-name="Icircumflex" unicode="&#xce;" horiz-adv-x="250" 
d="M208 684l-97 -684h-46l96 684h47zM85 763l-19 25l129 98h27l101 -100l-22 -23l-96 80z" />
    <glyph glyph-name="uni0208" unicode="&#x208;" horiz-adv-x="250" 
d="M208 684l-97 -684h-46l96 684h47zM111 929l49 -145l-33 -13l-62 138zM221 929l44 -140l-33 -13l-56 132z" />
    <glyph glyph-name="Idieresis" unicode="&#xcf;" horiz-adv-x="250" 
d="M208 684l-97 -684h-46l96 684h47zM98 801q-8 8 -8 20q0 15 10 25.5t26 10.5q13 0 21 -8t8 -20q0 -16 -10 -26t-26 -10q-13 0 -21 8zM264 801q-8 8 -8 20q0 15 10 25.5t25 10.5q13 0 21 -8t8 -20q0 -16 -10 -26t-25 -10q-13 0 -21 8z" />
    <glyph glyph-name="uni1E2E" unicode="&#x1e2e;" horiz-adv-x="250" 
d="M208 684l-97 -684h-46l96 684h47zM290 955l29 -30l-122 -118l-20 19zM87 752q-8 8 -8 21q0 15 10 25.5t26 10.5q13 0 21 -8t8 -21q0 -15 -10 -25.5t-26 -10.5q-13 0 -21 8zM252 752q-8 8 -8 21q0 15 10 25.5t26 10.5q13 0 21 -8t8 -21q0 -15 -10 -25.5t-26 -10.5
q-13 0 -21 8z" />
    <glyph glyph-name="Idotaccent" unicode="&#x130;" horiz-adv-x="250" 
d="M208 684l-97 -684h-46l96 684h47zM179.5 809.5q-8.5 8.5 -8.5 21.5q0 16 11 27t27 11q13 0 22 -8.5t9 -21.5q0 -16 -10.5 -27t-27.5 -11q-14 0 -22.5 8.5z" />
    <glyph glyph-name="uni1ECA" unicode="&#x1eca;" horiz-adv-x="250" 
d="M208 684l-97 -684h-46l96 684h47zM97.5 -99.5q8.5 -8.5 8.5 -21.5q0 -16 -11 -27t-27 -11q-13 0 -22 8.5t-9 21.5q0 16 10.5 27t27.5 11q14 0 22.5 -8.5z" />
    <glyph glyph-name="Igrave" unicode="&#xcc;" horiz-adv-x="250" 
d="M208 684l-97 -684h-46l96 684h47zM142 876l153 -90l-17 -27l-160 75z" />
    <glyph glyph-name="uni1EC8" unicode="&#x1ec8;" horiz-adv-x="250" 
d="M208 684l-97 -684h-46l96 684h47zM187 847q71 4 71 55q0 35 -37 35q-26 0 -52 -14l-12 31q33 19 69 19q34 0 54 -19.5t20 -51.5q0 -34 -20.5 -54t-56.5 -25l-5 -45h-38z" />
    <glyph glyph-name="uni020A" unicode="&#x20a;" horiz-adv-x="250" 
d="M208 684l-97 -684h-46l96 684h47zM86 797q13 47 46 74t78 27q46 0 73 -28.5t27 -75.5l-31 -4q-7 69 -71 69q-65 0 -93 -71z" />
    <glyph glyph-name="Imacron" unicode="&#x12a;" horiz-adv-x="250" 
d="M208 684l-97 -684h-46l96 684h47zM306 805h-208l6 39h208z" />
    <glyph glyph-name="Iogonek" unicode="&#x12e;" horiz-adv-x="250" 
d="M208 684l-97 -684h-5q-68 -32 -97.5 -60.5t-29.5 -66.5q0 -46 51 -46q21 0 52 6l-9 -39q-27 -6 -49 -6q-41 0 -64.5 21.5t-23.5 56.5q0 46 30.5 80t99.5 64l95 674h47z" />
    <glyph glyph-name="uni0196" unicode="&#x196;" horiz-adv-x="293" 
d="M254 21q-43 -31 -92 -31q-44 0 -69 25t-25 72q0 6 2 24l12 81l69 492h47l-69 -492h-1l-11 -84q-2 -16 -2 -22q0 -29 13.5 -43t36.5 -14q22 0 37 6t33 17z" />
    <glyph glyph-name="uni0197" unicode="&#x197;" horiz-adv-x="284" 
d="M276 380l-6 -40h-91l-48 -340h-46l48 340h-97l6 40h96l43 304h47l-43 -304h91z" />
    <glyph glyph-name="Itilde" unicode="&#x128;" horiz-adv-x="250" 
d="M208 684l-97 -684h-46l96 684h47zM228.5 802.5q-12.5 6.5 -30.5 18.5q-15 11 -23.5 15.5t-19.5 4.5q-16 0 -28 -8.5t-29 -30.5l-25 17q41 59 82 59q15 0 28.5 -6t29.5 -18q13 -10 23.5 -15t21.5 -5q14 0 27 10t29 33l27 -16q-39 -65 -83 -65q-17 0 -29.5 6.5z" />
    <glyph glyph-name="J" unicode="J" horiz-adv-x="261" 
d="M140 89q-8 -58 -25.5 -93.5t-49 -59.5t-87.5 -48l-11 34q45 22 70 43.5t37.5 50.5t19.5 78l83 590h47z" />
    <glyph glyph-name="Jcircumflex" unicode="&#x134;" horiz-adv-x="261" 
d="M140 89q-8 -58 -25.5 -93.5t-49 -59.5t-87.5 -48l-11 34q45 22 70 43.5t37.5 50.5t19.5 78l83 590h47zM99 763l-19 25l129 98h27l101 -100l-22 -23l-96 80z" />
    <glyph glyph-name="uniA7B2" unicode="&#xa7b2;" horiz-adv-x="275" 
d="M136 -21q46 -13 88 -36l-17 -29q-38 21 -76 31q-13 -69 -50 -108t-101 -39q-46 0 -72 24t-26 64q0 50 37 79.5t96 29.5q43 0 76 -7l98 696h47zM52 -136.5q24 30.5 34 90.5q-32 6 -72 6q-45 0 -68.5 -19.5t-23.5 -53.5q0 -25 15 -39.5t45 -14.5q46 0 70 30.5z" />
    <glyph glyph-name="uni0248" unicode="&#x248;" horiz-adv-x="280" 
d="M270 323h-94l-33 -234q-8 -58 -25.5 -93.5t-49 -59.5t-87.5 -48l-11 34q45 22 70 43.5t37.5 50.5t19.5 78l32 229h-93l6 40h93l45 321h47l-45 -321h94z" />
    <glyph glyph-name="K" unicode="K" horiz-adv-x="486" 
d="M65 0l96 684h47l-96 -684h-47zM391 0l-225 367l307 317h54l-308 -319l226 -365h-54z" />
    <glyph glyph-name="uni01E8" unicode="&#x1e8;" horiz-adv-x="486" 
d="M65 0l96 684h47l-96 -684h-47zM391 0l-225 367l307 317h54l-308 -319l226 -365h-54zM463 879l19 -24l-129 -98h-26l-102 99l22 23l97 -79z" />
    <glyph glyph-name="Kcommaaccent" unicode="&#x136;" horiz-adv-x="486" 
d="M65 0l96 684h47l-96 -684h-47zM391 0l-225 367l307 317h54l-308 -319l226 -365h-54zM253 -97.5q9 -9.5 9 -23.5q0 -12 -4.5 -23t-19.5 -38l-52 -91h-28l46 115q-16 11 -16 30q0 17 11 28.5t29 11.5q16 0 25 -9.5z" />
    <glyph glyph-name="uni0198" unicode="&#x198;" horiz-adv-x="517" 
d="M166 367l207 254q34 42 59 57.5t58 15.5q25 0 43.5 -10t35.5 -27l-27 -26q-15 12 -25.5 17.5t-26.5 5.5q-21 0 -38 -11.5t-49 -50.5l-184 -225l226 -367h-54zM65 0l96 684h47l-96 -684h-47z" />
    <glyph glyph-name="L" unicode="L" horiz-adv-x="417" 
d="M208 684l-90 -641h258l-14 -43h-297l96 684h47z" />
    <glyph glyph-name="uni01C7" unicode="&#x1c7;" horiz-adv-x="662" 
d="M208 684l-90 -641h258l-14 -43h-297l96 684h47zM541 89q-8 -58 -25.5 -93.5t-49 -59.5t-87.5 -48l-11 34q45 22 70 43.5t37.5 50.5t19.5 78l83 590h47z" />
    <glyph glyph-name="Lacute" unicode="&#x139;" horiz-adv-x="417" 
d="M208 684l-90 -641h258l-14 -43h-297l96 684h47zM277 877l18 -43l-183 -75l-13 27z" />
    <glyph glyph-name="uni023D" unicode="&#x23d;" horiz-adv-x="432" 
d="M134 43h258l-14 -43h-297l48 343h-92l6 40h92l42 301h47l-42 -301h95l-6 -40h-95z" />
    <glyph glyph-name="uniA7AD" unicode="&#xa7ad;" horiz-adv-x="450" 
d="M410 43l-14 -43h-297l38 272q-48 1 -76 23t-28 64q0 44 29 70t72 26q13 0 29 -2l32 231h47l-53 -375q26 1 50.5 4t51.5 8l3 -34q-54 -12 -110 -15l-32 -229h258zM91 321q17 -12 51 -12l16 109q-14 2 -25 2q-27 0 -43 -16t-16 -44q0 -27 17 -39z" />
    <glyph glyph-name="Lcaron" unicode="&#x13d;" horiz-adv-x="417" 
d="M208 684l-90 -641h258l-14 -43h-297l96 684h47zM289 688l43 -5l-53 -156l-28 4z" />
    <glyph glyph-name="uni1E3C" unicode="&#x1e3c;" horiz-adv-x="417" 
d="M208 684l-90 -641h258l-14 -43h-297l96 684h47zM82 -198l-20 24l130 104h27l100 -104l-22 -24l-97 85z" />
    <glyph glyph-name="Lcommaaccent" unicode="&#x13b;" horiz-adv-x="417" 
d="M208 684l-90 -641h258l-14 -43h-297l96 684h47zM230 -97.5q9 -9.5 9 -23.5q0 -12 -4.5 -23t-19.5 -38l-52 -91h-28l46 115q-16 11 -16 30q0 17 11 28.5t29 11.5q16 0 25 -9.5z" />
    <glyph glyph-name="Ldot" unicode="&#x13f;" horiz-adv-x="417" 
d="M208 684l-90 -641h258l-14 -43h-297l96 684h47zM314.5 337.5q-8.5 8.5 -8.5 21.5q0 16 11 27t27 11q13 0 22 -8.5t9 -21.5q0 -16 -10.5 -27t-27.5 -11q-14 0 -22.5 8.5z" />
    <glyph glyph-name="uni1E36" unicode="&#x1e36;" horiz-adv-x="417" 
d="M208 684l-90 -641h258l-14 -43h-297l96 684h47zM223.5 -99.5q8.5 -8.5 8.5 -21.5q0 -16 -11 -27t-27 -11q-13 0 -22 8.5t-9 21.5q0 16 10.5 27t27.5 11q14 0 22.5 -8.5z" />
    <glyph glyph-name="uni01C8" unicode="&#x1c8;" horiz-adv-x="643" 
d="M208 684l-90 -641h258l-14 -43h-297l96 684h47zM348 -166q37 19 58.5 37.5t36 51t22.5 87.5l72 512h45l-73 -514q-9 -64 -26.5 -102t-45 -60.5t-76.5 -45.5zM558.5 683.5q-8.5 8.5 -8.5 21.5q0 16 11 27t27 11q13 0 22 -8.5t9 -21.5q0 -16 -10.5 -27t-27.5 -11
q-14 0 -22.5 8.5z" />
    <glyph glyph-name="Lslash" unicode="&#x141;" horiz-adv-x="431" 
d="M133 43h258l-14 -43h-297l41 289h-1l-64 -41l-18 31l89 56l49 349h47l-44 -316l178 112l18 -31l-203 -127z" />
    <glyph glyph-name="M" unicode="M" horiz-adv-x="694" 
d="M592 0h-45l17 335q9 206 18 306l-237 -559h-46l-87 558q-6 -39 -23.5 -121.5t-24.5 -113.5l-15 -67l-76 -338h-45l157 684h62l82 -548l229 548h69z" />
    <glyph glyph-name="uni1E3E" unicode="&#x1e3e;" horiz-adv-x="694" 
d="M592 0h-45l17 335q9 206 18 306l-237 -559h-46l-87 558q-6 -39 -23.5 -121.5t-24.5 -113.5l-15 -67l-76 -338h-45l157 684h62l82 -548l229 548h69zM495 877l18 -43l-183 -75l-13 27z" />
    <glyph glyph-name="uni1E40" unicode="&#x1e40;" horiz-adv-x="694" 
d="M592 0h-45l17 335q9 206 18 306l-237 -559h-46l-87 558q-6 -39 -23.5 -121.5t-24.5 -113.5l-15 -67l-76 -338h-45l157 684h62l82 -548l229 548h69zM397.5 809.5q-8.5 8.5 -8.5 21.5q0 16 11 27t27 11q13 0 22 -8.5t9 -21.5q0 -16 -10.5 -27t-27.5 -11q-14 0 -22.5 8.5z
" />
    <glyph glyph-name="uni019C" unicode="&#x19c;" horiz-adv-x="831" 
d="M789 684l-97 -684h-40l9 94q-34 -49 -76.5 -77t-90.5 -28q-53 0 -83.5 29t-37.5 83q-80 -112 -175 -112q-59 0 -90.5 37t-31.5 103q0 20 3 42l72 513h47l-73 -519q-3 -19 -3 -37q0 -48 21 -72.5t61 -24.5q48 0 89.5 32t79.5 90q0 6 2 20l72 511h46l-72 -518
q-3 -21 -3 -39q0 -47 21 -71.5t61 -24.5q88 0 167 120l75 533h47z" />
    <glyph glyph-name="N" unicode="N" horiz-adv-x="601" 
d="M462 0h-59l-212 640q-3 -74 -25 -234l-57 -406h-44l96 684h60l212 -638q5 89 22 207l60 431h44z" />
    <glyph glyph-name="uni01CA" unicode="&#x1ca;" horiz-adv-x="862" 
d="M462 0h-59l-212 640q-3 -74 -25 -234l-57 -406h-44l96 684h60l212 -638q5 89 22 207l60 431h44zM741 89q-8 -58 -25.5 -93.5t-49 -59.5t-87.5 -48l-11 34q45 22 70 43.5t37.5 50.5t19.5 78l83 590h47z" />
    <glyph glyph-name="Nacute" unicode="&#x143;" horiz-adv-x="601" 
d="M462 0h-59l-212 640q-3 -74 -25 -234l-57 -406h-44l96 684h60l212 -638q5 89 22 207l60 431h44zM459 877l18 -43l-183 -75l-13 27z" />
    <glyph glyph-name="Ncaron" unicode="&#x147;" horiz-adv-x="601" 
d="M462 0h-59l-212 640q-3 -74 -25 -234l-57 -406h-44l96 684h60l212 -638q5 89 22 207l60 431h44zM500 879l19 -24l-129 -98h-26l-102 99l22 23l97 -79z" />
    <glyph glyph-name="uni1E4A" unicode="&#x1e4a;" horiz-adv-x="601" 
d="M462 0h-59l-212 640q-3 -74 -25 -234l-57 -406h-44l96 684h60l212 -638q5 89 22 207l60 431h44zM132 -198l-20 24l130 104h27l100 -104l-22 -24l-97 85z" />
    <glyph glyph-name="Ncommaaccent" unicode="&#x145;" horiz-adv-x="601" 
d="M462 0h-59l-212 640q-3 -74 -25 -234l-57 -406h-44l96 684h60l212 -638q5 89 22 207l60 431h44zM280 -97.5q9 -9.5 9 -23.5q0 -12 -4.5 -23t-19.5 -38l-52 -91h-28l46 115q-16 11 -16 30q0 17 11 28.5t29 11.5q16 0 25 -9.5z" />
    <glyph glyph-name="uni1E44" unicode="&#x1e44;" horiz-adv-x="601" 
d="M462 0h-59l-212 640q-3 -74 -25 -234l-57 -406h-44l96 684h60l212 -638q5 89 22 207l60 431h44zM361.5 809.5q-8.5 8.5 -8.5 21.5q0 16 11 27t27 11q13 0 22 -8.5t9 -21.5q0 -16 -10.5 -27t-27.5 -11q-14 0 -22.5 8.5z" />
    <glyph glyph-name="uni1E46" unicode="&#x1e46;" horiz-adv-x="601" 
d="M462 0h-59l-212 640q-3 -74 -25 -234l-57 -406h-44l96 684h60l212 -638q5 89 22 207l60 431h44zM273.5 -99.5q8.5 -8.5 8.5 -21.5q0 -16 -11 -27t-27 -11q-13 0 -22 8.5t-9 21.5q0 16 10.5 27t27.5 11q14 0 22.5 -8.5z" />
    <glyph glyph-name="uni01F8" unicode="&#x1f8;" horiz-adv-x="601" 
d="M462 0h-59l-212 640q-3 -74 -25 -234l-57 -406h-44l96 684h60l212 -638q5 89 22 207l60 431h44zM324 876l153 -90l-17 -27l-160 75z" />
    <glyph glyph-name="Eng" unicode="&#x14a;" horiz-adv-x="601" 
d="M559 684l-97 -684l-11 -83q-9 -59 -41.5 -89t-80.5 -30q-49 0 -86 33l22 29q16 -12 29.5 -17.5t33.5 -5.5q29 0 49.5 20t26.5 63l12 80h-13l-212 640q-3 -74 -25 -234l-57 -406h-44l96 684h60l212 -638q5 89 22 207l60 431h44z" />
    <glyph glyph-name="uni019D" unicode="&#x19d;" horiz-adv-x="601" 
d="M559 684l-97 -684h-59l-212 640q-3 -74 -25 -234l-57 -406l-12 -84q-9 -58 -41 -88t-79 -30q-48 0 -85 33l22 28q14 -11 28.5 -16.5t34.5 -5.5q29 0 49.5 20t26.5 63l12 80l96 684h60l212 -638q5 89 22 207l60 431h44z" />
    <glyph glyph-name="uni01CB" unicode="&#x1cb;" horiz-adv-x="842" 
d="M462 0h-59l-212 640q-3 -74 -25 -234l-57 -406h-44l96 684h60l212 -638q5 89 22 207l60 431h44zM547 -166q37 19 58.5 37.5t36 51t22.5 87.5l72 512h45l-73 -514q-9 -64 -26.5 -102t-45 -60.5t-76.5 -45.5zM757.5 683.5q-8.5 8.5 -8.5 21.5q0 16 11 27t27 11
q13 0 22 -8.5t9 -21.5q0 -16 -10.5 -27t-27.5 -11q-14 0 -22.5 8.5z" />
    <glyph glyph-name="uni0220" unicode="&#x220;" horiz-adv-x="592" 
d="M497 655.5q36 -38.5 36 -108.5q0 -20 -3 -43l-98 -699h-46l98 696q3 23 3 42q0 110 -99 110q-57 0 -105.5 -30.5t-95.5 -83.5l-76 -539h-46l96 684h40l-8 -94q93 104 201 104q67 0 103 -38.5z" />
    <glyph glyph-name="Ntilde" unicode="&#xd1;" horiz-adv-x="601" 
d="M462 0h-59l-212 640q-3 -74 -25 -234l-57 -406h-44l96 684h60l212 -638q5 89 22 207l60 431h44zM410.5 802.5q-12.5 6.5 -30.5 18.5q-15 11 -23.5 15.5t-19.5 4.5q-16 0 -28 -8.5t-29 -30.5l-25 17q41 59 82 59q15 0 28.5 -6t29.5 -18q13 -10 23.5 -15t21.5 -5
q14 0 27 10t29 33l27 -16q-39 -65 -83 -65q-17 0 -29.5 6.5z" />
    <glyph glyph-name="O" unicode="O" horiz-adv-x="624" 
d="M526 628.5q54 -65.5 54 -188.5q0 -103 -31.5 -206.5t-101 -174t-176.5 -70.5q-96 0 -150.5 67t-54.5 189q0 100 32.5 204t102 174.5t175.5 70.5q96 0 150 -65.5zM225 588q-59 -66 -85 -160.5t-26 -184.5q0 -105 41.5 -158.5t116.5 -53.5q94 0 152.5 66.5t83 161
t24.5 184.5q0 105 -40.5 158t-116.5 53q-91 0 -150 -66z" />
    <glyph glyph-name="uni0222" unicode="&#x222;" horiz-adv-x="572" 
d="M473 437.5q-29 -39.5 -83 -57.5q55 -17 84 -56.5t29 -98.5q0 -69 -31.5 -123t-89 -83.5t-132.5 -29.5q-97 0 -148 48t-51 127q0 81 44.5 138.5t121.5 78.5q-39 15 -57.5 44.5t-18.5 76.5q0 19 3 40l20 142h46l-20 -143q-3 -21 -3 -39q0 -54 28.5 -79t88.5 -25
q76 0 113 39t47 107l19 140h47l-20 -145q-8 -62 -37 -101.5zM416.5 323.5q-37.5 34.5 -114.5 34.5q-92 0 -147.5 -53t-55.5 -141q0 -63 38 -98t115 -35q94 0 148 51.5t54 142.5q0 64 -37.5 98.5z" />
    <glyph glyph-name="Oacute" unicode="&#xd3;" horiz-adv-x="624" 
d="M526 628.5q54 -65.5 54 -188.5q0 -103 -31.5 -206.5t-101 -174t-176.5 -70.5q-96 0 -150.5 67t-54.5 189q0 100 32.5 204t102 174.5t175.5 70.5q96 0 150 -65.5zM225 588q-59 -66 -85 -160.5t-26 -184.5q0 -105 41.5 -158.5t116.5 -53.5q94 0 152.5 66.5t83 161
t24.5 184.5q0 105 -40.5 158t-116.5 53q-91 0 -150 -66zM469 877l18 -43l-183 -75l-13 27z" />
    <glyph glyph-name="Obreve" unicode="&#x14e;" horiz-adv-x="624" 
d="M526 628.5q54 -65.5 54 -188.5q0 -103 -31.5 -206.5t-101 -174t-176.5 -70.5q-96 0 -150.5 67t-54.5 189q0 100 32.5 204t102 174.5t175.5 70.5q96 0 150 -65.5zM225 588q-59 -66 -85 -160.5t-26 -184.5q0 -105 41.5 -158.5t116.5 -53.5q94 0 152.5 66.5t83 161
t24.5 184.5q0 105 -40.5 158t-116.5 53q-91 0 -150 -66zM314 794q-27 27 -28 67l30 4q5 -28 23 -43.5t49 -15.5q32 0 55 16.5t36 44.5l31 -9q-11 -40 -45 -65.5t-78 -25.5q-46 0 -73 27z" />
    <glyph glyph-name="uni01D1" unicode="&#x1d1;" horiz-adv-x="624" 
d="M526 628.5q54 -65.5 54 -188.5q0 -103 -31.5 -206.5t-101 -174t-176.5 -70.5q-96 0 -150.5 67t-54.5 189q0 100 32.5 204t102 174.5t175.5 70.5q96 0 150 -65.5zM225 588q-59 -66 -85 -160.5t-26 -184.5q0 -105 41.5 -158.5t116.5 -53.5q94 0 152.5 66.5t83 161
t24.5 184.5q0 105 -40.5 158t-116.5 53q-91 0 -150 -66zM510 879l19 -24l-129 -98h-26l-102 99l22 23l97 -79z" />
    <glyph glyph-name="uni019F" unicode="&#x19f;" horiz-adv-x="624" 
d="M526 628.5q54 -65.5 54 -188.5q0 -103 -31.5 -206.5t-101 -174t-176.5 -70.5q-96 0 -150.5 67t-54.5 189q0 100 32 204t102 174.5t176 70.5q96 0 150 -65.5zM210.5 571.5q-61.5 -82.5 -84.5 -202.5h403q4 35 4 74q0 105 -41 158t-117 53q-103 0 -164.5 -82.5zM442.5 118
q61.5 87 81.5 212h-404q-6 -46 -6 -87q0 -105 41.5 -158.5t116.5 -53.5q109 0 170.5 87z" />
    <glyph glyph-name="Ocircumflex" unicode="&#xd4;" horiz-adv-x="624" 
d="M526 628.5q54 -65.5 54 -188.5q0 -103 -31.5 -206.5t-101 -174t-176.5 -70.5q-96 0 -150.5 67t-54.5 189q0 100 32.5 204t102 174.5t175.5 70.5q96 0 150 -65.5zM225 588q-59 -66 -85 -160.5t-26 -184.5q0 -105 41.5 -158.5t116.5 -53.5q94 0 152.5 66.5t83 161
t24.5 184.5q0 105 -40.5 158t-116.5 53q-91 0 -150 -66zM277 763l-19 25l129 98h27l101 -100l-22 -23l-96 80z" />
    <glyph glyph-name="uni1ED0" unicode="&#x1ed0;" horiz-adv-x="624" 
d="M573 978l29 -30l-122 -118l-20 19zM273 731l-19 25l129 98h27l101 -100l-22 -23l-96 80zM526 628.5q54 -65.5 54 -188.5q0 -103 -31.5 -206.5t-101 -174t-176.5 -70.5q-96 0 -150.5 67t-54.5 189q0 100 32.5 204t102 174.5t175.5 70.5q96 0 150 -65.5zM225 588
q-59 -66 -85 -160.5t-26 -184.5q0 -105 41.5 -158.5t116.5 -53.5q94 0 152.5 66.5t83 161t24.5 184.5q0 105 -40.5 158t-116.5 53q-91 0 -150 -66z" />
    <glyph glyph-name="uni1ED8" unicode="&#x1ed8;" horiz-adv-x="624" 
d="M526 628.5q54 -65.5 54 -188.5q0 -103 -31.5 -206.5t-101 -174t-176.5 -70.5q-96 0 -150.5 67t-54.5 189q0 100 32.5 204t102 174.5t175.5 70.5q96 0 150 -65.5zM225 588q-59 -66 -85 -160.5t-26 -184.5q0 -105 41.5 -158.5t116.5 -53.5q94 0 152.5 66.5t83 161
t24.5 184.5q0 105 -40.5 158t-116.5 53q-91 0 -150 -66zM277 763l-19 25l129 98h27l101 -100l-22 -23l-96 80zM279.5 -99.5q8.5 -8.5 8.5 -21.5q0 -16 -11 -27t-27 -11q-13 0 -22 8.5t-9 21.5q0 16 10.5 27t27.5 11q14 0 22.5 -8.5z" />
    <glyph glyph-name="uni1ED2" unicode="&#x1ed2;" horiz-adv-x="624" 
d="M243 977l77 -130l-23 -17l-90 122zM271 731l-19 25l129 98h27l101 -100l-22 -23l-96 80zM526 628.5q54 -65.5 54 -188.5q0 -103 -31.5 -206.5t-101 -174t-176.5 -70.5q-96 0 -150.5 67t-54.5 189q0 100 32.5 204t102 174.5t175.5 70.5q96 0 150 -65.5zM225 588
q-59 -66 -85 -160.5t-26 -184.5q0 -105 41.5 -158.5t116.5 -53.5q94 0 152.5 66.5t83 161t24.5 184.5q0 105 -40.5 158t-116.5 53q-91 0 -150 -66z" />
    <glyph glyph-name="uni1ED4" unicode="&#x1ed4;" horiz-adv-x="624" 
d="M526 628.5q54 -65.5 54 -188.5q0 -103 -31.5 -206.5t-101 -174t-176.5 -70.5q-96 0 -150.5 67t-54.5 189q0 100 32.5 204t102 174.5t175.5 70.5q96 0 150 -65.5zM225 588q-59 -66 -85 -160.5t-26 -184.5q0 -105 41.5 -158.5t116.5 -53.5q94 0 152.5 66.5t83 161
t24.5 184.5q0 105 -40.5 158t-116.5 53q-91 0 -150 -66zM271 731l-19 25l129 98h27l101 -100l-22 -23l-96 80zM483 880q71 4 71 55q0 35 -37 35q-26 0 -52 -14l-12 31q33 19 69 19q34 0 54 -19.5t20 -51.5q0 -34 -20.5 -54t-56.5 -25l-5 -45h-38z" />
    <glyph glyph-name="uni1ED6" unicode="&#x1ed6;" horiz-adv-x="624" 
d="M425.5 894.5q-12.5 6.5 -30.5 18.5q-15 11 -23.5 15.5t-19.5 4.5q-16 0 -28 -8.5t-29 -30.5l-25 17q41 59 82 59q15 0 28.5 -6t29.5 -18q13 -10 23.5 -15t21.5 -5q14 0 27 10t29 33l27 -16q-39 -65 -83 -65q-17 0 -29.5 6.5zM271 731l-19 25l129 98h27l101 -100l-22 -23
l-96 80zM526 628.5q54 -65.5 54 -188.5q0 -103 -31.5 -206.5t-101 -174t-176.5 -70.5q-96 0 -150.5 67t-54.5 189q0 100 32.5 204t102 174.5t175.5 70.5q96 0 150 -65.5zM225 588q-59 -66 -85 -160.5t-26 -184.5q0 -105 41.5 -158.5t116.5 -53.5q94 0 152.5 66.5t83 161
t24.5 184.5q0 105 -40.5 158t-116.5 53q-91 0 -150 -66z" />
    <glyph glyph-name="uni020C" unicode="&#x20c;" horiz-adv-x="624" 
d="M526 628.5q54 -65.5 54 -188.5q0 -103 -31.5 -206.5t-101 -174t-176.5 -70.5q-96 0 -150.5 67t-54.5 189q0 100 32.5 204t102 174.5t175.5 70.5q96 0 150 -65.5zM225 588q-59 -66 -85 -160.5t-26 -184.5q0 -105 41.5 -158.5t116.5 -53.5q94 0 152.5 66.5t83 161
t24.5 184.5q0 105 -40.5 158t-116.5 53q-91 0 -150 -66zM303 929l49 -145l-33 -13l-62 138zM413 929l44 -140l-33 -13l-56 132z" />
    <glyph glyph-name="Odieresis" unicode="&#xd6;" horiz-adv-x="624" 
d="M526 628.5q54 -65.5 54 -188.5q0 -103 -31.5 -206.5t-101 -174t-176.5 -70.5q-96 0 -150.5 67t-54.5 189q0 100 32.5 204t102 174.5t175.5 70.5q96 0 150 -65.5zM225 588q-59 -66 -85 -160.5t-26 -184.5q0 -105 41.5 -158.5t116.5 -53.5q94 0 152.5 66.5t83 161
t24.5 184.5q0 105 -40.5 158t-116.5 53q-91 0 -150 -66zM290 801q-8 8 -8 20q0 15 10 25.5t26 10.5q13 0 21 -8t8 -20q0 -16 -10 -26t-26 -10q-13 0 -21 8zM456 801q-8 8 -8 20q0 15 10 25.5t25 10.5q13 0 21 -8t8 -20q0 -16 -10 -26t-25 -10q-13 0 -21 8z" />
    <glyph glyph-name="uni022A" unicode="&#x22a;" horiz-adv-x="624" 
d="M526 628.5q54 -65.5 54 -188.5q0 -103 -31.5 -206.5t-101 -174t-176.5 -70.5q-96 0 -150.5 67t-54.5 189q0 100 32.5 204t102 174.5t175.5 70.5q96 0 150 -65.5zM225 588q-59 -66 -85 -160.5t-26 -184.5q0 -105 41.5 -158.5t116.5 -53.5q94 0 152.5 66.5t83 161
t24.5 184.5q0 105 -40.5 158t-116.5 53q-91 0 -150 -66zM279 752q-8 8 -8 20q0 15 10 25.5t26 10.5q13 0 21 -8t8 -20q0 -16 -10 -26t-26 -10q-13 0 -21 8zM445 752q-8 8 -8 20q0 15 10 25.5t25 10.5q13 0 21 -8t8 -20q0 -16 -10 -26t-25 -10q-13 0 -21 8zM500 869h-208
l6 39h208z" />
    <glyph glyph-name="uni022E" unicode="&#x22e;" horiz-adv-x="624" 
d="M526 628.5q54 -65.5 54 -188.5q0 -103 -31.5 -206.5t-101 -174t-176.5 -70.5q-96 0 -150.5 67t-54.5 189q0 100 32.5 204t102 174.5t175.5 70.5q96 0 150 -65.5zM225 588q-59 -66 -85 -160.5t-26 -184.5q0 -105 41.5 -158.5t116.5 -53.5q94 0 152.5 66.5t83 161
t24.5 184.5q0 105 -40.5 158t-116.5 53q-91 0 -150 -66zM371.5 809.5q-8.5 8.5 -8.5 21.5q0 16 11 27t27 11q13 0 22 -8.5t9 -21.5q0 -16 -10.5 -27t-27.5 -11q-14 0 -22.5 8.5z" />
    <glyph glyph-name="uni0230" unicode="&#x230;" horiz-adv-x="624" 
d="M526 628.5q54 -65.5 54 -188.5q0 -103 -31.5 -206.5t-101 -174t-176.5 -70.5q-96 0 -150.5 67t-54.5 189q0 100 32.5 204t102 174.5t175.5 70.5q96 0 150 -65.5zM225 588q-59 -66 -85 -160.5t-26 -184.5q0 -105 41.5 -158.5t116.5 -53.5q94 0 152.5 66.5t83 161
t24.5 184.5q0 105 -40.5 158t-116.5 53q-91 0 -150 -66zM361.5 752.5q-8.5 8.5 -8.5 21.5q0 16 11 27t27 11q13 0 22 -8.5t9 -21.5q0 -16 -10.5 -27t-27.5 -11q-14 0 -22.5 8.5zM501 868h-208l6 39h208z" />
    <glyph glyph-name="uni1ECC" unicode="&#x1ecc;" horiz-adv-x="624" 
d="M526 628.5q54 -65.5 54 -188.5q0 -103 -31.5 -206.5t-101 -174t-176.5 -70.5q-96 0 -150.5 67t-54.5 189q0 100 32.5 204t102 174.5t175.5 70.5q96 0 150 -65.5zM225 588q-59 -66 -85 -160.5t-26 -184.5q0 -105 41.5 -158.5t116.5 -53.5q94 0 152.5 66.5t83 161
t24.5 184.5q0 105 -40.5 158t-116.5 53q-91 0 -150 -66zM279.5 -99.5q8.5 -8.5 8.5 -21.5q0 -16 -11 -27t-27 -11q-13 0 -22 8.5t-9 21.5q0 16 10.5 27t27.5 11q14 0 22.5 -8.5z" />
    <glyph glyph-name="Ograve" unicode="&#xd2;" horiz-adv-x="624" 
d="M526 628.5q54 -65.5 54 -188.5q0 -103 -31.5 -206.5t-101 -174t-176.5 -70.5q-96 0 -150.5 67t-54.5 189q0 100 32.5 204t102 174.5t175.5 70.5q96 0 150 -65.5zM225 588q-59 -66 -85 -160.5t-26 -184.5q0 -105 41.5 -158.5t116.5 -53.5q94 0 152.5 66.5t83 161
t24.5 184.5q0 105 -40.5 158t-116.5 53q-91 0 -150 -66zM334 876l153 -90l-17 -27l-160 75z" />
    <glyph glyph-name="uni1ECE" unicode="&#x1ece;" horiz-adv-x="624" 
d="M526 628.5q54 -65.5 54 -188.5q0 -103 -31.5 -206.5t-101 -174t-176.5 -70.5q-96 0 -150.5 67t-54.5 189q0 100 32.5 204t102 174.5t175.5 70.5q96 0 150 -65.5zM225 588q-59 -66 -85 -160.5t-26 -184.5q0 -105 41.5 -158.5t116.5 -53.5q94 0 152.5 66.5t83 161
t24.5 184.5q0 105 -40.5 158t-116.5 53q-91 0 -150 -66zM379 847q71 4 71 55q0 35 -37 35q-26 0 -52 -14l-12 31q33 19 69 19q34 0 54 -19.5t20 -51.5q0 -34 -20.5 -54t-56.5 -25l-5 -45h-38z" />
    <glyph glyph-name="Ohorn" unicode="&#x1a0;" horiz-adv-x="627" 
d="M609.5 637q-20.5 -26 -64.5 -37q35 -62 35 -160q0 -103 -31.5 -206.5t-101 -174t-176.5 -70.5q-96 0 -150.5 67t-54.5 189q0 100 32.5 204t102 174.5t175.5 70.5q97 0 150 -66q36 7 51.5 26.5t15.5 55.5q0 28 -7 49l35 8q9 -22 9 -58q0 -46 -20.5 -72zM424.5 97.5
q58.5 66.5 83 161t24.5 184.5q0 105 -40.5 158t-116.5 53q-91 0 -150 -66t-85 -160.5t-26 -184.5q0 -105 41.5 -158.5t116.5 -53.5q94 0 152.5 66.5z" />
    <glyph glyph-name="uni1EDA" unicode="&#x1eda;" horiz-adv-x="627" 
d="M487 834l-183 -75l-13 27l178 91zM609.5 637q-20.5 -26 -64.5 -37q35 -62 35 -160q0 -103 -31.5 -206.5t-101 -174t-176.5 -70.5q-96 0 -150.5 67t-54.5 189q0 100 32.5 204t102 174.5t175.5 70.5q97 0 150 -66q36 7 51.5 26.5t15.5 55.5q0 28 -7 49l35 8q9 -22 9 -58
q0 -46 -20.5 -72zM424.5 97.5q58.5 66.5 83 161t24.5 184.5q0 105 -40.5 158t-116.5 53q-91 0 -150 -66t-85 -160.5t-26 -184.5q0 -105 41.5 -158.5t116.5 -53.5q94 0 152.5 66.5z" />
    <glyph glyph-name="uni1EE2" unicode="&#x1ee2;" horiz-adv-x="627" 
d="M609.5 637q-20.5 -26 -64.5 -37q35 -62 35 -160q0 -103 -31.5 -206.5t-101 -174t-176.5 -70.5q-96 0 -150.5 67t-54.5 189q0 100 32.5 204t102 174.5t175.5 70.5q97 0 150 -66q36 7 51.5 26.5t15.5 55.5q0 28 -7 49l35 8q9 -22 9 -58q0 -46 -20.5 -72zM424.5 97.5
q58.5 66.5 83 161t24.5 184.5q0 105 -40.5 158t-116.5 53q-91 0 -150 -66t-85 -160.5t-26 -184.5q0 -105 41.5 -158.5t116.5 -53.5q94 0 152.5 66.5zM279.5 -99.5q8.5 -8.5 8.5 -21.5q0 -16 -11 -27t-27 -11q-13 0 -22 8.5t-9 21.5q0 16 11 27t27 11q14 0 22.5 -8.5z" />
    <glyph glyph-name="uni1EDC" unicode="&#x1edc;" horiz-adv-x="627" 
d="M487 786l-17 -27l-160 75l24 42zM609.5 637q-20.5 -26 -64.5 -37q35 -62 35 -160q0 -103 -31.5 -206.5t-101 -174t-176.5 -70.5q-96 0 -150.5 67t-54.5 189q0 100 32.5 204t102 174.5t175.5 70.5q97 0 150 -66q36 7 51.5 26.5t15.5 55.5q0 28 -7 49l35 8q9 -22 9 -58
q0 -46 -20.5 -72zM424.5 97.5q58.5 66.5 83 161t24.5 184.5q0 105 -40.5 158t-116.5 53q-91 0 -150 -66t-85 -160.5t-26 -184.5q0 -105 41.5 -158.5t116.5 -53.5q94 0 152.5 66.5z" />
    <glyph glyph-name="uni1EDE" unicode="&#x1ede;" horiz-adv-x="627" 
d="M361 923l-12 31q33 19 69 19q34 0 54 -19.5t20 -51.5q0 -34 -20.5 -54t-56.5 -25l-5 -45h-38l7 69q71 4 71 55q0 35 -37 35q-26 0 -52 -14zM609.5 637q-20.5 -26 -64.5 -37q35 -62 35 -160q0 -103 -31.5 -206.5t-101 -174t-176.5 -70.5q-96 0 -150.5 67t-54.5 189
q0 100 32.5 204t102 174.5t175.5 70.5q97 0 150 -66q36 7 51.5 26.5t15.5 55.5q0 28 -7 49l35 8q9 -22 9 -58q0 -46 -20.5 -72zM424.5 97.5q58.5 66.5 83 161t24.5 184.5q0 105 -40.5 158t-116.5 53q-91 0 -150 -66t-85 -160.5t-26 -184.5q0 -105 41.5 -158.5t116.5 -53.5
q94 0 152.5 66.5z" />
    <glyph glyph-name="uni1EE0" unicode="&#x1ee0;" horiz-adv-x="627" 
d="M319 832.5q-12 -8.5 -29 -30.5l-25 17q41 59 82 59q15 0 28.5 -6t29.5 -18q13 -10 23.5 -15t21.5 -5q14 0 27 10t29 33l27 -16q-39 -65 -83 -65q-17 0 -29.5 6.5t-30.5 18.5q-15 11 -23.5 15.5t-19.5 4.5q-16 0 -28 -8.5zM609.5 637q-20.5 -26 -64.5 -37q35 -62 35 -160
q0 -103 -31.5 -206.5t-101 -174t-176.5 -70.5q-96 0 -150.5 67t-54.5 189q0 100 32.5 204t102 174.5t175.5 70.5q97 0 150 -66q36 7 51.5 26.5t15.5 55.5q0 28 -7 49l35 8q9 -22 9 -58q0 -46 -20.5 -72zM424.5 97.5q58.5 66.5 83 161t24.5 184.5q0 105 -40.5 158t-116.5 53
q-91 0 -150 -66t-85 -160.5t-26 -184.5q0 -105 41.5 -158.5t116.5 -53.5q94 0 152.5 66.5z" />
    <glyph glyph-name="Ohungarumlaut" unicode="&#x150;" horiz-adv-x="624" 
d="M526 628.5q54 -65.5 54 -188.5q0 -103 -31.5 -206.5t-101 -174t-176.5 -70.5q-96 0 -150.5 67t-54.5 189q0 100 32.5 204t102 174.5t175.5 70.5q96 0 150 -65.5zM225 588q-59 -66 -85 -160.5t-26 -184.5q0 -105 41.5 -158.5t116.5 -53.5q94 0 152.5 66.5t83 161
t24.5 184.5q0 105 -40.5 158t-116.5 53q-91 0 -150 -66zM398 929l39 -23l-93 -130l-27 14zM509 929l38 -22l-99 -136l-28 15z" />
    <glyph glyph-name="uni01A2" unicode="&#x1a2;" horiz-adv-x="808" 
d="M723.5 667q27.5 -28 27.5 -75q0 -9 -2 -27l-107 -760h-46l106 760q2 20 2 27q0 64 -66 64q-51 0 -108 -33q50 -67 50 -183q0 -103 -31.5 -206.5t-101 -174t-176.5 -70.5q-96 0 -150.5 67t-54.5 189q0 100 32.5 204t102 174.5t175.5 70.5q81 0 130 -46q72 47 136 47
q54 0 81.5 -28zM424.5 97.5q58.5 66.5 83 161t24.5 184.5q0 105 -40.5 158t-116.5 53q-91 0 -150 -66t-85 -160.5t-26 -184.5q0 -105 41.5 -158.5t116.5 -53.5q94 0 152.5 66.5z" />
    <glyph glyph-name="uni020E" unicode="&#x20e;" horiz-adv-x="624" 
d="M526 628.5q54 -65.5 54 -188.5q0 -103 -31.5 -206.5t-101 -174t-176.5 -70.5q-96 0 -150.5 67t-54.5 189q0 100 32.5 204t102 174.5t175.5 70.5q96 0 150 -65.5zM225 588q-59 -66 -85 -160.5t-26 -184.5q0 -105 41.5 -158.5t116.5 -53.5q94 0 152.5 66.5t83 161
t24.5 184.5q0 105 -40.5 158t-116.5 53q-91 0 -150 -66zM278 797q13 47 46 74t78 27q46 0 73 -28.5t27 -75.5l-31 -4q-7 69 -71 69q-65 0 -93 -71z" />
    <glyph glyph-name="Omacron" unicode="&#x14c;" horiz-adv-x="624" 
d="M526 628.5q54 -65.5 54 -188.5q0 -103 -31.5 -206.5t-101 -174t-176.5 -70.5q-96 0 -150.5 67t-54.5 189q0 100 32.5 204t102 174.5t175.5 70.5q96 0 150 -65.5zM225 588q-59 -66 -85 -160.5t-26 -184.5q0 -105 41.5 -158.5t116.5 -53.5q94 0 152.5 66.5t83 161
t24.5 184.5q0 105 -40.5 158t-116.5 53q-91 0 -150 -66zM498 805h-208l6 39h208z" />
    <glyph glyph-name="uni1E52" unicode="&#x1e52;" horiz-adv-x="624" 
d="M526 628.5q54 -65.5 54 -188.5q0 -103 -31.5 -206.5t-101 -174t-176.5 -70.5q-96 0 -150.5 67t-54.5 189q0 100 32.5 204t102 174.5t175.5 70.5q96 0 150 -65.5zM225 588q-59 -66 -85 -160.5t-26 -184.5q0 -105 41.5 -158.5t116.5 -53.5q94 0 152.5 66.5t83 161
t24.5 184.5q0 105 -40.5 158t-116.5 53q-91 0 -150 -66zM493 763h-208l6 39h208zM484 968l18 -43l-183 -75l-13 27z" />
    <glyph glyph-name="uni1E50" unicode="&#x1e50;" horiz-adv-x="624" 
d="M526 628.5q54 -65.5 54 -188.5q0 -103 -31.5 -206.5t-101 -174t-176.5 -70.5q-96 0 -150.5 67t-54.5 189q0 100 32.5 204t102 174.5t175.5 70.5q96 0 150 -65.5zM225 588q-59 -66 -85 -160.5t-26 -184.5q0 -105 41.5 -158.5t116.5 -53.5q94 0 152.5 66.5t83 161
t24.5 184.5q0 105 -40.5 158t-116.5 53q-91 0 -150 -66zM493 763h-208l6 39h208zM343 967l153 -90l-17 -27l-160 75z" />
    <glyph glyph-name="uniA7B6" unicode="&#xa7b6;" horiz-adv-x="764" 
d="M66 184q0 123 34 243.5t98 256.5h46q-131 -279 -131 -502q0 -82 25.5 -116.5t74.5 -34.5q112 0 134 160l29 206h47l-30 -210q-4 -34 -4 -50q0 -107 90 -107q103 0 143.5 126.5t40.5 303.5q0 93 -24 224h46q12 -65 18.5 -117t6.5 -108q0 -200 -52.5 -335t-177.5 -135
q-113 0 -121 118q-22 -60 -58.5 -89t-89.5 -29q-145 0 -145 195z" />
    <glyph glyph-name="uni01EA" unicode="&#x1ea;" horiz-adv-x="624" 
d="M247 -61.5q-29 -28.5 -29 -65.5q0 -46 51 -46q21 0 52 6l-9 -39q-27 -6 -49 -6q-41 0 -64.5 21.5t-23.5 56.5q0 38 21 68t66 55q-92 3 -144 70t-52 186q0 100 32.5 204t102 174.5t175.5 70.5q96 0 150 -65.5t54 -188.5q0 -90 -24.5 -183t-78 -164.5t-136.5 -94.5
q-65 -31 -94 -59.5zM155.5 84.5q41.5 -53.5 116.5 -53.5q94 0 152.5 66.5t83 161t24.5 184.5q0 105 -40.5 158t-116.5 53q-91 0 -150 -66t-85 -160.5t-26 -184.5q0 -105 41.5 -158.5z" />
    <glyph glyph-name="uni01EC" unicode="&#x1ec;" horiz-adv-x="624" 
d="M504 844l-6 -39h-208l6 39h208zM247 -61.5q-29 -28.5 -29 -65.5q0 -46 51 -46q21 0 52 6l-9 -39q-27 -6 -49 -6q-41 0 -64.5 21.5t-23.5 56.5q0 38 21 68t66 55q-92 3 -144 70t-52 186q0 100 32.5 204t102 174.5t175.5 70.5q96 0 150 -65.5t54 -188.5q0 -90 -24.5 -183
t-78 -164.5t-136.5 -94.5q-65 -31 -94 -59.5zM155.5 84.5q41.5 -53.5 116.5 -53.5q94 0 152.5 66.5t83 161t24.5 184.5q0 105 -40.5 158t-116.5 53q-91 0 -150 -66t-85 -160.5t-26 -184.5q0 -105 41.5 -158.5z" />
    <glyph glyph-name="uni0186" unicode="&#x186;" horiz-adv-x="498" 
d="M403.5 629.5q51.5 -64.5 51.5 -186.5q0 -119 -36.5 -223t-105.5 -167.5t-162 -63.5q-53 0 -90.5 18.5t-68.5 51.5l28 29q32 -28 60 -42t71 -14q80 0 138 59t88 153.5t30 199.5q0 106 -39 157.5t-106 51.5q-43 0 -77 -12t-73 -39l-22 32q39 30 80.5 45t94.5 15
q87 0 138.5 -64.5z" />
    <glyph glyph-name="Oslash" unicode="&#xd8;" horiz-adv-x="624" 
d="M553.5 583q26.5 -58 26.5 -143q0 -103 -31.5 -206.5t-101 -174t-176.5 -70.5q-37 0 -66 10l-47 -116l-39 12l50 119q-49 29 -76 88t-27 143q0 100 32.5 204t102 174.5t175.5 70.5q38 0 67 -10l49 123l39 -12l-53 -126q49 -28 75.5 -86zM134 122q20 -48 57 -70l239 594
q-27 8 -55 8q-91 0 -150 -66t-85 -161t-26 -185q0 -72 20 -120zM424.5 97.5q58.5 66.5 83 161t24.5 185.5q0 143 -75 189l-238 -594q26 -8 53 -8q94 0 152.5 66.5z" />
    <glyph glyph-name="Oslashacute" unicode="&#x1fe;" horiz-adv-x="624" 
d="M553.5 583q26.5 -58 26.5 -143q0 -103 -31.5 -206.5t-101 -174t-176.5 -70.5q-37 0 -66 10l-47 -116l-39 12l50 119q-49 29 -76 88t-27 143q0 100 32.5 204t102 174.5t175.5 70.5q38 0 67 -10l49 123l39 -12l-53 -126q49 -28 75.5 -86zM134 122q20 -48 57 -70l239 594
q-27 8 -55 8q-91 0 -150 -66t-85 -161t-26 -185q0 -72 20 -120zM424.5 97.5q58.5 66.5 83 161t24.5 185.5q0 143 -75 189l-238 -594q26 -8 53 -8q94 0 152.5 66.5zM468 880l18 -43l-183 -75l-13 27z" />
    <glyph glyph-name="Otilde" unicode="&#xd5;" horiz-adv-x="624" 
d="M526 628.5q54 -65.5 54 -188.5q0 -103 -31.5 -206.5t-101 -174t-176.5 -70.5q-96 0 -150.5 67t-54.5 189q0 100 32.5 204t102 174.5t175.5 70.5q96 0 150 -65.5zM225 588q-59 -66 -85 -160.5t-26 -184.5q0 -105 41.5 -158.5t116.5 -53.5q94 0 152.5 66.5t83 161
t24.5 184.5q0 105 -40.5 158t-116.5 53q-91 0 -150 -66zM420.5 802.5q-12.5 6.5 -30.5 18.5q-15 11 -23.5 15.5t-19.5 4.5q-16 0 -28 -8.5t-29 -30.5l-25 17q41 59 82 59q15 0 28.5 -6t29.5 -18q13 -10 23.5 -15t21.5 -5q14 0 27 10t29 33l27 -16q-39 -65 -83 -65
q-17 0 -29.5 6.5z" />
    <glyph glyph-name="uni1E4C" unicode="&#x1e4c;" horiz-adv-x="624" 
d="M526 628.5q54 -65.5 54 -188.5q0 -103 -31.5 -206.5t-101 -174t-176.5 -70.5q-96 0 -150.5 67t-54.5 189q0 100 32.5 204t102 174.5t175.5 70.5q96 0 150 -65.5zM225 588q-59 -66 -85 -160.5t-26 -184.5q0 -105 41.5 -158.5t116.5 -53.5q94 0 152.5 66.5t83 161
t24.5 184.5q0 105 -40.5 158t-116.5 53q-91 0 -150 -66zM416.5 763.5q-12.5 6.5 -30.5 18.5q-15 11 -23.5 15.5t-19.5 4.5q-16 0 -28 -8.5t-29 -30.5l-25 17q41 59 82 59q15 0 28.5 -6t29.5 -18q13 -10 23.5 -15t21.5 -5q14 0 27 10t29 33l27 -16q-39 -65 -83 -65
q-17 0 -29.5 6.5zM484 986l18 -43l-183 -75l-13 27z" />
    <glyph glyph-name="uni022C" unicode="&#x22c;" horiz-adv-x="624" 
d="M507 888h-208l6 39h208zM414.5 763.5q-12.5 6.5 -30.5 18.5q-15 11 -23.5 15.5t-19.5 4.5q-16 0 -28 -8.5t-29 -30.5l-25 17q41 59 82 59q15 0 28.5 -6t29.5 -18q13 -10 23.5 -15t21.5 -5q14 0 27 10t29 33l27 -16q-39 -65 -83 -65q-17 0 -29.5 6.5zM526 628.5
q54 -65.5 54 -188.5q0 -103 -31.5 -206.5t-101 -174t-176.5 -70.5q-96 0 -150.5 67t-54.5 189q0 100 32.5 204t102 174.5t175.5 70.5q96 0 150 -65.5zM225 588q-59 -66 -85 -160.5t-26 -184.5q0 -105 41.5 -158.5t116.5 -53.5q94 0 152.5 66.5t83 161t24.5 184.5
q0 105 -40.5 158t-116.5 53q-91 0 -150 -66z" />
    <glyph glyph-name="OE" unicode="&#x152;" horiz-adv-x="773" 
d="M777 643h-288q35 -30 53 -81.5t18 -120.5q0 -31 -3 -64h148l-5 -40h-148q-14 -94 -51 -173t-99 -123h303l-7 -41h-370q-31 -11 -66 -11q-90 0 -143 67t-53 188q0 99 32 203t99 175.5t167 71.5q35 0 61 -10h363zM473.5 601q-39.5 53 -109.5 53q-86 0 -142 -66.5t-82 -162
t-26 -183.5q0 -104 40 -157.5t109 -53.5q88 0 144.5 67.5t81 163t24.5 184.5q0 102 -39.5 155z" />
    <glyph glyph-name="P" unicode="P" horiz-adv-x="509" 
d="M451.5 642.5q51.5 -41.5 51.5 -125.5q0 -103 -61.5 -174t-201.5 -71h-91l-38 -272h-46l96 684h141q98 0 149.5 -41.5zM407.5 371q47.5 59 47.5 146q0 67 -39 97t-118 30h-96l-47 -332h90q115 0 162.5 59z" />
    <glyph glyph-name="uni1E54" unicode="&#x1e54;" horiz-adv-x="509" 
d="M451.5 642.5q51.5 -41.5 51.5 -125.5q0 -103 -61.5 -174t-201.5 -71h-91l-38 -272h-46l96 684h141q98 0 149.5 -41.5zM407.5 371q47.5 59 47.5 146q0 67 -39 97t-118 30h-96l-47 -332h90q115 0 162.5 59zM413 877l18 -43l-183 -75l-13 27z" />
    <glyph glyph-name="uni1E56" unicode="&#x1e56;" horiz-adv-x="509" 
d="M451.5 642.5q51.5 -41.5 51.5 -125.5q0 -103 -61.5 -174t-201.5 -71h-91l-38 -272h-46l96 684h141q98 0 149.5 -41.5zM407.5 371q47.5 59 47.5 146q0 67 -39 97t-118 30h-96l-47 -332h90q115 0 162.5 59zM315.5 809.5q-8.5 8.5 -8.5 21.5q0 16 11 27t27 11q13 0 22 -8.5
t9 -21.5q0 -16 -10.5 -27t-27.5 -11q-14 0 -22.5 8.5z" />
    <glyph glyph-name="uni01A4" unicode="&#x1a4;" horiz-adv-x="559" 
d="M501.5 642.5q51.5 -41.5 51.5 -125.5q0 -103 -61.5 -174t-201.5 -71h-91l-38 -272h-46l90 644h-23q-40 0 -59.5 -22.5t-19.5 -59.5q0 -30 13 -63l-36 -15q-21 38 -21 79q0 54 33.5 87.5t93.5 33.5h166q98 0 149.5 -41.5zM457.5 371q47.5 59 47.5 146q0 67 -39 97t-118 30
h-96l-47 -332h90q115 0 162.5 59z" />
    <glyph glyph-name="Thorn" unicode="&#xde;" horiz-adv-x="507" 
d="M483 388q0 -64 -25 -120t-83.5 -92t-154.5 -36h-89l-20 -140h-46l96 684h47l-18 -124h92q201 0 201 -172zM386.5 240q48.5 60 48.5 148q0 71 -38.5 101t-118.5 30h-93l-48 -339h87q114 0 162.5 60z" />
    <glyph glyph-name="Q" unicode="Q" horiz-adv-x="619" 
d="M532 -54l-36 -35q-39 46 -89.5 62t-136.5 16q-95 0 -149.5 67t-54.5 189q0 100 32.5 204t102 174.5t175.5 70.5q96 0 150 -65.5t54 -188.5q0 -85 -21.5 -172t-69.5 -156.5t-122 -96.5q107 -5 165 -69zM155.5 84.5q41.5 -53.5 116.5 -53.5q94 0 152.5 66.5t83 161
t24.5 185.5q0 104 -41 157t-116 53q-91 0 -150 -66t-85 -161t-26 -185q0 -104 41.5 -157.5z" />
    <glyph glyph-name="uni024A" unicode="&#x24a;" horiz-adv-x="599" 
d="M583 -171q-43 -31 -92 -31q-44 0 -69 25t-25 72q0 6 2 24l12 81l10 69q-66 -80 -161 -80q-88 0 -140.5 67t-52.5 192q0 114 35.5 216.5t102 166t152.5 63.5q89 0 141 -81l15 71h40l-96 -684l-11 -84q-2 -16 -2 -22q0 -29 13.5 -43t36.5 -14q22 0 37 6t33 17zM428 125
l62 441q-25 45 -57 66t-76 21q-74 0 -129 -59t-84 -153t-29 -194q0 -109 40 -162.5t108 -53.5q97 0 165 94z" />
    <glyph glyph-name="R" unicode="R" horiz-adv-x="526" 
d="M460 399q-41 -59 -127 -79l125 -320h-50l-121 313h-132l-44 -313h-46l96 684h149q191 0 191 -153q0 -73 -41 -132zM269 353q97 0 140 52.5t43 124.5q0 59 -33.5 86.5t-110.5 27.5h-106l-41 -291h108z" />
    <glyph glyph-name="Racute" unicode="&#x154;" horiz-adv-x="526" 
d="M460 399q-41 -59 -127 -79l125 -320h-50l-121 313h-132l-44 -313h-46l96 684h149q191 0 191 -153q0 -73 -41 -132zM269 353q97 0 140 52.5t43 124.5q0 59 -33.5 86.5t-110.5 27.5h-106l-41 -291h108zM415 877l18 -43l-183 -75l-13 27z" />
    <glyph glyph-name="Rcaron" unicode="&#x158;" horiz-adv-x="526" 
d="M460 399q-41 -59 -127 -79l125 -320h-50l-121 313h-132l-44 -313h-46l96 684h149q191 0 191 -153q0 -73 -41 -132zM269 353q97 0 140 52.5t43 124.5q0 59 -33.5 86.5t-110.5 27.5h-106l-41 -291h108zM456 879l19 -24l-129 -98h-26l-102 99l22 23l97 -79z" />
    <glyph glyph-name="Rcommaaccent" unicode="&#x156;" horiz-adv-x="526" 
d="M460 399q-41 -59 -127 -79l125 -320h-50l-121 313h-132l-44 -313h-46l96 684h149q191 0 191 -153q0 -73 -41 -132zM269 353q97 0 140 52.5t43 124.5q0 59 -33.5 86.5t-110.5 27.5h-106l-41 -291h108zM265 -97.5q9 -9.5 9 -23.5q0 -12 -4.5 -23t-19.5 -38l-52 -91h-28
l46 115q-16 11 -16 30q0 17 11 28.5t29 11.5q16 0 25 -9.5z" />
    <glyph glyph-name="uni0210" unicode="&#x210;" horiz-adv-x="526" 
d="M460 399q-41 -59 -127 -79l125 -320h-50l-121 313h-132l-44 -313h-46l96 684h149q191 0 191 -153q0 -73 -41 -132zM269 353q97 0 140 52.5t43 124.5q0 59 -33.5 86.5t-110.5 27.5h-106l-41 -291h108zM249 929l49 -145l-33 -13l-62 138zM359 929l44 -140l-33 -13l-56 132z
" />
    <glyph glyph-name="uni1E5A" unicode="&#x1e5a;" horiz-adv-x="526" 
d="M460 399q-41 -59 -127 -79l125 -320h-50l-121 313h-132l-44 -313h-46l96 684h149q191 0 191 -153q0 -73 -41 -132zM269 353q97 0 140 52.5t43 124.5q0 59 -33.5 86.5t-110.5 27.5h-106l-41 -291h108zM258.5 -99.5q8.5 -8.5 8.5 -21.5q0 -16 -11 -27t-27 -11
q-13 0 -22 8.5t-9 21.5q0 16 10.5 27t27.5 11q14 0 22.5 -8.5z" />
    <glyph glyph-name="uni0212" unicode="&#x212;" horiz-adv-x="526" 
d="M460 399q-41 -59 -127 -79l125 -320h-50l-121 313h-132l-44 -313h-46l96 684h149q191 0 191 -153q0 -73 -41 -132zM269 353q97 0 140 52.5t43 124.5q0 59 -33.5 86.5t-110.5 27.5h-106l-41 -291h108zM224 797q13 47 46 74t78 27q46 0 73 -28.5t27 -75.5l-31 -4
q-7 69 -71 69q-65 0 -93 -71z" />
    <glyph glyph-name="uni024C" unicode="&#x24c;" horiz-adv-x="533" 
d="M466 399q-41 -59 -127 -79l125 -320h-50l-121 313h-132l-44 -313h-46l44 313h-81l6 40h81l46 331h149q191 0 191 -153q0 -73 -41 -132zM415 405.5q43 52.5 43 124.5q0 59 -33.5 86.5t-110.5 27.5h-106l-41 -291h108q97 0 140 52.5z" />
    <glyph glyph-name="uni2C64" unicode="&#x2c64;" horiz-adv-x="526" 
d="M460 399q-41 -59 -127 -79l125 -320h-50l-121 313h-132l-44 -313l-11 -84q-2 -16 -2 -22q0 -29 13.5 -43t36.5 -14q22 0 37 6t33 17l19 -31q-43 -31 -92 -31q-44 0 -69 25t-25 72q0 6 2 24l12 81l96 684h149q191 0 191 -153q0 -73 -41 -132zM269 353q97 0 140 52.5
t43 124.5q0 59 -33.5 86.5t-110.5 27.5h-106l-41 -291h108z" />
    <glyph glyph-name="S" unicode="S" horiz-adv-x="483" 
d="M395 675q40 -19 73 -56l-30 -28q-31 33 -62.5 48t-73.5 15q-67 0 -110 -40.5t-43 -101.5q0 -46 26.5 -72.5t95.5 -53.5q78 -31 114 -71t36 -107q0 -55 -26 -105t-78 -82t-126 -32q-60 0 -104 22.5t-80 64.5l31 26q31 -35 67 -53t86 -18q60 0 101.5 25t61.5 65.5t20 85.5
q0 52 -28 83.5t-97 58.5q-81 32 -114 67.5t-33 94.5q0 47 24.5 89t70 68t106.5 26q52 0 92 -19z" />
    <glyph glyph-name="Sacute" unicode="&#x15a;" horiz-adv-x="483" 
d="M395 675q40 -19 73 -56l-30 -28q-31 33 -62.5 48t-73.5 15q-67 0 -110 -40.5t-43 -101.5q0 -46 26.5 -72.5t95.5 -53.5q78 -31 114 -71t36 -107q0 -55 -26 -105t-78 -82t-126 -32q-60 0 -104 22.5t-80 64.5l31 26q31 -35 67 -53t86 -18q60 0 101.5 25t61.5 65.5t20 85.5
q0 52 -28 83.5t-97 58.5q-81 32 -114 67.5t-33 94.5q0 47 24.5 89t70 68t106.5 26q52 0 92 -19zM397 877l18 -43l-183 -75l-13 27z" />
    <glyph glyph-name="uniA78B" unicode="&#xa78b;" horiz-adv-x="188" 
d="M90 356l39 328h49l-53 -328h-35z" />
    <glyph glyph-name="Scaron" unicode="&#x160;" horiz-adv-x="483" 
d="M395 675q40 -19 73 -56l-30 -28q-31 33 -62.5 48t-73.5 15q-67 0 -110 -40.5t-43 -101.5q0 -46 26.5 -72.5t95.5 -53.5q78 -31 114 -71t36 -107q0 -55 -26 -105t-78 -82t-126 -32q-60 0 -104 22.5t-80 64.5l31 26q31 -35 67 -53t86 -18q60 0 101.5 25t61.5 65.5t20 85.5
q0 52 -28 83.5t-97 58.5q-81 32 -114 67.5t-33 94.5q0 47 24.5 89t70 68t106.5 26q52 0 92 -19zM438 879l19 -24l-129 -98h-26l-102 99l22 23l97 -79z" />
    <glyph glyph-name="Scedilla" unicode="&#x15e;" horiz-adv-x="483" 
d="M395 675q40 -19 73 -56l-30 -28q-31 33 -62.5 48t-73.5 15q-67 0 -110 -40.5t-43 -101.5q0 -46 26.5 -72.5t95.5 -53.5q78 -31 114 -71t36 -107q0 -52 -23.5 -100t-70 -80.5t-112.5 -37.5l-10 -58q74 -6 74 -69q0 -38 -27.5 -61.5t-71.5 -23.5q-39 0 -70 21l18 28
q24 -14 52 -14q26 0 42 12.5t16 36.5q0 23 -16 33t-57 10l17 84q-57 1 -98.5 23.5t-76.5 63.5l31 26q31 -35 67 -53t86 -18q60 0 101.5 25t61.5 65.5t20 85.5q0 52 -28 83.5t-97 58.5q-81 32 -114 67.5t-33 94.5q0 47 24.5 89t70 68t106.5 26q52 0 92 -19z" />
    <glyph glyph-name="Scircumflex" unicode="&#x15c;" horiz-adv-x="483" 
d="M395 675q40 -19 73 -56l-30 -28q-31 33 -62.5 48t-73.5 15q-67 0 -110 -40.5t-43 -101.5q0 -46 26.5 -72.5t95.5 -53.5q78 -31 114 -71t36 -107q0 -55 -26 -105t-78 -82t-126 -32q-60 0 -104 22.5t-80 64.5l31 26q31 -35 67 -53t86 -18q60 0 101.5 25t61.5 65.5t20 85.5
q0 52 -28 83.5t-97 58.5q-81 32 -114 67.5t-33 94.5q0 47 24.5 89t70 68t106.5 26q52 0 92 -19zM205 763l-19 25l129 98h27l101 -100l-22 -23l-96 80z" />
    <glyph glyph-name="Scommaaccent" unicode="&#x218;" horiz-adv-x="483" 
d="M395 675q40 -19 73 -56l-30 -28q-31 33 -62.5 48t-73.5 15q-67 0 -110 -40.5t-43 -101.5q0 -46 26.5 -72.5t95.5 -53.5q78 -31 114 -71t36 -107q0 -55 -26 -105t-78 -82t-126 -32q-60 0 -104 22.5t-80 64.5l31 26q31 -35 67 -53t86 -18q60 0 101.5 25t61.5 65.5t20 85.5
q0 52 -28 83.5t-97 58.5q-81 32 -114 67.5t-33 94.5q0 47 24.5 89t70 68t106.5 26q52 0 92 -19zM217 -97.5q9 -9.5 9 -23.5q0 -12 -4.5 -23t-19.5 -38l-52 -91h-28l46 115q-16 11 -16 30q0 17 11 28.5t29 11.5q16 0 25 -9.5z" />
    <glyph glyph-name="uni1E60" unicode="&#x1e60;" horiz-adv-x="483" 
d="M395 675q40 -19 73 -56l-30 -28q-31 33 -62.5 48t-73.5 15q-67 0 -110 -40.5t-43 -101.5q0 -46 26.5 -72.5t95.5 -53.5q78 -31 114 -71t36 -107q0 -55 -26 -105t-78 -82t-126 -32q-60 0 -104 22.5t-80 64.5l31 26q31 -35 67 -53t86 -18q60 0 101.5 25t61.5 65.5t20 85.5
q0 52 -28 83.5t-97 58.5q-81 32 -114 67.5t-33 94.5q0 47 24.5 89t70 68t106.5 26q52 0 92 -19zM299.5 809.5q-8.5 8.5 -8.5 21.5q0 16 11 27t27 11q13 0 22 -8.5t9 -21.5q0 -16 -10.5 -27t-27.5 -11q-14 0 -22.5 8.5z" />
    <glyph glyph-name="uni1E62" unicode="&#x1e62;" horiz-adv-x="483" 
d="M395 675q40 -19 73 -56l-30 -28q-31 33 -62.5 48t-73.5 15q-67 0 -110 -40.5t-43 -101.5q0 -46 26.5 -72.5t95.5 -53.5q78 -31 114 -71t36 -107q0 -55 -26 -105t-78 -82t-126 -32q-60 0 -104 22.5t-80 64.5l31 26q31 -35 67 -53t86 -18q60 0 101.5 25t61.5 65.5t20 85.5
q0 52 -28 83.5t-97 58.5q-81 32 -114 67.5t-33 94.5q0 47 24.5 89t70 68t106.5 26q52 0 92 -19zM210.5 -99.5q8.5 -8.5 8.5 -21.5q0 -16 -11 -27t-27 -11q-13 0 -22 8.5t-9 21.5q0 16 10.5 27t27.5 11q14 0 22.5 -8.5z" />
    <glyph glyph-name="uni1E9E" unicode="&#x1e9e;" horiz-adv-x="585" 
d="M547 630l-4 -33l-204 -215q91 -12 137.5 -53.5t46.5 -116.5q0 -63 -26.5 -114t-74 -80t-108.5 -29t-102 23l20 34q33 -15 81 -15q73 0 117 51.5t44 129.5q0 66 -44.5 97.5t-140.5 39.5l5 40l206 223q-39 19 -75.5 30t-77.5 11q-144 0 -165 -153l-71 -500h-46l71 506
q13 92 68 140t143 48q100 0 200 -64z" />
    <glyph glyph-name="uni018F" unicode="&#x18f;" horiz-adv-x="584" 
d="M491 636q50 -58 50 -177q0 -121 -33 -228.5t-100 -174.5t-165 -67q-90 0 -140 61t-50 177q0 34 5 74.5t11 68.5h419q5 55 5 89q0 101 -37.5 147.5t-108.5 46.5q-48 0 -90.5 -17t-89.5 -53l-22 31q50 42 99 61t106 19q91 0 141 -58zM392 101.5q63 71.5 90 226.5h-374
q-9 -55 -9 -101q0 -100 37 -148.5t107 -48.5q86 0 149 71.5z" />
    <glyph glyph-name="T" unicode="T" horiz-adv-x="439" 
d="M490 684l-12 -43h-182l-90 -641h-46l90 641h-184l6 43h418z" />
    <glyph glyph-name="Tbar" unicode="&#x166;" horiz-adv-x="439" 
d="M478 641h-182l-36 -257h110l-6 -39h-110l-48 -345h-46l48 345h-109l5 39h110l36 257h-184l6 43h418z" />
    <glyph glyph-name="Tcaron" unicode="&#x164;" horiz-adv-x="439" 
d="M490 684l-12 -43h-182l-90 -641h-46l90 641h-184l6 43h418zM412 879l19 -24l-129 -98h-26l-102 99l22 23l97 -79z" />
    <glyph glyph-name="uni0162" unicode="&#x162;" horiz-adv-x="439" 
d="M490 684l-12 -43h-182l-90 -641l-10 -67q74 -7 74 -65q0 -38 -29 -64t-72 -26q-39 0 -68 21l18 29q23 -15 50 -15q24 0 41.5 14t17.5 39q0 21 -17 30t-56 9l20 95h-15l90 641h-184l6 43h418z" />
    <glyph glyph-name="uni1E70" unicode="&#x1e70;" horiz-adv-x="439" 
d="M490 684l-12 -43h-182l-90 -641h-46l90 641h-184l6 43h418zM51 -198l-20 24l130 104h27l100 -104l-22 -24l-97 85z" />
    <glyph glyph-name="uni021A" unicode="&#x21a;" horiz-adv-x="439" 
d="M490 684l-12 -43h-182l-90 -641h-46l90 641h-184l6 43h418zM199 -97.5q9 -9.5 9 -23.5q0 -12 -4.5 -23t-19.5 -38l-52 -91h-28l46 115q-16 11 -16 30q0 17 11 28.5t29 11.5q16 0 25 -9.5z" />
    <glyph glyph-name="uni023E" unicode="&#x23e;" horiz-adv-x="439" 
d="M478 641h-104l-119 -292l-49 -349h-46l25 175l-100 -245l-26 9l141 348l50 354h-184l6 43h289l24 58l26 -9l-20 -49h99zM271 460l73 181h-48z" />
    <glyph glyph-name="uni1E6A" unicode="&#x1e6a;" horiz-adv-x="439" 
d="M490 684l-12 -43h-182l-90 -641h-46l90 641h-184l6 43h418zM273.5 809.5q-8.5 8.5 -8.5 21.5q0 16 11 27t27 11q13 0 22 -8.5t9 -21.5q0 -16 -10.5 -27t-27.5 -11q-14 0 -22.5 8.5z" />
    <glyph glyph-name="uni1E6C" unicode="&#x1e6c;" horiz-adv-x="439" 
d="M490 684l-12 -43h-182l-90 -641h-46l90 641h-184l6 43h418zM192.5 -99.5q8.5 -8.5 8.5 -21.5q0 -16 -11 -27t-27 -11q-13 0 -22 8.5t-9 21.5q0 16 10.5 27t27.5 11q14 0 22.5 -8.5z" />
    <glyph glyph-name="uni01AC" unicode="&#x1ac;" horiz-adv-x="464" 
d="M503 641h-182l-90 -641h-46l90 641h-93q-40 0 -59.5 -21.5t-19.5 -57.5q0 -30 13 -63l-36 -15q-21 38 -21 79q0 54 33 87.5t93 33.5h330z" />
    <glyph glyph-name="uni1E6E" unicode="&#x1e6e;" horiz-adv-x="439" 
d="M490 684l-12 -43h-182l-90 -641h-46l90 641h-184l6 43h418zM68 -115h208l-6 -39h-208z" />
    <glyph glyph-name="uni01BC" unicode="&#x1bc;" horiz-adv-x="443" 
d="M5 73l32 25q24 -36 54.5 -52.5t75.5 -16.5q63 0 104 36.5t59.5 90.5t18.5 108q0 63 -28.5 95t-80.5 32q-33 0 -61.5 -8.5t-58.5 -26.5h-36l46 328h304l-14 -39h-252l-35 -250q53 34 115 34q70 0 108.5 -43.5t38.5 -122.5q0 -63 -23.5 -126t-75.5 -105.5t-132 -42.5
q-104 0 -159 84z" />
    <glyph glyph-name="uni0184" unicode="&#x184;" horiz-adv-x="505" 
d="M416 374.5q50 -43.5 50 -129.5q0 -63 -24.5 -118.5t-80 -91t-143.5 -35.5h-150l79 559l-38 32q42 40 62 93h40l-37 -266h99q93 0 143 -43.5zM340.5 72.5q42.5 31.5 60 77t17.5 93.5q0 70 -37 102.5t-108 32.5h-105l-47 -337h108q69 0 111.5 31.5z" />
    <glyph glyph-name="uni01A7" unicode="&#x1a7;" horiz-adv-x="472" 
d="M430 656.5q40 -37.5 40 -99.5q0 -57 -23.5 -95.5t-67 -64t-113.5 -50.5q-65 -23 -103 -48t-56.5 -61t-18.5 -89q0 -57 32.5 -87.5t88.5 -30.5q51 0 94 19t83 53l25 -30q-46 -41 -95.5 -62.5t-108.5 -21.5q-75 0 -121.5 44t-46.5 116q0 91 52 146t159 91q62 21 98.5 41.5
t55.5 51t19 77.5t-27 72t-78 25q-46 0 -83 -14.5t-80 -47.5l-24 31q46 37 90 54.5t99 17.5q70 0 110 -37.5z" />
    <glyph glyph-name="uni01AE" unicode="&#x1ae;" horiz-adv-x="439" 
d="M195 -84q-2 -16 -2 -22q0 -29 13.5 -43t36.5 -14q22 0 37 6t33 17l19 -31q-43 -31 -92 -31q-44 0 -69 25t-25 72q0 6 2 24l12 81l90 641h-184l6 43h418l-12 -43h-182l-90 -641z" />
    <glyph glyph-name="U" unicode="U" horiz-adv-x="581" 
d="M479 190q-12 -89 -70.5 -145t-154.5 -56q-87 0 -131 45.5t-44 119.5q0 20 3 39l69 491h47l-69 -490q-3 -19 -3 -36q0 -59 32 -93t98 -34q78 0 122.5 45.5t54.5 120.5l68 487h47z" />
    <glyph glyph-name="Uacute" unicode="&#xda;" horiz-adv-x="581" 
d="M479 190q-12 -89 -70.5 -145t-154.5 -56q-87 0 -131 45.5t-44 119.5q0 20 3 39l69 491h47l-69 -490q-3 -19 -3 -36q0 -59 32 -93t98 -34q78 0 122.5 45.5t54.5 120.5l68 487h47zM442 877l18 -43l-183 -75l-13 27z" />
    <glyph glyph-name="uni0244" unicode="&#x244;" horiz-adv-x="599" 
d="M592 516h-57l-46 -326q-12 -89 -70.5 -145t-154.5 -56q-87 0 -131 45.5t-44 119.5q0 20 3 39l45 323h-57l6 35h56l19 133h47l-19 -133h303l19 133h47l-19 -133h58zM488 516h-304l-45 -322q-3 -19 -3 -36q0 -59 32 -93t98 -34q78 0 122.5 45.5t54.5 120.5z" />
    <glyph glyph-name="Ubreve" unicode="&#x16c;" horiz-adv-x="581" 
d="M479 190q-12 -89 -70.5 -145t-154.5 -56q-87 0 -131 45.5t-44 119.5q0 20 3 39l69 491h47l-69 -490q-3 -19 -3 -36q0 -59 32 -93t98 -34q78 0 122.5 45.5t54.5 120.5l68 487h47zM287 794q-27 27 -28 67l30 4q5 -28 23 -43.5t49 -15.5q32 0 55 16.5t36 44.5l31 -9
q-11 -40 -45 -65.5t-78 -25.5q-46 0 -73 27z" />
    <glyph glyph-name="uni01D3" unicode="&#x1d3;" horiz-adv-x="581" 
d="M479 190q-12 -89 -70.5 -145t-154.5 -56q-87 0 -131 45.5t-44 119.5q0 20 3 39l69 491h47l-69 -490q-3 -19 -3 -36q0 -59 32 -93t98 -34q78 0 122.5 45.5t54.5 120.5l68 487h47zM483 879l19 -24l-129 -98h-26l-102 99l22 23l97 -79z" />
    <glyph glyph-name="Ucircumflex" unicode="&#xdb;" horiz-adv-x="581" 
d="M479 190q-12 -89 -70.5 -145t-154.5 -56q-87 0 -131 45.5t-44 119.5q0 20 3 39l69 491h47l-69 -490q-3 -19 -3 -36q0 -59 32 -93t98 -34q78 0 122.5 45.5t54.5 120.5l68 487h47zM250 763l-19 25l129 98h27l101 -100l-22 -23l-96 80z" />
    <glyph glyph-name="uni0214" unicode="&#x214;" horiz-adv-x="581" 
d="M479 190q-12 -89 -70.5 -145t-154.5 -56q-87 0 -131 45.5t-44 119.5q0 20 3 39l69 491h47l-69 -490q-3 -19 -3 -36q0 -59 32 -93t98 -34q78 0 122.5 45.5t54.5 120.5l68 487h47zM276 929l49 -145l-33 -13l-62 138zM386 929l44 -140l-33 -13l-56 132z" />
    <glyph glyph-name="Udieresis" unicode="&#xdc;" horiz-adv-x="581" 
d="M479 190q-12 -89 -70.5 -145t-154.5 -56q-87 0 -131 45.5t-44 119.5q0 20 3 39l69 491h47l-69 -490q-3 -19 -3 -36q0 -59 32 -93t98 -34q78 0 122.5 45.5t54.5 120.5l68 487h47zM263 801q-8 8 -8 20q0 15 10 25.5t26 10.5q13 0 21 -8t8 -20q0 -16 -10 -26t-26 -10
q-13 0 -21 8zM429 801q-8 8 -8 20q0 15 10 25.5t25 10.5q13 0 21 -8t8 -20q0 -16 -10 -26t-25 -10q-13 0 -21 8z" />
    <glyph glyph-name="uni01D7" unicode="&#x1d7;" horiz-adv-x="581" 
d="M479 190q-12 -89 -70.5 -145t-154.5 -56q-87 0 -131 45.5t-44 119.5q0 20 3 39l69 491h47l-69 -490q-3 -19 -3 -36q0 -59 32 -93t98 -34q78 0 122.5 45.5t54.5 120.5l68 487h47zM455 955l29 -30l-122 -118l-20 19zM252 752q-8 8 -8 21q0 15 10 25.5t26 10.5q13 0 21 -8
t8 -21q0 -15 -10 -25.5t-26 -10.5q-13 0 -21 8zM417 752q-8 8 -8 21q0 15 10 25.5t26 10.5q13 0 21 -8t8 -21q0 -15 -10 -25.5t-26 -10.5q-13 0 -21 8z" />
    <glyph glyph-name="uni01D9" unicode="&#x1d9;" horiz-adv-x="581" 
d="M479 190q-12 -89 -70.5 -145t-154.5 -56q-87 0 -131 45.5t-44 119.5q0 20 3 39l69 491h47l-69 -490q-3 -19 -3 -36q0 -59 32 -93t98 -34q78 0 122.5 45.5t54.5 120.5l68 487h47zM486 938l19 -24l-129 -98h-26l-102 99l22 23l97 -79zM253 752q-8 8 -8 21q0 15 10 25.5
t25 10.5q13 0 21 -8t8 -21q0 -15 -10 -25.5t-25 -10.5q-13 0 -21 8zM418 752q-8 8 -8 21q0 15 10 25.5t26 10.5q13 0 21 -8t8 -21q0 -15 -10 -25.5t-26 -10.5q-13 0 -21 8z" />
    <glyph glyph-name="uni01DB" unicode="&#x1db;" horiz-adv-x="581" 
d="M479 190q-12 -89 -70.5 -145t-154.5 -56q-87 0 -131 45.5t-44 119.5q0 20 3 39l69 491h47l-69 -490q-3 -19 -3 -36q0 -59 32 -93t98 -34q78 0 122.5 45.5t54.5 120.5l68 487h47zM305 954l77 -130l-23 -17l-90 122zM253 752q-8 8 -8 21q0 15 10 25.5t25 10.5q13 0 21 -8
t8 -21q0 -15 -10 -25.5t-25 -10.5q-13 0 -21 8zM418 752q-8 8 -8 21q0 15 10 25.5t25 10.5q13 0 21 -8t8 -21q0 -15 -10 -25.5t-25 -10.5q-13 0 -21 8z" />
    <glyph glyph-name="uni01D5" unicode="&#x1d5;" horiz-adv-x="581" 
d="M479 190q-12 -89 -70.5 -145t-154.5 -56q-87 0 -131 45.5t-44 119.5q0 20 3 39l69 491h47l-69 -490q-3 -19 -3 -36q0 -59 32 -93t98 -34q78 0 122.5 45.5t54.5 120.5l68 487h47zM252 752q-8 8 -8 20q0 15 10 25.5t26 10.5q13 0 21 -8t8 -20q0 -16 -10 -26t-26 -10
q-13 0 -21 8zM418 752q-8 8 -8 20q0 15 10 25.5t25 10.5q13 0 21 -8t8 -20q0 -16 -10 -26t-25 -10q-13 0 -21 8zM473 869h-208l6 39h208z" />
    <glyph glyph-name="uni1EE4" unicode="&#x1ee4;" horiz-adv-x="581" 
d="M479 190q-12 -89 -70.5 -145t-154.5 -56q-87 0 -131 45.5t-44 119.5q0 20 3 39l69 491h47l-69 -490q-3 -19 -3 -36q0 -59 32 -93t98 -34q78 0 122.5 45.5t54.5 120.5l68 487h47zM263.5 -99.5q8.5 -8.5 8.5 -21.5q0 -16 -11 -27t-27 -11q-13 0 -22 8.5t-9 21.5
q0 16 10.5 27t27.5 11q14 0 22.5 -8.5z" />
    <glyph glyph-name="Ugrave" unicode="&#xd9;" horiz-adv-x="581" 
d="M479 190q-12 -89 -70.5 -145t-154.5 -56q-87 0 -131 45.5t-44 119.5q0 20 3 39l69 491h47l-69 -490q-3 -19 -3 -36q0 -59 32 -93t98 -34q78 0 122.5 45.5t54.5 120.5l68 487h47zM307 876l153 -90l-17 -27l-160 75z" />
    <glyph glyph-name="uni1EE6" unicode="&#x1ee6;" horiz-adv-x="581" 
d="M479 190q-12 -89 -70.5 -145t-154.5 -56q-87 0 -131 45.5t-44 119.5q0 20 3 39l69 491h47l-69 -490q-3 -19 -3 -36q0 -59 32 -93t98 -34q78 0 122.5 45.5t54.5 120.5l68 487h47zM352 847q71 4 71 55q0 35 -37 35q-26 0 -52 -14l-12 31q33 19 69 19q34 0 54 -19.5
t20 -51.5q0 -34 -20.5 -54t-56.5 -25l-5 -45h-38z" />
    <glyph glyph-name="Uhorn" unicode="&#x1af;" horiz-adv-x="585" 
d="M610.5 632.5q-24.5 -27.5 -74.5 -35.5l-57 -407q-12 -89 -70.5 -145t-154.5 -56q-87 0 -131 45.5t-44 119.5q0 20 3 39l69 491h47l-69 -490q-3 -19 -3 -36q0 -59 32 -93t98 -34q78 0 122.5 45.5t54.5 120.5l68 487h47l-8 -54q32 7 45 26.5t13 53.5q0 28 -7 49l35 8
q9 -22 9 -58q0 -49 -24.5 -76.5z" />
    <glyph glyph-name="uni1EE8" unicode="&#x1ee8;" horiz-adv-x="585" 
d="M460 834l-183 -75l-13 27l178 91zM610.5 632.5q-24.5 -27.5 -74.5 -35.5l-57 -407q-12 -89 -70.5 -145t-154.5 -56q-87 0 -131 45.5t-44 119.5q0 20 3 39l69 491h47l-69 -490q-3 -19 -3 -36q0 -59 32 -93t98 -34q78 0 122.5 45.5t54.5 120.5l68 487h47l-8 -54
q32 7 45 26.5t13 53.5q0 28 -7 49l35 8q9 -22 9 -58q0 -49 -24.5 -76.5z" />
    <glyph glyph-name="uni1EF0" unicode="&#x1ef0;" horiz-adv-x="585" 
d="M610.5 632.5q-24.5 -27.5 -74.5 -35.5l-57 -407q-12 -89 -70.5 -145t-154.5 -56q-87 0 -131 45.5t-44 119.5q0 20 3 39l69 491h47l-69 -490q-3 -19 -3 -36q0 -59 32 -93t98 -34q78 0 122.5 45.5t54.5 120.5l68 487h47l-8 -54q32 7 45 26.5t13 53.5q0 28 -7 49l35 8
q9 -22 9 -58q0 -49 -24.5 -76.5zM263.5 -99.5q8.5 -8.5 8.5 -21.5q0 -16 -11 -27t-27 -11q-13 0 -22 8.5t-9 21.5q0 16 11 27t27 11q14 0 22.5 -8.5z" />
    <glyph glyph-name="uni1EEA" unicode="&#x1eea;" horiz-adv-x="585" 
d="M460 786l-17 -27l-160 75l24 42zM610.5 632.5q-24.5 -27.5 -74.5 -35.5l-57 -407q-12 -89 -70.5 -145t-154.5 -56q-87 0 -131 45.5t-44 119.5q0 20 3 39l69 491h47l-69 -490q-3 -19 -3 -36q0 -59 32 -93t98 -34q78 0 122.5 45.5t54.5 120.5l68 487h47l-8 -54
q32 7 45 26.5t13 53.5q0 28 -7 49l35 8q9 -22 9 -58q0 -49 -24.5 -76.5z" />
    <glyph glyph-name="uni1EEC" unicode="&#x1eec;" horiz-adv-x="585" 
d="M334 923l-12 31q33 19 69 19q34 0 54 -19.5t20 -51.5q0 -34 -20.5 -54t-56.5 -25l-5 -45h-38l7 69q71 4 71 55q0 35 -37 35q-26 0 -52 -14zM610.5 632.5q-24.5 -27.5 -74.5 -35.5l-57 -407q-12 -89 -70.5 -145t-154.5 -56q-87 0 -131 45.5t-44 119.5q0 20 3 39l69 491h47
l-69 -490q-3 -19 -3 -36q0 -59 32 -93t98 -34q78 0 122.5 45.5t54.5 120.5l68 487h47l-8 -54q32 7 45 26.5t13 53.5q0 28 -7 49l35 8q9 -22 9 -58q0 -49 -24.5 -76.5z" />
    <glyph glyph-name="uni1EEE" unicode="&#x1eee;" horiz-adv-x="585" 
d="M292 832.5q-12 -8.5 -29 -30.5l-25 17q41 59 82 59q15 0 28.5 -6t29.5 -18q13 -10 23.5 -15t21.5 -5q14 0 27 10t29 33l27 -16q-39 -65 -83 -65q-17 0 -29.5 6.5t-30.5 18.5q-15 11 -23.5 15.5t-19.5 4.5q-16 0 -28 -8.5zM610.5 632.5q-24.5 -27.5 -74.5 -35.5l-57 -407
q-12 -89 -70.5 -145t-154.5 -56q-87 0 -131 45.5t-44 119.5q0 20 3 39l69 491h47l-69 -490q-3 -19 -3 -36q0 -59 32 -93t98 -34q78 0 122.5 45.5t54.5 120.5l68 487h47l-8 -54q32 7 45 26.5t13 53.5q0 28 -7 49l35 8q9 -22 9 -58q0 -49 -24.5 -76.5z" />
    <glyph glyph-name="Uhungarumlaut" unicode="&#x170;" horiz-adv-x="581" 
d="M479 190q-12 -89 -70.5 -145t-154.5 -56q-87 0 -131 45.5t-44 119.5q0 20 3 39l69 491h47l-69 -490q-3 -19 -3 -36q0 -59 32 -93t98 -34q78 0 122.5 45.5t54.5 120.5l68 487h47zM371 929l39 -23l-93 -130l-27 14zM482 929l38 -22l-99 -136l-28 15z" />
    <glyph glyph-name="uni0216" unicode="&#x216;" horiz-adv-x="581" 
d="M479 190q-12 -89 -70.5 -145t-154.5 -56q-87 0 -131 45.5t-44 119.5q0 20 3 39l69 491h47l-69 -490q-3 -19 -3 -36q0 -59 32 -93t98 -34q78 0 122.5 45.5t54.5 120.5l68 487h47zM251 797q13 47 46 74t78 27q46 0 73 -28.5t27 -75.5l-31 -4q-7 69 -71 69q-65 0 -93 -71z
" />
    <glyph glyph-name="Umacron" unicode="&#x16a;" horiz-adv-x="581" 
d="M479 190q-12 -89 -70.5 -145t-154.5 -56q-87 0 -131 45.5t-44 119.5q0 20 3 39l69 491h47l-69 -490q-3 -19 -3 -36q0 -59 32 -93t98 -34q78 0 122.5 45.5t54.5 120.5l68 487h47zM471 805h-208l6 39h208z" />
    <glyph glyph-name="Uogonek" unicode="&#x172;" horiz-adv-x="581" 
d="M548 684l-69 -494q-9 -71 -50 -123t-108 -70q-57 -29 -81.5 -55t-24.5 -63q0 -24 15 -38t44 -14q22 0 50 7l-6 -40q-27 -6 -51 -6q-46 0 -70.5 24t-24.5 62q0 71 86 115h-4q-87 0 -131 45.5t-44 119.5q0 20 3 39l69 491h47l-69 -490q-3 -19 -3 -36q0 -59 32 -93t98 -34
q78 0 122.5 45.5t54.5 120.5l68 487h47z" />
    <glyph glyph-name="uni01B1" unicode="&#x1b1;" horiz-adv-x="633" 
d="M124.5 55.5q-54.5 65.5 -54.5 185.5q0 127 46 236t141 166h-113l6 41h169l-5 -41q-102 -53 -149 -166t-47 -238q0 -102 42 -155.5t117 -53.5q86 0 144.5 60.5t86.5 152.5t28 186q0 78 -26 129.5t-76 85.5l5 40h169l-6 -41h-113q47 -35 71 -86t24 -127q0 -107 -35 -208
t-104.5 -166.5t-168.5 -65.5q-97 0 -151.5 65.5z" />
    <glyph glyph-name="Uring" unicode="&#x16e;" horiz-adv-x="581" 
d="M479 190q-12 -89 -70.5 -145t-154.5 -56q-87 0 -131 45.5t-44 119.5q0 20 3 39l69 491h47l-69 -490q-3 -19 -3 -36q0 -59 32 -93t98 -34q78 0 122.5 45.5t54.5 120.5l68 487h47zM440 919q21 -22 21 -56q0 -44 -28 -72.5t-69 -28.5q-35 0 -55.5 22t-20.5 56q0 44 28 72.5
t68 28.5q35 0 56 -22zM339.5 891q-15.5 -20 -15.5 -51q0 -23 11 -35.5t31 -12.5q28 0 43.5 20.5t15.5 50.5q0 22 -11 35t-31 13q-28 0 -43.5 -20z" />
    <glyph glyph-name="Utilde" unicode="&#x168;" horiz-adv-x="581" 
d="M479 190q-12 -89 -70.5 -145t-154.5 -56q-87 0 -131 45.5t-44 119.5q0 20 3 39l69 491h47l-69 -490q-3 -19 -3 -36q0 -59 32 -93t98 -34q78 0 122.5 45.5t54.5 120.5l68 487h47zM393.5 802.5q-12.5 6.5 -30.5 18.5q-15 11 -23.5 15.5t-19.5 4.5q-16 0 -28 -8.5t-29 -30.5
l-25 17q41 59 82 59q15 0 28.5 -6t29.5 -18q13 -10 23.5 -15t21.5 -5q14 0 27 10t29 33l27 -16q-39 -65 -83 -65q-17 0 -29.5 6.5z" />
    <glyph glyph-name="uni1E78" unicode="&#x1e78;" horiz-adv-x="581" 
d="M479 190q-12 -89 -70.5 -145t-154.5 -56q-87 0 -131 45.5t-44 119.5q0 20 3 39l69 491h47l-69 -490q-3 -19 -3 -36q0 -59 32 -93t98 -34q78 0 122.5 45.5t54.5 120.5l68 487h47zM389.5 763.5q-12.5 6.5 -30.5 18.5q-15 11 -23.5 15.5t-19.5 4.5q-16 0 -28 -8.5t-29 -30.5
l-25 17q41 59 82 59q15 0 28.5 -6t29.5 -18q13 -10 23.5 -15t21.5 -5q14 0 27 10t29 33l27 -16q-39 -65 -83 -65q-17 0 -29.5 6.5zM457 986l18 -43l-183 -75l-13 27z" />
    <glyph glyph-name="V" unicode="V" horiz-adv-x="495" 
d="M534 684l-296 -684h-55l-103 684h47l89 -636l269 636h49z" />
    <glyph glyph-name="uni01B2" unicode="&#x1b2;" horiz-adv-x="572" 
d="M518.5 674.5q19.5 -19.5 19.5 -55.5q0 -7 -2 -21l-45 -321q-20 -139 -90 -213.5t-169 -74.5q-72 0 -113 42t-41 113q0 22 2 33l71 507h47l-71 -507q-3 -18 -3 -33q0 -54 29.5 -83.5t81.5 -29.5q80 0 136.5 64.5t73.5 188.5l44 316q1 6 1 17q0 38 -33 38q-18 0 -40 -10
l-11 33q28 16 59 16q34 0 53.5 -19.5z" />
    <glyph glyph-name="uni0245" unicode="&#x245;" horiz-adv-x="512" 
d="M345 684l110 -684h-48l-97 646l-278 -646h-49l303 684h59z" />
    <glyph glyph-name="W" unicode="W" horiz-adv-x="728" 
d="M756 684l-233 -684h-58l-49 633l-228 -633h-57l-41 684h45l32 -637l228 637h55l50 -638l211 638h45z" />
    <glyph glyph-name="Wacute" unicode="&#x1e82;" horiz-adv-x="728" 
d="M756 684l-233 -684h-58l-49 633l-228 -633h-57l-41 684h45l32 -637l228 637h55l50 -638l211 638h45zM515 877l18 -43l-183 -75l-13 27z" />
    <glyph glyph-name="Wcircumflex" unicode="&#x174;" horiz-adv-x="728" 
d="M756 684l-233 -684h-58l-49 633l-228 -633h-57l-41 684h45l32 -637l228 637h55l50 -638l211 638h45zM323 763l-19 25l129 98h27l101 -100l-22 -23l-96 80z" />
    <glyph glyph-name="Wdieresis" unicode="&#x1e84;" horiz-adv-x="728" 
d="M756 684l-233 -684h-58l-49 633l-228 -633h-57l-41 684h45l32 -637l228 637h55l50 -638l211 638h45zM336 801q-8 8 -8 20q0 15 10 25.5t26 10.5q13 0 21 -8t8 -20q0 -16 -10 -26t-26 -10q-13 0 -21 8zM502 801q-8 8 -8 20q0 15 10 25.5t25 10.5q13 0 21 -8t8 -20
q0 -16 -10 -26t-25 -10q-13 0 -21 8z" />
    <glyph glyph-name="Wgrave" unicode="&#x1e80;" horiz-adv-x="728" 
d="M756 684l-233 -684h-58l-49 633l-228 -633h-57l-41 684h45l32 -637l228 637h55l50 -638l211 638h45zM380 876l153 -90l-17 -27l-160 75z" />
    <glyph glyph-name="uni2C72" unicode="&#x2c72;" horiz-adv-x="754" 
d="M188 0l228 633l49 -633h58l200 600q10 30 24.5 43t36.5 13q28 0 59 -27l24 25q-38 40 -84 40q-36 0 -60.5 -18.5t-38.5 -63.5l-185 -567l-49 639h-55l-228 -637l-32 637h-45l41 -684h57z" />
    <glyph glyph-name="uni01F7" unicode="&#x1f7;" horiz-adv-x="506" 
d="M465 654q39 -40 39 -111q0 -112 -69 -177.5t-195 -113.5l-98 -37l-31 -215h-46l96 684h47l-8 -53q36 29 75 46t86 17q65 0 104 -40zM400 391.5q56 57.5 56 151.5q0 54 -27 82t-75 28q-46 0 -85 -18t-75 -50l-47 -329l93 37q104 41 160 98.5z" />
    <glyph glyph-name="X" unicode="X" horiz-adv-x="455" 
d="M478 684l-212 -315l142 -369h-50l-122 335l-212 -335h-51l239 369l-123 315h50l103 -284l185 284h51z" />
    <glyph glyph-name="Y" unicode="Y" horiz-adv-x="463" 
d="M509 684l-252 -415l-38 -269h-47l38 268l-137 416h49l116 -372l219 372h52z" />
    <glyph glyph-name="Yacute" unicode="&#xdd;" horiz-adv-x="463" 
d="M509 684l-252 -415l-38 -269h-47l38 268l-137 416h49l116 -372l219 372h52zM380 877l18 -43l-183 -75l-13 27z" />
    <glyph glyph-name="Ycircumflex" unicode="&#x176;" horiz-adv-x="463" 
d="M509 684l-252 -415l-38 -269h-47l38 268l-137 416h49l116 -372l219 372h52zM188 763l-19 25l129 98h27l101 -100l-22 -23l-96 80z" />
    <glyph glyph-name="Ydieresis" unicode="&#x178;" horiz-adv-x="463" 
d="M509 684l-252 -415l-38 -269h-47l38 268l-137 416h49l116 -372l219 372h52zM201 801q-8 8 -8 20q0 15 10 25.5t26 10.5q13 0 21 -8t8 -20q0 -16 -10 -26t-26 -10q-13 0 -21 8zM367 801q-8 8 -8 20q0 15 10 25.5t25 10.5q13 0 21 -8t8 -20q0 -16 -10 -26t-25 -10
q-13 0 -21 8z" />
    <glyph glyph-name="uni1EF4" unicode="&#x1ef4;" horiz-adv-x="463" 
d="M509 684l-252 -415l-38 -269h-47l38 268l-137 416h49l116 -372l219 372h52zM205.5 -99.5q8.5 -8.5 8.5 -21.5q0 -16 -11 -27t-27 -11q-13 0 -22 8.5t-9 21.5q0 16 10.5 27t27.5 11q14 0 22.5 -8.5z" />
    <glyph glyph-name="Ygrave" unicode="&#x1ef2;" horiz-adv-x="463" 
d="M509 684l-252 -415l-38 -269h-47l38 268l-137 416h49l116 -372l219 372h52zM245 876l153 -90l-17 -27l-160 75z" />
    <glyph glyph-name="uni01B3" unicode="&#x1b3;" horiz-adv-x="483" 
d="M210 268l-137 416h50l115 -371l166 302q25 44 49 61.5t59 17.5q46 0 84 -40l-24 -25q-31 27 -58 27q-22 0 -37.5 -12t-33.5 -44l-186 -332l-39 -268h-46z" />
    <glyph glyph-name="uni1EF6" unicode="&#x1ef6;" horiz-adv-x="463" 
d="M509 684l-252 -415l-38 -269h-47l38 268l-137 416h49l116 -372l219 372h52zM290 847q71 4 71 55q0 35 -37 35q-26 0 -52 -14l-12 31q33 19 69 19q34 0 54 -19.5t20 -51.5q0 -34 -20.5 -54t-56.5 -25l-5 -45h-38z" />
    <glyph glyph-name="uni0232" unicode="&#x232;" horiz-adv-x="463" 
d="M509 684l-252 -415l-38 -269h-47l38 268l-137 416h49l116 -372l219 372h52zM409 805h-208l6 39h208z" />
    <glyph glyph-name="uni01A6" unicode="&#x1a6;" horiz-adv-x="524" 
d="M439.5 271.5q-40.5 -58.5 -127.5 -79.5l125 -320h-49l-121 313h-130l-26 -185h-46l96 684h47l-18 -128h97q193 0 193 -153q0 -73 -40.5 -131.5zM248 225q98 0 141 53t43 125q0 58 -34 85t-110 27h-104l-41 -290h105z" />
    <glyph glyph-name="uni024E" unicode="&#x24e;" horiz-adv-x="466" 
d="M454 591h45l-6 -35h-60l-174 -287l-38 -269h-47l38 268l-95 288h-61l6 35h44l-31 93h49l29 -93h251l55 93h51zM240 312l144 244h-220z" />
    <glyph glyph-name="uni1EF8" unicode="&#x1ef8;" horiz-adv-x="463" 
d="M509 684l-252 -415l-38 -269h-47l38 268l-137 416h49l116 -372l219 372h52zM331.5 802.5q-12.5 6.5 -30.5 18.5q-15 11 -23.5 15.5t-19.5 4.5q-16 0 -28 -8.5t-29 -30.5l-25 17q41 59 82 59q15 0 28.5 -6t29.5 -18q13 -10 23.5 -15t21.5 -5q14 0 27 10t29 33l27 -16
q-39 -65 -83 -65q-17 0 -29.5 6.5z" />
    <glyph glyph-name="Z" unicode="Z" horiz-adv-x="460" 
d="M-5 0l6 40l418 602h-301l7 42h352l-5 -40l-418 -602l327 1l-13 -43h-373z" />
    <glyph glyph-name="Zacute" unicode="&#x179;" horiz-adv-x="460" 
d="M-5 0l6 40l418 602h-301l7 42h352l-5 -40l-418 -602l327 1l-13 -43h-373zM385 877l18 -43l-183 -75l-13 27z" />
    <glyph glyph-name="Zcaron" unicode="&#x17d;" horiz-adv-x="460" 
d="M-5 0l6 40l418 602h-301l7 42h352l-5 -40l-418 -602l327 1l-13 -43h-373zM426 879l19 -24l-129 -98h-26l-102 99l22 23l97 -79z" />
    <glyph glyph-name="Zdotaccent" unicode="&#x17b;" horiz-adv-x="460" 
d="M-5 0l6 40l418 602h-301l7 42h352l-5 -40l-418 -602l327 1l-13 -43h-373zM287.5 809.5q-8.5 8.5 -8.5 21.5q0 16 11 27t27 11q13 0 22 -8.5t9 -21.5q0 -16 -10.5 -27t-27.5 -11q-14 0 -22.5 8.5z" />
    <glyph glyph-name="uni1E92" unicode="&#x1e92;" horiz-adv-x="460" 
d="M-5 0l6 40l418 602h-301l7 42h352l-5 -40l-418 -602l327 1l-13 -43h-373zM191.5 -99.5q8.5 -8.5 8.5 -21.5q0 -16 -11 -27t-27 -11q-13 0 -22 8.5t-9 21.5q0 16 10.5 27t27.5 11q14 0 22.5 -8.5z" />
    <glyph glyph-name="uni0224" unicode="&#x224;" horiz-adv-x="460" 
d="M472 644l-418 -602l323 1l-6 -43l-12 -83q-9 -59 -41 -89t-80 -30q-49 0 -86 33l23 29q15 -12 28.5 -17.5t33.5 -5.5q30 0 50.5 20t26.5 63l11 80h-330l6 40l418 602h-301l7 42h352z" />
    <glyph glyph-name="uni01B5" unicode="&#x1b5;" horiz-adv-x="460" 
d="M477 684l-5 -40l-194 -280h93l-6 -40h-115l-196 -282l327 1l-13 -43h-373l6 40l197 284h-97l6 40h119l193 278h-301l7 42h352z" />
    <glyph glyph-name="Cacute.loclPLK" horiz-adv-x="495" 
d="M458.5 678.5q34.5 -15.5 64.5 -46.5l-28 -28q-28 26 -55 37.5t-64 11.5q-90 0 -149 -63t-86 -157t-27 -188q0 -105 42 -159t114 -54q45 0 78 14.5t68 42.5l23 -33q-78 -67 -172 -67q-91 0 -146 67t-55 190q0 104 33 207.5t102.5 172t173.5 68.5q49 0 83.5 -15.5zM462 902
l36 -26l-124 -145l-23 16z" />
    <glyph glyph-name="Nacute.loclPLK" horiz-adv-x="601" 
d="M462 0h-59l-212 640q-3 -74 -25 -234l-57 -406h-44l96 684h60l212 -638q5 89 22 207l60 431h44zM456 902l36 -26l-124 -145l-23 16z" />
    <glyph glyph-name="Oacute.loclPLK" horiz-adv-x="624" 
d="M526 628.5q54 -65.5 54 -188.5q0 -103 -31.5 -206.5t-101 -174t-176.5 -70.5q-96 0 -150.5 67t-54.5 189q0 100 32.5 204t102 174.5t175.5 70.5q96 0 150 -65.5zM225 588q-59 -66 -85 -160.5t-26 -184.5q0 -105 41.5 -158.5t116.5 -53.5q94 0 152.5 66.5t83 161
t24.5 184.5q0 105 -40.5 158t-116.5 53q-91 0 -150 -66zM466 902l36 -26l-124 -145l-23 16z" />
    <glyph glyph-name="Sacute.loclPLK" horiz-adv-x="483" 
d="M395 675q40 -19 73 -56l-30 -28q-31 33 -62.5 48t-73.5 15q-67 0 -110 -40.5t-43 -101.5q0 -46 26.5 -72.5t95.5 -53.5q78 -31 114 -71t36 -107q0 -55 -26 -105t-78 -82t-126 -32q-60 0 -104 22.5t-80 64.5l31 26q31 -35 67 -53t86 -18q60 0 101.5 25t61.5 65.5t20 85.5
q0 52 -28 83.5t-97 58.5q-81 32 -114 67.5t-33 94.5q0 47 24.5 89t70 68t106.5 26q52 0 92 -19zM394 902l36 -26l-124 -145l-23 16z" />
    <glyph glyph-name="Zacute.loclPLK" horiz-adv-x="460" 
d="M-5 0l6 40l418 602h-301l7 42h352l-5 -40l-418 -602l327 1l-13 -43h-373zM382 902l36 -26l-124 -145l-23 16z" />
    <glyph glyph-name="Eng.ss01" horiz-adv-x="592" 
d="M498 655q36 -39 36 -109q0 -19 -3 -42l-71 -504h-1l-11 -83q-9 -59 -41.5 -89t-80.5 -30q-49 0 -86 33l22 29q16 -12 29.5 -17.5t33.5 -5.5q29 0 49.5 20t26.5 63l12 80l71 501q3 23 3 42q0 110 -99 110q-57 0 -105 -30.5t-96 -83.5l-76 -539h-46l96 684h40l-9 -96
q95 106 202 106q68 0 104 -39z" />
    <glyph glyph-name="uni019D.ss01" horiz-adv-x="591" 
d="M497 655q36 -39 36 -109q0 -19 -3 -42l-71 -504h-46l70 501q3 23 3 41q0 55 -25.5 83t-73.5 28q-56 0 -104 -30.5t-97 -84.5l-75 -538h-1l-11 -83q-9 -59 -41.5 -89t-80.5 -30q-49 0 -86 33l22 29q16 -12 29.5 -17.5t33.5 -5.5q29 0 49.5 20t26.5 63l12 80l96 684h41
l-9 -93q96 103 201 103q68 0 104 -39z" />
    <glyph glyph-name="uni2C64.ss01" horiz-adv-x="352" 
d="M406 685l-13 -44q-26 8 -47 8q-56 0 -95 -39t-71 -124l-69 -486l-11 -84q-2 -16 -2 -22q0 -29 13.5 -43t36.5 -14q22 0 37 6t33 17l19 -31q-43 -31 -92 -31q-44 0 -69 25t-25 72q0 6 2 24l12 81l96 684h40l-11 -108q29 61 67 89.5t93 28.5q33 0 56 -9z" />
    <glyph glyph-name="uni0181.ss02" horiz-adv-x="510" 
d="M412.5 370q50.5 -43 50.5 -126q0 -62 -24 -117.5t-79.5 -91t-143.5 -35.5h-151l96 684h305l-13 -41h-251l-33 -230h101q92 0 142.5 -43zM337 72q42 31 59.5 76.5t17.5 94.5q0 130 -144 130h-106l-47 -332h109q69 0 111 31z" />
    <glyph glyph-name="uniA78D.ss02" horiz-adv-x="525" 
d="M387 0h-47l38 266h-323l58 418h47l-53 -377h277l52 377h47z" />
    <glyph glyph-name="uni0299" unicode="&#x299;" horiz-adv-x="467" 
d="M395.5 327.5q-29.5 -33.5 -82.5 -44.5q105 -11 105 -104q0 -88 -59.5 -133.5t-156.5 -45.5h-141l72 517q83 15 141 15q73 0 112 -31.5t39 -86.5q0 -53 -29.5 -86.5zM274 494q-47 0 -99 -10l-27 -186h109q57 0 89.5 31.5t32.5 83.5q0 81 -105 81zM344 241.5
q-27 19.5 -84 19.5h-117l-32 -222h91q76 0 122.5 34.5t46.5 105.5q0 43 -27 62.5z" />
    <glyph glyph-name="uni0262" unicode="&#x262;" horiz-adv-x="497" 
d="M377.5 520q32.5 -14 62.5 -42l-28 -28q-25 23 -51.5 33.5t-58.5 10.5q-63 0 -108.5 -42t-69.5 -112t-24 -151t34.5 -120t98.5 -39q58 0 114 28l26 185h-103v39h153l-34 -246q-76 -45 -158 -45q-84 0 -130.5 50.5t-46.5 148.5q0 94 31 173t87.5 125t129.5 46
q43 0 75.5 -14z" />
    <glyph glyph-name="uni029B" unicode="&#x29b;" horiz-adv-x="494" 
d="M622 707l-22 -28q-16 11 -30.5 17t-34.5 6q-30 0 -50 -20t-26 -63l-19 -141l-24 -24q-28 20 -55.5 30t-58.5 10q-63 0 -108.5 -42t-69.5 -112t-24 -151q0 -159 133 -159q58 0 114 28l25 185h-102v39h153l-34 -246q-76 -45 -158 -45q-84 0 -130.5 51t-46.5 151
q0 93 31.5 171t87.5 124t128 46q56 0 99 -27l16 114q8 59 39.5 89.5t79.5 30.5q49 0 87 -34z" />
    <glyph glyph-name="uni029C" unicode="&#x29c;" horiz-adv-x="527" 
d="M347 0l36 252h-242l-36 -252h-45l74 522h45l-32 -231h242l32 231h45l-74 -522h-45z" />
    <glyph glyph-name="uni026A" unicode="&#x26a;" horiz-adv-x="276" 
d="M286 486h-94l-64 -450h95l-5 -36h-233l5 36h93l63 450h-93l5 36h233z" />
    <glyph glyph-name="uni029F" unicode="&#x29f;" horiz-adv-x="365" 
d="M179 522l-67 -482h216l-13 -40h-255l74 522h45z" />
    <glyph glyph-name="uni0274" unicode="&#x274;" horiz-adv-x="528" 
d="M394 0h-57l-173 476q-5 -70 -19 -172l-42 -304h-43l74 522h57l173 -477q4 70 18 169l43 308h43z" />
    <glyph glyph-name="uni0276" unicode="&#x276;" horiz-adv-x="644" 
d="M633 483h-224q24 -23 37 -61t13 -87q0 -13 -2 -43h120l-6 -38h-119q-10 -68 -38.5 -125.5t-73.5 -89.5h240l-5 -39h-298q-28 -11 -61 -11q-78 0 -120.5 52.5t-42.5 145.5q0 78 25 157.5t80 133.5t138 54q33 0 59 -10h289zM382 454q-30 40 -87 40q-69 0 -113 -50
t-63 -121.5t-19 -138.5q0 -76 30 -115.5t87 -39.5q69 0 112.5 49.5t63 120.5t19.5 139q0 76 -30 116z" />
    <glyph glyph-name="uni0280" unicode="&#x280;" horiz-adv-x="461" 
d="M378.5 284q-36.5 -40 -100.5 -56l105 -228h-47l-100 222h-99l-32 -222h-45l74 522h114q83 0 125 -33.5t42 -98.5q0 -66 -36.5 -106zM218 259q72 0 111.5 34.5t39.5 96.5q0 48 -29.5 70.5t-95.5 22.5h-70l-32 -224h76z" />
    <glyph glyph-name="uni0281" unicode="&#x281;" horiz-adv-x="461" 
d="M359 249.5q25 -30.5 25 -76.5q0 -86 -56 -129.5t-150 -43.5h-118l74 522h45l-31 -222h101l160 222h49l-169 -229q45 -13 70 -43.5zM296 70.5q42 32.5 42 101.5q0 46 -28.5 68.5t-82.5 22.5h-84l-32 -225h68q75 0 117 32.5z" />
    <glyph glyph-name="uni028F" unicode="&#x28f;" horiz-adv-x="398" 
d="M418 522l-203 -313l-29 -209h-45l29 208l-116 314h47l95 -277l172 277h50z" />
    <glyph glyph-name="a" unicode="a" horiz-adv-x="508" 
d="M379 522q34 -10 68 -29l-55 -381q-4 -32 -4 -41q0 -18 6.5 -29.5t21.5 -19.5l-14 -33q-27 10 -41 27.5t-14 51.5l1 15q-29 -43 -66.5 -68.5t-83.5 -25.5q-69 0 -107.5 51t-38.5 140q0 82 26.5 163t83.5 135t142 54q41 0 75 -10zM188.5 446.5q-46.5 -48.5 -68 -121
t-21.5 -145.5t27 -112t78 -39q43 0 79 28t69 83l47 332q-44 23 -95 23q-69 0 -115.5 -48.5z" />
    <glyph glyph-name="aacute" unicode="&#xe1;" horiz-adv-x="508" 
d="M379 522q34 -10 68 -29l-55 -381q-4 -32 -4 -41q0 -18 6.5 -29.5t21.5 -19.5l-14 -33q-27 10 -41 27.5t-14 51.5l1 15q-29 -43 -66.5 -68.5t-83.5 -25.5q-69 0 -107.5 51t-38.5 140q0 82 26.5 163t83.5 135t142 54q41 0 75 -10zM188.5 446.5q-46.5 -48.5 -68 -121
t-21.5 -145.5t27 -112t78 -39q43 0 79 28t69 83l47 332q-44 23 -95 23q-69 0 -115.5 -48.5zM417 775l18 -43l-183 -84l-14 27z" />
    <glyph glyph-name="abreve" unicode="&#x103;" horiz-adv-x="508" 
d="M379 522q34 -10 68 -29l-55 -381q-4 -32 -4 -41q0 -18 6.5 -29.5t21.5 -19.5l-14 -33q-27 10 -41 27.5t-14 51.5l1 15q-29 -43 -66.5 -68.5t-83.5 -25.5q-69 0 -107.5 51t-38.5 140q0 82 26.5 163t83.5 135t142 54q41 0 75 -10zM188.5 446.5q-46.5 -48.5 -68 -121
t-21.5 -145.5t27 -112t78 -39q43 0 79 28t69 83l47 332q-44 23 -95 23q-69 0 -115.5 -48.5zM256 685.5q-27 28.5 -26 74.5l31 4q8 -68 69 -68q32 0 56.5 18.5t37.5 52.5l30 -10q-13 -46 -46.5 -73t-78.5 -27q-46 0 -73 28.5z" />
    <glyph glyph-name="uni1EAF" unicode="&#x1eaf;" horiz-adv-x="508" 
d="M419 848l29 -30l-122 -118l-20 19zM247 623q-27 27 -28 67l30 4q5 -28 23 -43.5t49 -15.5q32 0 55 16.5t36 44.5l31 -9q-11 -40 -45 -65.5t-78 -25.5q-46 0 -73 27zM379 522q34 -10 68 -29l-55 -381q-4 -32 -4 -41q0 -18 6.5 -29.5t21.5 -19.5l-14 -33q-27 10 -41 27.5
t-14 51.5l1 15q-29 -43 -66.5 -68.5t-83.5 -25.5q-69 0 -107.5 51t-38.5 140q0 82 26.5 163t83.5 135t142 54q41 0 75 -10zM188.5 446.5q-46.5 -48.5 -68 -121t-21.5 -145.5t27 -112t78 -39q43 0 79 28t69 83l47 332q-44 23 -95 23q-69 0 -115.5 -48.5z" />
    <glyph glyph-name="uni1EB7" unicode="&#x1eb7;" horiz-adv-x="508" 
d="M379 522q34 -10 68 -29l-55 -381q-4 -32 -4 -41q0 -18 6.5 -29.5t21.5 -19.5l-14 -33q-27 10 -41 27.5t-14 51.5l1 15q-29 -43 -66.5 -68.5t-83.5 -25.5q-69 0 -107.5 51t-38.5 140q0 82 26.5 163t83.5 135t142 54q41 0 75 -10zM188.5 446.5q-46.5 -48.5 -68 -121
t-21.5 -145.5t27 -112t78 -39q43 0 79 28t69 83l47 332q-44 23 -95 23q-69 0 -115.5 -48.5zM256 685.5q-27 28.5 -26 74.5l31 4q8 -68 69 -68q32 0 56.5 18.5t37.5 52.5l30 -10q-13 -46 -46.5 -73t-78.5 -27q-46 0 -73 28.5zM249.5 -99.5q8.5 -8.5 8.5 -21.5q0 -16 -11 -27
t-27 -11q-13 0 -22 8.5t-9 21.5q0 16 10.5 27t27.5 11q14 0 22.5 -8.5z" />
    <glyph glyph-name="uni1EB1" unicode="&#x1eb1;" horiz-adv-x="508" 
d="M271 847l77 -130l-23 -17l-90 122zM248 623q-27 27 -28 67l30 4q5 -28 23 -43.5t49 -15.5q32 0 55 16.5t36 44.5l31 -9q-11 -40 -45 -65.5t-78 -25.5q-46 0 -73 27zM379 522q34 -10 68 -29l-55 -381q-4 -32 -4 -41q0 -18 6.5 -29.5t21.5 -19.5l-14 -33q-27 10 -41 27.5
t-14 51.5l1 15q-29 -43 -66.5 -68.5t-83.5 -25.5q-69 0 -107.5 51t-38.5 140q0 82 26.5 163t83.5 135t142 54q41 0 75 -10zM188.5 446.5q-46.5 -48.5 -68 -121t-21.5 -145.5t27 -112t78 -39q43 0 79 28t69 83l47 332q-44 23 -95 23q-69 0 -115.5 -48.5z" />
    <glyph glyph-name="uni1EB3" unicode="&#x1eb3;" horiz-adv-x="508" 
d="M379 522q34 -10 68 -29l-55 -381q-4 -32 -4 -41q0 -18 6.5 -29.5t21.5 -19.5l-14 -33q-27 10 -41 27.5t-14 51.5l1 15q-29 -43 -66.5 -68.5t-83.5 -25.5q-69 0 -107.5 51t-38.5 140q0 82 26.5 163t83.5 135t142 54q41 0 75 -10zM188.5 446.5q-46.5 -48.5 -68 -121
t-21.5 -145.5t27 -112t78 -39q43 0 79 28t69 83l47 332q-44 23 -95 23q-69 0 -115.5 -48.5zM249 623q-27 27 -28 67l30 4q5 -28 23 -43.5t49 -15.5q32 0 55 16.5t36 44.5l31 -9q-11 -40 -45 -65.5t-78 -25.5q-46 0 -73 27zM320 757q33 3 52 15t19 40q0 17 -9.5 26.5
t-27.5 9.5q-14 0 -25.5 -3.5t-26.5 -10.5l-13 30q35 19 70 19q34 0 54 -19t20 -51q0 -34 -20.5 -54.5t-56.5 -25.5l-7 -54h-38z" />
    <glyph glyph-name="uni1EB5" unicode="&#x1eb5;" horiz-adv-x="508" 
d="M363.5 743.5q-12.5 6.5 -30.5 18.5q-15 11 -23.5 15.5t-19.5 4.5q-16 0 -28 -8.5t-29 -30.5l-25 17q41 59 82 59q15 0 28.5 -6t29.5 -18q13 -10 23.5 -15t21.5 -5q14 0 27 10t29 33l27 -16q-39 -65 -83 -65q-17 0 -29.5 6.5zM249 623q-27 27 -28 67l30 4q5 -28 23 -43.5
t49 -15.5q32 0 55 16.5t36 44.5l31 -9q-11 -40 -45 -65.5t-78 -25.5q-46 0 -73 27zM379 522q34 -10 68 -29l-55 -381q-4 -32 -4 -41q0 -18 6.5 -29.5t21.5 -19.5l-14 -33q-27 10 -41 27.5t-14 51.5l1 15q-29 -43 -66.5 -68.5t-83.5 -25.5q-69 0 -107.5 51t-38.5 140
q0 82 26.5 163t83.5 135t142 54q41 0 75 -10zM188.5 446.5q-46.5 -48.5 -68 -121t-21.5 -145.5t27 -112t78 -39q43 0 79 28t69 83l47 332q-44 23 -95 23q-69 0 -115.5 -48.5z" />
    <glyph glyph-name="uni01CE" unicode="&#x1ce;" horiz-adv-x="508" 
d="M379 522q34 -10 68 -29l-55 -381q-4 -32 -4 -41q0 -18 6.5 -29.5t21.5 -19.5l-14 -33q-27 10 -41 27.5t-14 51.5l1 15q-29 -43 -66.5 -68.5t-83.5 -25.5q-69 0 -107.5 51t-38.5 140q0 82 26.5 163t83.5 135t142 54q41 0 75 -10zM188.5 446.5q-46.5 -48.5 -68 -121
t-21.5 -145.5t27 -112t78 -39q43 0 79 28t69 83l47 332q-44 23 -95 23q-69 0 -115.5 -48.5zM450 763l19 -24l-129 -104h-27l-101 104l23 24l94 -85z" />
    <glyph glyph-name="acircumflex" unicode="&#xe2;" horiz-adv-x="508" 
d="M379 522q34 -10 68 -29l-55 -381q-4 -32 -4 -41q0 -18 6.5 -29.5t21.5 -19.5l-14 -33q-27 10 -41 27.5t-14 51.5l1 15q-29 -43 -66.5 -68.5t-83.5 -25.5q-69 0 -107.5 51t-38.5 140q0 82 26.5 163t83.5 135t142 54q41 0 75 -10zM188.5 446.5q-46.5 -48.5 -68 -121
t-21.5 -145.5t27 -112t78 -39q43 0 79 28t69 83l47 332q-44 23 -95 23q-69 0 -115.5 -48.5zM222 647l-21 24l130 104h27l100 -104l-23 -24l-95 85z" />
    <glyph glyph-name="uni1EA5" unicode="&#x1ea5;" horiz-adv-x="508" 
d="M507 832l29 -30l-122 -118l-20 19zM207 585l-19 25l129 98h27l101 -100l-22 -23l-96 80zM379 522q34 -10 68 -29l-55 -381q-4 -32 -4 -41q0 -18 6.5 -29.5t21.5 -19.5l-14 -33q-27 10 -41 27.5t-14 51.5l1 15q-29 -43 -66.5 -68.5t-83.5 -25.5q-69 0 -107.5 51t-38.5 140
q0 82 26.5 163t83.5 135t142 54q41 0 75 -10zM188.5 446.5q-46.5 -48.5 -68 -121t-21.5 -145.5t27 -112t78 -39q43 0 79 28t69 83l47 332q-44 23 -95 23q-69 0 -115.5 -48.5z" />
    <glyph glyph-name="uni1EAD" unicode="&#x1ead;" horiz-adv-x="508" 
d="M379 522q34 -10 68 -29l-55 -381q-4 -32 -4 -41q0 -18 6.5 -29.5t21.5 -19.5l-14 -33q-27 10 -41 27.5t-14 51.5l1 15q-29 -43 -66.5 -68.5t-83.5 -25.5q-69 0 -107.5 51t-38.5 140q0 82 26.5 163t83.5 135t142 54q41 0 75 -10zM188.5 446.5q-46.5 -48.5 -68 -121
t-21.5 -145.5t27 -112t78 -39q43 0 79 28t69 83l47 332q-44 23 -95 23q-69 0 -115.5 -48.5zM222 647l-21 24l130 104h27l100 -104l-23 -24l-95 85zM249.5 -99.5q8.5 -8.5 8.5 -21.5q0 -16 -11 -27t-27 -11q-13 0 -22 8.5t-9 21.5q0 16 10.5 27t27.5 11q14 0 22.5 -8.5z" />
    <glyph glyph-name="uni1EA7" unicode="&#x1ea7;" horiz-adv-x="508" 
d="M180 831l77 -130l-23 -17l-90 122zM208 585l-19 25l129 98h27l101 -100l-22 -23l-96 80zM379 522q34 -10 68 -29l-55 -381q-4 -32 -4 -41q0 -18 6.5 -29.5t21.5 -19.5l-14 -33q-27 10 -41 27.5t-14 51.5l1 15q-29 -43 -66.5 -68.5t-83.5 -25.5q-69 0 -107.5 51t-38.5 140
q0 82 26.5 163t83.5 135t142 54q41 0 75 -10zM188.5 446.5q-46.5 -48.5 -68 -121t-21.5 -145.5t27 -112t78 -39q43 0 79 28t69 83l47 332q-44 23 -95 23q-69 0 -115.5 -48.5z" />
    <glyph glyph-name="uni1EA9" unicode="&#x1ea9;" horiz-adv-x="508" 
d="M379 522q34 -10 68 -29l-55 -381q-4 -32 -4 -41q0 -18 6.5 -29.5t21.5 -19.5l-14 -33q-27 10 -41 27.5t-14 51.5l1 15q-29 -43 -66.5 -68.5t-83.5 -25.5q-69 0 -107.5 51t-38.5 140q0 82 26.5 163t83.5 135t142 54q41 0 75 -10zM188.5 446.5q-46.5 -48.5 -68 -121
t-21.5 -145.5t27 -112t78 -39q43 0 79 28t69 83l47 332q-44 23 -95 23q-69 0 -115.5 -48.5zM205 585l-19 25l129 98h27l101 -100l-22 -23l-96 80zM430 757q33 3 52 15t19 40q0 17 -9.5 26.5t-27.5 9.5q-14 0 -25.5 -3.5t-26.5 -10.5l-13 30q35 19 70 19q34 0 54 -19t20 -51
q0 -34 -20.5 -54.5t-56.5 -25.5l-7 -54h-38z" />
    <glyph glyph-name="uni1EAB" unicode="&#x1eab;" horiz-adv-x="508" 
d="M363.5 738.5q-12.5 6.5 -30.5 18.5q-15 11 -23.5 15.5t-19.5 4.5q-16 0 -28 -8.5t-29 -30.5l-25 17q41 59 82 59q15 0 28.5 -6t29.5 -18q13 -10 23.5 -15t21.5 -5q14 0 27 10t29 33l27 -16q-39 -65 -83 -65q-17 0 -29.5 6.5zM209 575l-19 25l129 98h27l101 -100l-22 -23
l-96 80zM379 522q34 -10 68 -29l-55 -381q-4 -32 -4 -41q0 -18 6.5 -29.5t21.5 -19.5l-14 -33q-27 10 -41 27.5t-14 51.5l1 15q-29 -43 -66.5 -68.5t-83.5 -25.5q-69 0 -107.5 51t-38.5 140q0 82 26.5 163t83.5 135t142 54q41 0 75 -10zM188.5 446.5q-46.5 -48.5 -68 -121
t-21.5 -145.5t27 -112t78 -39q43 0 79 28t69 83l47 332q-44 23 -95 23q-69 0 -115.5 -48.5z" />
    <glyph glyph-name="uni0201" unicode="&#x201;" horiz-adv-x="508" 
d="M379 522q34 -10 68 -29l-55 -381q-4 -32 -4 -41q0 -18 6.5 -29.5t21.5 -19.5l-14 -33q-27 10 -41 27.5t-14 51.5l1 15q-29 -43 -66.5 -68.5t-83.5 -25.5q-69 0 -107.5 51t-38.5 140q0 82 26.5 163t83.5 135t142 54q41 0 75 -10zM188.5 446.5q-46.5 -48.5 -68 -121
t-21.5 -145.5t27 -112t78 -39q43 0 79 28t69 83l47 332q-44 23 -95 23q-69 0 -115.5 -48.5zM244 803l49 -145l-33 -13l-62 138zM354 803l44 -140l-33 -13l-56 132z" />
    <glyph glyph-name="adieresis" unicode="&#xe4;" horiz-adv-x="508" 
d="M379 522q34 -10 68 -29l-55 -381q-4 -32 -4 -41q0 -18 6.5 -29.5t21.5 -19.5l-14 -33q-27 10 -41 27.5t-14 51.5l1 15q-29 -43 -66.5 -68.5t-83.5 -25.5q-69 0 -107.5 51t-38.5 140q0 82 26.5 163t83.5 135t142 54q41 0 75 -10zM188.5 446.5q-46.5 -48.5 -68 -121
t-21.5 -145.5t27 -112t78 -39q43 0 79 28t69 83l47 332q-44 23 -95 23q-69 0 -115.5 -48.5zM229 675q-8 8 -8 20q0 15 10 25.5t26 10.5q13 0 21 -8t8 -20q0 -16 -10 -26t-26 -10q-13 0 -21 8zM395 675q-8 8 -8 20q0 15 10 25.5t25 10.5q13 0 21 -8t8 -20q0 -16 -10 -26
t-25 -10q-13 0 -21 8z" />
    <glyph glyph-name="uni01DF" unicode="&#x1df;" horiz-adv-x="508" 
d="M379 522q34 -10 68 -29l-55 -381q-4 -32 -4 -41q0 -18 6.5 -29.5t21.5 -19.5l-14 -33q-27 10 -41 27.5t-14 51.5l1 15q-29 -43 -66.5 -68.5t-83.5 -25.5q-69 0 -107.5 51t-38.5 140q0 82 26.5 163t83.5 135t142 54q41 0 75 -10zM188.5 446.5q-46.5 -48.5 -68 -121
t-21.5 -145.5t27 -112t78 -39q43 0 79 28t69 83l47 332q-44 23 -95 23q-69 0 -115.5 -48.5zM221 645q-8 8 -8 20q0 15 10 25.5t26 10.5q13 0 21 -8t8 -20q0 -16 -10 -26t-26 -10q-13 0 -21 8zM387 645q-8 8 -8 20q0 15 10 25.5t25 10.5q13 0 21 -8t8 -20q0 -16 -10 -26
t-25 -10q-13 0 -21 8zM442 766h-208l6 39h208z" />
    <glyph glyph-name="uni0227" unicode="&#x227;" horiz-adv-x="508" 
d="M379 522q34 -10 68 -29l-55 -381q-4 -32 -4 -41q0 -18 6.5 -29.5t21.5 -19.5l-14 -33q-27 10 -41 27.5t-14 51.5l1 15q-29 -43 -66.5 -68.5t-83.5 -25.5q-69 0 -107.5 51t-38.5 140q0 82 26.5 163t83.5 135t142 54q41 0 75 -10zM188.5 446.5q-46.5 -48.5 -68 -121
t-21.5 -145.5t27 -112t78 -39q43 0 79 28t69 83l47 332q-44 23 -95 23q-69 0 -115.5 -48.5zM310.5 683.5q-8.5 8.5 -8.5 21.5q0 16 11 27t27 11q13 0 22 -8.5t9 -21.5q0 -16 -10.5 -27t-27.5 -11q-14 0 -22.5 8.5z" />
    <glyph glyph-name="uni1EA1" unicode="&#x1ea1;" horiz-adv-x="508" 
d="M379 522q34 -10 68 -29l-55 -381q-4 -32 -4 -41q0 -18 6.5 -29.5t21.5 -19.5l-14 -33q-27 10 -41 27.5t-14 51.5l1 15q-29 -43 -66.5 -68.5t-83.5 -25.5q-69 0 -107.5 51t-38.5 140q0 82 26.5 163t83.5 135t142 54q41 0 75 -10zM188.5 446.5q-46.5 -48.5 -68 -121
t-21.5 -145.5t27 -112t78 -39q43 0 79 28t69 83l47 332q-44 23 -95 23q-69 0 -115.5 -48.5zM249.5 -99.5q8.5 -8.5 8.5 -21.5q0 -16 -11 -27t-27 -11q-13 0 -22 8.5t-9 21.5q0 16 10.5 27t27.5 11q14 0 22.5 -8.5z" />
    <glyph glyph-name="uni01E1" unicode="&#x1e1;" horiz-adv-x="508" 
d="M379 522q34 -10 68 -29l-55 -381q-4 -32 -4 -41q0 -18 6.5 -29.5t21.5 -19.5l-14 -33q-27 10 -41 27.5t-14 51.5l1 15q-29 -43 -66.5 -68.5t-83.5 -25.5q-69 0 -107.5 51t-38.5 140q0 82 26.5 163t83.5 135t142 54q41 0 75 -10zM188.5 446.5q-46.5 -48.5 -68 -121
t-21.5 -145.5t27 -112t78 -39q43 0 79 28t69 83l47 332q-44 23 -95 23q-69 0 -115.5 -48.5zM302.5 633.5q-8.5 8.5 -8.5 21.5q0 16 11 27t27 11q13 0 22 -8.5t9 -21.5q0 -16 -10.5 -27t-27.5 -11q-14 0 -22.5 8.5zM445 753h-208l6 39h208z" />
    <glyph glyph-name="agrave" unicode="&#xe0;" horiz-adv-x="508" 
d="M379 522q34 -10 68 -29l-55 -381q-4 -32 -4 -41q0 -18 6.5 -29.5t21.5 -19.5l-14 -33q-27 10 -41 27.5t-14 51.5l1 15q-29 -43 -66.5 -68.5t-83.5 -25.5q-69 0 -107.5 51t-38.5 140q0 82 26.5 163t83.5 135t142 54q41 0 75 -10zM188.5 446.5q-46.5 -48.5 -68 -121
t-21.5 -145.5t27 -112t78 -39q43 0 79 28t69 83l47 332q-44 23 -95 23q-69 0 -115.5 -48.5zM284 774l151 -100l-16 -26l-161 84z" />
    <glyph glyph-name="uni1EA3" unicode="&#x1ea3;" horiz-adv-x="508" 
d="M379 522q34 -10 68 -29l-55 -381q-4 -32 -4 -41q0 -18 6.5 -29.5t21.5 -19.5l-14 -33q-27 10 -41 27.5t-14 51.5l1 15q-29 -43 -66.5 -68.5t-83.5 -25.5q-69 0 -107.5 51t-38.5 140q0 82 26.5 163t83.5 135t142 54q41 0 75 -10zM188.5 446.5q-46.5 -48.5 -68 -121
t-21.5 -145.5t27 -112t78 -39q43 0 79 28t69 83l47 332q-44 23 -95 23q-69 0 -115.5 -48.5zM313 697q33 3 52 15t19 40q0 17 -9.5 26.5t-27.5 9.5q-14 0 -25.5 -3.5t-26.5 -10.5l-13 30q35 19 70 19q34 0 54 -19t20 -51q0 -34 -20.5 -54.5t-56.5 -25.5l-7 -54h-38z" />
    <glyph glyph-name="uni0203" unicode="&#x203;" horiz-adv-x="508" 
d="M379 522q34 -10 68 -29l-55 -381q-4 -32 -4 -41q0 -18 6.5 -29.5t21.5 -19.5l-14 -33q-27 10 -41 27.5t-14 51.5l1 15q-29 -43 -66.5 -68.5t-83.5 -25.5q-69 0 -107.5 51t-38.5 140q0 82 26.5 163t83.5 135t142 54q41 0 75 -10zM188.5 446.5q-46.5 -48.5 -68 -121
t-21.5 -145.5t27 -112t78 -39q43 0 79 28t69 83l47 332q-44 23 -95 23q-69 0 -115.5 -48.5zM212 635q13 47 46 74t78 27q46 0 73 -28.5t27 -75.5l-31 -4q-7 69 -71 69q-65 0 -93 -71z" />
    <glyph glyph-name="uni0251" unicode="&#x251;" horiz-adv-x="507" 
d="M388 71q0 -18 6.5 -29.5t21.5 -19.5l-14 -33q-30 11 -44 31.5t-11 62.5q-29 -43 -66.5 -68.5t-82.5 -25.5q-69 0 -107.5 51t-38.5 140q0 81 27.5 162.5t79.5 135.5t123 54q84 0 117 -80l17 70h36l-60 -410q-4 -32 -4 -41zM389 392q-15 56 -41.5 79t-65.5 23
q-56 0 -97.5 -48t-63.5 -121t-22 -145q0 -73 27 -112t78 -39q43 0 79 28.5t69 82.5z" />
    <glyph glyph-name="uni0252" unicode="&#x252;" horiz-adv-x="507" 
d="M416.5 482q38.5 -51 38.5 -140q0 -81 -27.5 -162.5t-79.5 -135.5t-123 -54q-84 0 -117 80l-17 -70h-36l60 410q4 32 4 41q0 18 -6.5 29.5t-21.5 19.5l14 33q30 -11 44 -31.5t11 -62.5q29 43 66.5 68.5t82.5 25.5q69 0 107.5 -51zM322.5 76q41.5 48 63.5 121t22 145
q0 73 -27 112t-78 39q-43 0 -79 -28.5t-69 -82.5l-37 -252q15 -56 41.5 -79t65.5 -23q56 0 97.5 48z" />
    <glyph glyph-name="amacron" unicode="&#x101;" horiz-adv-x="508" 
d="M379 522q34 -10 68 -29l-55 -381q-4 -32 -4 -41q0 -18 6.5 -29.5t21.5 -19.5l-14 -33q-27 10 -41 27.5t-14 51.5l1 15q-29 -43 -66.5 -68.5t-83.5 -25.5q-69 0 -107.5 51t-38.5 140q0 82 26.5 163t83.5 135t142 54q41 0 75 -10zM188.5 446.5q-46.5 -48.5 -68 -121
t-21.5 -145.5t27 -112t78 -39q43 0 79 28t69 83l47 332q-44 23 -95 23q-69 0 -115.5 -48.5zM437 679h-208l6 39h208z" />
    <glyph glyph-name="aogonek" unicode="&#x105;" horiz-adv-x="508" 
d="M388 71q0 -18 6.5 -29.5t21.5 -19.5l-14 -33q-68 -32 -97.5 -60.5t-29.5 -66.5q0 -46 51 -46q21 0 52 6l-9 -39q-27 -6 -49 -6q-41 0 -64.5 21.5t-23.5 56.5q0 48 33.5 83t108.5 66q-27 20 -27 63q0 10 1 16q-29 -43 -66.5 -68.5t-83.5 -25.5q-69 0 -107.5 51t-38.5 140
q0 82 26.5 163t83.5 135t142 54q41 0 75 -10t68 -29l-55 -381q-4 -32 -4 -41zM399 472q-44 23 -95 23q-69 0 -115.5 -48.5t-68 -121t-21.5 -145.5t27 -112t78 -39q43 0 79 28t69 83z" />
    <glyph glyph-name="aring" unicode="&#xe5;" horiz-adv-x="508" 
d="M379 522q34 -10 68 -29l-55 -381q-4 -32 -4 -41q0 -18 6.5 -29.5t21.5 -19.5l-14 -33q-27 10 -41 27.5t-14 51.5l1 15q-29 -43 -66.5 -68.5t-83.5 -25.5q-69 0 -107.5 51t-38.5 140q0 82 26.5 163t83.5 135t142 54q41 0 75 -10zM188.5 446.5q-46.5 -48.5 -68 -121
t-21.5 -145.5t27 -112t78 -39q43 0 79 28t69 83l47 332q-44 23 -95 23q-69 0 -115.5 -48.5zM405 793q21 -22 21 -56q0 -44 -28 -72.5t-69 -28.5q-35 0 -55.5 22t-20.5 56q0 44 28 72.5t68 28.5q35 0 56 -22zM304.5 765q-15.5 -20 -15.5 -51q0 -23 11 -35.5t31 -12.5
q28 0 43.5 20.5t15.5 50.5q0 22 -11 35t-31 13q-28 0 -43.5 -20z" />
    <glyph glyph-name="aringacute" unicode="&#x1fb;" horiz-adv-x="508" 
d="M379 522q34 -10 68 -29l-55 -381q-4 -32 -4 -41q0 -18 6.5 -29.5t21.5 -19.5l-14 -33q-27 10 -41 27.5t-14 51.5l1 15q-29 -43 -66.5 -68.5t-83.5 -25.5q-69 0 -107.5 51t-38.5 140q0 82 26.5 163t83.5 135t142 54q41 0 75 -10zM188.5 446.5q-46.5 -48.5 -68 -121
t-21.5 -145.5t27 -112t78 -39q43 0 79 28t69 83l47 332q-44 23 -95 23q-69 0 -115.5 -48.5zM397 745q21 -22 21 -56q0 -44 -28 -72.5t-69 -28.5q-35 0 -55.5 22t-20.5 56q0 44 28 72.5t68 28.5q35 0 56 -22zM296.5 717q-15.5 -20 -15.5 -51q0 -23 11 -35.5t31 -12.5
q28 0 43.5 20.5t15.5 50.5q0 22 -11 35t-31 13q-28 0 -43.5 -20zM423 895l18 -43l-183 -75l-13 27z" />
    <glyph glyph-name="uni2C65" unicode="&#x2c65;" horiz-adv-x="508" 
d="M388 71q0 -18 6.5 -29.5t21.5 -19.5l-14 -33q-27 7 -41 25t-14 53l1 16q-29 -43 -66.5 -68.5t-83.5 -25.5q-19 0 -41 5l-25 -64l-25 8l25 66q-38 20 -59 65.5t-21 110.5q0 82 26.5 163t83.5 135t142 54q12 0 32 -2l23 61l26 -8l-22 -57q44 -10 84 -33l-55 -381
q-4 -32 -4 -41zM148 45l174 449q-6 1 -18 1q-69 0 -115.5 -48.5t-68 -121t-21.5 -145.5q0 -100 49 -135zM399 472q-23 12 -50 18l-177 -456q17 -5 32 -5q43 0 79 28t69 83z" />
    <glyph glyph-name="atilde" unicode="&#xe3;" horiz-adv-x="508" 
d="M379 522q34 -10 68 -29l-55 -381q-4 -32 -4 -41q0 -18 6.5 -29.5t21.5 -19.5l-14 -33q-27 10 -41 27.5t-14 51.5l1 15q-29 -43 -66.5 -68.5t-83.5 -25.5q-69 0 -107.5 51t-38.5 140q0 82 26.5 163t83.5 135t142 54q41 0 75 -10zM188.5 446.5q-46.5 -48.5 -68 -121
t-21.5 -145.5t27 -112t78 -39q43 0 79 28t69 83l47 332q-44 23 -95 23q-69 0 -115.5 -48.5zM359.5 676.5q-12.5 6.5 -30.5 18.5q-15 11 -23.5 15.5t-19.5 4.5q-16 0 -28 -8.5t-29 -30.5l-25 17q41 59 82 59q15 0 28.5 -6t29.5 -18q13 -10 23.5 -15t21.5 -5q14 0 27 10t29 33
l27 -16q-39 -65 -83 -65q-17 0 -29.5 6.5z" />
    <glyph glyph-name="uni0250" unicode="&#x250;" horiz-adv-x="474" 
d="M124 142q-2 -22 -2 -31q0 -42 22 -62t71 -20q32 0 63 7.5t67 22.5l13 -35q-41 -18 -76 -26.5t-73 -8.5q-66 0 -99.5 31t-33.5 89q0 10 2 32l37 269q4 32 4 41q0 18 -6.5 29.5t-21.5 18.5l15 33q29 -10 42.5 -29.5t11.5 -57.5q65 87 156 87q60 0 94 -35t34 -95
q0 -91 -60.5 -142t-155.5 -51h-95zM138 245h88q78 0 124.5 41t46.5 115q0 45 -22.5 69t-64.5 24q-47 0 -83.5 -25.5t-68.5 -74.5z" />
    <glyph glyph-name="ae" unicode="&#xe6;" horiz-adv-x="742" 
d="M398 428q27 45 73.5 74.5t105.5 29.5q64 0 100.5 -33t36.5 -87q0 -93 -88.5 -141.5t-249.5 -61.5q-2 -87 27.5 -133t91.5 -46q38 0 69.5 12.5t66.5 39.5l21 -31q-40 -31 -78 -46.5t-82 -15.5q-54 0 -92 26.5t-56 76.5q-44 -56 -88.5 -79.5t-93.5 -23.5q-62 0 -97.5 36
t-35.5 97q0 77 52.5 128.5t164.5 51.5h97q11 46 25 79q-5 53 -33.5 82.5t-79.5 29.5q-56 0 -130 -30l-10 36q81 33 144 33q111 0 139 -104zM441.5 421.5q-49.5 -72.5 -62.5 -175.5q145 12 217 51.5t72 113.5q0 38 -23.5 60.5t-69.5 22.5q-84 0 -133.5 -72.5zM249 267
q-90 0 -131 -40t-41 -105q0 -45 24 -69.5t66 -24.5q44 0 84.5 24.5t82.5 80.5q-4 20 -4 53q0 48 6 81h-87z" />
    <glyph glyph-name="aeacute" unicode="&#x1fd;" horiz-adv-x="742" 
d="M398 428q27 45 73.5 74.5t105.5 29.5q64 0 100.5 -33t36.5 -87q0 -93 -88.5 -141.5t-249.5 -61.5q-2 -87 27.5 -133t91.5 -46q38 0 69.5 12.5t66.5 39.5l21 -31q-40 -31 -78 -46.5t-82 -15.5q-54 0 -92 26.5t-56 76.5q-44 -56 -88.5 -79.5t-93.5 -23.5q-62 0 -97.5 36
t-35.5 97q0 77 52.5 128.5t164.5 51.5h97q11 46 25 79q-5 53 -33.5 82.5t-79.5 29.5q-56 0 -130 -30l-10 36q81 33 144 33q111 0 139 -104zM441.5 421.5q-49.5 -72.5 -62.5 -175.5q145 12 217 51.5t72 113.5q0 38 -23.5 60.5t-69.5 22.5q-84 0 -133.5 -72.5zM249 267
q-90 0 -131 -40t-41 -105q0 -45 24 -69.5t66 -24.5q44 0 84.5 24.5t82.5 80.5q-4 20 -4 53q0 48 6 81h-87zM511 775l18 -43l-183 -84l-14 27z" />
    <glyph glyph-name="uni01E3" unicode="&#x1e3;" horiz-adv-x="742" 
d="M398 428q27 45 73.5 74.5t105.5 29.5q64 0 100.5 -33t36.5 -87q0 -93 -88.5 -141.5t-249.5 -61.5q-2 -87 27.5 -133t91.5 -46q38 0 69.5 12.5t66.5 39.5l21 -31q-40 -31 -78 -46.5t-82 -15.5q-54 0 -92 26.5t-56 76.5q-44 -56 -88.5 -79.5t-93.5 -23.5q-62 0 -97.5 36
t-35.5 97q0 77 52.5 128.5t164.5 51.5h97q11 46 25 79q-5 53 -33.5 82.5t-79.5 29.5q-56 0 -130 -30l-10 36q81 33 144 33q111 0 139 -104zM441.5 421.5q-49.5 -72.5 -62.5 -175.5q145 12 217 51.5t72 113.5q0 38 -23.5 60.5t-69.5 22.5q-84 0 -133.5 -72.5zM249 267
q-90 0 -131 -40t-41 -105q0 -45 24 -69.5t66 -24.5q44 0 84.5 24.5t82.5 80.5q-4 20 -4 53q0 48 6 81h-87zM531 679h-208l6 39h208z" />
    <glyph glyph-name="b" unicode="b" horiz-adv-x="517" 
d="M428.5 485q36.5 -47 36.5 -134q0 -84 -25 -167t-81 -139t-143 -56q-40 0 -74 8t-78 26l101 712l45 6l-40 -290q74 81 156 81q66 0 102.5 -47zM238 469q-38 -24 -75 -68l-49 -351q49 -21 104 -21q72 0 117.5 52t64.5 127t19 148q0 68 -25.5 102.5t-74.5 34.5
q-43 0 -81 -24z" />
    <glyph glyph-name="uni1E03" unicode="&#x1e03;" horiz-adv-x="517" 
d="M428.5 485q36.5 -47 36.5 -134q0 -84 -25 -167t-81 -139t-143 -56q-40 0 -74 8t-78 26l101 712l45 6l-40 -290q74 81 156 81q66 0 102.5 -47zM238 469q-38 -24 -75 -68l-49 -351q49 -21 104 -21q72 0 117.5 52t64.5 127t19 148q0 68 -25.5 102.5t-74.5 34.5
q-43 0 -81 -24zM336.5 860.5q-8.5 8.5 -8.5 21.5q0 16 11 27t27 11q13 0 22 -8.5t9 -21.5q0 -16 -10.5 -27t-27.5 -11q-14 0 -22.5 8.5z" />
    <glyph glyph-name="uni1E05" unicode="&#x1e05;" horiz-adv-x="517" 
d="M428.5 485q36.5 -47 36.5 -134q0 -84 -25 -167t-81 -139t-143 -56q-40 0 -74 8t-78 26l101 712l45 6l-40 -290q74 81 156 81q66 0 102.5 -47zM238 469q-38 -24 -75 -68l-49 -351q49 -21 104 -21q72 0 117.5 52t64.5 127t19 148q0 68 -25.5 102.5t-74.5 34.5
q-43 0 -81 -24zM229.5 -99.5q8.5 -8.5 8.5 -21.5q0 -16 -11 -27t-27 -11q-13 0 -22 8.5t-9 21.5q0 16 10.5 27t27.5 11q14 0 22.5 -8.5z" />
    <glyph glyph-name="uniA7B5" unicode="&#xa7b5;" horiz-adv-x="528" 
d="M135 530q14 104 69.5 157.5t133.5 53.5q66 0 107.5 -40.5t41.5 -109.5q0 -76 -44 -129.5t-128 -63.5q69 -2 114 -46t45 -123q0 -58 -24 -113t-73 -91t-121 -36q-90 0 -142 70l-35 -256l-47 -6zM352 59q39 30 57 75.5t18 92.5q0 74 -43 113.5t-121 39.5h-45l10 37h43
q55 0 94 24t58 64t19 86q0 55 -28 83.5t-76 28.5q-61 0 -103 -42.5t-55 -133.5l-59 -423q26 -40 57.5 -57.5t76.5 -17.5q58 0 97 30z" />
    <glyph glyph-name="uni0253" unicode="&#x253;" horiz-adv-x="517" 
d="M429 485.5q36 -46.5 36 -134.5q0 -84 -24.5 -167t-80.5 -139t-144 -56q-40 0 -74 8t-78 26l70 498h1l13 94q9 60 46.5 93t94.5 33t108 -30l-19 -33q-43 24 -87 24q-85 0 -99 -94l-12 -87l-10 -70q74 81 156 81q67 0 103 -46.5zM335.5 81q45.5 52 64.5 127t19 148
q0 69 -25.5 103t-74.5 34q-43 0 -81 -24t-75 -68l-49 -351q49 -21 104 -21q72 0 117.5 52z" />
    <glyph glyph-name="uni02AD" unicode="&#x2ad;" horiz-adv-x="295" 
d="M284 400h-37l13 91h-160l-13 -91h-37l18 125h234zM227 0h-37l13 91h-160l-13 -91h-37l18 125h234z" />
    <glyph glyph-name="uni0298" unicode="&#x298;" horiz-adv-x="715" 
d="M603 623.5q67 -70.5 67 -198.5q0 -124 -43.5 -223t-123.5 -156t-187 -57q-115 0 -181.5 71t-66.5 199q0 123 44.5 222t125 156t184.5 57q114 0 181 -70.5zM257 603q-70 -52 -107 -142t-37 -201q0 -112 54.5 -171.5t149.5 -59.5q96 0 165.5 51.5t106 141.5t36.5 203
t-53.5 171.5t-150.5 58.5q-94 0 -164 -52zM342.5 315.5q-8.5 8.5 -8.5 21.5q0 16 11 27t27 11q13 0 22 -8.5t9 -21.5q0 -16 -10.5 -27t-27.5 -11q-14 0 -22.5 8.5z" />
    <glyph glyph-name="uni02AC" unicode="&#x2ac;" horiz-adv-x="415" 
d="M431 662l-100 -262h-47l-24 225l-87 -225h-48l-28 262h37l20 -229l89 229h44l24 -230l84 230h36zM375 262l-100 -262h-47l-24 225l-87 -225h-48l-28 262h37l20 -229l89 229h44l24 -230l84 230h36z" />
    <glyph glyph-name="uni0180" unicode="&#x180;" horiz-adv-x="522" 
d="M433.5 485q36.5 -47 36.5 -134q0 -84 -25 -167t-81 -139t-143 -56q-40 0 -74 8t-78 26l85 598h-68l6 37h67l11 77l45 6l-11 -83h156l-12 -37h-150l-23 -170q74 81 156 81q66 0 102.5 -47zM340.5 81q45.5 52 64.5 127t19 148q0 68 -25.5 102.5t-74.5 34.5q-43 0 -81 -24
t-75 -68l-49 -351q49 -21 104 -21q72 0 117.5 52z" />
    <glyph glyph-name="uni0183" unicode="&#x183;" horiz-adv-x="517" 
d="M429 485.5q36 -46.5 36 -134.5q0 -84 -24.5 -167t-80.5 -139t-144 -56q-40 0 -74 8t-78 26l101 712h260l-13 -38h-207l-35 -246q74 81 156 81q67 0 103 -46.5zM335.5 81q45.5 52 64.5 127t19 148q0 69 -25.5 103t-74.5 34q-43 0 -81 -24t-75 -68l-49 -351q49 -21 104 -21
q72 0 117.5 52z" />
    <glyph glyph-name="c" unicode="c" horiz-adv-x="420" 
d="M365 519.5q30 -12.5 56 -39.5l-27 -28q-21 21 -44 31t-54 10q-68 0 -112 -48t-64 -118.5t-20 -140.5q0 -78 31.5 -117t87.5 -39q32 0 59.5 11t57.5 33l21 -31q-67 -54 -140 -54q-77 0 -120.5 52t-43.5 147q0 79 26 158.5t81 132.5t137 53q38 0 68 -12.5z" />
    <glyph glyph-name="cacute" unicode="&#x107;" horiz-adv-x="420" 
d="M365 519.5q30 -12.5 56 -39.5l-27 -28q-21 21 -44 31t-54 10q-68 0 -112 -48t-64 -118.5t-20 -140.5q0 -78 31.5 -117t87.5 -39q32 0 59.5 11t57.5 33l21 -31q-67 -54 -140 -54q-77 0 -120.5 52t-43.5 147q0 79 26 158.5t81 132.5t137 53q38 0 68 -12.5zM402 775l18 -43
l-183 -84l-14 27z" />
    <glyph glyph-name="ccaron" unicode="&#x10d;" horiz-adv-x="420" 
d="M365 519.5q30 -12.5 56 -39.5l-27 -28q-21 21 -44 31t-54 10q-68 0 -112 -48t-64 -118.5t-20 -140.5q0 -78 31.5 -117t87.5 -39q32 0 59.5 11t57.5 33l21 -31q-67 -54 -140 -54q-77 0 -120.5 52t-43.5 147q0 79 26 158.5t81 132.5t137 53q38 0 68 -12.5zM435 763l19 -24
l-129 -104h-27l-101 104l23 24l94 -85z" />
    <glyph glyph-name="ccedilla" unicode="&#xe7;" horiz-adv-x="420" 
d="M184 445q-44 -48 -64 -118.5t-20 -140.5q0 -78 31.5 -117t87.5 -39q32 0 59.5 11t57.5 33l21 -31q-64 -51 -132 -54l-10 -57q74 -6 74 -69q0 -38 -27.5 -61.5t-71.5 -23.5q-39 0 -70 21l18 28q24 -14 52 -14q26 0 42 12.5t16 36.5q0 23 -16 33t-57 10l18 85
q-66 8 -103 59.5t-37 138.5q0 79 26 158.5t81 132.5t137 53q38 0 68 -12.5t56 -39.5l-27 -28q-21 21 -44 31t-54 10q-68 0 -112 -48z" />
    <glyph glyph-name="ccircumflex" unicode="&#x109;" horiz-adv-x="420" 
d="M365 519.5q30 -12.5 56 -39.5l-27 -28q-21 21 -44 31t-54 10q-68 0 -112 -48t-64 -118.5t-20 -140.5q0 -78 31.5 -117t87.5 -39q32 0 59.5 11t57.5 33l21 -31q-67 -54 -140 -54q-77 0 -120.5 52t-43.5 147q0 79 26 158.5t81 132.5t137 53q38 0 68 -12.5zM207 647l-21 24
l130 104h27l100 -104l-23 -24l-95 85z" />
    <glyph glyph-name="uni0255" unicode="&#x255;" horiz-adv-x="427" 
d="M184.5 445q-44.5 -48 -64.5 -119t-20 -141q0 -77 33 -117q40 78 77.5 110.5t82.5 32.5q43 0 66.5 -24t23.5 -64q0 -61 -44 -97.5t-115 -36.5q-47 0 -84 20l-41 -72l-30 15l42 77q-28 26 -43 67t-15 92q0 79 26 158.5t81 132.5t137 53q38 0 68 -12.5t56 -39.5l-27 -28
q-21 21 -43.5 31t-53.5 10q-68 0 -112.5 -48zM228 147.5q-29 -27.5 -67 -101.5q29 -16 67 -16q50 0 82 23.5t32 68.5q0 25 -12.5 39t-37.5 14q-35 0 -64 -27.5z" />
    <glyph glyph-name="cdotaccent" unicode="&#x10b;" horiz-adv-x="420" 
d="M365 519.5q30 -12.5 56 -39.5l-27 -28q-21 21 -44 31t-54 10q-68 0 -112 -48t-64 -118.5t-20 -140.5q0 -78 31.5 -117t87.5 -39q32 0 59.5 11t57.5 33l21 -31q-67 -54 -140 -54q-77 0 -120.5 52t-43.5 147q0 79 26 158.5t81 132.5t137 53q38 0 68 -12.5zM295.5 683.5
q-8.5 8.5 -8.5 21.5q0 16 11 27t27 11q13 0 22 -8.5t9 -21.5q0 -16 -10.5 -27t-27.5 -11q-14 0 -22.5 8.5z" />
    <glyph glyph-name="uni0188" unicode="&#x188;" horiz-adv-x="420" 
d="M603 707l-23 -28q-15 11 -29.5 17t-34.5 6q-30 0 -50 -20t-26 -63l-19 -139l-23 -24q-23 18 -47.5 27.5t-55.5 9.5q-67 0 -111 -48t-64 -118.5t-20 -140.5q0 -78 31.5 -117t87.5 -39q32 0 60 11.5t57 32.5l21 -31q-67 -54 -140 -54q-77 0 -120.5 52t-43.5 147
q0 79 25.5 158.5t80.5 132.5t136 53q49 0 86 -24l15 113q8 59 39.5 89.5t79.5 30.5t88 -34z" />
    <glyph glyph-name="uni0297" unicode="&#x297;" horiz-adv-x="440" 
d="M385.5 519.5q28.5 -12.5 55.5 -39.5l-27 -27q-21 20 -43.5 30t-52.5 10q-66 0 -115.5 -67.5t-75.5 -172.5t-26 -213q0 -207 116 -207q31 0 59 11.5t57 33.5l20 -31q-67 -54 -137 -54q-78 0 -120 62.5t-42 184.5q0 127 32 240t92 182.5t141 69.5q38 0 66.5 -12.5z" />
    <glyph glyph-name="uni023C" unicode="&#x23c;" horiz-adv-x="420" 
d="M347 484l-173 -447q20 -7 45 -7q32 0 59.5 11t57.5 33l21 -31q-67 -54 -140 -54q-31 0 -58 9l-26 -68l-26 8l28 71q-40 23 -61 68.5t-21 110.5q0 79 26 158.5t81 132.5t137 53q23 0 39 -4l24 63l25 -8l-24 -62q30 -11 60 -41l-27 -28q-24 23 -47 32zM321 491q-16 2 -25 2
q-68 0 -112 -48t-64 -118.5t-20 -140.5q0 -99 51 -136z" />
    <glyph glyph-name="d" unicode="d" horiz-adv-x="519" 
d="M489 735l-104 -735h-39l11 111q-70 -122 -164 -122q-66 0 -103.5 51t-37.5 141q0 80 24.5 161t76.5 135.5t129 54.5q82 0 123 -71l39 280zM181.5 445.5q-42.5 -48.5 -62.5 -121t-20 -143.5q0 -74 26 -113t73 -39q50 0 88.5 38.5t79.5 112.5l32 232q-36 82 -112 82
q-62 0 -104.5 -48.5z" />
    <glyph glyph-name="eth" unicode="&#xf0;" horiz-adv-x="510" 
d="M423.5 554q24.5 -62 24.5 -149q0 -106 -26 -201t-80.5 -155t-135.5 -60q-74 0 -115 48.5t-41 133.5q0 71 23.5 139t72 112t118.5 44q88 0 140 -81q2 85 -17 143t-66 107l-82 -78l-31 14l87 86q-47 35 -103 49l13 35q60 -13 119 -56l75 71l24 -24l-73 -69
q49 -47 73.5 -109zM340 116.5q47 87.5 60 215.5q-51 95 -132 95q-59 0 -97.5 -38t-56.5 -96.5t-18 -121.5q0 -69 28.5 -105.5t82.5 -36.5q86 0 133 87.5z" />
    <glyph glyph-name="uni0238" unicode="&#x238;" horiz-adv-x="757" 
d="M669.5 483.5q34.5 -48.5 34.5 -139.5q0 -92 -24.5 -173.5t-72.5 -131.5t-114 -50q-42 0 -70.5 25.5t-44.5 71.5l-17 -86h-34l7 88q-55 -99 -144 -99q-63 0 -100 53t-37 145q0 90 27 169t76.5 127.5t115.5 48.5q75 0 113 -82l40 285l45 6l-40 -290q63 81 142 81
q63 0 97.5 -48.5zM379 405q-22 45 -45.5 66.5t-58.5 21.5q-53 0 -93 -44.5t-60.5 -114.5t-20.5 -146q0 -77 25 -118t70 -41q44 0 79 29t68 93zM582.5 75.5q37.5 46.5 56 119.5t18.5 151q0 147 -92 147q-41 0 -74.5 -24t-67.5 -69l-36 -259q17 -58 42 -85t62 -27
q54 0 91.5 46.5z" />
    <glyph glyph-name="dcaron" unicode="&#x10f;" horiz-adv-x="526" 
d="M489 735l-104 -735h-39l11 111q-70 -122 -164 -122q-66 0 -103.5 51t-37.5 141q0 80 24.5 161t76.5 135.5t129 54.5q82 0 123 -71l39 280zM181.5 445.5q-42.5 -48.5 -62.5 -121t-20 -143.5q0 -74 26 -113t73 -39q50 0 88.5 38.5t79.5 112.5l32 232q-36 82 -112 82
q-62 0 -104.5 -48.5zM573 739l43 -5l-53 -156l-28 4z" />
    <glyph glyph-name="uni1E13" unicode="&#x1e13;" horiz-adv-x="519" 
d="M489 735l-104 -735h-39l11 111q-70 -122 -164 -122q-66 0 -103.5 51t-37.5 141q0 80 24.5 161t76.5 135.5t129 54.5q82 0 123 -71l39 280zM181.5 445.5q-42.5 -48.5 -62.5 -121t-20 -143.5q0 -74 26 -113t73 -39q50 0 88.5 38.5t79.5 112.5l32 232q-36 82 -112 82
q-62 0 -104.5 -48.5zM91 -198l-20 24l130 104h27l100 -104l-22 -24l-97 85z" />
    <glyph glyph-name="dcroat" unicode="&#x111;" horiz-adv-x="526" 
d="M546 658l-6 -38h-67l-88 -620h-39l11 111q-70 -122 -164 -122q-66 0 -103.5 51t-37.5 141q0 80 24.5 161t76.5 135.5t129 54.5q82 0 123 -71l22 159h-144l1 38h148l12 83l45 -6l-11 -77h68zM398 412q-36 82 -112 82q-62 0 -104.5 -48.5t-62.5 -121t-20 -143.5
q0 -74 26 -113t73 -39q50 0 88.5 38.5t79.5 112.5z" />
    <glyph glyph-name="uni0221" unicode="&#x221;" horiz-adv-x="610" 
d="M589.5 171q22.5 -22 22.5 -58q0 -56 -41.5 -90t-102.5 -34q-49 0 -77 23l-48 -75l-29 15l55 87q-15 29 -12 71q-69 -121 -164 -121q-66 0 -103.5 51t-37.5 141q0 80 24.5 161t76.5 135.5t129 54.5q82 0 123 -71l39 280l45 -6l-87 -612q-2 -13 -2 -35q31 55 61.5 80
t69.5 25q36 0 58.5 -22zM287.5 67.5q39.5 38.5 78.5 112.5l32 232q-36 82 -112 82q-62 0 -104.5 -48.5t-62.5 -121t-20 -143.5q0 -74 26 -113t73 -39q50 0 89.5 38.5zM543 51q28 21 28 61q0 22 -11.5 33.5t-32.5 11.5q-27 0 -51.5 -22t-62.5 -86q18 -19 59 -19q43 0 71 21z
" />
    <glyph glyph-name="uni1E0B" unicode="&#x1e0b;" horiz-adv-x="519" 
d="M489 735l-104 -735h-39l11 111q-70 -122 -164 -122q-66 0 -103.5 51t-37.5 141q0 80 24.5 161t76.5 135.5t129 54.5q82 0 123 -71l39 280zM181.5 445.5q-42.5 -48.5 -62.5 -121t-20 -143.5q0 -74 26 -113t73 -39q50 0 88.5 38.5t79.5 112.5l32 232q-36 82 -112 82
q-62 0 -104.5 -48.5zM319.5 860.5q-8.5 8.5 -8.5 21.5q0 16 11 27t27 11q13 0 22 -8.5t9 -21.5q0 -16 -10.5 -27t-27.5 -11q-14 0 -22.5 8.5z" />
    <glyph glyph-name="uni1E0D" unicode="&#x1e0d;" horiz-adv-x="519" 
d="M489 735l-104 -735h-39l11 111q-70 -122 -164 -122q-66 0 -103.5 51t-37.5 141q0 80 24.5 161t76.5 135.5t129 54.5q82 0 123 -71l39 280zM181.5 445.5q-42.5 -48.5 -62.5 -121t-20 -143.5q0 -74 26 -113t73 -39q50 0 88.5 38.5t79.5 112.5l32 232q-36 82 -112 82
q-62 0 -104.5 -48.5zM232.5 -99.5q8.5 -8.5 8.5 -21.5q0 -16 -11 -27t-27 -11q-13 0 -22 8.5t-9 21.5q0 16 10.5 27t27.5 11q14 0 22.5 -8.5z" />
    <glyph glyph-name="uni018D" unicode="&#x18d;" horiz-adv-x="508" 
d="M37 -146l28 27q25 -23 52.5 -34t62.5 -11q59 0 88.5 25.5t29.5 65.5q0 31 -21.5 53t-77.5 47q-75 35 -108.5 80.5t-33.5 117.5q0 67 23.5 137.5t76.5 120t136 49.5q77 0 120 -51.5t43 -140.5q0 -107 -44 -181.5t-149 -119.5q42 -25 61.5 -50.5t19.5 -60.5q0 -55 -43 -93
t-121 -38q-86 0 -143 57zM371.5 171.5q38.5 69.5 38.5 170.5q0 70 -31.5 110.5t-87.5 40.5q-69 0 -110.5 -44.5t-59 -106t-17.5 -117.5q0 -62 28 -100t98 -70q103 47 141.5 116.5z" />
    <glyph glyph-name="uni02A4" unicode="&#x2a4;" horiz-adv-x="800" 
d="M779 486l-239 -289h10q95 0 140.5 -40.5t45.5 -116.5q0 -71 -28.5 -126t-79 -85.5t-115.5 -30.5q-55 0 -94 21.5t-69 63.5l30 24q28 -37 59.5 -53.5t73.5 -16.5q82 0 129 56.5t47 145.5q0 64 -35.5 92.5t-110.5 28.5h-56l1 1l5 36l231 285h-271l-68 -482h-39l11 111
q-70 -122 -164 -122q-66 0 -103.5 51t-37.5 141q0 80 24.5 161t76.5 135.5t129 54.5q82 0 123 -71l39 280l45 -6l-30 -213h325zM398 412q-36 82 -112 82q-62 0 -104.5 -48.5t-62.5 -121t-20 -143.5q0 -74 26 -113t73 -39q50 0 88.5 38.5t79.5 112.5z" />
    <glyph glyph-name="uni0257" unicode="&#x257;" horiz-adv-x="519" 
d="M597.5 731.5q20.5 -9.5 38.5 -24.5l-23 -28q-15 11 -29 17t-35 6q-64 0 -76 -82l-14 -98l-74 -522h-39l11 111q-70 -122 -164 -122q-66 0 -103.5 51t-37.5 141q0 80 24.5 161t76.5 135.5t129 54.5q82 0 123 -71l9 61l15 100q9 59 40 89t79 30q29 0 49.5 -9.5zM398 412
q-36 82 -112 82q-62 0 -104.5 -48.5t-62.5 -121t-20 -143.5q0 -74 26 -113t73 -39q50 0 88.5 38.5t79.5 112.5z" />
    <glyph glyph-name="uni1E0F" unicode="&#x1e0f;" horiz-adv-x="519" 
d="M489 735l-104 -735h-39l11 111q-70 -122 -164 -122q-66 0 -103.5 51t-37.5 141q0 80 24.5 161t76.5 135.5t129 54.5q82 0 123 -71l39 280zM181.5 445.5q-42.5 -48.5 -62.5 -121t-20 -143.5q0 -74 26 -113t73 -39q50 0 88.5 38.5t79.5 112.5l32 232q-36 82 -112 82
q-62 0 -104.5 -48.5zM108 -115h208l-6 -39h-208z" />
    <glyph glyph-name="uni0256" unicode="&#x256;" horiz-adv-x="519" 
d="M512 -171q-40 -31 -91 -31q-44 0 -69 25t-25 71q0 8 2 26l10 80h1l14 106q-68 -117 -161 -117q-66 0 -103.5 51t-37.5 141q0 80 24.5 161t76.5 135.5t129 54.5q82 0 123 -71l39 280l45 -6l-104 -735h-1l-11 -84q-2 -16 -2 -22q0 -58 54 -58q20 0 35.5 5.5t32.5 16.5z
M286.5 67.5q38.5 38.5 79.5 112.5l32 232q-36 82 -112 82q-62 0 -104.5 -48.5t-62.5 -121t-20 -143.5q0 -74 26 -113t73 -39q50 0 88.5 38.5z" />
    <glyph glyph-name="uni018C" unicode="&#x18c;" horiz-adv-x="519" 
d="M385 0h-39l11 111q-70 -122 -164 -122q-66 0 -103.5 51t-37.5 141q0 80 24.5 161t76.5 135.5t129 54.5q82 0 123 -71l34 236h-212l5 38h257zM398 412q-36 82 -112 82q-62 0 -104.5 -48.5t-62.5 -121t-20 -143.5q0 -74 26 -113t73 -39q50 0 88.5 38.5t79.5 112.5z" />
    <glyph glyph-name="uni01F3" unicode="&#x1f3;" horiz-adv-x="894" 
d="M489 735l-104 -735h-39l11 111q-70 -122 -164 -122q-66 0 -103.5 51t-37.5 141q0 80 24.5 161t76.5 135.5t129 54.5q82 0 123 -71l39 280zM181.5 445.5q-42.5 -48.5 -62.5 -121t-20 -143.5q0 -74 26 -113t73 -39q50 0 88.5 38.5t79.5 112.5l32 232q-36 82 -112 82
q-62 0 -104.5 -48.5zM901 522l-6 -36l-328 -446h263l-11 -40h-312l6 36l328 445h-244l6 41h298z" />
    <glyph glyph-name="uni02A3" unicode="&#x2a3;" horiz-adv-x="771" 
d="M772 486l-330 -446h264l-11 -40h-349l11 111q-70 -122 -164 -122q-66 0 -103.5 51t-37.5 141q0 80 24.5 161t76.5 135.5t129 54.5q82 0 123 -71l39 280l45 -6l-30 -213h318zM398 412q-36 82 -112 82q-62 0 -104.5 -48.5t-62.5 -121t-20 -143.5q0 -74 26 -113t73 -39
q50 0 88.5 38.5t79.5 112.5zM390 38l327 443h-264z" />
    <glyph glyph-name="uni01C6" unicode="&#x1c6;" horiz-adv-x="894" 
d="M489 735l-104 -735h-39l11 111q-70 -122 -164 -122q-66 0 -103.5 51t-37.5 141q0 80 24.5 161t76.5 135.5t129 54.5q82 0 123 -71l39 280zM181.5 445.5q-42.5 -48.5 -62.5 -121t-20 -143.5q0 -74 26 -113t73 -39q50 0 88.5 38.5t79.5 112.5l32 232q-36 82 -112 82
q-62 0 -104.5 -48.5zM901 522l-6 -36l-328 -446h263l-11 -40h-312l6 36l328 445h-244l6 41h298zM891 763l19 -24l-129 -104h-27l-101 104l23 24l94 -85z" />
    <glyph glyph-name="uni02A5" unicode="&#x2a5;" horiz-adv-x="783" 
d="M741 27.5q-49 -27.5 -134 -27.5q-10 -46 -17 -108l-37 3q6 49 17 105h-224l11 111q-70 -122 -164 -122q-66 0 -103.5 51t-37.5 141q0 80 24.5 161t76.5 135.5t129 54.5q82 0 123 -71l39 280l45 -6l-30 -213h318l-6 -36l-329 -446h137q18 78 51 119t81 41q36 0 57.5 -21
t21.5 -58q0 -66 -49 -93.5zM398 412q-36 82 -112 82q-62 0 -104.5 -48.5t-62.5 -121t-20 -143.5q0 -74 26 -113t73 -39q50 0 88.5 38.5t79.5 112.5zM453 481l-63 -443l328 443h-265zM715.5 57q34.5 18 34.5 64q0 44 -41 44q-32 0 -55 -30t-38 -95q65 -1 99.5 17z" />
    <glyph glyph-name="e" unicode="e" horiz-adv-x="465" 
d="M101 210q-1 -8 -1 -23q0 -80 31.5 -118.5t87.5 -38.5q38 0 69 12.5t66 39.5l22 -31q-40 -31 -78 -46.5t-82 -15.5q-77 0 -120 51.5t-43 145.5q0 84 27.5 163.5t84 131t137.5 51.5q64 0 100 -33t36 -87q0 -177 -337 -202zM166 421q-50 -73 -62 -176q145 12 216.5 52
t71.5 114q0 38 -23 60.5t-69 22.5q-84 0 -134 -73z" />
    <glyph glyph-name="eacute" unicode="&#xe9;" horiz-adv-x="465" 
d="M101 210q-1 -8 -1 -23q0 -80 31.5 -118.5t87.5 -38.5q38 0 69 12.5t66 39.5l22 -31q-40 -31 -78 -46.5t-82 -15.5q-77 0 -120 51.5t-43 145.5q0 84 27.5 163.5t84 131t137.5 51.5q64 0 100 -33t36 -87q0 -177 -337 -202zM166 421q-50 -73 -62 -176q145 12 216.5 52
t71.5 114q0 38 -23 60.5t-69 22.5q-84 0 -134 -73zM397 775l18 -43l-183 -84l-14 27z" />
    <glyph glyph-name="ebreve" unicode="&#x115;" horiz-adv-x="465" 
d="M101 210q-1 -8 -1 -23q0 -80 31.5 -118.5t87.5 -38.5q38 0 69 12.5t66 39.5l22 -31q-40 -31 -78 -46.5t-82 -15.5q-77 0 -120 51.5t-43 145.5q0 84 27.5 163.5t84 131t137.5 51.5q64 0 100 -33t36 -87q0 -177 -337 -202zM166 421q-50 -73 -62 -176q145 12 216.5 52
t71.5 114q0 38 -23 60.5t-69 22.5q-84 0 -134 -73zM236 685.5q-27 28.5 -26 74.5l31 4q8 -68 69 -68q32 0 56.5 18.5t37.5 52.5l30 -10q-13 -46 -46.5 -73t-78.5 -27q-46 0 -73 28.5z" />
    <glyph glyph-name="ecaron" unicode="&#x11b;" horiz-adv-x="465" 
d="M101 210q-1 -8 -1 -23q0 -80 31.5 -118.5t87.5 -38.5q38 0 69 12.5t66 39.5l22 -31q-40 -31 -78 -46.5t-82 -15.5q-77 0 -120 51.5t-43 145.5q0 84 27.5 163.5t84 131t137.5 51.5q64 0 100 -33t36 -87q0 -177 -337 -202zM166 421q-50 -73 -62 -176q145 12 216.5 52
t71.5 114q0 38 -23 60.5t-69 22.5q-84 0 -134 -73zM430 763l19 -24l-129 -104h-27l-101 104l23 24l94 -85z" />
    <glyph glyph-name="uni0229" unicode="&#x229;" horiz-adv-x="465" 
d="M101 210q-1 -8 -1 -23q0 -80 31.5 -118.5t87.5 -38.5q38 0 69 12.5t66 39.5l22 -31q-38 -30 -74 -45.5t-77 -16.5l-10 -57q74 -6 74 -69q0 -38 -27.5 -61.5t-71.5 -23.5q-39 0 -70 21l18 28q24 -14 52 -14q26 0 42 12.5t16 36.5q0 23 -16 33t-57 10l18 85
q-67 8 -103.5 59t-36.5 137q0 84 27.5 163.5t84 131t137.5 51.5q64 0 100 -33t36 -87q0 -177 -337 -202zM166 421q-50 -73 -62 -176q145 12 216.5 52t71.5 114q0 38 -23 60.5t-69 22.5q-84 0 -134 -73z" />
    <glyph glyph-name="ecircumflex" unicode="&#xea;" horiz-adv-x="465" 
d="M101 210q-1 -8 -1 -23q0 -80 31.5 -118.5t87.5 -38.5q38 0 69 12.5t66 39.5l22 -31q-40 -31 -78 -46.5t-82 -15.5q-77 0 -120 51.5t-43 145.5q0 84 27.5 163.5t84 131t137.5 51.5q64 0 100 -33t36 -87q0 -177 -337 -202zM166 421q-50 -73 -62 -176q145 12 216.5 52
t71.5 114q0 38 -23 60.5t-69 22.5q-84 0 -134 -73zM202 647l-21 24l130 104h27l100 -104l-23 -24l-95 85z" />
    <glyph glyph-name="uni1EBF" unicode="&#x1ebf;" horiz-adv-x="465" 
d="M516 802l-122 -118l-20 19l113 129zM307 665l-120 -80l-19 25l129 98h27l101 -100l-22 -23zM402 499q36 -33 36 -87q0 -177 -337 -202q-1 -8 -1 -23q0 -80 31.5 -118.5t87.5 -38.5q38 0 69 12.5t66 39.5l22 -31q-40 -31 -78 -46.5t-82 -15.5q-77 0 -120 51.5t-43 145.5
q0 84 27.5 163.5t84 131t137.5 51.5q64 0 100 -33zM320.5 297q71.5 40 71.5 114q0 38 -23 60.5t-69 22.5q-84 0 -134 -73t-62 -176q145 12 216.5 52z" />
    <glyph glyph-name="uni1EC7" unicode="&#x1ec7;" horiz-adv-x="465" 
d="M101 210q-1 -8 -1 -23q0 -80 31.5 -118.5t87.5 -38.5q38 0 69 12.5t66 39.5l22 -31q-40 -31 -78 -46.5t-82 -15.5q-77 0 -120 51.5t-43 145.5q0 84 27.5 163.5t84 131t137.5 51.5q64 0 100 -33t36 -87q0 -177 -337 -202zM166 421q-50 -73 -62 -176q145 12 216.5 52
t71.5 114q0 38 -23 60.5t-69 22.5q-84 0 -134 -73zM202 647l-21 24l130 104h27l100 -104l-23 -24l-95 85zM222.5 -99.5q8.5 -8.5 8.5 -21.5q0 -16 -11 -27t-27 -11q-13 0 -22 8.5t-9 21.5q0 16 10.5 27t27.5 11q14 0 22.5 -8.5z" />
    <glyph glyph-name="uni1EC1" unicode="&#x1ec1;" horiz-adv-x="465" 
d="M237 701l-23 -17l-90 122l36 25zM188 585l-19 25l129 98h27l101 -100l-22 -23l-96 80zM101 210q-1 -8 -1 -23q0 -80 31.5 -118.5t87.5 -38.5q38 0 69 12.5t66 39.5l22 -31q-40 -31 -78 -46.5t-82 -15.5q-77 0 -120 51.5t-43 145.5q0 84 27.5 163.5t84 131t137.5 51.5
q64 0 100 -33t36 -87q0 -177 -337 -202zM166 421q-50 -73 -62 -176q145 12 216.5 52t71.5 114q0 38 -23 60.5t-69 22.5q-84 0 -134 -73z" />
    <glyph glyph-name="uni1EC3" unicode="&#x1ec3;" horiz-adv-x="465" 
d="M101 210q-1 -8 -1 -23q0 -80 31.5 -118.5t87.5 -38.5q38 0 69 12.5t66 39.5l22 -31q-40 -31 -78 -46.5t-82 -15.5q-77 0 -120 51.5t-43 145.5q0 84 27.5 163.5t84 131t137.5 51.5q64 0 100 -33t36 -87q0 -177 -337 -202zM166 421q-50 -73 -62 -176q145 12 216.5 52
t71.5 114q0 38 -23 60.5t-69 22.5q-84 0 -134 -73zM185 585l-19 25l129 98h27l101 -100l-22 -23l-96 80zM410 757q33 3 52 15t19 40q0 17 -9.5 26.5t-27.5 9.5q-14 0 -25.5 -3.5t-26.5 -10.5l-13 30q35 19 70 19q34 0 54 -19t20 -51q0 -34 -20.5 -54.5t-56.5 -25.5l-7 -54
h-38z" />
    <glyph glyph-name="uni1EC5" unicode="&#x1ec5;" horiz-adv-x="465" 
d="M242 768.5q-12 -8.5 -29 -30.5l-25 17q41 59 82 59q15 0 28.5 -6t29.5 -18q13 -10 23.5 -15t21.5 -5q14 0 27 10t29 33l27 -16q-39 -65 -83 -65q-17 0 -29.5 6.5t-30.5 18.5q-15 11 -23.5 15.5t-19.5 4.5q-16 0 -28 -8.5zM309 655l-120 -80l-19 25l129 98h27l101 -100
l-22 -23zM402 499q36 -33 36 -87q0 -177 -337 -202q-1 -8 -1 -23q0 -80 31.5 -118.5t87.5 -38.5q38 0 69 12.5t66 39.5l22 -31q-40 -31 -78 -46.5t-82 -15.5q-77 0 -120 51.5t-43 145.5q0 84 27.5 163.5t84 131t137.5 51.5q64 0 100 -33zM320.5 297q71.5 40 71.5 114
q0 38 -23 60.5t-69 22.5q-84 0 -134 -73t-62 -176q145 12 216.5 52z" />
    <glyph glyph-name="uni0205" unicode="&#x205;" horiz-adv-x="465" 
d="M101 210q-1 -8 -1 -23q0 -80 31.5 -118.5t87.5 -38.5q38 0 69 12.5t66 39.5l22 -31q-40 -31 -78 -46.5t-82 -15.5q-77 0 -120 51.5t-43 145.5q0 84 27.5 163.5t84 131t137.5 51.5q64 0 100 -33t36 -87q0 -177 -337 -202zM166 421q-50 -73 -62 -176q145 12 216.5 52
t71.5 114q0 38 -23 60.5t-69 22.5q-84 0 -134 -73zM224 803l49 -145l-33 -13l-62 138zM334 803l44 -140l-33 -13l-56 132z" />
    <glyph glyph-name="edieresis" unicode="&#xeb;" horiz-adv-x="465" 
d="M101 210q-1 -8 -1 -23q0 -80 31.5 -118.5t87.5 -38.5q38 0 69 12.5t66 39.5l22 -31q-40 -31 -78 -46.5t-82 -15.5q-77 0 -120 51.5t-43 145.5q0 84 27.5 163.5t84 131t137.5 51.5q64 0 100 -33t36 -87q0 -177 -337 -202zM166 421q-50 -73 -62 -176q145 12 216.5 52
t71.5 114q0 38 -23 60.5t-69 22.5q-84 0 -134 -73zM209 675q-8 8 -8 20q0 15 10 25.5t26 10.5q13 0 21 -8t8 -20q0 -16 -10 -26t-26 -10q-13 0 -21 8zM375 675q-8 8 -8 20q0 15 10 25.5t25 10.5q13 0 21 -8t8 -20q0 -16 -10 -26t-25 -10q-13 0 -21 8z" />
    <glyph glyph-name="edotaccent" unicode="&#x117;" horiz-adv-x="465" 
d="M101 210q-1 -8 -1 -23q0 -80 31.5 -118.5t87.5 -38.5q38 0 69 12.5t66 39.5l22 -31q-40 -31 -78 -46.5t-82 -15.5q-77 0 -120 51.5t-43 145.5q0 84 27.5 163.5t84 131t137.5 51.5q64 0 100 -33t36 -87q0 -177 -337 -202zM166 421q-50 -73 -62 -176q145 12 216.5 52
t71.5 114q0 38 -23 60.5t-69 22.5q-84 0 -134 -73zM290.5 683.5q-8.5 8.5 -8.5 21.5q0 16 11 27t27 11q13 0 22 -8.5t9 -21.5q0 -16 -10.5 -27t-27.5 -11q-14 0 -22.5 8.5z" />
    <glyph glyph-name="uni1EB9" unicode="&#x1eb9;" horiz-adv-x="465" 
d="M101 210q-1 -8 -1 -23q0 -80 31.5 -118.5t87.5 -38.5q38 0 69 12.5t66 39.5l22 -31q-40 -31 -78 -46.5t-82 -15.5q-77 0 -120 51.5t-43 145.5q0 84 27.5 163.5t84 131t137.5 51.5q64 0 100 -33t36 -87q0 -177 -337 -202zM166 421q-50 -73 -62 -176q145 12 216.5 52
t71.5 114q0 38 -23 60.5t-69 22.5q-84 0 -134 -73zM222.5 -99.5q8.5 -8.5 8.5 -21.5q0 -16 -11 -27t-27 -11q-13 0 -22 8.5t-9 21.5q0 16 10.5 27t27.5 11q14 0 22.5 -8.5z" />
    <glyph glyph-name="egrave" unicode="&#xe8;" horiz-adv-x="465" 
d="M101 210q-1 -8 -1 -23q0 -80 31.5 -118.5t87.5 -38.5q38 0 69 12.5t66 39.5l22 -31q-40 -31 -78 -46.5t-82 -15.5q-77 0 -120 51.5t-43 145.5q0 84 27.5 163.5t84 131t137.5 51.5q64 0 100 -33t36 -87q0 -177 -337 -202zM166 421q-50 -73 -62 -176q145 12 216.5 52
t71.5 114q0 38 -23 60.5t-69 22.5q-84 0 -134 -73zM264 774l151 -100l-16 -26l-161 84z" />
    <glyph glyph-name="uni1EBB" unicode="&#x1ebb;" horiz-adv-x="465" 
d="M101 210q-1 -8 -1 -23q0 -80 31.5 -118.5t87.5 -38.5q38 0 69 12.5t66 39.5l22 -31q-40 -31 -78 -46.5t-82 -15.5q-77 0 -120 51.5t-43 145.5q0 84 27.5 163.5t84 131t137.5 51.5q64 0 100 -33t36 -87q0 -177 -337 -202zM166 421q-50 -73 -62 -176q145 12 216.5 52
t71.5 114q0 38 -23 60.5t-69 22.5q-84 0 -134 -73zM293 697q33 3 52 15t19 40q0 17 -9.5 26.5t-27.5 9.5q-14 0 -25.5 -3.5t-26.5 -10.5l-13 30q35 19 70 19q34 0 54 -19t20 -51q0 -34 -20.5 -54.5t-56.5 -25.5l-7 -54h-38z" />
    <glyph glyph-name="uni0207" unicode="&#x207;" horiz-adv-x="465" 
d="M101 210q-1 -8 -1 -23q0 -80 31.5 -118.5t87.5 -38.5q38 0 69 12.5t66 39.5l22 -31q-40 -31 -78 -46.5t-82 -15.5q-77 0 -120 51.5t-43 145.5q0 84 27.5 163.5t84 131t137.5 51.5q64 0 100 -33t36 -87q0 -177 -337 -202zM166 421q-50 -73 -62 -176q145 12 216.5 52
t71.5 114q0 38 -23 60.5t-69 22.5q-84 0 -134 -73zM192 635q13 47 46 74t78 27q46 0 73 -28.5t27 -75.5l-31 -4q-7 69 -71 69q-65 0 -93 -71z" />
    <glyph glyph-name="emacron" unicode="&#x113;" horiz-adv-x="465" 
d="M101 210q-1 -8 -1 -23q0 -80 31.5 -118.5t87.5 -38.5q38 0 69 12.5t66 39.5l22 -31q-40 -31 -78 -46.5t-82 -15.5q-77 0 -120 51.5t-43 145.5q0 84 27.5 163.5t84 131t137.5 51.5q64 0 100 -33t36 -87q0 -177 -337 -202zM166 421q-50 -73 -62 -176q145 12 216.5 52
t71.5 114q0 38 -23 60.5t-69 22.5q-84 0 -134 -73zM417 679h-208l6 39h208z" />
    <glyph glyph-name="eogonek" unicode="&#x119;" horiz-adv-x="465" 
d="M101 210q-1 -8 -1 -23q0 -80 31.5 -118.5t87.5 -38.5q38 0 69 12.5t66 39.5l22 -31q-45 -35 -85 -49q-57 -30 -81 -55.5t-24 -62.5q0 -24 15 -38t44 -14q22 0 50 7l-6 -40q-27 -6 -51 -6q-46 0 -70.5 24t-24.5 62q0 67 76 110h-3q-77 0 -120 51.5t-43 145.5
q0 84 27.5 163.5t84 131t137.5 51.5q64 0 100 -33t36 -87q0 -177 -337 -202zM166 421q-50 -73 -62 -176q145 12 216.5 52t71.5 114q0 38 -23 60.5t-69 22.5q-84 0 -134 -73z" />
    <glyph glyph-name="uni025B" unicode="&#x25b;" horiz-adv-x="424" 
d="M84.5 27q-42.5 38 -42.5 103q0 59 36 100t106 47q-41 11 -64 35t-23 69q0 37 18.5 71.5t57.5 57t96 22.5q44 0 77 -13t61 -36l-26 -28q-25 19 -51 29t-61 10q-64 0 -95 -33.5t-31 -79.5q0 -41 26.5 -65t78.5 -24h50l-12 -38h-45q-152 0 -152 -125q0 -47 29 -73.5
t80 -26.5q43 0 75 13t67 40l23 -30q-36 -30 -76.5 -46.5t-90.5 -16.5q-69 0 -111.5 38z" />
    <glyph glyph-name="uni029A" unicode="&#x29a;" horiz-adv-x="501" 
d="M83.5 26.5q-42.5 37.5 -42.5 99.5q0 60 37.5 102.5t107.5 48.5q-39 10 -60.5 34.5t-21.5 67.5q0 37 19 72t57.5 58t95.5 23q82 0 126.5 -53t44.5 -148q0 -98 -29.5 -175.5t-87 -122t-136.5 -44.5q-68 0 -110.5 37.5zM309 69.5q46 40.5 69 109t23 152.5q0 81 -32.5 122
t-94.5 41q-64 0 -95 -34.5t-31 -80.5q0 -40 25 -63.5t75 -23.5h35l-12 -38h-31q-83 0 -117.5 -36.5t-34.5 -90.5q0 -48 28.5 -73t80.5 -25q66 0 112 40.5z" />
    <glyph glyph-name="uni025C" unicode="&#x25c;" horiz-adv-x="430" 
d="M338.5 499q37.5 -33 37.5 -88q0 -56 -33 -90.5t-91 -44.5q50 -5 79.5 -34t29.5 -80q0 -43 -21 -82.5t-65 -65t-111 -25.5q-98 0 -160 68l27 28q53 -56 134 -56q78 0 113.5 38.5t35.5 93.5q0 47 -34 71t-94 24h-52l10 37h43q67 0 104.5 31.5t37.5 84.5q0 40 -24 62.5
t-68 22.5q-39 0 -69.5 -11t-69.5 -35l-20 30q41 27 79.5 40.5t82.5 13.5q61 0 98.5 -33z" />
    <glyph glyph-name="uni025E" unicode="&#x25e;" horiz-adv-x="492" 
d="M97 41q-44 52 -44 146q0 95 30 174t87 125t134 46q60 0 97 -33.5t37 -88.5t-31.5 -89t-90.5 -45q50 -6 78.5 -34.5t28.5 -79.5q0 -44 -21 -83.5t-65 -64.5t-111 -25q-85 0 -129 52zM341 67q35 38 35 94q0 95 -125 95h-31l10 37h24q66 0 102 31t36 84q0 40 -22.5 62.5
t-67.5 22.5q-66 0 -111.5 -43t-68 -113t-22.5 -152q0 -156 128 -156q78 0 113 38z" />
    <glyph glyph-name="uni025D" unicode="&#x25d;" horiz-adv-x="583" 
d="M625 358q-41 -31 -91 -31q-43 0 -68 24.5t-25 69.5q0 8 2 24l6 36l-77 -39q4 -12 4 -31q0 -56 -33 -90.5t-91 -44.5q50 -5 79.5 -34t29.5 -80q0 -43 -21 -82.5t-65 -65t-111 -25.5q-98 0 -160 68l27 28q53 -56 134 -56q78 0 113.5 38.5t35.5 93.5q0 47 -34 71t-94 24h-52
l10 37h43q67 0 104.5 31.5t37.5 84.5q0 40 -24 62.5t-68 22.5q-39 0 -69.5 -11t-69.5 -35l-20 30q41 27 79.5 40.5t82.5 13.5q41 0 72 -15t48 -43l94 48h44l-11 -78q-2 -16 -2 -23q0 -56 52 -56q36 0 71 23z" />
    <glyph glyph-name="uni0258" unicode="&#x258;" horiz-adv-x="464" 
d="M366 474q44 -58 44 -150t-30.5 -168.5t-86 -121.5t-127.5 -45q-46 0 -80.5 16t-64.5 48l29 27q25 -26 52 -38t65 -12q67 0 114.5 49t67.5 130q-145 5 -214 42t-69 117q0 47 21.5 84.5t60 58.5t86.5 21q88 0 132 -58zM138 301q25 -26 78 -39t141 -17q6 39 6 80
q0 74 -31 121.5t-98 47.5q-57 0 -89 -34.5t-32 -90.5q0 -42 25 -68z" />
    <glyph glyph-name="uni0283" unicode="&#x283;" horiz-adv-x="239" 
d="M317.5 731.5q20.5 -9.5 38.5 -24.5l-23 -28q-15 11 -29 17t-35 6q-64 0 -76 -82l-14 -98l-74 -522l-12 -84q-9 -59 -41.5 -88.5t-80.5 -29.5t-85 33l23 28q15 -12 28.5 -17.5t33.5 -5.5q29 0 50 19.5t27 62.5l12 82l74 522l15 100q9 59 40 89t79 30q29 0 49.5 -9.5z" />
    <glyph glyph-name="uni0286" unicode="&#x286;" horiz-adv-x="258" 
d="M336.5 731.5q20.5 -9.5 38.5 -24.5l-23 -28q-15 11 -29 17t-35 6q-64 0 -76 -82l-14 -98l-77 -544q52 -15 87 -35l-16 -29q-39 22 -76 31q-12 -69 -48 -108t-96 -39q-44 0 -69.5 24.5t-25.5 64.5q0 50 35.5 78.5t89.5 28.5q44 0 75 -7l76 535l15 100q9 59 40 89t79 30
q29 0 49.5 -9.5zM39 -137q23 29 33 90q-28 7 -70 7q-41 0 -63.5 -18.5t-22.5 -54.5q0 -25 14.5 -39t42.5 -14q43 0 66 29z" />
    <glyph glyph-name="uni01AA" unicode="&#x1aa;" horiz-adv-x="257" 
d="M250 -171q-40 -31 -91 -31q-44 0 -69 25t-25 71q0 8 2 26l10 80h1l73 522q-26 -14 -56 -14q-37 0 -61.5 25.5t-24.5 68.5q0 61 34 100t84 39q39 0 62 -24t23 -66q0 -8 -2 -26l-87 -625h-1l-11 -84q-2 -16 -2 -22q0 -58 54 -58q20 0 35.5 5.5t32.5 16.5zM156 560l10 71
q1 7 1 20q0 52 -42 52q-32 0 -51.5 -28.5t-19.5 -72.5q0 -55 48 -55q28 0 54 13z" />
    <glyph glyph-name="uni0285" unicode="&#x285;" horiz-adv-x="351" 
d="M316 21q-40 -31 -91 -31q-44 0 -69 25t-25 71q0 8 2 26l10 80l20 138l11 84q2 16 2 22q0 58 -54 58q-20 0 -35.5 -5.5t-32.5 -16.5l-19 29q40 31 91 31q44 0 69 -25t25 -71q0 -8 -2 -26l-10 -80l-20 -138l-11 -84q-2 -16 -2 -22q0 -58 54 -58q20 0 35.5 5.5t32.5 16.5z
" />
    <glyph glyph-name="uni0247" unicode="&#x247;" horiz-adv-x="465" 
d="M244 230l-74 -191q21 -9 49 -9q38 0 69 12.5t66 39.5l22 -31q-40 -31 -78 -46.5t-82 -15.5q-32 0 -62 10l-27 -69l-25 8l28 73q-37 23 -57 67.5t-20 107.5q0 84 27.5 163.5t84 131t137.5 51.5q11 0 29 -2l24 61l26 -8l-23 -59q39 -13 59.5 -42.5t20.5 -69.5
q0 -135 -194 -182zM166 421q-50 -73 -62 -176q73 6 124 19l89 229q-5 1 -17 1q-84 0 -134 -73zM344 487l-84 -215q132 41 132 139q0 57 -48 76zM213 224q-45 -9 -112 -14q-1 -8 -1 -23q0 -96 47 -134z" />
    <glyph glyph-name="uni1EBD" unicode="&#x1ebd;" horiz-adv-x="465" 
d="M101 210q-1 -8 -1 -23q0 -80 31.5 -118.5t87.5 -38.5q38 0 69 12.5t66 39.5l22 -31q-40 -31 -78 -46.5t-82 -15.5q-77 0 -120 51.5t-43 145.5q0 84 27.5 163.5t84 131t137.5 51.5q64 0 100 -33t36 -87q0 -177 -337 -202zM166 421q-50 -73 -62 -176q145 12 216.5 52
t71.5 114q0 38 -23 60.5t-69 22.5q-84 0 -134 -73zM339.5 676.5q-12.5 6.5 -30.5 18.5q-15 11 -23.5 15.5t-19.5 4.5q-16 0 -28 -8.5t-29 -30.5l-25 17q41 59 82 59q15 0 28.5 -6t29.5 -18q13 -10 23.5 -15t21.5 -5q14 0 27 10t29 33l27 -16q-39 -65 -83 -65
q-17 0 -29.5 6.5z" />
    <glyph glyph-name="uni01DD" unicode="&#x1dd;" horiz-adv-x="465" 
d="M369 481.5q43 -51.5 43 -145.5q0 -84 -27.5 -163.5t-84 -131t-137.5 -51.5q-64 0 -100 33t-36 87q0 177 337 202q1 8 1 23q0 80 -31.5 118.5t-87.5 38.5q-38 0 -69 -12.5t-66 -39.5l-22 31q40 31 78 46.5t82 15.5q77 0 120 -51.5zM299 101q50 73 62 176
q-145 -12 -216.5 -52t-71.5 -114q0 -38 23 -60.5t69 -22.5q84 0 134 73z" />
    <glyph glyph-name="uni0259" unicode="&#x259;" horiz-adv-x="465" 
d="M369 481.5q43 -51.5 43 -145.5q0 -84 -27.5 -163.5t-84 -131t-137.5 -51.5q-64 0 -100 33t-36 87q0 177 337 202q1 8 1 23q0 80 -31.5 118.5t-87.5 38.5q-38 0 -69 -12.5t-66 -39.5l-22 31q40 31 78 46.5t82 15.5q77 0 120 -51.5zM299 101q50 73 62 176
q-145 -12 -216.5 -52t-71.5 -114q0 -38 23 -60.5t69 -22.5q84 0 134 73z" />
    <glyph glyph-name="uni025A" unicode="&#x25a;" horiz-adv-x="614" 
d="M656 358q-41 -31 -91 -31q-43 0 -68 24.5t-25 69.5q0 8 2 24l6 36l-85 -43q17 -43 17 -102q0 -84 -27.5 -163.5t-84 -131t-137.5 -51.5q-64 0 -100 33t-36 87q0 177 337 202q1 8 1 23q0 80 -31.5 118.5t-87.5 38.5q-38 0 -69 -12.5t-66 -39.5l-22 31q40 31 78 46.5
t82 15.5q87 0 130 -65l106 54h44l-11 -78q-2 -16 -2 -23q0 -56 52 -56q36 0 71 23zM299 101q50 73 62 176q-145 -12 -216.5 -52t-71.5 -114q0 -38 23 -60.5t69 -22.5q84 0 134 73z" />
    <glyph glyph-name="uni0292" unicode="&#x292;" horiz-adv-x="410" 
d="M389 486l-239 -289h10q95 0 140.5 -40.5t45.5 -116.5q0 -71 -28.5 -126t-79 -85.5t-115.5 -30.5q-55 0 -94 21.5t-69 63.5l30 24q28 -37 59.5 -53.5t73.5 -16.5q82 0 129 56.5t47 145.5q0 64 -35.5 92.5t-110.5 28.5h-56l1 1l5 36l231 285h-272l6 40h326z" />
    <glyph glyph-name="uni01EF" unicode="&#x1ef;" horiz-adv-x="410" 
d="M389 486l-239 -289h10q95 0 140.5 -40.5t45.5 -116.5q0 -71 -28.5 -126t-79 -85.5t-115.5 -30.5q-55 0 -94 21.5t-69 63.5l30 24q28 -37 59.5 -53.5t73.5 -16.5q82 0 129 56.5t47 145.5q0 64 -35.5 92.5t-110.5 28.5h-56l1 1l5 36l231 285h-272l6 40h326zM371 763l19 -24
l-129 -104h-27l-101 104l23 24l94 -85z" />
    <glyph glyph-name="uni0293" unicode="&#x293;" horiz-adv-x="413" 
d="M392 486l-239 -289h10q186 0 186 -155q0 -79 -40.5 -138.5t-111.5 -86.5l16 -59l-35 -12l-16 61q-36 -9 -77 -9q-69 0 -105.5 29.5t-36.5 80.5q0 46 29.5 77.5t75.5 31.5q51 0 83.5 -35.5t54.5 -126.5q57 23 86.5 72t29.5 114q0 63 -35.5 91t-110.5 28h-56l1 1l5 36
l231 285h-272l6 40h326zM87 -163q37 0 64 7q-19 80 -43 109t-59 29q-31 0 -48.5 -20t-17.5 -52q0 -73 104 -73z" />
    <glyph glyph-name="uni01B9" unicode="&#x1b9;" horiz-adv-x="412" 
d="M410 482h-276l156 -285l-5 -37l-4 3l3 -3h-51q-92 0 -142.5 -50t-50.5 -141q0 -62 31 -97t91 -35q46 0 83.5 17t74.5 54l26 -27q-40 -42 -85 -62.5t-100 -20.5q-79 0 -124 47t-45 124q0 70 30 121.5t84.5 79.5t126.5 28h13l-161 288l5 36h326z" />
    <glyph glyph-name="uni01BA" unicode="&#x1ba;" horiz-adv-x="404" 
d="M0.5 -155.5q-21.5 25.5 -21.5 59.5q0 51 40.5 78.5t130.5 44.5q58 11 92.5 24.5t53 38t18.5 66.5q0 40 -21.5 58t-64.5 18h-131l5 38l217 212h-261l6 40h322l-5 -36l-225 -216h77q62 0 95 -29.5t33 -83.5q0 -75 -49 -112.5t-147 -55.5q-79 -14 -109.5 -33t-30.5 -53
q0 -23 13.5 -39.5t44.5 -35.5l-19 -31q-42 22 -63.5 47.5z" />
    <glyph glyph-name="f" unicode="f" horiz-adv-x="284" 
d="M231 679.5q-25 -22.5 -32 -70.5l-12 -87h126l-12 -38h-119l-67 -476q-9 -64 -26.5 -102t-45 -60.5t-76.5 -45.5l-13 34q37 19 59 38t36 51t22 87l66 474h-81l5 38h81l13 91q8 61 45.5 94.5t96.5 33.5q29 0 54 -8.5t52 -26.5l-19 -31q-24 14 -43.5 20.5t-41.5 6.5
q-43 0 -68 -22.5z" />
    <glyph glyph-name="uni1E1F" unicode="&#x1e1f;" horiz-adv-x="284" 
d="M231 679.5q-25 -22.5 -32 -70.5l-12 -87h126l-12 -38h-119l-67 -476q-9 -64 -26.5 -102t-45 -60.5t-76.5 -45.5l-13 34q37 19 59 38t36 51t22 87l66 474h-81l5 38h81l13 91q8 61 45.5 94.5t96.5 33.5q29 0 54 -8.5t52 -26.5l-19 -31q-24 14 -43.5 20.5t-41.5 6.5
q-43 0 -68 -22.5zM281.5 860.5q-8.5 8.5 -8.5 21.5q0 16 11 27t27 11q13 0 22 -8.5t9 -21.5q0 -16 -10.5 -27t-27.5 -11q-14 0 -22.5 8.5z" />
    <glyph glyph-name="uni02A9" unicode="&#x2a9;" horiz-adv-x="781" 
d="M678.5 500q28.5 -32 28.5 -90q0 -17 -3 -37l-52 -373l-12 -84q-9 -59 -41.5 -88.5t-80.5 -29.5t-85 33l23 28q15 -12 28.5 -17.5t33.5 -5.5q29 0 50 19.5t27 62.5l12 82l52 371q3 21 3 38q0 85 -71 85q-94 0 -183 -177l-45 -317h-45l69 484h-205l-67 -476
q-9 -64 -26.5 -102t-45 -60.5t-76.5 -45.5l-13 34q37 19 59 38t36 51t22 87l66 474h-81l5 38h81l13 91q8 61 45.5 94.5t96.5 33.5q29 0 54 -8.5t52 -26.5l-19 -31q-24 14 -43.5 20.5t-41.5 6.5q-43 0 -68 -22.5t-32 -70.5l-12 -87h244l-16 -134q81 144 183 144
q52 0 80.5 -32z" />
    <glyph glyph-name="g" unicode="g" horiz-adv-x="509" 
d="M381 522q34 -10 68 -29l-71 -495q-28 -201 -195 -201q-81 0 -152 48l19 32q67 -41 133 -41q129 0 151 161l13 94q-28 -42 -65 -66.5t-82 -24.5q-69 0 -108 51t-39 139q0 80 27 158.5t84 131t142 52.5q41 0 75 -10zM190.5 448q-46.5 -47 -68.5 -117t-22 -141
q0 -72 27.5 -111.5t78.5 -39.5q80 0 149 111l47 322q-46 23 -96 23q-69 0 -115.5 -47z" />
    <glyph glyph-name="uni01F5" unicode="&#x1f5;" horiz-adv-x="509" 
d="M381 522q34 -10 68 -29l-71 -495q-28 -201 -195 -201q-81 0 -152 48l19 32q67 -41 133 -41q129 0 151 161l13 94q-28 -42 -65 -66.5t-82 -24.5q-69 0 -108 51t-39 139q0 80 27 158.5t84 131t142 52.5q41 0 75 -10zM190.5 448q-46.5 -47 -68.5 -117t-22 -141
q0 -72 27.5 -111.5t78.5 -39.5q80 0 149 111l47 322q-46 23 -96 23q-69 0 -115.5 -47zM407 775l18 -43l-183 -84l-14 27z" />
    <glyph glyph-name="uni0263" unicode="&#x263;" horiz-adv-x="421" 
d="M206 48q16 -48 23.5 -80.5t7.5 -63.5q0 -49 -24 -77.5t-65 -28.5q-32 0 -50 19.5t-18 52.5t19.5 76t58.5 105l-104 471h48l84 -438l206 438h49zM192.5 -43.5q-4.5 25.5 -14.5 61.5q-58 -97 -58 -147q0 -36 30 -36q23 0 35 18.5t12 51.5q0 26 -4.5 51.5z" />
    <glyph glyph-name="gbreve" unicode="&#x11f;" horiz-adv-x="509" 
d="M381 522q34 -10 68 -29l-71 -495q-28 -201 -195 -201q-81 0 -152 48l19 32q67 -41 133 -41q129 0 151 161l13 94q-28 -42 -65 -66.5t-82 -24.5q-69 0 -108 51t-39 139q0 80 27 158.5t84 131t142 52.5q41 0 75 -10zM190.5 448q-46.5 -47 -68.5 -117t-22 -141
q0 -72 27.5 -111.5t78.5 -39.5q80 0 149 111l47 322q-46 23 -96 23q-69 0 -115.5 -47zM246 685.5q-27 28.5 -26 74.5l31 4q8 -68 69 -68q32 0 56.5 18.5t37.5 52.5l30 -10q-13 -46 -46.5 -73t-78.5 -27q-46 0 -73 28.5z" />
    <glyph glyph-name="gcaron" unicode="&#x1e7;" horiz-adv-x="509" 
d="M381 522q34 -10 68 -29l-71 -495q-28 -201 -195 -201q-81 0 -152 48l19 32q67 -41 133 -41q129 0 151 161l13 94q-28 -42 -65 -66.5t-82 -24.5q-69 0 -108 51t-39 139q0 80 27 158.5t84 131t142 52.5q41 0 75 -10zM190.5 448q-46.5 -47 -68.5 -117t-22 -141
q0 -72 27.5 -111.5t78.5 -39.5q80 0 149 111l47 322q-46 23 -96 23q-69 0 -115.5 -47zM440 763l19 -24l-129 -104h-27l-101 104l23 24l94 -85z" />
    <glyph glyph-name="gcircumflex" unicode="&#x11d;" horiz-adv-x="509" 
d="M381 522q34 -10 68 -29l-71 -495q-28 -201 -195 -201q-81 0 -152 48l19 32q67 -41 133 -41q129 0 151 161l13 94q-28 -42 -65 -66.5t-82 -24.5q-69 0 -108 51t-39 139q0 80 27 158.5t84 131t142 52.5q41 0 75 -10zM190.5 448q-46.5 -47 -68.5 -117t-22 -141
q0 -72 27.5 -111.5t78.5 -39.5q80 0 149 111l47 322q-46 23 -96 23q-69 0 -115.5 -47zM212 647l-21 24l130 104h27l100 -104l-23 -24l-95 85z" />
    <glyph glyph-name="gcommaaccent" unicode="&#x123;" horiz-adv-x="509" 
d="M381 522q34 -10 68 -29l-71 -495q-28 -201 -195 -201q-81 0 -152 48l19 32q67 -41 133 -41q129 0 151 161l13 94q-28 -42 -65 -66.5t-82 -24.5q-69 0 -108 51t-39 139q0 80 27 158.5t84 131t142 52.5q41 0 75 -10zM190.5 448q-46.5 -47 -68.5 -117t-22 -141
q0 -72 27.5 -111.5t78.5 -39.5q80 0 149 111l47 322q-46 23 -96 23q-69 0 -115.5 -47zM285 600.5q-9 9.5 -9 23.5q0 12 4.5 23t19.5 38l52 91h28l-46 -115q16 -11 16 -30q0 -17 -11 -28.5t-29 -11.5q-16 0 -25 9.5z" />
    <glyph glyph-name="gdotaccent" unicode="&#x121;" horiz-adv-x="509" 
d="M381 522q34 -10 68 -29l-71 -495q-28 -201 -195 -201q-81 0 -152 48l19 32q67 -41 133 -41q129 0 151 161l13 94q-28 -42 -65 -66.5t-82 -24.5q-69 0 -108 51t-39 139q0 80 27 158.5t84 131t142 52.5q41 0 75 -10zM190.5 448q-46.5 -47 -68.5 -117t-22 -141
q0 -72 27.5 -111.5t78.5 -39.5q80 0 149 111l47 322q-46 23 -96 23q-69 0 -115.5 -47zM300.5 683.5q-8.5 8.5 -8.5 21.5q0 16 11 27t27 11q13 0 22 -8.5t9 -21.5q0 -16 -10.5 -27t-27.5 -11q-14 0 -22.5 8.5z" />
    <glyph glyph-name="uni0260" unicode="&#x260;" horiz-adv-x="515" 
d="M592.5 731.5q20.5 -9.5 38.5 -24.5l-23 -28q-15 11 -29 17t-35 6q-64 0 -76 -82l-14 -98l-76 -524q-29 -201 -195 -201q-81 0 -152 48l19 32q67 -41 133 -41q129 0 151 161l13 94q-28 -42 -65 -66.5t-82 -24.5q-69 0 -108 51t-39 139q0 80 27 158.5t83.5 131t141.5 52.5
q56 0 102 -23l2 13l15 100q9 59 40 89t79 30q29 0 49.5 -9.5zM402 473q-46 22 -96 22q-69 0 -115.5 -47t-68.5 -117t-22 -141q0 -72 27.5 -111.5t78.5 -39.5q80 0 149 111z" />
    <glyph glyph-name="uni01BE" unicode="&#x1be;" horiz-adv-x="446" 
d="M342.5 360q38.5 -40 38.5 -119q0 -69 -28 -125.5t-77 -89t-111 -32.5q-53 0 -91.5 20.5t-72.5 60.5l29 24q28 -32 59.5 -48.5t74.5 -16.5q51 0 90 27t60 74.5t21 106.5q0 64 -30 95t-82 46l-58 16l23 163h-58l6 38h58l19 135l45 6l-20 -141h111l-5 -38h-111l-19 -138
l29 -8q61 -16 99.5 -56z" />
    <glyph glyph-name="uni0294" unicode="&#x294;" horiz-adv-x="389" 
d="M131 337l58 17q82 24 121.5 73.5t39.5 140.5q0 62 -31.5 97.5t-89.5 35.5q-42 0 -76.5 -16.5t-74.5 -49.5l-24 28q43 39 85.5 58.5t93.5 19.5q76 0 120 -47.5t44 -124.5q0 -107 -48 -164t-144 -85l-33 -9l-43 -311h-46z" />
    <glyph glyph-name="uni0296" unicode="&#x296;" horiz-adv-x="446" 
d="M258 741l-44 -317l29 -8q61 -16 99.5 -56t38.5 -119q0 -69 -28 -125.5t-77 -89t-111 -32.5q-53 0 -91.5 20.5t-72.5 60.5l29 24q28 -32 59.5 -48.5t74.5 -16.5q51 0 90 27t60 74.5t21 106.5q0 64 -30 95t-82 46l-58 16l48 336z" />
    <glyph glyph-name="uni0295" unicode="&#x295;" horiz-adv-x="388" 
d="M187 0l44 309l-26 9q-65 20 -102 57.5t-37 114.5q0 70 28.5 127.5t79 90.5t113.5 33q52 0 89 -20t70 -61l-29 -25q-28 33 -58 49.5t-71 16.5q-52 0 -91.5 -28.5t-61 -77t-21.5 -107.5q0 -61 29 -90.5t81 -45.5l55 -17l-47 -335h-45z" />
    <glyph glyph-name="uni0242" unicode="&#x242;" horiz-adv-x="382" 
d="M105 181l65 19q136 37 136 172q0 57 -28.5 88.5t-79.5 31.5q-42 0 -73.5 -15t-66.5 -44l-24 31q40 34 78.5 51t88.5 17q70 0 111 -43.5t41 -115.5q0 -162 -168 -208l-39 -10l-22 -155h-45z" />
    <glyph glyph-name="uni02A1" unicode="&#x2a1;" horiz-adv-x="389" 
d="M172 311l-14 -104h105l-5 -37h-105l-24 -170h-46l24 170h-60l5 37h60l19 130l58 17q82 24 121.5 73.5t39.5 140.5q0 62 -31.5 97.5t-89.5 35.5q-42 0 -76.5 -16.5t-74.5 -49.5l-24 28q43 39 85.5 58.5t93.5 19.5q76 0 120 -47.5t44 -124.5q0 -107 -48 -164t-144 -85z" />
    <glyph glyph-name="uni02A2" unicode="&#x2a2;" horiz-adv-x="388" 
d="M376 721q37 -20 70 -61l-29 -25q-28 33 -58 49.5t-71 16.5q-52 0 -91.5 -28.5t-61 -77t-21.5 -107.5q0 -61 29 -90.5t81 -45.5l55 -17l-18 -128h61l-5 -37h-61l-24 -170h-45l24 170h-105l6 37h104l15 102l-26 9q-65 20 -102 57.5t-37 114.5q0 70 28.5 127.5t79 90.5
t113.5 33q52 0 89 -20z" />
    <glyph glyph-name="uni0261" unicode="&#x261;" horiz-adv-x="509" 
d="M381 522q34 -10 68 -29l-71 -495q-28 -201 -195 -201q-81 0 -152 48l19 32q67 -41 133 -41q129 0 151 161l13 94q-28 -42 -65 -66.5t-82 -24.5q-69 0 -108 51t-39 139q0 80 27 158.5t84 131t142 52.5q41 0 75 -10zM190.5 448q-46.5 -47 -68.5 -117t-22 -141
q0 -72 27.5 -111.5t78.5 -39.5q80 0 149 111l47 322q-46 23 -96 23q-69 0 -115.5 -47z" />
    <glyph glyph-name="uni01E5" unicode="&#x1e5;" horiz-adv-x="481" 
d="M370 -46h63l-5 -37h-70q-46 -120 -175 -120q-81 0 -152 48l19 31q67 -40 134 -40q90 0 128 81h-123l5 37h131q6 20 9 43l14 97q-62 -91 -147 -91q-69 0 -108 50t-40 137q0 79 26.5 157.5t83.5 131.5t143 53q41 0 75 -10t68 -29l-71 -495q-2 -16 -8 -44zM355 152l47 320
q-46 23 -96 23q-69 0 -115.5 -46.5t-68.5 -116t-22 -139.5q0 -73 27.5 -112t78.5 -39q83 0 149 110z" />
    <glyph glyph-name="uni021D" unicode="&#x21d;" horiz-adv-x="418" 
d="M323.5 497.5q37.5 -34.5 37.5 -91.5t-32.5 -92t-89.5 -46q54 -1 82.5 -26t28.5 -72q0 -98 -91 -162.5t-234 -100.5l-4 35q133 39 207.5 92t74.5 135q0 41 -26.5 59t-82.5 18h-68l9 37h35q66 0 105 32t39 90q0 42 -24.5 65t-69.5 23q-39 0 -70.5 -11t-68.5 -34l-19 30
q77 54 160 54q64 0 101.5 -34.5z" />
    <glyph glyph-name="h" unicode="h" horiz-adv-x="524" 
d="M421 500.5q29 -31.5 29 -89.5q0 -17 -3 -37l-53 -374h-45l53 371q3 20 3 36q0 87 -73 87q-93 0 -182 -177l-45 -317h-45l104 735l46 6l-50 -350q36 66 81.5 103.5t97.5 37.5q53 0 82 -31.5z" />
    <glyph glyph-name="hbar" unicode="&#x127;" horiz-adv-x="529" 
d="M427 500.5q29 -31.5 29 -89.5q0 -17 -3 -37l-53 -374h-45l53 371q3 20 3 36q0 87 -73 87q-93 0 -182 -177l-45 -317h-45l88 620h-68l6 38h67l11 77l46 6l-12 -83h156l-12 -38h-149l-33 -229q36 66 81.5 103.5t97.5 37.5q53 0 82 -31.5z" />
    <glyph glyph-name="uni021F" unicode="&#x21f;" horiz-adv-x="524" 
d="M421 500.5q29 -31.5 29 -89.5q0 -17 -3 -37l-53 -374h-45l53 371q3 20 3 36q0 87 -73 87q-93 0 -182 -177l-45 -317h-45l104 735l46 6l-50 -350q36 66 81.5 103.5t97.5 37.5q53 0 82 -31.5zM465 930l19 -24l-129 -98h-26l-102 99l22 23l97 -79z" />
    <glyph glyph-name="hcircumflex" unicode="&#x125;" horiz-adv-x="524" 
d="M421 500.5q29 -31.5 29 -89.5q0 -17 -3 -37l-53 -374h-45l53 371q3 20 3 36q0 87 -73 87q-93 0 -182 -177l-45 -317h-45l104 735l46 6l-50 -350q36 66 81.5 103.5t97.5 37.5q53 0 82 -31.5zM232 814l-19 25l129 98h27l101 -100l-22 -23l-96 80z" />
    <glyph glyph-name="uni1E25" unicode="&#x1e25;" horiz-adv-x="524" 
d="M421 500.5q29 -31.5 29 -89.5q0 -17 -3 -37l-53 -374h-45l53 371q3 20 3 36q0 87 -73 87q-93 0 -182 -177l-45 -317h-45l104 735l46 6l-50 -350q36 66 81.5 103.5t97.5 37.5q53 0 82 -31.5zM237.5 -99.5q8.5 -8.5 8.5 -21.5q0 -16 -11 -27t-27 -11q-13 0 -22 8.5t-9 21.5
q0 16 10.5 27t27.5 11q14 0 22.5 -8.5z" />
    <glyph glyph-name="uni0267" unicode="&#x267;" horiz-adv-x="524" 
d="M421.5 500.5q28.5 -31.5 28.5 -88.5q0 -18 -3 -38l-53 -374l-12 -84q-9 -59 -41.5 -88.5t-80.5 -29.5t-85 33l23 28q15 -12 28.5 -17.5t33.5 -5.5q29 0 50 19.5t27 62.5l12 82l53 371q3 21 3 38q0 85 -72 85q-49 0 -95.5 -48t-87.5 -129l-44 -317h-45l73 521l13 94
q9 60 46.5 93t94.5 33t108 -30l-19 -33q-43 24 -87 24q-85 0 -99 -94l-12 -87l-18 -130q36 66 81 103.5t98 37.5t81.5 -31.5z" />
    <glyph glyph-name="uni0266" unicode="&#x266;" horiz-adv-x="524" 
d="M421.5 500.5q28.5 -31.5 28.5 -88.5q0 -18 -3 -38l-53 -374h-45l53 371q3 21 3 38q0 85 -72 85q-49 0 -95.5 -48t-87.5 -129l-44 -317h-45l73 521l13 94q9 60 46.5 93t94.5 33t108 -30l-19 -33q-43 24 -87 24q-85 0 -99 -94l-12 -87l-18 -130q36 66 81 103.5t98 37.5
t81.5 -31.5z" />
    <glyph glyph-name="uni0265" unicode="&#x265;" horiz-adv-x="519" 
d="M363 130q-78 -141 -179 -141q-52 0 -81 32t-29 89q0 18 3 37l53 375h45l-53 -374q-3 -21 -3 -37q0 -84 71 -84q92 0 184 175l44 320h45l-101 -719l-46 -6z" />
    <glyph glyph-name="uni02AE" unicode="&#x2ae;" horiz-adv-x="595" 
d="M540 522l-102 -719l-45 -6l47 333q-78 -141 -180 -141q-52 0 -81 32t-29 89q0 18 3 37l25 183h1l11 84q2 16 2 22q0 58 -54 58q-20 0 -35.5 -5.5t-32.5 -16.5l-19 29q40 31 91 31q44 0 69 -25t25 -71q0 -8 -2 -26l-10 -80h-1l-25 -182q-3 -19 -3 -37q0 -42 18.5 -63
t52.5 -21q94 0 184 175l45 320h45z" />
    <glyph glyph-name="uni02AF" unicode="&#x2af;" horiz-adv-x="595" 
d="M593 -171q-40 -31 -91 -31q-44 0 -69 25t-25 71q0 8 2 26l10 80h1l19 130q-78 -141 -180 -141q-52 0 -81 32t-29 89q0 18 3 37l25 183h1l11 84q2 16 2 22q0 58 -54 58q-20 0 -35.5 -5.5t-32.5 -16.5l-19 29q40 31 91 31q44 0 69 -25t25 -71q0 -8 -2 -26l-10 -80h-1
l-25 -182q-3 -19 -3 -37q0 -42 18.5 -63t52.5 -21q94 0 184 175l45 320h45l-74 -522h-1l-11 -84q-2 -16 -2 -22q0 -58 54 -58q20 0 35.5 5.5t32.5 16.5z" />
    <glyph glyph-name="uni0195" unicode="&#x195;" horiz-adv-x="799" 
d="M402.5 24.5q-34.5 35.5 -34.5 95.5q0 9 2 29l32 222q3 21 3 38q0 85 -73 85q-93 0 -182 -177l-45 -317h-45l104 735l46 6l-50 -350q36 66 81.5 103.5t97.5 37.5q54 0 82 -32t28 -90q0 -23 -2 -36l-32 -225q-2 -20 -2 -27q0 -46 24 -69.5t66 -23.5q105 0 146 120t41 286
q0 45 -3 87h43q4 -60 4 -89q0 -190 -52 -317t-183 -127q-62 0 -96.5 35.5z" />
    <glyph glyph-name="i" unicode="i" horiz-adv-x="240" 
d="M179 522l-74 -522h-45l74 522h45zM156.5 683.5q-8.5 8.5 -8.5 21.5q0 16 11 27t27 11q13 0 22 -8.5t9 -21.5q0 -16 -10.5 -27t-27.5 -11q-14 0 -22.5 8.5z" />
    <glyph glyph-name="dotlessi" unicode="&#x131;" horiz-adv-x="240" 
d="M179 522l-74 -522h-45l74 522h45z" />
    <glyph glyph-name="iacute" unicode="&#xed;" horiz-adv-x="240" 
d="M179 522l-74 -522h-45l74 522h45zM263 775l18 -43l-183 -84l-14 27z" />
    <glyph glyph-name="ibreve" unicode="&#x12d;" horiz-adv-x="240" 
d="M179 522l-74 -522h-45l74 522h45zM102 685.5q-27 28.5 -26 74.5l31 4q8 -68 69 -68q32 0 56.5 18.5t37.5 52.5l30 -10q-13 -46 -46.5 -73t-78.5 -27q-46 0 -73 28.5z" />
    <glyph glyph-name="uni01D0" unicode="&#x1d0;" horiz-adv-x="240" 
d="M179 522l-74 -522h-45l74 522h45zM296 763l19 -24l-129 -104h-27l-101 104l23 24l94 -85z" />
    <glyph glyph-name="icircumflex" unicode="&#xee;" horiz-adv-x="240" 
d="M179 522l-74 -522h-45l74 522h45zM68 647l-21 24l130 104h27l100 -104l-23 -24l-95 85z" />
    <glyph glyph-name="uni0209" unicode="&#x209;" horiz-adv-x="240" 
d="M179 522l-74 -522h-45l74 522h45zM90 803l49 -145l-33 -13l-62 138zM200 803l44 -140l-33 -13l-56 132z" />
    <glyph glyph-name="idieresis" unicode="&#xef;" horiz-adv-x="240" 
d="M179 522l-74 -522h-45l74 522h45zM75 675q-8 8 -8 20q0 15 10 25.5t26 10.5q13 0 21 -8t8 -20q0 -16 -10 -26t-26 -10q-13 0 -21 8zM241 675q-8 8 -8 20q0 15 10 25.5t25 10.5q13 0 21 -8t8 -20q0 -16 -10 -26t-25 -10q-13 0 -21 8z" />
    <glyph glyph-name="uni1E2F" unicode="&#x1e2f;" horiz-adv-x="240" 
d="M179 522l-74 -522h-45l74 522h45zM269 848l29 -30l-122 -118l-20 19zM66 645q-8 8 -8 21q0 15 10 25.5t26 10.5q13 0 21 -8t8 -21q0 -15 -10 -25.5t-26 -10.5q-13 0 -21 8zM232 645q-8 8 -8 21q0 15 10 25.5t25 10.5q13 0 21 -8t8 -21q0 -15 -10 -25.5t-25 -10.5
q-13 0 -21 8z" />
    <glyph glyph-name="i.loclTRK" horiz-adv-x="240" 
d="M179 522l-74 -522h-45l74 522h45zM156.5 683.5q-8.5 8.5 -8.5 21.5q0 16 11 27t27 11q13 0 22 -8.5t9 -21.5q0 -16 -10.5 -27t-27.5 -11q-14 0 -22.5 8.5z" />
    <glyph glyph-name="uni1ECB" unicode="&#x1ecb;" horiz-adv-x="240" 
d="M179 522l-74 -522h-45l74 522h45zM156.5 683.5q-8.5 8.5 -8.5 21.5q0 16 11 27t27 11q13 0 22 -8.5t9 -21.5q0 -16 -10.5 -27t-27.5 -11q-14 0 -22.5 8.5zM92.5 -99.5q8.5 -8.5 8.5 -21.5q0 -16 -11 -27t-27 -11q-13 0 -22 8.5t-9 21.5q0 16 10.5 27t27.5 11
q14 0 22.5 -8.5z" />
    <glyph glyph-name="igrave" unicode="&#xec;" horiz-adv-x="240" 
d="M179 522l-74 -522h-45l74 522h45zM130 774l151 -100l-16 -26l-161 84z" />
    <glyph glyph-name="uni1EC9" unicode="&#x1ec9;" horiz-adv-x="240" 
d="M179 522l-74 -522h-45l74 522h45zM159 697q33 3 52 15t19 40q0 17 -9.5 26.5t-27.5 9.5q-14 0 -25.5 -3.5t-26.5 -10.5l-13 30q35 19 70 19q34 0 54 -19t20 -51q0 -34 -20.5 -54.5t-56.5 -25.5l-7 -54h-38z" />
    <glyph glyph-name="uni020B" unicode="&#x20b;" horiz-adv-x="240" 
d="M179 522l-74 -522h-45l74 522h45zM58 635q13 47 46 74t78 27q46 0 73 -28.5t27 -75.5l-31 -4q-7 69 -71 69q-65 0 -93 -71z" />
    <glyph glyph-name="ij" unicode="&#x133;" horiz-adv-x="481" 
d="M179 522l-74 -522h-45l74 522h45zM156.5 683.5q-8.5 8.5 -8.5 21.5q0 16 11 27t27 11q13 0 22 -8.5t9 -21.5q0 -16 -10.5 -27t-27.5 -11q-14 0 -22.5 8.5zM186 -166q37 19 58.5 37.5t36 51t22.5 87.5l72 512h45l-73 -514q-9 -64 -26.5 -102t-45 -60.5t-76.5 -45.5z
M396.5 683.5q-8.5 8.5 -8.5 21.5q0 16 11 27t27 11q13 0 22 -8.5t9 -21.5q0 -16 -10.5 -27t-27.5 -11q-14 0 -22.5 8.5z" />
    <glyph glyph-name="imacron" unicode="&#x12b;" horiz-adv-x="240" 
d="M179 522l-74 -522h-45l74 522h45zM283 679h-208l6 39h208z" />
    <glyph glyph-name="iogonek" unicode="&#x12f;" horiz-adv-x="240" 
d="M208 734.5q9 -8.5 9 -21.5q0 -16 -10.5 -27t-27.5 -11q-14 0 -22.5 8.5t-8.5 21.5q0 16 11 27t27 11q13 0 22 -8.5zM134 522h45l-74 -522h-7q-68 -32 -97.5 -60.5t-29.5 -66.5q0 -46 51 -46q21 0 52 6l-9 -39q-27 -6 -49 -6q-41 0 -64.5 21.5t-23.5 56.5q0 47 31.5 81
t102.5 64z" />
    <glyph glyph-name="uni0269" unicode="&#x269;" horiz-adv-x="253" 
d="M129 522h45l-62 -443q-1 -6 -1 -16q0 -34 32 -34q15 0 34 7l11 -34q-28 -13 -53 -13q-32 0 -51 18.5t-19 53.5q0 5 2 21z" />
    <glyph glyph-name="uni0268" unicode="&#x268;" horiz-adv-x="262" 
d="M167.5 683.5q-8.5 8.5 -8.5 21.5q0 16 11 27t27 11q13 0 22 -8.5t9 -21.5q0 -16 -10.5 -27t-27.5 -11q-14 0 -22.5 8.5zM254 300l-6 -36h-95l-37 -264h-45l37 264h-94l6 36h94l31 222h45l-31 -222h95z" />
    <glyph glyph-name="itilde" unicode="&#x129;" horiz-adv-x="240" 
d="M179 522l-74 -522h-45l74 522h45zM205.5 676.5q-12.5 6.5 -30.5 18.5q-15 11 -23.5 15.5t-19.5 4.5q-16 0 -28 -8.5t-29 -30.5l-25 17q41 59 82 59q15 0 28.5 -6t29.5 -18q13 -10 23.5 -15t21.5 -5q14 0 27 10t29 33l27 -16q-39 -65 -83 -65q-17 0 -29.5 6.5z" />
    <glyph glyph-name="j" unicode="j" horiz-adv-x="241" 
d="M-54 -166q37 19 58.5 37.5t36 51t22.5 87.5l72 512h45l-73 -514q-9 -64 -26.5 -102t-45 -60.5t-76.5 -45.5zM156.5 683.5q-8.5 8.5 -8.5 21.5q0 16 11 27t27 11q13 0 22 -8.5t9 -21.5q0 -16 -10.5 -27t-27.5 -11q-14 0 -22.5 8.5z" />
    <glyph glyph-name="uni0237" unicode="&#x237;" horiz-adv-x="241" 
d="M-54 -166q37 19 58.5 37.5t36 51t22.5 87.5l72 512h45l-73 -514q-9 -64 -26.5 -102t-45 -60.5t-76.5 -45.5z" />
    <glyph glyph-name="uni01F0" unicode="&#x1f0;" horiz-adv-x="241" 
d="M-54 -166q37 19 58.5 37.5t36 51t22.5 87.5l72 512h45l-73 -514q-9 -64 -26.5 -102t-45 -60.5t-76.5 -45.5zM296 763l19 -24l-129 -104h-27l-101 104l23 24l94 -85z" />
    <glyph glyph-name="jcircumflex" unicode="&#x135;" horiz-adv-x="241" 
d="M-54 -166q37 19 58.5 37.5t36 51t22.5 87.5l72 512h45l-73 -514q-9 -64 -26.5 -102t-45 -60.5t-76.5 -45.5zM68 647l-21 24l130 104h27l100 -104l-23 -24l-95 85z" />
    <glyph glyph-name="uni029D" unicode="&#x29d;" horiz-adv-x="281" 
d="M226 734.5q9 -8.5 9 -21.5q0 -16 -10.5 -27t-27.5 -11q-14 0 -22.5 8.5t-8.5 21.5q0 16 11 27t27 11q13 0 22 -8.5zM121 -22q52 -15 87 -35l-16 -29q-39 22 -76 31q-12 -69 -48 -108t-96 -39q-44 0 -69.5 24.5t-25.5 64.5q0 50 35.5 78.5t89.5 28.5q44 0 75 -7l76 535h45
zM39 -137q23 29 33 90q-28 7 -70 7q-41 0 -63.5 -18.5t-22.5 -54.5q0 -25 14.5 -39t42.5 -14q43 0 66 29z" />
    <glyph glyph-name="uni025F" unicode="&#x25f;" horiz-adv-x="264" 
d="M246 226h-95l-31 -218q-9 -64 -26.5 -102t-45 -60.5t-76.5 -45.5l-13 34q37 19 58.5 37.5t36 51t22.5 87.5l30 216h-94l6 38h94l36 258h45l-37 -258h95z" />
    <glyph glyph-name="uni0284" unicode="&#x284;" horiz-adv-x="295" 
d="M335.5 731.5q20.5 -9.5 38.5 -24.5l-23 -28q-15 11 -29 17t-35 6q-64 0 -76 -82l-14 -98l-69 -484h95l-6 -38h-94q-9 -61 -27 -97t-45.5 -58t-74.5 -45l-13 34q36 18 57 36t35.5 48.5t22.5 81.5h-94l5 38h94l69 484l15 100q9 59 40 89t79 30q29 0 49.5 -9.5z" />
    <glyph glyph-name="uni0249" unicode="&#x249;" horiz-adv-x="264" 
d="M246 226h-95l-31 -218q-9 -64 -26.5 -102t-45 -60.5t-76.5 -45.5l-13 34q37 19 58.5 37.5t36 51t22.5 87.5l30 216h-94l6 38h94l36 258h45l-37 -258h95zM169.5 683.5q-8.5 8.5 -8.5 21.5q0 16 11 27t27 11q13 0 22 -8.5t9 -21.5q0 -16 -10.5 -27t-27.5 -11
q-14 0 -22.5 8.5z" />
    <glyph glyph-name="k" unicode="k" horiz-adv-x="469" 
d="M159 382q77 150 183 150q49 0 77.5 -29t28.5 -76q0 -64 -41.5 -112t-120.5 -77l103 -238h-48l-108 253q169 51 169 172q0 32 -16.5 51t-51.5 19q-99 0 -186 -194l-43 -301h-45l104 735l46 6z" />
    <glyph glyph-name="uni01E9" unicode="&#x1e9;" horiz-adv-x="469" 
d="M159 382q77 150 183 150q49 0 77.5 -29t28.5 -76q0 -64 -41.5 -112t-120.5 -77l103 -238h-48l-108 253q169 51 169 172q0 32 -16.5 51t-51.5 19q-99 0 -186 -194l-43 -301h-45l104 735l46 6zM461 930l19 -24l-129 -98h-26l-102 99l22 23l97 -79z" />
    <glyph glyph-name="kcommaaccent" unicode="&#x137;" horiz-adv-x="469" 
d="M159 382q77 150 183 150q49 0 77.5 -29t28.5 -76q0 -64 -41.5 -112t-120.5 -77l103 -238h-48l-108 253q169 51 169 172q0 32 -16.5 51t-51.5 19q-99 0 -186 -194l-43 -301h-45l104 735l46 6zM231 -97.5q9 -9.5 9 -23.5q0 -12 -4.5 -23t-19.5 -38l-52 -91h-28l46 115
q-16 11 -16 30q0 17 11 28.5t29 11.5q16 0 25 -9.5z" />
    <glyph glyph-name="kgreenlandic" unicode="&#x138;" horiz-adv-x="436" 
d="M179 522l-74 -522h-45l74 522h45zM440 522l-238 -248l184 -274h-51l-185 275l236 247h54z" />
    <glyph glyph-name="uni0199" unicode="&#x199;" horiz-adv-x="469" 
d="M406.5 315q-41.5 -48 -120.5 -77l103 -238h-48l-108 253q169 51 169 172q0 32 -16.5 51t-51.5 19q-99 0 -186 -194l-42 -301h-45l73 521l13 94q9 60 46.5 93t94.5 33t108 -30l-19 -33q-43 24 -87 24q-85 0 -99 -94l-12 -87l-19 -139q77 150 182 150q49 0 77.5 -29
t28.5 -76q0 -64 -41.5 -112z" />
    <glyph glyph-name="uni029E" unicode="&#x29e;" horiz-adv-x="431" 
d="M-4 0l239 242l-186 280h50l187 -285l-234 -237h-56zM228 -203l103 725h45l-102 -719z" />
    <glyph glyph-name="l" unicode="l" horiz-adv-x="253" 
d="M112 79q-1 -6 -1 -16q0 -34 32 -34q11 0 21.5 3t13.5 4l10 -34q-26 -13 -53 -13q-32 0 -50.5 18t-18.5 53q0 6 2 22l92 653l45 6z" />
    <glyph glyph-name="lacute" unicode="&#x13a;" horiz-adv-x="253" 
d="M112 79q-1 -6 -1 -16q0 -34 32 -34q11 0 21.5 3t13.5 4l10 -34q-26 -13 -53 -13q-32 0 -50.5 18t-18.5 53q0 6 2 22l92 653l45 6zM274 928l18 -43l-183 -75l-13 27z" />
    <glyph glyph-name="uni019B" unicode="&#x19b;" horiz-adv-x="417" 
d="M312 253q14 -91 31.5 -139t47.5 -106l-42 -15q-29 57 -47 107.5t-31.5 139t-18.5 229.5l-213 -477l-43 11l236 516l18 -4q-3 72 -17 112l-74 -72l-31 15l88 89q-24 34 -80 49l9 33q66 -17 100 -57l71 72l24 -24l-77 -77q24 -52 29 -162q6 -149 20 -240z" />
    <glyph glyph-name="uni019A" unicode="&#x19a;" horiz-adv-x="261" 
d="M128 79q-1 -6 -1 -16q0 -34 32 -34q11 0 21.5 3t13.5 4l10 -34q-26 -13 -53 -13q-32 0 -50.5 18t-18.5 53q0 6 2 22l38 272h-95l6 39h95l48 342l45 6l-49 -348h95l-6 -39h-94z" />
    <glyph glyph-name="uni026C" unicode="&#x26c;" horiz-adv-x="295" 
d="M201.5 32q10.5 3 13.5 4l10 -34q-26 -13 -53 -13q-32 0 -50.5 18t-18.5 53q0 6 2 22l27 189h-1q-49 1 -76 23t-27 63q0 43 28.5 68.5t73.5 25.5q11 0 27 -2l40 286l45 6l-61 -435q36 1 74 9l3 -32q-36 -9 -82 -11l-27 -193q-1 -6 -1 -16q0 -34 32 -34q11 0 21.5 3z
M84 318.5q17 -12.5 53 -12.5l15 109q-10 3 -23 3q-29 0 -45.5 -16t-16.5 -44q0 -27 17 -39.5z" />
    <glyph glyph-name="lcaron" unicode="&#x13e;" horiz-adv-x="253" 
d="M112 79q-1 -6 -1 -16q0 -34 32 -34q11 0 21.5 3t13.5 4l10 -34q-26 -13 -53 -13q-32 0 -50.5 18t-18.5 53q0 6 2 22l92 653l45 6zM276 739l43 -5l-53 -156l-28 4z" />
    <glyph glyph-name="uni1E3D" unicode="&#x1e3d;" horiz-adv-x="253" 
d="M112 79q-1 -6 -1 -16q0 -34 32 -34q11 0 21.5 3t13.5 4l10 -34q-26 -13 -53 -13q-32 0 -50.5 18t-18.5 53q0 6 2 22l92 653l45 6zM-2 -198l-20 24l130 104h27l100 -104l-22 -24l-97 85z" />
    <glyph glyph-name="lcommaaccent" unicode="&#x13c;" horiz-adv-x="253" 
d="M112 79q-1 -6 -1 -16q0 -34 32 -34q11 0 21.5 3t13.5 4l10 -34q-26 -13 -53 -13q-32 0 -50.5 18t-18.5 53q0 6 2 22l92 653l45 6zM141 -97.5q9 -9.5 9 -23.5q0 -12 -4.5 -23t-19.5 -38l-52 -91h-28l46 115q-16 11 -16 30q0 17 11 28.5t29 11.5q16 0 25 -9.5z" />
    <glyph glyph-name="uni0234" unicode="&#x234;" horiz-adv-x="325" 
d="M305 171q22 -22 22 -58q0 -56 -41.5 -90t-102.5 -34q-49 0 -77 23l-47 -75l-30 15l55 85q-13 23 -13 56q0 7 2 25l87 617l45 6l-89 -628q-2 -20 -2 -26q32 56 62.5 81t69.5 25q37 0 59 -22zM258.5 51q28.5 21 28.5 61q0 22 -11.5 33.5t-32.5 11.5q-28 0 -52.5 -22.5
t-61.5 -87.5q17 -17 58 -17q43 0 71.5 21z" />
    <glyph glyph-name="ldot" unicode="&#x140;" horiz-adv-x="263" 
d="M112 79q-1 -6 -1 -16q0 -34 32 -34q11 0 21.5 3t13.5 4l10 -34q-26 -13 -53 -13q-32 0 -50.5 18t-18.5 53q0 6 2 22l92 653l45 6zM235.5 350.5q-8.5 8.5 -8.5 21.5q0 16 11 27t27 11q13 0 22 -8.5t9 -21.5q0 -16 -10.5 -27t-27.5 -11q-14 0 -22.5 8.5z" />
    <glyph glyph-name="uni1E37" unicode="&#x1e37;" horiz-adv-x="253" 
d="M112 79q-1 -6 -1 -16q0 -34 32 -34q11 0 21.5 3t13.5 4l10 -34q-26 -13 -53 -13q-32 0 -50.5 18t-18.5 53q0 6 2 22l92 653l45 6zM139.5 -99.5q8.5 -8.5 8.5 -21.5q0 -16 -11 -27t-27 -11q-13 0 -22 8.5t-9 21.5q0 16 10.5 27t27.5 11q14 0 22.5 -8.5z" />
    <glyph glyph-name="uni026E" unicode="&#x26e;" horiz-adv-x="561" 
d="M540 486l-238 -289h8q187 0 187 -157q0 -71 -28.5 -126t-79 -85.5t-115.5 -30.5q-55 0 -94 21.5t-69 63.5l30 23q28 -37 59.5 -53t73.5 -16q82 0 129 56.5t47 146.5q0 64 -35.5 92t-110.5 28h-56l1 1l5 36l231 285h-316l-57 -403q-1 -6 -1 -16q0 -34 32 -34q11 0 21.5 3
t13.5 4l10 -34q-26 -13 -53 -13q-32 0 -50.5 18t-18.5 53q0 6 2 22l92 653l45 6l-31 -219h371z" />
    <glyph glyph-name="uni026D" unicode="&#x26d;" horiz-adv-x="240" 
d="M233 -171q-40 -31 -91 -31q-44 0 -69 25t-25 71q0 8 2 26l10 80h1l104 735l45 6l-104 -741h-1l-11 -84q-2 -16 -2 -22q0 -58 54 -58q20 0 35.5 5.5t32.5 16.5z" />
    <glyph glyph-name="uni01C9" unicode="&#x1c9;" horiz-adv-x="494" 
d="M112 79q-1 -6 -1 -16q0 -34 32 -34q11 0 21.5 3t13.5 4l10 -34q-26 -13 -53 -13q-32 0 -50.5 18t-18.5 53q0 6 2 22l92 653l45 6zM199 -166q37 19 58.5 37.5t36 51t22.5 87.5l72 512h45l-73 -514q-9 -64 -26.5 -102t-45 -60.5t-76.5 -45.5zM409.5 683.5
q-8.5 8.5 -8.5 21.5q0 16 11 27t27 11q13 0 22 -8.5t9 -21.5q0 -16 -10.5 -27t-27.5 -11q-14 0 -22.5 8.5z" />
    <glyph glyph-name="uni026B" unicode="&#x26b;" horiz-adv-x="281" 
d="M307 379q-24 -33 -46 -49.5t-52 -16.5q-23 0 -47 14l-35 -248q-1 -6 -1 -16q0 -34 32 -34q11 0 21.5 3t13.5 4l10 -34q-26 -13 -53 -13q-32 0 -50.5 18t-18.5 53q0 6 2 22l38 272q-25 16 -42 16q-21 0 -35.5 -11t-35.5 -34l-26 18q24 33 46.5 50t53.5 17q24 0 45 -13
l48 338l45 6l-52 -371q26 -17 44 -17q21 0 35.5 11t32.5 33z" />
    <glyph glyph-name="uni02AA" unicode="&#x2aa;" horiz-adv-x="578" 
d="M129.5 26.5q-51.5 37.5 -51.5 112.5q0 21 2 33l80 563l46 6l-81 -570q-2 -20 -2 -27q0 -115 150 -115q93 0 143 32.5t50 96.5q0 35 -21.5 58t-78.5 44q-63 23 -90 52t-27 76q0 41 21.5 74t59 51.5t83.5 18.5q42 0 75.5 -14t64.5 -43l-25 -28q-28 24 -54.5 35t-61.5 11
q-51 0 -84 -28t-33 -75q0 -35 21 -55.5t75 -40.5q64 -24 93 -55t29 -79q0 -81 -65 -126t-178 -45q-89 0 -140.5 37.5z" />
    <glyph glyph-name="lslash" unicode="&#x142;" horiz-adv-x="259" 
d="M165.5 32q10.5 3 13.5 4l10 -34q-26 -13 -53 -13q-32 0 -50.5 18t-18.5 53q0 6 2 22l35 250l-49 -30l-15 31l71 44l50 358l45 6l-47 -334l99 61l14 -32l-119 -74l-40 -283q-1 -6 -1 -16q0 -34 32 -34q11 0 21.5 3z" />
    <glyph glyph-name="uni02AB" unicode="&#x2ab;" horiz-adv-x="560" 
d="M561 486l-329 -446h264l-11 -40h-303q-26 -11 -47 -11q-32 0 -51 18.5t-19 54.5q0 7 2 21l93 652l45 6l-93 -662q-1 -6 -1 -16q0 -18 7.5 -26t24.5 -8q18 0 35 7l329 445h-244l6 41h297z" />
    <glyph glyph-name="m" unicode="m" horiz-adv-x="764" 
d="M664 500q26 -32 26 -90q0 -18 -3 -39l-52 -371h-45l51 369q3 23 3 41q0 84 -62 84q-44 0 -84.5 -47t-83.5 -132l-45 -315h-44l52 369q3 23 3 40q0 85 -63 85q-44 0 -84.5 -47.5t-83.5 -133.5l-44 -313h-45l74 522h39l-16 -136q76 146 169 146q49 0 76 -36t23 -99
q35 65 77.5 100t88.5 35q47 0 73 -32z" />
    <glyph glyph-name="uni1E3F" unicode="&#x1e3f;" horiz-adv-x="764" 
d="M664 500q26 -32 26 -90q0 -18 -3 -39l-52 -371h-45l51 369q3 23 3 41q0 84 -62 84q-44 0 -84.5 -47t-83.5 -132l-45 -315h-44l52 369q3 23 3 40q0 85 -63 85q-44 0 -84.5 -47.5t-83.5 -133.5l-44 -313h-45l74 522h39l-16 -136q76 146 169 146q49 0 76 -36t23 -99
q35 65 77.5 100t88.5 35q47 0 73 -32zM532 775l18 -43l-183 -84l-14 27z" />
    <glyph glyph-name="uni1E41" unicode="&#x1e41;" horiz-adv-x="764" 
d="M664 500q26 -32 26 -90q0 -18 -3 -39l-52 -371h-45l51 369q3 23 3 41q0 84 -62 84q-44 0 -84.5 -47t-83.5 -132l-45 -315h-44l52 369q3 23 3 40q0 85 -63 85q-44 0 -84.5 -47.5t-83.5 -133.5l-44 -313h-45l74 522h39l-16 -136q76 146 169 146q49 0 76 -36t23 -99
q35 65 77.5 100t88.5 35q47 0 73 -32zM425.5 683.5q-8.5 8.5 -8.5 21.5q0 16 11 27t27 11q13 0 22 -8.5t9 -21.5q0 -16 -10.5 -27t-27.5 -11q-14 0 -22.5 8.5z" />
    <glyph glyph-name="uni0271" unicode="&#x271;" horiz-adv-x="764" 
d="M664 500q26 -32 26 -90q0 -18 -3 -39l-52 -371l-12 -84q-9 -59 -41.5 -88.5t-80.5 -29.5t-85 33l23 28q15 -12 28.5 -17.5t33.5 -5.5q29 0 50 19.5t27 62.5l12 82l51 369q3 23 3 41q0 84 -62 84q-44 0 -84.5 -47t-83.5 -132l-45 -315h-44l52 369q3 23 3 40q0 85 -63 85
q-44 0 -84.5 -47.5t-83.5 -133.5l-44 -313h-45l74 522h39l-16 -136q76 146 169 146q49 0 76 -36t23 -99q35 65 77.5 100t88.5 35q47 0 73 -32z" />
    <glyph glyph-name="uni0270" unicode="&#x270;" horiz-adv-x="759" 
d="M704 522l-102 -719l-46 -6l48 334q-73 -142 -165 -142q-50 0 -76.5 37t-22.5 101q-75 -138 -167 -138q-46 0 -72.5 32.5t-26.5 89.5q0 18 3 39l53 372h45l-52 -369q-3 -22 -3 -41q0 -84 62 -84q45 0 85 46t83 131l45 317h45l-53 -369q-3 -22 -3 -40q0 -85 63 -85
q44 0 84.5 47t83.5 132l44 315h45z" />
    <glyph glyph-name="uni026F" unicode="&#x26f;" horiz-adv-x="764" 
d="M704 522l-74 -522h-39l16 136q-76 -146 -169 -146q-49 0 -76 36t-23 99q-35 -65 -77.5 -100t-88.5 -35q-47 0 -73 32t-26 90q0 18 3 39l52 371h45l-51 -369q-3 -22 -3 -41q0 -84 62 -84q44 0 84.5 47t83.5 132l45 315h44l-52 -369q-3 -22 -3 -40q0 -85 63 -85
q44 0 84.5 47.5t83.5 133.5l44 313h45z" />
    <glyph glyph-name="n" unicode="n" horiz-adv-x="523" 
d="M420.5 500q28.5 -32 28.5 -90q0 -17 -3 -37l-52 -373h-45l52 371q3 21 3 38q0 85 -71 85q-94 0 -183 -177l-45 -317h-45l74 522h39l-16 -134q81 144 183 144q52 0 80.5 -32z" />
    <glyph glyph-name="nacute" unicode="&#x144;" horiz-adv-x="523" 
d="M420.5 500q28.5 -32 28.5 -90q0 -17 -3 -37l-52 -373h-45l52 371q3 21 3 38q0 85 -71 85q-94 0 -183 -177l-45 -317h-45l74 522h39l-16 -134q81 144 183 144q52 0 80.5 -32zM406 775l18 -43l-183 -84l-14 27z" />
    <glyph glyph-name="napostrophe" unicode="&#x149;" horiz-adv-x="594" 
d="M182.5 732q9.5 -10 8.5 -25q0 -12 -4 -22t-19 -38l-50 -95h-28l44 119q-18 13 -17 32q0 17 11 28t28 11t26.5 -10zM491.5 500q28.5 -32 28.5 -90q0 -17 -3 -37l-52 -373h-45l52 371q3 21 3 38q0 85 -71 85q-94 0 -183 -177l-45 -317h-45l74 522h39l-16 -134
q81 144 183 144q52 0 80.5 -32z" />
    <glyph glyph-name="ncaron" unicode="&#x148;" horiz-adv-x="523" 
d="M420.5 500q28.5 -32 28.5 -90q0 -17 -3 -37l-52 -373h-45l52 371q3 21 3 38q0 85 -71 85q-94 0 -183 -177l-45 -317h-45l74 522h39l-16 -134q81 144 183 144q52 0 80.5 -32zM439 763l19 -24l-129 -104h-27l-101 104l23 24l94 -85z" />
    <glyph glyph-name="uni1E4B" unicode="&#x1e4b;" horiz-adv-x="523" 
d="M420.5 500q28.5 -32 28.5 -90q0 -17 -3 -37l-52 -373h-45l52 371q3 21 3 38q0 85 -71 85q-94 0 -183 -177l-45 -317h-45l74 522h39l-16 -134q81 144 183 144q52 0 80.5 -32zM96 -198l-20 24l130 104h27l100 -104l-22 -24l-97 85z" />
    <glyph glyph-name="ncommaaccent" unicode="&#x146;" horiz-adv-x="523" 
d="M420.5 500q28.5 -32 28.5 -90q0 -17 -3 -37l-52 -373h-45l52 371q3 21 3 38q0 85 -71 85q-94 0 -183 -177l-45 -317h-45l74 522h39l-16 -134q81 144 183 144q52 0 80.5 -32zM239 -97.5q9 -9.5 9 -23.5q0 -12 -4.5 -23t-19.5 -38l-52 -91h-28l46 115q-16 11 -16 30
q0 17 11 28.5t29 11.5q16 0 25 -9.5z" />
    <glyph glyph-name="uni0235" unicode="&#x235;" horiz-adv-x="619" 
d="M598.5 171q22.5 -22 22.5 -58q0 -56 -41.5 -90t-103.5 -34q-49 0 -77 23l-47 -75l-29 15l55 86q-14 25 -14 57q0 7 2 25l35 250q3 21 3 38q0 86 -72 86q-49 0 -95 -48.5t-87 -129.5l-45 -316h-45l74 522h39l-16 -136q82 146 183 146q52 0 80.5 -32t28.5 -90q0 -18 -3 -38
l-36 -257q-2 -22 -2 -28q32 55 62.5 80.5t69.5 25.5q36 0 58.5 -22zM552 51q28 21 28 61q0 21 -11.5 33t-31.5 12q-28 0 -53 -22.5t-62 -86.5q18 -18 59 -18q43 0 71 21z" />
    <glyph glyph-name="uni1E45" unicode="&#x1e45;" horiz-adv-x="523" 
d="M420.5 500q28.5 -32 28.5 -90q0 -17 -3 -37l-52 -373h-45l52 371q3 21 3 38q0 85 -71 85q-94 0 -183 -177l-45 -317h-45l74 522h39l-16 -134q81 144 183 144q52 0 80.5 -32zM299.5 683.5q-8.5 8.5 -8.5 21.5q0 16 11 27t27 11q13 0 22 -8.5t9 -21.5q0 -16 -10.5 -27
t-27.5 -11q-14 0 -22.5 8.5z" />
    <glyph glyph-name="uni1E47" unicode="&#x1e47;" horiz-adv-x="523" 
d="M420.5 500q28.5 -32 28.5 -90q0 -17 -3 -37l-52 -373h-45l52 371q3 21 3 38q0 85 -71 85q-94 0 -183 -177l-45 -317h-45l74 522h39l-16 -134q81 144 183 144q52 0 80.5 -32zM237.5 -99.5q8.5 -8.5 8.5 -21.5q0 -16 -11 -27t-27 -11q-13 0 -22 8.5t-9 21.5q0 16 10.5 27
t27.5 11q14 0 22.5 -8.5z" />
    <glyph glyph-name="uni01F9" unicode="&#x1f9;" horiz-adv-x="523" 
d="M420.5 500q28.5 -32 28.5 -90q0 -17 -3 -37l-52 -373h-45l52 371q3 21 3 38q0 85 -71 85q-94 0 -183 -177l-45 -317h-45l74 522h39l-16 -134q81 144 183 144q52 0 80.5 -32zM273 774l151 -100l-16 -26l-161 84z" />
    <glyph glyph-name="eng" unicode="&#x14b;" horiz-adv-x="523" 
d="M420.5 500q28.5 -32 28.5 -90q0 -17 -3 -37l-52 -373l-12 -84q-9 -59 -41.5 -88.5t-80.5 -29.5t-85 33l23 28q15 -12 28.5 -17.5t33.5 -5.5q29 0 50 19.5t27 62.5l12 82l52 371q3 21 3 38q0 85 -71 85q-94 0 -183 -177l-45 -317h-45l74 522h39l-16 -134q81 144 183 144
q52 0 80.5 -32z" />
    <glyph glyph-name="uni0272" unicode="&#x272;" horiz-adv-x="523" 
d="M420.5 500q28.5 -32 28.5 -90q0 -17 -3 -37l-52 -373h-45l52 371q3 21 3 38q0 85 -71 85q-94 0 -183 -177l-45 -317l-12 -84q-9 -59 -41.5 -88.5t-80.5 -29.5t-85 33l23 28q15 -12 28.5 -17.5t33.5 -5.5q29 0 50 19.5t27 62.5l12 82l74 522h39l-16 -134q81 144 183 144
q52 0 80.5 -32z" />
    <glyph glyph-name="uni0273" unicode="&#x273;" horiz-adv-x="523" 
d="M521 -171q-40 -31 -91 -31q-44 0 -69 25t-25 71q0 8 2 26l10 80h1l52 371q3 21 3 38q0 85 -71 85q-94 0 -183 -177l-45 -317h-45l74 522h39l-16 -134q81 144 183 144q52 0 80.5 -32t28.5 -90q0 -17 -3 -37l-52 -373h-1l-11 -84q-2 -16 -2 -22q0 -58 54 -58q20 0 35.5 5.5
t32.5 16.5z" />
    <glyph glyph-name="uni01CC" unicode="&#x1cc;" horiz-adv-x="764" 
d="M420.5 500q28.5 -32 28.5 -90q0 -17 -3 -37l-52 -373h-45l52 371q3 21 3 38q0 85 -71 85q-94 0 -183 -177l-45 -317h-45l74 522h39l-16 -134q81 144 183 144q52 0 80.5 -32zM469 -166q37 19 58.5 37.5t36 51t22.5 87.5l72 512h45l-73 -514q-9 -64 -26.5 -102t-45 -60.5
t-76.5 -45.5zM679.5 683.5q-8.5 8.5 -8.5 21.5q0 16 11 27t27 11q13 0 22 -8.5t9 -21.5q0 -16 -10.5 -27t-27.5 -11q-14 0 -22.5 8.5z" />
    <glyph glyph-name="uni019E" unicode="&#x19e;" horiz-adv-x="523" 
d="M420 500.5q29 -31.5 29 -88.5q0 -18 -3 -39l-81 -570l-45 -6l81 574q3 21 3 39q0 84 -72 84q-49 0 -95 -48t-87 -129l-45 -317h-45l74 522h39l-16 -134q81 144 182 144q52 0 81 -31.5z" />
    <glyph glyph-name="ntilde" unicode="&#xf1;" horiz-adv-x="523" 
d="M420.5 500q28.5 -32 28.5 -90q0 -17 -3 -37l-52 -373h-45l52 371q3 21 3 38q0 85 -71 85q-94 0 -183 -177l-45 -317h-45l74 522h39l-16 -134q81 144 183 144q52 0 80.5 -32zM348.5 676.5q-12.5 6.5 -30.5 18.5q-15 11 -23.5 15.5t-19.5 4.5q-16 0 -28 -8.5t-29 -30.5
l-25 17q41 59 82 59q15 0 28.5 -6t29.5 -18q13 -10 23.5 -15t21.5 -5q14 0 27 10t29 33l27 -16q-39 -65 -83 -65q-17 0 -29.5 6.5z" />
    <glyph glyph-name="o" unicode="o" horiz-adv-x="512" 
d="M95.5 41.5q-42.5 52.5 -42.5 145.5q0 78 25 157.5t80 133.5t138 54q78 0 120.5 -51.5t42.5 -144.5q0 -78 -24.5 -157.5t-79.5 -134.5t-139 -55q-78 0 -120.5 52.5zM329.5 78.5q43.5 49.5 63 120.5t19.5 139q0 76 -30 116t-87 40q-69 0 -113 -50t-63 -121.5t-19 -138.5
q0 -76 30 -115.5t87 -39.5q69 0 112.5 49.5z" />
    <glyph glyph-name="oacute" unicode="&#xf3;" horiz-adv-x="512" 
d="M95.5 41.5q-42.5 52.5 -42.5 145.5q0 78 25 157.5t80 133.5t138 54q78 0 120.5 -51.5t42.5 -144.5q0 -78 -24.5 -157.5t-79.5 -134.5t-139 -55q-78 0 -120.5 52.5zM329.5 78.5q43.5 49.5 63 120.5t19.5 139q0 76 -30 116t-87 40q-69 0 -113 -50t-63 -121.5t-19 -138.5
q0 -76 30 -115.5t87 -39.5q69 0 112.5 49.5zM402 775l18 -43l-183 -84l-14 27z" />
    <glyph glyph-name="uni0275" unicode="&#x275;" horiz-adv-x="512" 
d="M416.5 480.5q42.5 -51.5 42.5 -144.5q0 -78 -24.5 -157.5t-79.5 -134.5t-139 -55q-78 0 -120.5 52.5t-42.5 145.5q0 78 25 157.5t80 133.5t138 54q78 0 120.5 -51.5zM172 433.5q-46 -60.5 -63 -149.5h301q3 29 3 54q0 76 -30.5 116t-87.5 40q-77 0 -123 -60.5zM341 92
q46 63 63 154h-301q-4 -29 -4 -62q0 -76 30.5 -115.5t87.5 -39.5q78 0 124 63z" />
    <glyph glyph-name="obreve" unicode="&#x14f;" horiz-adv-x="512" 
d="M95.5 41.5q-42.5 52.5 -42.5 145.5q0 78 25 157.5t80 133.5t138 54q78 0 120.5 -51.5t42.5 -144.5q0 -78 -24.5 -157.5t-79.5 -134.5t-139 -55q-78 0 -120.5 52.5zM329.5 78.5q43.5 49.5 63 120.5t19.5 139q0 76 -30 116t-87 40q-69 0 -113 -50t-63 -121.5t-19 -138.5
q0 -76 30 -115.5t87 -39.5q69 0 112.5 49.5zM241 685.5q-27 28.5 -26 74.5l31 4q8 -68 69 -68q32 0 56.5 18.5t37.5 52.5l30 -10q-13 -46 -46.5 -73t-78.5 -27q-46 0 -73 28.5z" />
    <glyph glyph-name="uni01D2" unicode="&#x1d2;" horiz-adv-x="512" 
d="M95.5 41.5q-42.5 52.5 -42.5 145.5q0 78 25 157.5t80 133.5t138 54q78 0 120.5 -51.5t42.5 -144.5q0 -78 -24.5 -157.5t-79.5 -134.5t-139 -55q-78 0 -120.5 52.5zM329.5 78.5q43.5 49.5 63 120.5t19.5 139q0 76 -30 116t-87 40q-69 0 -113 -50t-63 -121.5t-19 -138.5
q0 -76 30 -115.5t87 -39.5q69 0 112.5 49.5zM435 763l19 -24l-129 -104h-27l-101 104l23 24l94 -85z" />
    <glyph glyph-name="ocircumflex" unicode="&#xf4;" horiz-adv-x="512" 
d="M95.5 41.5q-42.5 52.5 -42.5 145.5q0 78 25 157.5t80 133.5t138 54q78 0 120.5 -51.5t42.5 -144.5q0 -78 -24.5 -157.5t-79.5 -134.5t-139 -55q-78 0 -120.5 52.5zM329.5 78.5q43.5 49.5 63 120.5t19.5 139q0 76 -30 116t-87 40q-69 0 -113 -50t-63 -121.5t-19 -138.5
q0 -76 30 -115.5t87 -39.5q69 0 112.5 49.5zM207 647l-21 24l130 104h27l100 -104l-23 -24l-95 85z" />
    <glyph glyph-name="uni1ED1" unicode="&#x1ed1;" horiz-adv-x="512" 
d="M492 832l29 -30l-122 -118l-20 19zM192 585l-19 25l129 98h27l101 -100l-22 -23l-96 80zM95.5 41.5q-42.5 52.5 -42.5 145.5q0 78 25 157.5t80 133.5t138 54q78 0 120.5 -51.5t42.5 -144.5q0 -78 -24.5 -157.5t-79.5 -134.5t-139 -55q-78 0 -120.5 52.5zM329.5 78.5
q43.5 49.5 63 120.5t19.5 139q0 76 -30 116t-87 40q-69 0 -113 -50t-63 -121.5t-19 -138.5q0 -76 30 -115.5t87 -39.5q69 0 112.5 49.5z" />
    <glyph glyph-name="uni1ED9" unicode="&#x1ed9;" horiz-adv-x="512" 
d="M95.5 41.5q-42.5 52.5 -42.5 145.5q0 78 25 157.5t80 133.5t138 54q78 0 120.5 -51.5t42.5 -144.5q0 -78 -24.5 -157.5t-79.5 -134.5t-139 -55q-78 0 -120.5 52.5zM329.5 78.5q43.5 49.5 63 120.5t19.5 139q0 76 -30 116t-87 40q-69 0 -113 -50t-63 -121.5t-19 -138.5
q0 -76 30 -115.5t87 -39.5q69 0 112.5 49.5zM207 647l-21 24l130 104h27l100 -104l-23 -24l-95 85zM225.5 -99.5q8.5 -8.5 8.5 -21.5q0 -16 -11 -27t-27 -11q-13 0 -22 8.5t-9 21.5q0 16 10.5 27t27.5 11q14 0 22.5 -8.5z" />
    <glyph glyph-name="uni1ED3" unicode="&#x1ed3;" horiz-adv-x="512" 
d="M165 831l77 -130l-23 -17l-90 122zM193 585l-19 25l129 98h27l101 -100l-22 -23l-96 80zM95.5 41.5q-42.5 52.5 -42.5 145.5q0 78 25 157.5t80 133.5t138 54q78 0 120.5 -51.5t42.5 -144.5q0 -78 -24.5 -157.5t-79.5 -134.5t-139 -55q-78 0 -120.5 52.5zM329.5 78.5
q43.5 49.5 63 120.5t19.5 139q0 76 -30 116t-87 40q-69 0 -113 -50t-63 -121.5t-19 -138.5q0 -76 30 -115.5t87 -39.5q69 0 112.5 49.5z" />
    </font>
</defs>
</svg>
