<?xml version="1.0" standalone="no"?>
<!DOCTYPE svg PUBLIC "-//W3C//DTD SVG 1.1//EN" "http://www.w3.org/Graphics/SVG/1.1/DTD/svg11.dtd" >
<svg>
<metadata>
Created by FontForge 20120731 at Fri May  5 09:33:46 2017
 By www-data
Digitized data copyright 2012-2016, The Mozilla Foundation and Telefonica S.A.
</metadata>
<defs>
<font id="FiraSansCondensed-ExtraBold" horiz-adv-x="504" >
  <font-face 
    font-family="Fira Sans Condensed ExtraBold"
    font-weight="800"
    font-stretch="condensed"
    units-per-em="1000"
    panose-1="2 11 9 3 5 0 0 2 0 4"
    ascent="800"
    descent="-200"
    x-height="533"
    cap-height="695"
    bbox="-721 -355 1360 1211"
    underline-thickness="50"
    underline-position="-50"
    unicode-range="U+000D-FEFF"
  />
<missing-glyph horiz-adv-x="666" 
d="M543 1050v-1400h-420v1400h420zM489 998h-311v-1296h311v1296zM409.5 419q25.5 -32 25.5 -83q0 -53 -22.5 -82t-72.5 -36v-45q0 -11 -7.5 -17.5t-17.5 -6.5t-17.5 6.5t-7.5 17.5v84q53 3 72 19.5t19 57.5q0 33 -13 51t-48 18q-29 0 -52 -11q-8 -3 -13 -3q-11 0 -17.5 6.5
t-6.5 16.5q0 19 29.5 29t63.5 10q60 0 85.5 -32zM340 110q10 -10 10 -25q0 -16 -10 -26.5t-25 -10.5t-25 10.5t-10 26.5q0 15 10 25t25 10t25 -10z" />
    <glyph glyph-name="fi" unicode="fi" horiz-adv-x="556" 
d="M386 749.5q45 -11.5 78 -29.5l-46 -109q-54 23 -104 23q-37 0 -51.5 -14t-14.5 -50v-37h265v-533h-174v413h-91v-413h-174v413h-73v120h73v46q0 80 53 131t163 51q51 0 96 -11.5z" />
    <glyph glyph-name="fl" unicode="fl" horiz-adv-x="593" 
d="M602 0q-43 -18 -99 -18q-70 0 -109 40.5t-39 112.5v496q-27 7 -51 7q-33 0 -44.5 -14.5t-11.5 -49.5v-41h77l-20 -120h-57v-413h-174v413h-73v120h73v46q0 79 51.5 130.5t148.5 51.5q49 0 105 -18l150 16v-610q0 -30 22 -30q11 0 20 3z" />
    <glyph glyph-name=".notdef" horiz-adv-x="666" 
d="M543 1050v-1400h-420v1400h420zM489 998h-311v-1296h311v1296zM409.5 419q25.5 -32 25.5 -83q0 -53 -22.5 -82t-72.5 -36v-45q0 -11 -7.5 -17.5t-17.5 -6.5t-17.5 6.5t-7.5 17.5v84q53 3 72 19.5t19 57.5q0 33 -13 51t-48 18q-29 0 -52 -11q-8 -3 -13 -3q-11 0 -17.5 6.5
t-6.5 16.5q0 19 29.5 29t63.5 10q60 0 85.5 -32zM340 110q10 -10 10 -25q0 -16 -10 -26.5t-25 -10.5t-25 10.5t-10 26.5q0 15 10 25t25 10t25 -10z" />
    <glyph glyph-name="nonmarkingreturn" unicode="&#xd;" horiz-adv-x="200" 
 />
    <glyph glyph-name="space" unicode=" " horiz-adv-x="200" 
 />
    <glyph glyph-name="A" unicode="A" horiz-adv-x="549" 
d="M379 0l-27 144h-158l-27 -144h-184l184 695h216l183 -695h-187zM218 272h110l-55 293z" />
    <glyph glyph-name="Aacute" unicode="&#xc1;" horiz-adv-x="549" 
d="M379 0l-27 144h-158l-27 -144h-184l184 695h216l183 -695h-187zM218 272h110l-55 293zM345 963l64 -126l-226 -87l-44 85z" />
    <glyph glyph-name="Abreve" unicode="&#x102;" horiz-adv-x="549" 
d="M379 0l-27 144h-158l-27 -144h-184l184 695h216l183 -695h-187zM218 272h110l-55 293zM158 797.5q-42 48.5 -48 122.5l91 17q17 -69 74 -69q29 0 47.5 18.5t26.5 50.5l91 -17q-6 -74 -48 -122.5t-117 -48.5t-117 48.5z" />
    <glyph glyph-name="uni1EAE" unicode="&#x1eae;" horiz-adv-x="549" 
d="M379 0l-27 144h-158l-27 -144h-184l184 695h216l183 -695h-187zM218 272h110l-55 293zM158 784.5q-42 48.5 -48 122.5l91 17q17 -69 74 -69q29 0 47.5 18.5t26.5 50.5l91 -17q-6 -74 -48 -122.5t-117 -48.5t-117 48.5zM343 1145l97 -88l-158 -147l-65 56z" />
    <glyph glyph-name="uni1EB6" unicode="&#x1eb6;" horiz-adv-x="549" 
d="M379 0l-27 144h-158l-27 -144h-184l184 695h216l183 -695h-187zM218 272h110l-55 293zM158 797.5q-42 48.5 -48 122.5l91 17q17 -69 74 -69q29 0 47.5 18.5t26.5 50.5l91 -17q-6 -74 -48 -122.5t-117 -48.5t-117 48.5zM204.5 -222.5q-27.5 27.5 -27.5 68.5q0 42 27.5 69
t70.5 27t70.5 -27t27.5 -69q0 -41 -27.5 -68.5t-70.5 -27.5t-70.5 27.5z" />
    <glyph glyph-name="uni1EB0" unicode="&#x1eb0;" horiz-adv-x="549" 
d="M379 0l-27 144h-158l-27 -144h-184l184 695h216l183 -695h-187zM218 272h110l-55 293zM159 784.5q-42 48.5 -48 122.5l91 17q17 -69 74 -69q29 0 47.5 18.5t26.5 50.5l91 -17q-6 -74 -48 -122.5t-117 -48.5t-117 48.5zM212 1145l127 -179l-66 -56l-158 147z" />
    <glyph glyph-name="uni1EB2" unicode="&#x1eb2;" horiz-adv-x="549" 
d="M379 0l-27 144h-158l-27 -144h-184l184 695h216l183 -695h-187zM218 272h110l-55 293zM158 784.5q-42 48.5 -48 122.5l91 17q17 -69 74 -69q29 0 47.5 18.5t26.5 50.5l91 -17q-6 -74 -48 -122.5t-117 -48.5t-117 48.5zM227 1004q35 2 49.5 10t14.5 27q0 14 -9 21.5
t-24 7.5q-16 0 -27.5 -3t-28.5 -9l-26 69q44 26 105 26q58 0 89 -28.5t31 -75.5q0 -39 -19.5 -63t-57.5 -32v-41h-97v91z" />
    <glyph glyph-name="uni1EB4" unicode="&#x1eb4;" horiz-adv-x="549" 
d="M379 0l-27 144h-158l-27 -144h-184l184 695h216l183 -695h-187zM218 272h110l-55 293zM157 784.5q-42 48.5 -48 122.5l91 17q17 -69 74 -69q29 0 47.5 18.5t26.5 50.5l91 -17q-6 -74 -48 -122.5t-117 -48.5t-117 48.5zM293 960q-15 6 -32 17q-2 1 -14 7.5t-23 6.5
q-15 0 -24.5 -8.5t-22.5 -28.5l-81 35q18 50 51 81.5t74 31.5q21 0 37 -6.5t33 -17.5q9 -6 18.5 -10.5t18.5 -4.5q14 0 24 9t22 29l81 -35q-18 -51 -50.5 -81.5t-75.5 -30.5q-21 0 -36 6z" />
    <glyph glyph-name="uni01CD" unicode="&#x1cd;" horiz-adv-x="549" 
d="M379 0l-27 144h-158l-27 -144h-184l184 695h216l183 -695h-187zM218 272h110l-55 293zM398 949l59 -64l-130 -136h-104l-130 136l59 64l123 -84z" />
    <glyph glyph-name="Acircumflex" unicode="&#xc2;" horiz-adv-x="549" 
d="M379 0l-27 144h-158l-27 -144h-184l184 695h216l183 -695h-187zM218 272h110l-55 293zM152 757l-59 64l130 136h104l130 -136l-59 -64l-123 84z" />
    <glyph glyph-name="uni1EA4" unicode="&#x1ea4;" horiz-adv-x="549" 
d="M379 0l-27 144h-158l-27 -144h-184l184 695h216l183 -695h-187zM218 272h110l-55 293zM152 726l-59 64l130 136h104l130 -136l-59 -64l-123 84zM498 1111l97 -88l-158 -147l-65 56z" />
    <glyph glyph-name="uni1EAC" unicode="&#x1eac;" horiz-adv-x="549" 
d="M379 0l-27 144h-158l-27 -144h-184l184 695h216l183 -695h-187zM218 272h110l-55 293zM152 757l-59 64l130 136h104l130 -136l-59 -64l-123 84zM204.5 -222.5q-27.5 27.5 -27.5 68.5q0 42 27.5 69t70.5 27t70.5 -27t27.5 -69q0 -41 -27.5 -68.5t-70.5 -27.5t-70.5 27.5z
" />
    <glyph glyph-name="uni1EA6" unicode="&#x1ea6;" horiz-adv-x="549" 
d="M379 0l-27 144h-158l-27 -144h-184l184 695h216l183 -695h-187zM218 272h110l-55 293zM151 726l-59 64l130 136h104l130 -136l-59 -64l-123 84zM53 1111l127 -179l-66 -56l-158 147z" />
    <glyph glyph-name="uni1EA8" unicode="&#x1ea8;" horiz-adv-x="549" 
d="M379 0l-27 144h-158l-27 -144h-184l184 695h216l183 -695h-187zM218 272h110l-55 293zM151 726l-59 64l130 136h104l130 -136l-59 -64l-123 84zM392 957q35 2 49.5 10t14.5 27q0 14 -9 21.5t-24 7.5q-16 0 -27.5 -3t-28.5 -9l-26 69q44 26 105 26q58 0 89 -28.5t31 -75.5
q0 -39 -19.5 -63t-57.5 -32v-41h-97v91z" />
    <glyph glyph-name="uni1EAA" unicode="&#x1eaa;" horiz-adv-x="549" 
d="M379 0l-27 144h-158l-27 -144h-184l184 695h216l183 -695h-187zM218 272h110l-55 293zM150 726l-59 64l130 136h104l130 -136l-59 -64l-123 84zM291 962q-15 6 -32 17q-2 1 -14 7.5t-23 6.5q-15 0 -24.5 -8.5t-22.5 -28.5l-81 35q18 50 51 81.5t74 31.5q21 0 37 -6.5
t33 -17.5q9 -6 18.5 -10.5t18.5 -4.5q14 0 24 9t22 29l81 -35q-18 -51 -50.5 -81.5t-75.5 -30.5q-21 0 -36 6z" />
    <glyph glyph-name="uni0200" unicode="&#x200;" horiz-adv-x="549" 
d="M379 0l-27 144h-158l-27 -144h-184l184 695h216l183 -695h-187zM218 272h110l-55 293zM152 992l91 -203l-82 -40l-117 187zM321 992l85 -204l-85 -35l-110 187z" />
    <glyph glyph-name="Adieresis" unicode="&#xc4;" horiz-adv-x="549" 
d="M379 0l-27 144h-158l-27 -144h-184l184 695h216l183 -695h-187zM218 272h110l-55 293zM226 908q24 -24 24 -59q0 -36 -24 -60.5t-60 -24.5q-35 0 -59.5 24.5t-24.5 60.5q0 35 24.5 59t59.5 24q36 0 60 -24zM445 908q24 -24 24 -59q0 -36 -24 -60.5t-60 -24.5
q-35 0 -59.5 24.5t-24.5 60.5q0 35 24.5 59t59.5 24q36 0 60 -24z" />
    <glyph glyph-name="uni01DE" unicode="&#x1de;" horiz-adv-x="549" 
d="M379 0l-27 144h-158l-27 -144h-184l184 695h216l183 -695h-187zM218 272h110l-55 293zM225 889q24 -24 24 -59q0 -36 -24 -60.5t-60 -24.5q-35 0 -59.5 24.5t-24.5 60.5q0 35 24.5 59t59.5 24q36 0 60 -24zM444 889q24 -24 24 -59q0 -36 -24 -60.5t-60 -24.5
q-35 0 -59.5 24.5t-24.5 60.5q0 35 24.5 59t59.5 24q36 0 60 -24zM422 953h-290v118h290v-118z" />
    <glyph glyph-name="uni0226" unicode="&#x226;" horiz-adv-x="549" 
d="M379 0l-27 144h-158l-27 -144h-184l184 695h216l183 -695h-187zM218 272h110l-55 293zM345.5 916.5q27.5 -27.5 27.5 -68.5q0 -42 -27.5 -69t-70.5 -27t-70.5 27t-27.5 69q0 41 27.5 68.5t70.5 27.5t70.5 -27.5z" />
    <glyph glyph-name="uni1EA0" unicode="&#x1ea0;" horiz-adv-x="549" 
d="M379 0l-27 144h-158l-27 -144h-184l184 695h216l183 -695h-187zM218 272h110l-55 293zM204.5 -222.5q-27.5 27.5 -27.5 68.5q0 42 27.5 69t70.5 27t70.5 -27t27.5 -69q0 -41 -27.5 -68.5t-70.5 -27.5t-70.5 27.5z" />
    <glyph glyph-name="uni01E0" unicode="&#x1e0;" horiz-adv-x="549" 
d="M379 0l-27 144h-158l-27 -144h-184l184 695h216l183 -695h-187zM218 272h110l-55 293zM343.5 899.5q27.5 -27.5 27.5 -68.5q0 -42 -27.5 -69t-70.5 -27t-70.5 27t-27.5 69q0 41 27.5 68.5t70.5 27.5t70.5 -27.5zM419 953h-290v118h290v-118z" />
    <glyph glyph-name="Agrave" unicode="&#xc0;" horiz-adv-x="549" 
d="M379 0l-27 144h-158l-27 -144h-184l184 695h216l183 -695h-187zM218 272h110l-55 293zM203 962l206 -127l-44 -85l-226 87z" />
    <glyph glyph-name="uni1EA2" unicode="&#x1ea2;" horiz-adv-x="549" 
d="M379 0l-27 144h-158l-27 -144h-184l184 695h216l183 -695h-187zM218 272h110l-55 293zM226 855q35 2 49.5 10t14.5 27q0 14 -9 21.5t-24 7.5q-16 0 -27.5 -3t-28.5 -9l-26 69q44 26 105 26q58 0 89 -28.5t31 -75.5q0 -39 -19.5 -63t-57.5 -32v-41h-97v91z" />
    <glyph glyph-name="uni0202" unicode="&#x202;" horiz-adv-x="549" 
d="M379 0l-27 144h-158l-27 -144h-184l184 695h216l183 -695h-187zM218 272h110l-55 293zM392.5 908q41.5 -50 47.5 -132l-91 -16q-16 80 -74 80t-74 -80l-91 16q6 82 47.5 132t117.5 50t117.5 -50z" />
    <glyph glyph-name="uni2C6D" unicode="&#x2c6d;" horiz-adv-x="624" 
d="M585 133q8 -15 29 -24l-50 -127q-50 8 -82.5 24.5t-51.5 44.5q-59 -69 -156 -69q-76 0 -132.5 41t-87 120.5t-30.5 193.5q0 119 31.5 204t87.5 128.5t128 43.5q86 0 143 -64l10 46h153v-518q0 -29 8 -44zM396 146v398q-18 19 -38 29t-46 10q-51 0 -75.5 -55t-24.5 -191
q0 -88 11.5 -138t33 -70t54.5 -20q49 0 85 37z" />
    <glyph glyph-name="Amacron" unicode="&#x100;" horiz-adv-x="549" 
d="M379 0l-27 144h-158l-27 -144h-184l184 695h216l183 -695h-187zM218 272h110l-55 293zM420 779h-290v118h290v-118z" />
    <glyph glyph-name="Aogonek" unicode="&#x104;" horiz-adv-x="549" 
d="M387 -48.5q-22 -24.5 -22 -50.5q0 -23 12.5 -34.5t34.5 -11.5t54 8l-10 -104q-32 -8 -66 -8q-64 0 -104.5 32t-40.5 88q0 54 34 92.5t95 65.5l-22 115h-158l-27 -144h-184l184 695h216l183 -695h-97q-60 -24 -82 -48.5zM218 272h110l-55 293z" />
    <glyph glyph-name="Aring" unicode="&#xc5;" horiz-adv-x="549" 
d="M379 0l-27 144h-158l-27 -144h-184l184 695h216l183 -695h-187zM218 272h110l-55 293zM375 962q37 -39 37 -98q0 -60 -37 -99t-100 -39t-100 39t-37 99q0 59 37 98t100 39t100 -39zM238 864q0 -50 37 -50t37 50t-37 50t-37 -50z" />
    <glyph glyph-name="Aringacute" unicode="&#x1fa;" horiz-adv-x="549" 
d="M379 0l-27 144h-158l-27 -144h-184l184 695h216l183 -695h-187zM218 272h110l-55 293zM374 954q37 -39 37 -98q0 -60 -37 -99t-100 -39t-100 39t-37 99q0 59 37 98t100 39t100 -39zM237 856q0 -50 37 -50t37 50t-37 50t-37 -50zM345 1211l64 -126l-226 -87l-44 85z" />
    <glyph glyph-name="uni023A" unicode="&#x23a;" horiz-adv-x="549" 
d="M400 0l-31 144h-96l-52 -219l-57 12l49 207h-36l-31 -144h-163l184 695h176l15 62l57 -13l-21 -90l172 -654h-166zM203 263h38l53 226l-21 99zM301 263h42l-20 93z" />
    <glyph glyph-name="Atilde" unicode="&#xc3;" horiz-adv-x="549" 
d="M379 0l-27 144h-158l-27 -144h-184l184 695h216l183 -695h-187zM218 272h110l-55 293zM293 765.5q-15 6.5 -32 18.5q-12 8 -20 12t-17 4q-15 0 -24.5 -9.5t-22.5 -31.5l-81 38q18 54 51 88.5t74 34.5q21 0 37 -7t33 -19q2 -1 10 -6t14.5 -7.5t12.5 -2.5q14 0 24 9.5
t22 31.5l81 -38q-18 -55 -50.5 -88.5t-75.5 -33.5q-21 0 -36 6.5z" />
    <glyph glyph-name="AE" unicode="&#xc6;" horiz-adv-x="775" 
d="M548 129h209v-129h-362l-18 144h-167l-40 -144h-195l244 695h506l-18 -128h-225l23 -154h212v-124h-193zM245 272h116l-36 292z" />
    <glyph glyph-name="AEacute" unicode="&#x1fc;" horiz-adv-x="775" 
d="M548 129h209v-129h-362l-18 144h-167l-40 -144h-195l244 695h506l-18 -128h-225l23 -154h212v-124h-193zM245 272h116l-36 292zM511 963l64 -126l-226 -87l-44 85z" />
    <glyph glyph-name="uni01E2" unicode="&#x1e2;" horiz-adv-x="775" 
d="M548 129h209v-129h-362l-18 144h-167l-40 -144h-195l244 695h506l-18 -128h-225l23 -154h212v-124h-193zM245 272h116l-36 292zM586 779h-290v118h290v-118z" />
    <glyph glyph-name="B" unicode="B" horiz-adv-x="563" 
d="M508 315.5q40 -37.5 40 -111.5q0 -110 -76.5 -157t-210.5 -47h-216v695h192q137 0 211 -43.5t74 -135.5q0 -60 -34 -97t-86 -51q66 -15 106 -52.5zM226 569v-149h32q44 0 62.5 19t18.5 59q0 36 -20 53.5t-65 17.5h-28zM337.5 148.5q25.5 19.5 25.5 66.5q0 45 -23.5 66.5
t-70.5 21.5h-43v-174h37q49 0 74.5 19.5z" />
    <glyph glyph-name="uni1E02" unicode="&#x1e02;" horiz-adv-x="563" 
d="M508 315.5q40 -37.5 40 -111.5q0 -110 -76.5 -157t-210.5 -47h-216v695h192q137 0 211 -43.5t74 -135.5q0 -60 -34 -97t-86 -51q66 -15 106 -52.5zM226 569v-149h32q44 0 62.5 19t18.5 59q0 36 -20 53.5t-65 17.5h-28zM337.5 148.5q25.5 19.5 25.5 66.5q0 45 -23.5 66.5
t-70.5 21.5h-43v-174h37q49 0 74.5 19.5zM336.5 916.5q27.5 -27.5 27.5 -68.5q0 -42 -27.5 -69t-70.5 -27t-70.5 27t-27.5 69q0 41 27.5 68.5t70.5 27.5t70.5 -27.5z" />
    <glyph glyph-name="uni1E04" unicode="&#x1e04;" horiz-adv-x="563" 
d="M508 315.5q40 -37.5 40 -111.5q0 -110 -76.5 -157t-210.5 -47h-216v695h192q137 0 211 -43.5t74 -135.5q0 -60 -34 -97t-86 -51q66 -15 106 -52.5zM226 569v-149h32q44 0 62.5 19t18.5 59q0 36 -20 53.5t-65 17.5h-28zM337.5 148.5q25.5 19.5 25.5 66.5q0 45 -23.5 66.5
t-70.5 21.5h-43v-174h37q49 0 74.5 19.5zM212.5 -222.5q-27.5 27.5 -27.5 68.5q0 42 27.5 69t70.5 27t70.5 -27t27.5 -69q0 -41 -27.5 -68.5t-70.5 -27.5t-70.5 27.5z" />
    <glyph glyph-name="uniA7B4" unicode="&#xa7b4;" horiz-adv-x="563" 
d="M508 315.5q40 -37.5 40 -110.5q0 -106 -70.5 -155.5t-172.5 -49.5q-41 0 -79 6v-219h-181v908h194q136 0 209.5 -44t73.5 -136q0 -60 -34 -96.5t-86 -50.5q66 -15 106 -52.5zM363 220q0 83 -77 83h-21l9 117h7q28 0 43 18.5t15 55.5q0 39 -19.5 57t-64.5 18h-29v-437
q22 -3 46 -3q91 0 91 91z" />
    <glyph glyph-name="uni0181" unicode="&#x181;" horiz-adv-x="716" 
d="M661 315.5q40 -37.5 40 -111.5q0 -110 -76.5 -157t-210.5 -47h-216v567h-23q-37 0 -37 -39q0 -28 16 -65l-110 -47q-20 31 -31 61t-11 66q0 71 49 111.5t134 40.5h205q137 0 211 -43.5t74 -135.5q0 -60 -34 -97t-86 -51q66 -15 106 -52.5zM379 569v-149h32q44 0 62.5 19
t18.5 59q0 36 -20 53.5t-65 17.5h-28zM490.5 148.5q25.5 19.5 25.5 66.5q0 45 -23.5 66.5t-70.5 21.5h-43v-174h37q49 0 74.5 19.5z" />
    <glyph glyph-name="uni0181.ss02" horiz-adv-x="549" 
d="M472 395q66 -55 66 -163q0 -114 -68.5 -173t-188.5 -59h-236v695h417l-17 -136h-219v-109h55q125 0 191 -55zM329.5 154q20.5 25 20.5 76q0 48 -20.5 72.5t-67.5 24.5h-36v-198h39q44 0 64.5 25z" />
    <glyph glyph-name="uni0243" unicode="&#x243;" horiz-adv-x="576" 
d="M521 315.5q40 -37.5 40 -111.5q0 -110 -76.5 -157t-210.5 -47h-216v178h-46v81h46v436h192q137 0 211 -43.5t74 -135.5q0 -60 -34 -97t-86 -51q66 -15 106 -52.5zM239 569v-149h32q44 0 62.5 19t18.5 59q0 36 -20 53.5t-65 17.5h-28zM350.5 148.5q25.5 19.5 25.5 66.5
q0 45 -23.5 66.5t-70.5 21.5h-43v-44h80v-81h-80v-49h37q49 0 74.5 19.5z" />
    <glyph glyph-name="uni0182" unicode="&#x182;" horiz-adv-x="549" 
d="M472 395q66 -55 66 -163q0 -114 -68.5 -173t-188.5 -59h-236v695h417l-17 -136h-219v-109h55q125 0 191 -55zM329.5 154q20.5 25 20.5 76q0 48 -20.5 72.5t-67.5 24.5h-36v-198h39q44 0 64.5 25z" />
    <glyph glyph-name="C" unicode="C" horiz-adv-x="530" 
d="M430.5 693q49.5 -20 91.5 -59l-84 -99q-27 22 -52.5 34t-54.5 12q-119 0 -119 -232q0 -120 31 -175t89 -55q32 0 57.5 13t59.5 40l80 -98q-38 -41 -91.5 -66.5t-118.5 -25.5q-136 0 -215.5 93.5t-79.5 273.5q0 117 37.5 199t104 123.5t153.5 41.5q62 0 111.5 -20z" />
    <glyph glyph-name="Cacute" unicode="&#x106;" horiz-adv-x="530" 
d="M430.5 693q49.5 -20 91.5 -59l-84 -99q-27 22 -52.5 34t-54.5 12q-119 0 -119 -232q0 -120 31 -175t89 -55q32 0 57.5 13t59.5 40l80 -98q-38 -41 -91.5 -66.5t-118.5 -25.5q-136 0 -215.5 93.5t-79.5 273.5q0 117 37.5 199t104 123.5t153.5 41.5q62 0 111.5 -20z
M397 963l64 -126l-226 -87l-44 85z" />
    <glyph glyph-name="Cacute.loclPLK" horiz-adv-x="530" 
d="M430.5 693q49.5 -20 91.5 -59l-84 -99q-27 22 -52.5 34t-54.5 12q-119 0 -119 -232q0 -120 31 -175t89 -55q32 0 57.5 13t59.5 40l80 -98q-38 -41 -91.5 -66.5t-118.5 -25.5q-136 0 -215.5 93.5t-79.5 273.5q0 117 37.5 199t104 123.5t153.5 41.5q62 0 111.5 -20z
M336 975l127 -71l-133 -160l-77 44z" />
    <glyph glyph-name="Ccaron" unicode="&#x10c;" horiz-adv-x="530" 
d="M430.5 693q49.5 -20 91.5 -59l-84 -99q-27 22 -52.5 34t-54.5 12q-119 0 -119 -232q0 -120 31 -175t89 -55q32 0 57.5 13t59.5 40l80 -98q-38 -41 -91.5 -66.5t-118.5 -25.5q-136 0 -215.5 93.5t-79.5 273.5q0 117 37.5 199t104 123.5t153.5 41.5q62 0 111.5 -20z
M450 949l59 -64l-130 -136h-104l-130 136l59 64l123 -84z" />
    <glyph glyph-name="Ccedilla" unicode="&#xc7;" horiz-adv-x="530" 
d="M451.5 14.5q-44.5 -24.5 -97.5 -30.5v-33q98 -14 98 -100q0 -52 -39 -85t-107 -33q-33 0 -61.5 9t-49.5 23l38 75q30 -15 59 -15q39 0 39 28q0 17 -20 24.5t-64 7.5l12 102q-110 20 -172.5 111.5t-62.5 250.5q0 117 37.5 199t104 123.5t153.5 41.5q62 0 111.5 -20
t91.5 -59l-84 -99q-27 22 -52.5 34t-54.5 12q-119 0 -119 -232q0 -120 31 -175t89 -55q32 0 57.5 13t59.5 40l80 -98q-33 -35 -77.5 -59.5z" />
    <glyph glyph-name="Ccircumflex" unicode="&#x108;" horiz-adv-x="530" 
d="M430.5 693q49.5 -20 91.5 -59l-84 -99q-27 22 -52.5 34t-54.5 12q-119 0 -119 -232q0 -120 31 -175t89 -55q32 0 57.5 13t59.5 40l80 -98q-38 -41 -91.5 -66.5t-118.5 -25.5q-136 0 -215.5 93.5t-79.5 273.5q0 117 37.5 199t104 123.5t153.5 41.5q62 0 111.5 -20z
M204 757l-59 64l130 136h104l130 -136l-59 -64l-123 84z" />
    <glyph glyph-name="Cdotaccent" unicode="&#x10a;" horiz-adv-x="530" 
d="M430.5 693q49.5 -20 91.5 -59l-84 -99q-27 22 -52.5 34t-54.5 12q-119 0 -119 -232q0 -120 31 -175t89 -55q32 0 57.5 13t59.5 40l80 -98q-38 -41 -91.5 -66.5t-118.5 -25.5q-136 0 -215.5 93.5t-79.5 273.5q0 117 37.5 199t104 123.5t153.5 41.5q62 0 111.5 -20z
M397.5 916.5q27.5 -27.5 27.5 -68.5q0 -42 -27.5 -69t-70.5 -27t-70.5 27t-27.5 69q0 41 27.5 68.5t70.5 27.5t70.5 -27.5z" />
    <glyph glyph-name="uniA7B3" unicode="&#xa7b3;" horiz-adv-x="534" 
d="M372 291l170 -460h-193l-86 340l-82 -340h-189l163 454l-152 410h193l69 -297l76 297h188z" />
    <glyph glyph-name="uni0187" unicode="&#x187;" horiz-adv-x="530" 
d="M666 820l-46 -105q-17 8 -30 12t-27 4q-22 0 -31.5 -12.5t-9.5 -40.5v-44l-78 -91q-28 18 -55 28t-58 10q-119 0 -119 -232q0 -230 121 -230q31 0 56.5 13.5t59.5 40.5l80 -99q-38 -41 -91.5 -66.5t-118.5 -25.5q-136 0 -215.5 93.5t-79.5 273.5q0 115 37 197.5
t99.5 124.5t136.5 42q44 0 77 -14q1 75 42.5 116.5t118.5 41.5q74 0 131 -37z" />
    <glyph glyph-name="uni023B" unicode="&#x23b;" horiz-adv-x="530" 
d="M529 74q-38 -41 -91.5 -66.5t-118.5 -25.5q-34 0 -64 6l-15 -63l-58 12l16 68q-83 35 -128.5 122t-45.5 222q0 117 37.5 199t104 123.5t153.5 41.5q23 0 46 -3l11 47l58 -13l-11 -48q52 -20 99 -62l-84 -99q-27 21 -46 31l-104 -438q19 -9 44 -9q32 0 57.5 13t59.5 40z
M240 180l94 401h-3q-119 0 -119 -232q0 -111 28 -169z" />
    <glyph glyph-name="D" unicode="D" horiz-adv-x="598" 
d="M412 667.5q72 -27.5 117 -103.5t45 -214q0 -194 -87 -272t-234 -78h-208v695h197q98 0 170 -27.5zM226 566v-437h38q43 0 69.5 19.5t40.5 68t14 133.5t-14.5 132.5t-41 65.5t-67.5 18h-39z" />
    <glyph glyph-name="uni01F1" unicode="&#x1f1;" horiz-adv-x="1072" 
d="M412 667.5q72 -27.5 117 -103.5t45 -214q0 -194 -87 -272t-234 -78h-208v695h197q98 0 170 -27.5zM226 566v-437h38q43 0 69.5 19.5t40.5 68t14 133.5t-14.5 132.5t-41 65.5t-67.5 18h-39zM1051 695v-136l-262 -416h269l-17 -143h-458v134l265 422h-240v139h443z" />
    <glyph glyph-name="uni01C4" unicode="&#x1c4;" horiz-adv-x="1072" 
d="M412 667.5q72 -27.5 117 -103.5t45 -214q0 -194 -87 -272t-234 -78h-208v695h197q98 0 170 -27.5zM226 566v-437h38q43 0 69.5 19.5t40.5 68t14 133.5t-14.5 132.5t-41 65.5t-67.5 18h-39zM1051 695v-136l-262 -416h269l-17 -143h-458v134l265 422h-240v139h443zM947 949
l59 -64l-130 -136h-104l-130 136l59 64l123 -84z" />
    <glyph glyph-name="uni0189" unicode="&#x189;" horiz-adv-x="615" 
d="M429 667.5q72 -27.5 117 -103.5t45 -214q0 -194 -87 -272t-234 -78h-208v300h-50v106h50v289h197q98 0 170 -27.5zM350.5 148.5q26.5 19.5 40.5 68t14 133.5t-14.5 132.5t-41 65.5t-67.5 18h-39v-160h97v-106h-97v-171h38q43 0 69.5 19.5z" />
    <glyph glyph-name="Eth" unicode="&#xd0;" horiz-adv-x="615" 
d="M429 667.5q72 -27.5 117 -103.5t45 -214q0 -194 -87 -272t-234 -78h-208v300h-50v106h50v289h197q98 0 170 -27.5zM350.5 148.5q26.5 19.5 40.5 68t14 133.5t-14.5 132.5t-41 65.5t-67.5 18h-39v-160h97v-106h-97v-171h38q43 0 69.5 19.5z" />
    <glyph glyph-name="Dcaron" unicode="&#x10e;" horiz-adv-x="598" 
d="M412 667.5q72 -27.5 117 -103.5t45 -214q0 -194 -87 -272t-234 -78h-208v695h197q98 0 170 -27.5zM226 566v-437h38q43 0 69.5 19.5t40.5 68t14 133.5t-14.5 132.5t-41 65.5t-67.5 18h-39zM389 949l59 -64l-130 -136h-104l-130 136l59 64l123 -84z" />
    <glyph glyph-name="uni1E12" unicode="&#x1e12;" horiz-adv-x="598" 
d="M412 667.5q72 -27.5 117 -103.5t45 -214q0 -194 -87 -272t-234 -78h-208v695h197q98 0 170 -27.5zM226 566v-437h38q43 0 69.5 19.5t40.5 68t14 133.5t-14.5 132.5t-41 65.5t-67.5 18h-39zM157 -271l-59 64l130 145h104l130 -145l-59 -64l-123 93z" />
    <glyph glyph-name="Dcroat" unicode="&#x110;" horiz-adv-x="615" 
d="M429 667.5q72 -27.5 117 -103.5t45 -214q0 -194 -87 -272t-234 -78h-208v300h-50v106h50v289h197q98 0 170 -27.5zM350.5 148.5q26.5 19.5 40.5 68t14 133.5t-14.5 132.5t-41 65.5t-67.5 18h-39v-160h97v-106h-97v-171h38q43 0 69.5 19.5z" />
    <glyph glyph-name="uni1E0A" unicode="&#x1e0a;" horiz-adv-x="598" 
d="M412 667.5q72 -27.5 117 -103.5t45 -214q0 -194 -87 -272t-234 -78h-208v695h197q98 0 170 -27.5zM226 566v-437h38q43 0 69.5 19.5t40.5 68t14 133.5t-14.5 132.5t-41 65.5t-67.5 18h-39zM336.5 916.5q27.5 -27.5 27.5 -68.5q0 -42 -27.5 -69t-70.5 -27t-70.5 27
t-27.5 69q0 41 27.5 68.5t70.5 27.5t70.5 -27.5z" />
    <glyph glyph-name="uni1E0C" unicode="&#x1e0c;" horiz-adv-x="598" 
d="M412 667.5q72 -27.5 117 -103.5t45 -214q0 -194 -87 -272t-234 -78h-208v695h197q98 0 170 -27.5zM226 566v-437h38q43 0 69.5 19.5t40.5 68t14 133.5t-14.5 132.5t-41 65.5t-67.5 18h-39zM211.5 -222.5q-27.5 27.5 -27.5 68.5q0 42 27.5 69t70.5 27t70.5 -27t27.5 -69
q0 -41 -27.5 -68.5t-70.5 -27.5t-70.5 27.5z" />
    <glyph glyph-name="uni018A" unicode="&#x18a;" horiz-adv-x="751" 
d="M565 667.5q72 -27.5 117 -103.5t45 -214q0 -194 -87 -272t-234 -78h-208v567h-23q-37 0 -37 -39q0 -28 16 -65l-110 -47q-20 31 -31 61t-11 66q0 71 49 111.5t134 40.5h210q98 0 170 -27.5zM486.5 148.5q26.5 19.5 40.5 68t14 133.5t-14.5 132.5t-41 65.5t-67.5 18h-39
v-437h38q43 0 69.5 19.5z" />
    <glyph glyph-name="uni1E0E" unicode="&#x1e0e;" horiz-adv-x="598" 
d="M412 667.5q72 -27.5 117 -103.5t45 -214q0 -194 -87 -272t-234 -78h-208v695h197q98 0 170 -27.5zM226 566v-437h38q43 0 69.5 19.5t40.5 68t14 133.5t-14.5 132.5t-41 65.5t-67.5 18h-39zM427 -195h-290v118h290v-118z" />
    <glyph glyph-name="uni018B" unicode="&#x18b;" horiz-adv-x="549" 
d="M505 0h-234q-124 0 -192 56t-68 170q0 108 67 166t193 58h53v109h-230v136h411v-695zM324 129v198h-34q-49 0 -70 -25t-21 -76q0 -50 21 -73.5t66 -23.5h38z" />
    <glyph glyph-name="uni01F2" unicode="&#x1f2;" horiz-adv-x="1013" 
d="M412 667.5q72 -27.5 117 -103.5t45 -214q0 -194 -87 -272t-234 -78h-208v695h197q98 0 170 -27.5zM226 566v-437h38q43 0 69.5 19.5t40.5 68t14 133.5t-14.5 132.5t-41 65.5t-67.5 18h-39zM998 533v-122l-207 -281h212l-14 -130h-394v122l208 282h-189v129h384z" />
    <glyph glyph-name="uni01C5" unicode="&#x1c5;" horiz-adv-x="1013" 
d="M412 667.5q72 -27.5 117 -103.5t45 -214q0 -194 -87 -272t-234 -78h-208v695h197q98 0 170 -27.5zM226 566v-437h38q43 0 69.5 19.5t40.5 68t14 133.5t-14.5 132.5t-41 65.5t-67.5 18h-39zM998 533v-122l-207 -281h212l-14 -130h-394v122l208 282h-189v129h384zM929 818
l59 -65l-130 -145h-104l-130 145l59 65l123 -94z" />
    <glyph glyph-name="E" unicode="E" horiz-adv-x="472" 
d="M453 695l-19 -128h-208v-152h183v-125h-183v-161h222v-129h-403v695h408z" />
    <glyph glyph-name="Eacute" unicode="&#xc9;" horiz-adv-x="472" 
d="M453 695l-19 -128h-208v-152h183v-125h-183v-161h222v-129h-403v695h408zM319 963l64 -126l-226 -87l-44 85z" />
    <glyph glyph-name="Ebreve" unicode="&#x114;" horiz-adv-x="472" 
d="M453 695l-19 -128h-208v-152h183v-125h-183v-161h222v-129h-403v695h408zM132 797.5q-42 48.5 -48 122.5l91 17q17 -69 74 -69q29 0 47.5 18.5t26.5 50.5l91 -17q-6 -74 -48 -122.5t-117 -48.5t-117 48.5z" />
    <glyph glyph-name="Ecaron" unicode="&#x11a;" horiz-adv-x="472" 
d="M453 695l-19 -128h-208v-152h183v-125h-183v-161h222v-129h-403v695h408zM372 949l59 -64l-130 -136h-104l-130 136l59 64l123 -84z" />
    <glyph glyph-name="uni0228" unicode="&#x228;" horiz-adv-x="472" 
d="M226 129h222v-129h-159v-49q98 -14 98 -100q0 -52 -39 -85t-107 -33q-33 0 -61.5 9t-49.5 23l38 75q30 -15 59 -15q39 0 39 28q0 17 -20 24.5t-64 7.5l13 115h-150v695h408l-19 -128h-208v-152h183v-125h-183v-161z" />
    <glyph glyph-name="Ecircumflex" unicode="&#xca;" horiz-adv-x="472" 
d="M453 695l-19 -128h-208v-152h183v-125h-183v-161h222v-129h-403v695h408zM126 757l-59 64l130 136h104l130 -136l-59 -64l-123 84z" />
    <glyph glyph-name="uni1EBE" unicode="&#x1ebe;" horiz-adv-x="472" 
d="M453 695l-19 -128h-208v-152h183v-125h-183v-161h222v-129h-403v695h408zM126 726l-59 64l130 136h104l130 -136l-59 -64l-123 84zM472 1111l97 -88l-158 -147l-65 56z" />
    <glyph glyph-name="uni1EC6" unicode="&#x1ec6;" horiz-adv-x="472" 
d="M453 695l-19 -128h-208v-152h183v-125h-183v-161h222v-129h-403v695h408zM126 757l-59 64l130 136h104l130 -136l-59 -64l-123 84zM175.5 -222.5q-27.5 27.5 -27.5 68.5q0 42 27.5 69t70.5 27t70.5 -27t27.5 -69q0 -41 -27.5 -68.5t-70.5 -27.5t-70.5 27.5z" />
    <glyph glyph-name="uni1EC0" unicode="&#x1ec0;" horiz-adv-x="472" 
d="M453 695l-19 -128h-208v-152h183v-125h-183v-161h222v-129h-403v695h408zM125 726l-59 64l130 136h104l130 -136l-59 -64l-123 84zM27 1111l127 -179l-66 -56l-158 147z" />
    <glyph glyph-name="uni1EC2" unicode="&#x1ec2;" horiz-adv-x="472" 
d="M453 695l-19 -128h-208v-152h183v-125h-183v-161h222v-129h-403v695h408zM125 726l-59 64l130 136h104l130 -136l-59 -64l-123 84zM366 957q35 2 49.5 10t14.5 27q0 14 -9 21.5t-24 7.5q-16 0 -27.5 -3t-28.5 -9l-26 69q44 26 105 26q58 0 89 -28.5t31 -75.5
q0 -39 -19.5 -63t-57.5 -32v-41h-97v91z" />
    <glyph glyph-name="uni1EC4" unicode="&#x1ec4;" horiz-adv-x="472" 
d="M453 695l-19 -128h-208v-152h183v-125h-183v-161h222v-129h-403v695h408zM124 726l-59 64l130 136h104l130 -136l-59 -64l-123 84zM265 962q-15 6 -32 17q-2 1 -14 7.5t-23 6.5q-15 0 -24.5 -8.5t-22.5 -28.5l-81 35q18 50 51 81.5t74 31.5q21 0 37 -6.5t33 -17.5
q9 -6 18.5 -10.5t18.5 -4.5q14 0 24 9t22 29l81 -35q-18 -51 -50.5 -81.5t-75.5 -30.5q-21 0 -36 6z" />
    <glyph glyph-name="uni0204" unicode="&#x204;" horiz-adv-x="472" 
d="M453 695l-19 -128h-208v-152h183v-125h-183v-161h222v-129h-403v695h408zM126 992l91 -203l-82 -40l-117 187zM295 992l85 -204l-85 -35l-110 187z" />
    <glyph glyph-name="Edieresis" unicode="&#xcb;" horiz-adv-x="472" 
d="M453 695l-19 -128h-208v-152h183v-125h-183v-161h222v-129h-403v695h408zM200 908q24 -24 24 -59q0 -36 -24 -60.5t-60 -24.5q-35 0 -59.5 24.5t-24.5 60.5q0 35 24.5 59t59.5 24q36 0 60 -24zM419 908q24 -24 24 -59q0 -36 -24 -60.5t-60 -24.5q-35 0 -59.5 24.5
t-24.5 60.5q0 35 24.5 59t59.5 24q36 0 60 -24z" />
    <glyph glyph-name="Edotaccent" unicode="&#x116;" horiz-adv-x="472" 
d="M453 695l-19 -128h-208v-152h183v-125h-183v-161h222v-129h-403v695h408zM319.5 916.5q27.5 -27.5 27.5 -68.5q0 -42 -27.5 -69t-70.5 -27t-70.5 27t-27.5 69q0 41 27.5 68.5t70.5 27.5t70.5 -27.5z" />
    <glyph glyph-name="uni1EB8" unicode="&#x1eb8;" horiz-adv-x="472" 
d="M453 695l-19 -128h-208v-152h183v-125h-183v-161h222v-129h-403v695h408zM175.5 -222.5q-27.5 27.5 -27.5 68.5q0 42 27.5 69t70.5 27t70.5 -27t27.5 -69q0 -41 -27.5 -68.5t-70.5 -27.5t-70.5 27.5z" />
    <glyph glyph-name="Egrave" unicode="&#xc8;" horiz-adv-x="472" 
d="M453 695l-19 -128h-208v-152h183v-125h-183v-161h222v-129h-403v695h408zM177 962l206 -127l-44 -85l-226 87z" />
    <glyph glyph-name="uni1EBA" unicode="&#x1eba;" horiz-adv-x="472" 
d="M453 695l-19 -128h-208v-152h183v-125h-183v-161h222v-129h-403v695h408zM200 855q35 2 49.5 10t14.5 27q0 14 -9 21.5t-24 7.5q-16 0 -27.5 -3t-28.5 -9l-26 69q44 26 105 26q58 0 89 -28.5t31 -75.5q0 -39 -19.5 -63t-57.5 -32v-41h-97v91z" />
    <glyph glyph-name="uni0206" unicode="&#x206;" horiz-adv-x="472" 
d="M453 695l-19 -128h-208v-152h183v-125h-183v-161h222v-129h-403v695h408zM366.5 908q41.5 -50 47.5 -132l-91 -16q-16 80 -74 80t-74 -80l-91 16q6 82 47.5 132t117.5 50t117.5 -50z" />
    <glyph glyph-name="Emacron" unicode="&#x112;" horiz-adv-x="472" 
d="M453 695l-19 -128h-208v-152h183v-125h-183v-161h222v-129h-403v695h408zM394 779h-290v118h290v-118z" />
    <glyph glyph-name="Eogonek" unicode="&#x118;" horiz-adv-x="472" 
d="M226 129h222v-129h-35q-60 -24 -82 -48.5t-22 -50.5q0 -23 12.5 -34.5t34.5 -11.5t54 8l-10 -104q-32 -8 -66 -8q-64 0 -104.5 32t-40.5 88q0 78 76 129h-220v695h408l-19 -128h-208v-152h183v-125h-183v-161z" />
    <glyph glyph-name="uni0190" unicode="&#x190;" horiz-adv-x="497" 
d="M386 690q53 -23 98 -70l-83 -88q-57 52 -110 52q-39 0 -56.5 -20.5t-17.5 -54.5q0 -80 85 -80h68l-21 -127h-48q-49 0 -73.5 -25t-24.5 -70q0 -47 23.5 -70.5t65.5 -23.5q33 0 60.5 13.5t58.5 43.5l94 -90q-85 -98 -233 -98q-75 0 -133.5 25.5t-91.5 73.5t-33 113
q0 77 43 120.5t124 52.5q-76 17 -112 59t-36 103q0 53 30 95t83 65.5t121 23.5q66 0 119 -23z" />
    <glyph glyph-name="uni018E" unicode="&#x18e;" horiz-adv-x="472" 
d="M28 695h399v-695h-403v129h222v161h-183v125h183v152h-218v128z" />
    <glyph glyph-name="uni01A9" unicode="&#x1a9;" horiz-adv-x="453" 
d="M443 695v-130h-244l145 -190v-67l-149 -176h248v-132h-433v129l171 211l-171 226v129h433z" />
    <glyph glyph-name="uni0246" unicode="&#x246;" horiz-adv-x="472" 
d="M322 290l-36 -161h162v-129h-191l-17 -75l-58 12l14 63h-151v695h308l14 62l58 -12l-11 -50h39l-19 -128h-49l-34 -152h58v-125h-87zM226 567v-152h64l34 152h-98zM226 290v-158l36 158h-36z" />
    <glyph glyph-name="uni1EBC" unicode="&#x1ebc;" horiz-adv-x="472" 
d="M453 695l-19 -128h-208v-152h183v-125h-183v-161h222v-129h-403v695h408zM267 765.5q-15 6.5 -32 18.5q-12 8 -20 12t-17 4q-15 0 -24.5 -9.5t-22.5 -31.5l-81 38q18 54 51 88.5t74 34.5q21 0 37 -7t33 -19q2 -1 10 -6t14.5 -7.5t12.5 -2.5q14 0 24 9.5t22 31.5l81 -38
q-18 -55 -50.5 -88.5t-75.5 -33.5q-21 0 -36 6.5z" />
    <glyph glyph-name="uni01B7" unicode="&#x1b7;" horiz-adv-x="505" 
d="M442 347q49 -51 49 -140q0 -64 -31 -115t-90 -80.5t-141 -29.5q-78 0 -133.5 27t-95.5 78l92 85q32 -31 59.5 -44.5t63.5 -13.5q43 0 66.5 26t23.5 75q0 46 -25.5 67t-75.5 21h-90v98l152 165h-226v129h414v-125l-154 -166q93 -6 142 -57z" />
    <glyph glyph-name="uni01EE" unicode="&#x1ee;" horiz-adv-x="505" 
d="M442 347q49 -51 49 -140q0 -64 -31 -115t-90 -80.5t-141 -29.5q-78 0 -133.5 27t-95.5 78l92 85q32 -31 59.5 -44.5t63.5 -13.5q43 0 66.5 26t23.5 75q0 46 -25.5 67t-75.5 21h-90v98l152 165h-226v129h414v-125l-154 -166q93 -6 142 -57zM370 949l59 -64l-130 -136h-104
l-130 136l59 64l123 -84z" />
    <glyph glyph-name="uni01B8" unicode="&#x1b8;" horiz-adv-x="505" 
d="M505 87q-41 -51 -97.5 -78t-134.5 -27q-81 0 -139.5 29t-89.5 79.5t-31 114.5q0 87 50.5 139.5t142.5 59.5l-155 166v125h414v-129h-225l151 -166v-97h-90q-101 0 -101 -94q0 -46 22.5 -70.5t63.5 -24.5q37 0 66 13.5t61 44.5z" />
    <glyph glyph-name="F" unicode="F" horiz-adv-x="441" 
d="M45 0v695h394l-18 -128h-195v-171h171v-128h-171v-268h-181z" />
    <glyph glyph-name="uni1E1E" unicode="&#x1e1e;" horiz-adv-x="441" 
d="M45 0v695h394l-18 -128h-195v-171h171v-128h-171v-268h-181zM321.5 916.5q27.5 -27.5 27.5 -68.5q0 -42 -27.5 -69t-70.5 -27t-70.5 27t-27.5 69q0 41 27.5 68.5t70.5 27.5t70.5 -27.5z" />
    <glyph glyph-name="uni0191" unicode="&#x191;" horiz-adv-x="441" 
d="M226 567v-171h171v-128h-171v-300q0 -95 -55 -143.5t-148 -48.5q-86 0 -142 44l58 103q18 -9 30.5 -13t29.5 -4q45 0 45 51v44h1v694h394l-18 -128h-195z" />
    <glyph glyph-name="G" unicode="G" horiz-adv-x="594" 
d="M559 625l-87 -90q-33 26 -61 37.5t-63 11.5q-68 0 -102.5 -54.5t-34.5 -182.5q0 -92 11 -143t34 -71.5t62 -20.5q37 0 70 19v147h-68l-17 125h256v-346q-50 -35 -113.5 -55t-123.5 -20q-153 0 -225.5 90.5t-72.5 275.5q0 119 41 201t112 123t161 41q130 0 221 -88z" />
    <glyph glyph-name="uni01F4" unicode="&#x1f4;" horiz-adv-x="594" 
d="M559 625l-87 -90q-33 26 -61 37.5t-63 11.5q-68 0 -102.5 -54.5t-34.5 -182.5q0 -92 11 -143t34 -71.5t62 -20.5q37 0 70 19v147h-68l-17 125h256v-346q-50 -35 -113.5 -55t-123.5 -20q-153 0 -225.5 90.5t-72.5 275.5q0 119 41 201t112 123t161 41q130 0 221 -88z
M390 963l64 -126l-226 -87l-44 85z" />
    <glyph glyph-name="uni0194" unicode="&#x194;" horiz-adv-x="529" 
d="M357 98q32 -56 47 -101t15 -91q0 -130 -151 -130q-77 0 -114 34.5t-37 95.5q0 41 14.5 84t48.5 108l-197 597h186l98 -483l98 483h181zM286.5 -46q-5.5 19 -18.5 52q-25 -60 -25 -90t25 -30q24 0 24 31q0 18 -5.5 37z" />
    <glyph glyph-name="Gbreve" unicode="&#x11e;" horiz-adv-x="594" 
d="M559 625l-87 -90q-33 26 -61 37.5t-63 11.5q-68 0 -102.5 -54.5t-34.5 -182.5q0 -92 11 -143t34 -71.5t62 -20.5q37 0 70 19v147h-68l-17 125h256v-346q-50 -35 -113.5 -55t-123.5 -20q-153 0 -225.5 90.5t-72.5 275.5q0 119 41 201t112 123t161 41q130 0 221 -88z
M203 797.5q-42 48.5 -48 122.5l91 17q17 -69 74 -69q29 0 47.5 18.5t26.5 50.5l91 -17q-6 -74 -48 -122.5t-117 -48.5t-117 48.5z" />
    <glyph glyph-name="Gcaron" unicode="&#x1e6;" horiz-adv-x="594" 
d="M559 625l-87 -90q-33 26 -61 37.5t-63 11.5q-68 0 -102.5 -54.5t-34.5 -182.5q0 -92 11 -143t34 -71.5t62 -20.5q37 0 70 19v147h-68l-17 125h256v-346q-50 -35 -113.5 -55t-123.5 -20q-153 0 -225.5 90.5t-72.5 275.5q0 119 41 201t112 123t161 41q130 0 221 -88z
M443 949l59 -64l-130 -136h-104l-130 136l59 64l123 -84z" />
    <glyph glyph-name="Gcircumflex" unicode="&#x11c;" horiz-adv-x="594" 
d="M559 625l-87 -90q-33 26 -61 37.5t-63 11.5q-68 0 -102.5 -54.5t-34.5 -182.5q0 -92 11 -143t34 -71.5t62 -20.5q37 0 70 19v147h-68l-17 125h256v-346q-50 -35 -113.5 -55t-123.5 -20q-153 0 -225.5 90.5t-72.5 275.5q0 119 41 201t112 123t161 41q130 0 221 -88z
M197 757l-59 64l130 136h104l130 -136l-59 -64l-123 84z" />
    <glyph glyph-name="Gcommaaccent" unicode="&#x122;" horiz-adv-x="594" 
d="M559 625l-87 -90q-33 26 -61 37.5t-63 11.5q-68 0 -102.5 -54.5t-34.5 -182.5q0 -92 11 -143t34 -71.5t62 -20.5q37 0 70 19v147h-68l-17 125h256v-346q-50 -35 -113.5 -55t-123.5 -20q-153 0 -225.5 90.5t-72.5 275.5q0 119 41 201t112 123t161 41q130 0 221 -88z
M379 -88.5q23 -23.5 23 -59.5q0 -19 -5.5 -36t-19.5 -50l-44 -98h-83l26 115q-37 26 -37 69q0 34 23 58.5t58 24.5q36 0 59 -23.5z" />
    <glyph glyph-name="Gdotaccent" unicode="&#x120;" horiz-adv-x="594" 
d="M559 625l-87 -90q-33 26 -61 37.5t-63 11.5q-68 0 -102.5 -54.5t-34.5 -182.5q0 -92 11 -143t34 -71.5t62 -20.5q37 0 70 19v147h-68l-17 125h256v-346q-50 -35 -113.5 -55t-123.5 -20q-153 0 -225.5 90.5t-72.5 275.5q0 119 41 201t112 123t161 41q130 0 221 -88z
M390.5 916.5q27.5 -27.5 27.5 -68.5q0 -42 -27.5 -69t-70.5 -27t-70.5 27t-27.5 69q0 41 27.5 68.5t70.5 27.5t70.5 -27.5z" />
    <glyph glyph-name="uni0193" unicode="&#x193;" horiz-adv-x="566" 
d="M703 820l-46 -105q-17 8 -30 12t-27 4q-22 0 -31.5 -12.5t-9.5 -40.5v-53l-81 -84q-35 22 -65 32.5t-65 10.5q-68 0 -102.5 -54.5t-34.5 -182.5q0 -92 11 -143t34 -71.5t62 -20.5q37 0 70 19v147h-68l-17 125h256v-346q-50 -35 -113 -55t-125 -20q-152 0 -224.5 90.5
t-72.5 275.5q0 118 40 200.5t107.5 123.5t148.5 41q48 0 90 -17q0 77 42 119t120 42q74 0 131 -37z" />
    <glyph glyph-name="uni0241" unicode="&#x241;" horiz-adv-x="474" 
d="M130 333l41 14q56 18 79 49t23 88q0 46 -20.5 73t-56.5 27q-29 0 -55 -12t-57 -39l-85 86q91 94 223 94q73 0 126.5 -27.5t82.5 -77.5t29 -117q0 -81 -30.5 -125t-94.5 -72l-25 -11v-283h-181z" />
    <glyph glyph-name="uni01E4" unicode="&#x1e4;" horiz-adv-x="615" 
d="M619 177h-60v-120q-51 -35 -113.5 -55t-124.5 -20q-152 0 -224.5 90.5t-72.5 275.5q0 118 40.5 200t111.5 123.5t162 41.5q130 0 221 -88l-88 -92q-34 27 -61.5 39t-61.5 12q-67 0 -102 -56t-35 -181q0 -91 11.5 -142t34.5 -72t63 -21q39 0 84 21v44h-89v95h89v45h-86
l-15 105h256v-150h60v-95z" />
    <glyph glyph-name="uni021C" unicode="&#x21c;" horiz-adv-x="476" 
d="M335.5 689q51.5 -24 80 -66.5t28.5 -98.5q0 -135 -154 -167q86 -9 128.5 -48t42.5 -115q0 -106 -96 -187.5t-302 -122.5l-14 131q90 28 138.5 56t67.5 59t19 73q0 45 -25 67t-78 22h-64l20 127h47q85 0 85 85q0 80 -69 80q-52 0 -118 -52l-80 88q90 93 224 93
q68 0 119.5 -24z" />
    <glyph glyph-name="H" unicode="H" horiz-adv-x="599" 
d="M374 0v290h-148v-290h-181v695h181v-265h148v265h181v-695h-181z" />
    <glyph glyph-name="Hbar" unicode="&#x126;" horiz-adv-x="612" 
d="M606 595v-97h-45v-498h-181v290h-148v-290h-181v498h-45v97h45v100h181v-100h148v100h181v-100h45zM380 430v68h-148v-68h148z" />
    <glyph glyph-name="uni021E" unicode="&#x21e;" horiz-adv-x="599" 
d="M374 0v290h-148v-290h-181v695h181v-265h148v265h181v-695h-181zM423 949l59 -64l-130 -136h-104l-130 136l59 64l123 -84z" />
    <glyph glyph-name="Hcircumflex" unicode="&#x124;" horiz-adv-x="599" 
d="M374 0v290h-148v-290h-181v695h181v-265h148v265h181v-695h-181zM177 757l-59 64l130 136h104l130 -136l-59 -64l-123 84z" />
    <glyph glyph-name="uni1E24" unicode="&#x1e24;" horiz-adv-x="599" 
d="M374 0v290h-148v-290h-181v695h181v-265h148v265h181v-695h-181zM229.5 -222.5q-27.5 27.5 -27.5 68.5q0 42 27.5 69t70.5 27t70.5 -27t27.5 -69q0 -41 -27.5 -68.5t-70.5 -27.5t-70.5 27.5z" />
    <glyph glyph-name="uniA7AA" unicode="&#xa7aa;" horiz-adv-x="752" 
d="M708 695v-695h-181v290h-148v-290h-181v567h-23q-37 0 -37 -39q0 -28 16 -65l-110 -47q-20 31 -31 61t-11 66q0 71 49 111.5t134 40.5h194v-265h148v265h181z" />
    <glyph glyph-name="uniA78D" unicode="&#xa78d;" horiz-adv-x="566" 
d="M521 695v-695h-181v250q-28 -25 -60 -37.5t-73 -12.5q-90 0 -142.5 59.5t-52.5 165.5v270h178v-260q0 -56 17.5 -80t55.5 -24q47 0 77 33v331h181z" />
    <glyph glyph-name="uniA78D.ss02" horiz-adv-x="543" 
d="M317 0v239h-302v456h181v-316h121v316h181v-695h-181z" />
    <glyph glyph-name="uni01F6" unicode="&#x1f6;" horiz-adv-x="855" 
d="M820 389q7 -66 7 -139q0 -140 -71 -204t-176 -64q-92 0 -149 48.5t-57 143.5v116h-148v-290h-181v695h181v-265h148v265h181v-525q0 -34 9.5 -48t29.5 -14q27 0 43 34.5t16 117.5q0 110 -23 273h170q13 -78 20 -144z" />
    <glyph glyph-name="I" unicode="I" horiz-adv-x="270" 
d="M226 695v-695h-181v695h181z" />
    <glyph glyph-name="IJ" unicode="&#x132;" horiz-adv-x="564" 
d="M226 695v-695h-181v695h181zM522 108q0 -86 -31 -142t-78.5 -88t-112.5 -55l-48 127q39 17 58 38.5t25 50t6 75.5v581h181v-587z" />
    <glyph glyph-name="Iacute" unicode="&#xcd;" horiz-adv-x="270" 
d="M226 695v-695h-181v695h181zM205 963l64 -126l-226 -87l-44 85z" />
    <glyph glyph-name="Ibreve" unicode="&#x12c;" horiz-adv-x="270" 
d="M226 695v-695h-181v695h181zM18 797.5q-42 48.5 -48 122.5l91 17q17 -69 74 -69q29 0 47.5 18.5t26.5 50.5l91 -17q-6 -74 -48 -122.5t-117 -48.5t-117 48.5z" />
    <glyph glyph-name="uni01CF" unicode="&#x1cf;" horiz-adv-x="270" 
d="M226 695v-695h-181v695h181zM258 949l59 -64l-130 -136h-104l-130 136l59 64l123 -84z" />
    <glyph glyph-name="Icircumflex" unicode="&#xce;" horiz-adv-x="270" 
d="M226 695v-695h-181v695h181zM12 757l-59 64l130 136h104l130 -136l-59 -64l-123 84z" />
    <glyph glyph-name="uni0208" unicode="&#x208;" horiz-adv-x="270" 
d="M226 695v-695h-181v695h181zM12 992l91 -203l-82 -40l-117 187zM181 992l85 -204l-85 -35l-110 187z" />
    <glyph glyph-name="Idieresis" unicode="&#xcf;" horiz-adv-x="270" 
d="M226 695v-695h-181v695h181zM86 908q24 -24 24 -59q0 -36 -24 -60.5t-60 -24.5q-35 0 -59.5 24.5t-24.5 60.5q0 35 24.5 59t59.5 24q36 0 60 -24zM305 908q24 -24 24 -59q0 -36 -24 -60.5t-60 -24.5q-35 0 -59.5 24.5t-24.5 60.5q0 35 24.5 59t59.5 24q36 0 60 -24z" />
    <glyph glyph-name="uni1E2E" unicode="&#x1e2e;" horiz-adv-x="270" 
d="M226 695v-695h-181v695h181zM198 1116l97 -88l-158 -147l-65 56zM76 892.5q24 -24.5 24 -59.5q0 -36 -24 -60.5t-60 -24.5t-60 24.5t-24 60.5q0 35 24 59.5t60 24.5t60 -24.5zM312 893q24 -24 24 -60t-24 -60.5t-60 -24.5q-35 0 -59.5 24.5t-24.5 60.5q0 35 24.5 59.5
t59.5 24.5q36 0 60 -24z" />
    <glyph glyph-name="Idotaccent" unicode="&#x130;" horiz-adv-x="270" 
d="M226 695v-695h-181v695h181zM205.5 916.5q27.5 -27.5 27.5 -68.5q0 -42 -27.5 -69t-70.5 -27t-70.5 27t-27.5 69q0 41 27.5 68.5t70.5 27.5t70.5 -27.5z" />
    <glyph glyph-name="uni1ECA" unicode="&#x1eca;" horiz-adv-x="270" 
d="M226 695v-695h-181v695h181zM64.5 -222.5q-27.5 27.5 -27.5 68.5q0 42 27.5 69t70.5 27t70.5 -27t27.5 -69q0 -41 -27.5 -68.5t-70.5 -27.5t-70.5 27.5z" />
    <glyph glyph-name="Igrave" unicode="&#xcc;" horiz-adv-x="270" 
d="M226 695v-695h-181v695h181zM63 962l206 -127l-44 -85l-226 87z" />
    <glyph glyph-name="uni1EC8" unicode="&#x1ec8;" horiz-adv-x="270" 
d="M226 695v-695h-181v695h181zM86 855q35 2 49.5 10t14.5 27q0 14 -9 21.5t-24 7.5q-16 0 -27.5 -3t-28.5 -9l-26 69q44 26 105 26q58 0 89 -28.5t31 -75.5q0 -39 -19.5 -63t-57.5 -32v-41h-97v91z" />
    <glyph glyph-name="uni020A" unicode="&#x20a;" horiz-adv-x="270" 
d="M226 695v-695h-181v695h181zM252.5 908q41.5 -50 47.5 -132l-91 -16q-16 80 -74 80t-74 -80l-91 16q6 82 47.5 132t117.5 50t117.5 -50z" />
    <glyph glyph-name="Imacron" unicode="&#x12a;" horiz-adv-x="270" 
d="M226 695v-695h-181v695h181zM280 779h-290v118h290v-118z" />
    <glyph glyph-name="Iogonek" unicode="&#x12e;" horiz-adv-x="270" 
d="M226 695v-695h-41q-60 -24 -82 -48.5t-22 -50.5q0 -23 12.5 -34.5t34.5 -11.5t54 8l-10 -104q-32 -8 -66 -8q-64 0 -104.5 32t-40.5 88q0 82 84 135v689h181z" />
    <glyph glyph-name="uni0196" unicode="&#x196;" horiz-adv-x="368" 
d="M379 26q-56 -44 -142 -44q-93 0 -148 48.5t-55 143.5v33h1v488h181v-532q0 -51 45 -51q17 0 29.5 4t30.5 13z" />
    <glyph glyph-name="uni0197" unicode="&#x197;" horiz-adv-x="309" 
d="M306 426v-132h-61v-294h-181v294h-62v132h62v269h181v-269h61z" />
    <glyph glyph-name="Itilde" unicode="&#x128;" horiz-adv-x="270" 
d="M226 695v-695h-181v695h181zM153 765.5q-15 6.5 -32 18.5q-12 8 -20 12t-17 4q-15 0 -24.5 -9.5t-22.5 -31.5l-81 38q18 54 51 88.5t74 34.5q21 0 37 -7t33 -19q2 -1 10 -6t14.5 -7.5t12.5 -2.5q14 0 24 9.5t22 31.5l81 -38q-18 -55 -50.5 -88.5t-75.5 -33.5
q-21 0 -36 6.5z" />
    <glyph glyph-name="J" unicode="J" horiz-adv-x="294" 
d="M252 108q0 -86 -31 -142t-78.5 -88t-112.5 -55l-48 127q39 17 58 38.5t25 50t6 75.5v581h181v-587z" />
    <glyph glyph-name="Jcircumflex" unicode="&#x134;" horiz-adv-x="294" 
d="M252 108q0 -86 -31 -142t-78.5 -88t-112.5 -55l-48 127q39 17 58 38.5t25 50t6 75.5v581h181v-587zM38 757l-59 64l130 136h104l130 -136l-59 -64l-123 84z" />
    <glyph glyph-name="uniA7B2" unicode="&#xa7b2;" horiz-adv-x="338" 
d="M355 -112q-31 17 -76 32q-40 -144 -211 -144q-70 0 -108 32t-38 88q0 62 41 95.5t117 33.5q23 0 31 -1v671h181v-669q0 -17 -1 -25q49 -15 97 -44zM99 -118q12 19 12 64q-7 1 -32 1q-31 0 -45 -11t-14 -34q0 -39 38 -39q29 0 41 19z" />
    <glyph glyph-name="uni0248" unicode="&#x248;" horiz-adv-x="315" 
d="M313 276h-61v-168q0 -86 -31 -142t-78.5 -88t-112.5 -55l-48 127q39 17 58 38.5t25 50t6 75.5v162h-62v134h62v285h181v-285h61v-134z" />
    <glyph glyph-name="K" unicode="K" horiz-adv-x="595" 
d="M226 695v-695h-181v695h181zM595 695l-182 -311l198 -384h-201l-179 370l182 325h182z" />
    <glyph glyph-name="uni01E8" unicode="&#x1e8;" horiz-adv-x="595" 
d="M226 695v-695h-181v695h181zM595 695l-182 -311l198 -384h-201l-179 370l182 325h182zM423 949l59 -64l-130 -136h-104l-130 136l59 64l123 -84z" />
    <glyph glyph-name="Kcommaaccent" unicode="&#x136;" horiz-adv-x="595" 
d="M226 695v-695h-181v695h181zM595 695l-182 -311l198 -384h-201l-179 370l182 325h182zM359 -88.5q23 -23.5 23 -59.5q0 -19 -5.5 -36t-19.5 -50l-44 -98h-83l26 115q-37 26 -37 69q0 34 23 58.5t58 24.5q36 0 59 -23.5z" />
    <glyph glyph-name="uni0198" unicode="&#x198;" horiz-adv-x="607" 
d="M231 370l101 207q36 74 73.5 105t103.5 31q63 0 114 -36l-44 -101q-20 10 -38 10t-29.5 -9.5t-24.5 -36.5l-77 -156l201 -384h-201zM226 695v-695h-181v695h181z" />
    <glyph glyph-name="L" unicode="L" horiz-adv-x="470" 
d="M226 695v-554h237l-19 -141h-399v695h181z" />
    <glyph glyph-name="uni01C7" unicode="&#x1c7;" horiz-adv-x="740" 
d="M226 695v-554h237l-19 -141h-399v695h181zM698 108q0 -86 -31 -142t-78.5 -88t-112.5 -55l-48 127q39 17 58 38.5t25 50t6 75.5v581h181v-587z" />
    <glyph glyph-name="Lacute" unicode="&#x139;" horiz-adv-x="470" 
d="M226 695v-554h237l-19 -141h-399v695h181zM205 963l64 -126l-226 -87l-44 85z" />
    <glyph glyph-name="uni023D" unicode="&#x23d;" horiz-adv-x="489" 
d="M245 141h237l-19 -141h-399v296h-62v134h62v265h181v-265h61v-134h-61v-155z" />
    <glyph glyph-name="uniA7AD" unicode="&#xa7ad;" horiz-adv-x="582" 
d="M575 141l-19 -141h-399v251q-80 2 -118.5 38t-38.5 96q0 57 33.5 88.5t87.5 31.5q21 0 36 -5v195h181v-345q48 3 106 14l14 -92q-62 -14 -120 -18v-113h237zM157 347v67q-12 3 -21 3q-28 0 -28 -30q0 -40 49 -40z" />
    <glyph glyph-name="Lcaron" unicode="&#x13d;" horiz-adv-x="470" 
d="M226 695v-554h237l-19 -141h-399v695h181zM352 471l52 223l-124 18l-23 -227z" />
    <glyph glyph-name="uni1E3C" unicode="&#x1e3c;" horiz-adv-x="470" 
d="M226 695v-554h237l-19 -141h-399v695h181zM120 -271l-59 64l130 145h104l130 -145l-59 -64l-123 93z" />
    <glyph glyph-name="Lcommaaccent" unicode="&#x13b;" horiz-adv-x="470" 
d="M226 695v-554h237l-19 -141h-399v695h181zM304 -88.5q23 -23.5 23 -59.5q0 -19 -5.5 -36t-19.5 -50l-44 -98h-83l26 115q-37 26 -37 69q0 34 23 58.5t58 24.5q36 0 59 -23.5z" />
    <glyph glyph-name="Ldot" unicode="&#x13f;" horiz-adv-x="470" 
d="M226 695v-554h237l-19 -141h-399v695h181zM436.5 471.5q27.5 -27.5 27.5 -68.5q0 -42 -27.5 -69t-70.5 -27t-70.5 27t-27.5 69q0 41 27.5 68.5t70.5 27.5t70.5 -27.5z" />
    <glyph glyph-name="uni1E36" unicode="&#x1e36;" horiz-adv-x="470" 
d="M226 695v-554h237l-19 -141h-399v695h181zM174.5 -222.5q-27.5 27.5 -27.5 68.5q0 42 27.5 69t70.5 27t70.5 -27t27.5 -69q0 -41 -27.5 -68.5t-70.5 -27.5t-70.5 27.5z" />
    <glyph glyph-name="uni01C8" unicode="&#x1c8;" horiz-adv-x="715" 
d="M226 695v-554h237l-19 -141h-399v695h181zM672 56q0 -116 -56.5 -178.5t-158.5 -101.5l-60 127q35 18 56 35t33 43.5t12 68.5v483h174v-477zM655.5 790.5q27.5 -27.5 27.5 -68.5q0 -42 -27.5 -69t-70.5 -27t-70.5 27t-27.5 69q0 41 27.5 68.5t70.5 27.5t70.5 -27.5z" />
    <glyph glyph-name="Lslash" unicode="&#x141;" horiz-adv-x="517" 
d="M273 141h237l-19 -141h-399v217l-36 -24l-55 93l87 59l4 3v347h181v-227l95 63l57 -92l-152 -101v-197z" />
    <glyph glyph-name="M" unicode="M" horiz-adv-x="723" 
d="M702 0h-175l-5 262q-2 86 -2 129q0 83 4 150l-78 -469h-170l-83 469q7 -112 7 -211q0 -45 -1 -69l-6 -261h-172l45 695h223l75 -463l67 463h225z" />
    <glyph glyph-name="uni1E3E" unicode="&#x1e3e;" horiz-adv-x="723" 
d="M702 0h-175l-5 262q-2 86 -2 129q0 83 4 150l-78 -469h-170l-83 469q7 -112 7 -211q0 -45 -1 -69l-6 -261h-172l45 695h223l75 -463l67 463h225zM431 963l64 -126l-226 -87l-44 85z" />
    <glyph glyph-name="uni1E40" unicode="&#x1e40;" horiz-adv-x="723" 
d="M702 0h-175l-5 262q-2 86 -2 129q0 83 4 150l-78 -469h-170l-83 469q7 -112 7 -211q0 -45 -1 -69l-6 -261h-172l45 695h223l75 -463l67 463h225zM431.5 916.5q27.5 -27.5 27.5 -68.5q0 -42 -27.5 -69t-70.5 -27t-70.5 27t-27.5 69q0 41 27.5 68.5t70.5 27.5t70.5 -27.5z
" />
    <glyph glyph-name="uni019C" unicode="&#x19c;" horiz-adv-x="821" 
d="M776 695v-695h-159l-12 58q-32 -40 -65 -58t-75 -18q-45 0 -78.5 23t-52.5 64q-35 -46 -69.5 -66.5t-79.5 -20.5q-70 0 -110 51t-40 130v532h181v-523q0 -28 9.5 -42.5t27.5 -14.5q16 0 30.5 13.5t31.5 40.5v526h181v-523q0 -27 9.5 -42t26.5 -15q18 0 32.5 13t30.5 42
v525h181z" />
    <glyph glyph-name="N" unicode="N" horiz-adv-x="594" 
d="M550 0h-224l-148 530q12 -89 17.5 -148t5.5 -143v-239h-156v695h221l151 -532q-11 73 -17.5 134.5t-6.5 139.5v258h157v-695z" />
    <glyph glyph-name="uni01CA" unicode="&#x1ca;" horiz-adv-x="888" 
d="M550 0h-224l-148 530q12 -89 17.5 -148t5.5 -143v-239h-156v695h221l151 -532q-11 73 -17.5 134.5t-6.5 139.5v258h157v-695zM846 108q0 -86 -31 -142t-78.5 -88t-112.5 -55l-48 127q39 17 58 38.5t25 50t6 75.5v581h181v-587z" />
    <glyph glyph-name="Nacute" unicode="&#x143;" horiz-adv-x="594" 
d="M550 0h-224l-148 530q12 -89 17.5 -148t5.5 -143v-239h-156v695h221l151 -532q-11 73 -17.5 134.5t-6.5 139.5v258h157v-695zM368 963l64 -126l-226 -87l-44 85z" />
    <glyph glyph-name="Nacute.loclPLK" horiz-adv-x="594" 
d="M550 0h-224l-148 530q12 -89 17.5 -148t5.5 -143v-239h-156v695h221l151 -532q-11 73 -17.5 134.5t-6.5 139.5v258h157v-695zM307 975l127 -71l-133 -160l-77 44z" />
    <glyph glyph-name="Ncaron" unicode="&#x147;" horiz-adv-x="594" 
d="M550 0h-224l-148 530q12 -89 17.5 -148t5.5 -143v-239h-156v695h221l151 -532q-11 73 -17.5 134.5t-6.5 139.5v258h157v-695zM421 949l59 -64l-130 -136h-104l-130 136l59 64l123 -84z" />
    <glyph glyph-name="uni1E4A" unicode="&#x1e4a;" horiz-adv-x="594" 
d="M550 0h-224l-148 530q12 -89 17.5 -148t5.5 -143v-239h-156v695h221l151 -532q-11 73 -17.5 134.5t-6.5 139.5v258h157v-695zM172 -271l-59 64l130 145h104l130 -145l-59 -64l-123 93z" />
    <glyph glyph-name="Ncommaaccent" unicode="&#x145;" horiz-adv-x="594" 
d="M550 0h-224l-148 530q12 -89 17.5 -148t5.5 -143v-239h-156v695h221l151 -532q-11 73 -17.5 134.5t-6.5 139.5v258h157v-695zM356 -88.5q23 -23.5 23 -59.5q0 -19 -5.5 -36t-19.5 -50l-44 -98h-83l26 115q-37 26 -37 69q0 34 23 58.5t58 24.5q36 0 59 -23.5z" />
    <glyph glyph-name="uni1E44" unicode="&#x1e44;" horiz-adv-x="594" 
d="M550 0h-224l-148 530q12 -89 17.5 -148t5.5 -143v-239h-156v695h221l151 -532q-11 73 -17.5 134.5t-6.5 139.5v258h157v-695zM368.5 916.5q27.5 -27.5 27.5 -68.5q0 -42 -27.5 -69t-70.5 -27t-70.5 27t-27.5 69q0 41 27.5 68.5t70.5 27.5t70.5 -27.5z" />
    <glyph glyph-name="uni1E46" unicode="&#x1e46;" horiz-adv-x="594" 
d="M550 0h-224l-148 530q12 -89 17.5 -148t5.5 -143v-239h-156v695h221l151 -532q-11 73 -17.5 134.5t-6.5 139.5v258h157v-695zM226.5 -222.5q-27.5 27.5 -27.5 68.5q0 42 27.5 69t70.5 27t70.5 -27t27.5 -69q0 -41 -27.5 -68.5t-70.5 -27.5t-70.5 27.5z" />
    <glyph glyph-name="uni01F8" unicode="&#x1f8;" horiz-adv-x="594" 
d="M550 0h-224l-148 530q12 -89 17.5 -148t5.5 -143v-239h-156v695h221l151 -532q-11 73 -17.5 134.5t-6.5 139.5v258h157v-695zM226 962l206 -127l-44 -85l-226 87z" />
    <glyph glyph-name="Eng" unicode="&#x14a;" horiz-adv-x="594" 
d="M550 695v-727q0 -95 -55 -143.5t-148 -48.5q-86 0 -142 44l58 103q18 -9 30.5 -13t29.5 -4q45 0 45 51v43h-42l-148 530q12 -89 17.5 -148t5.5 -143v-239h-156v695h221l151 -532q-11 73 -17.5 134.5t-6.5 139.5v258h157z" />
    <glyph glyph-name="Eng.ss01" horiz-adv-x="586" 
d="M548 1v-33q0 -95 -55 -143.5t-148 -48.5q-86 0 -142 44l58 103q18 -9 30.5 -13t29.5 -4q45 0 45 51v551q0 39 -11 55.5t-36 16.5q-26 0 -47.5 -14t-45.5 -43v-523h-181v695h158l13 -59q39 40 79 58.5t92 18.5q78 0 119 -48.5t41 -128.5v-535h1z" />
    <glyph glyph-name="uni019D" unicode="&#x19d;" horiz-adv-x="594" 
d="M550 695v-695h-224l-148 530q12 -89 17.5 -148t5.5 -143v-271q0 -93 -50 -142.5t-134 -49.5q-82 0 -137 44l57 96q18 -10 30.5 -14t30.5 -4q47 0 47 56v741h221l151 -532q-11 73 -17.5 134.5t-6.5 139.5v258h157z" />
    <glyph glyph-name="uni019D.ss01" horiz-adv-x="586" 
d="M506 664.5q41 -48.5 41 -128.5v-536h-181v508q0 39 -11 55.5t-36 16.5q-26 0 -47.5 -14t-45.5 -43v-555q0 -95 -55 -143.5t-148 -48.5q-86 0 -142 44l58 103q18 -9 30.5 -13t29.5 -4q45 0 45 51v44h1v694h158l13 -59q39 40 79 58.5t92 18.5q78 0 119 -48.5z" />
    <glyph glyph-name="uni01CB" unicode="&#x1cb;" horiz-adv-x="854" 
d="M550 0h-224l-148 530q12 -89 17.5 -148t5.5 -143v-239h-156v695h221l151 -532q-11 73 -17.5 134.5t-6.5 139.5v258h157v-695zM811 56q0 -116 -56.5 -178.5t-158.5 -101.5l-60 127q35 18 56 35t33 43.5t12 68.5v483h174v-477zM794.5 790.5q27.5 -27.5 27.5 -68.5
q0 -42 -27.5 -69t-70.5 -27t-70.5 27t-27.5 69q0 41 27.5 68.5t70.5 27.5t70.5 -27.5z" />
    <glyph glyph-name="uni0220" unicode="&#x220;" horiz-adv-x="586" 
d="M506 664.5q41 -48.5 41 -128.5v-749h-181v721q0 39 -11 55.5t-36 16.5q-26 0 -47.5 -14t-45.5 -43v-523h-181v695h158l13 -59q39 40 79 58.5t92 18.5q78 0 119 -48.5z" />
    <glyph glyph-name="Ntilde" unicode="&#xd1;" horiz-adv-x="594" 
d="M550 0h-224l-148 530q12 -89 17.5 -148t5.5 -143v-239h-156v695h221l151 -532q-11 73 -17.5 134.5t-6.5 139.5v258h157v-695zM316 765.5q-15 6.5 -32 18.5q-12 8 -20 12t-17 4q-15 0 -24.5 -9.5t-22.5 -31.5l-81 38q18 54 51 88.5t74 34.5q21 0 37 -7t33 -19q2 -1 10 -6
t14.5 -7.5t12.5 -2.5q14 0 24 9.5t22 31.5l81 -38q-18 -55 -50.5 -88.5t-75.5 -33.5q-21 0 -36 6.5z" />
    <glyph glyph-name="O" unicode="O" horiz-adv-x="631" 
d="M531.5 620q75.5 -93 75.5 -272q0 -177 -76 -271.5t-216 -94.5t-215.5 93.5t-75.5 272.5q0 176 75.5 270.5t215.5 94.5q141 0 216.5 -93zM236.5 529.5q-24.5 -53.5 -24.5 -181.5q0 -129 24.5 -182.5t78.5 -53.5q38 0 60.5 22.5t33 74t10.5 139.5q0 128 -24.5 181.5
t-79.5 53.5q-54 0 -78.5 -53.5z" />
    <glyph glyph-name="uni0222" unicode="&#x222;" horiz-adv-x="595" 
d="M570 220q0 -67 -33 -121t-95 -85.5t-145 -31.5t-145 30.5t-95 84.5t-33 123q0 65 30.5 110.5t87.5 69.5q-40 21 -61.5 55.5t-21.5 79.5v160h181v-174q0 -32 12 -48.5t45 -16.5t45.5 17.5t12.5 47.5v174h181v-160q0 -43 -22 -77t-63 -56q119 -47 119 -182zM361 139
q21 27 21 83q0 54 -21.5 81.5t-63.5 27.5q-41 0 -63 -27.5t-22 -81.5q0 -55 22 -82.5t63 -27.5q43 0 64 27z" />
    <glyph glyph-name="Oacute" unicode="&#xd3;" horiz-adv-x="631" 
d="M531.5 620q75.5 -93 75.5 -272q0 -177 -76 -271.5t-216 -94.5t-215.5 93.5t-75.5 272.5q0 176 75.5 270.5t215.5 94.5q141 0 216.5 -93zM236.5 529.5q-24.5 -53.5 -24.5 -181.5q0 -129 24.5 -182.5t78.5 -53.5q38 0 60.5 22.5t33 74t10.5 139.5q0 128 -24.5 181.5
t-79.5 53.5q-54 0 -78.5 -53.5zM385 963l64 -126l-226 -87l-44 85z" />
    <glyph glyph-name="Oacute.loclPLK" horiz-adv-x="631" 
d="M531.5 620q75.5 -93 75.5 -272q0 -177 -76 -271.5t-216 -94.5t-215.5 93.5t-75.5 272.5q0 176 75.5 270.5t215.5 94.5q141 0 216.5 -93zM236.5 529.5q-24.5 -53.5 -24.5 -181.5q0 -129 24.5 -182.5t78.5 -53.5q38 0 60.5 22.5t33 74t10.5 139.5q0 128 -24.5 181.5
t-79.5 53.5q-54 0 -78.5 -53.5zM324 975l127 -71l-133 -160l-77 44z" />
    <glyph glyph-name="Obreve" unicode="&#x14e;" horiz-adv-x="631" 
d="M531.5 620q75.5 -93 75.5 -272q0 -177 -76 -271.5t-216 -94.5t-215.5 93.5t-75.5 272.5q0 176 75.5 270.5t215.5 94.5q141 0 216.5 -93zM236.5 529.5q-24.5 -53.5 -24.5 -181.5q0 -129 24.5 -182.5t78.5 -53.5q38 0 60.5 22.5t33 74t10.5 139.5q0 128 -24.5 181.5
t-79.5 53.5q-54 0 -78.5 -53.5zM198 797.5q-42 48.5 -48 122.5l91 17q17 -69 74 -69q29 0 47.5 18.5t26.5 50.5l91 -17q-6 -74 -48 -122.5t-117 -48.5t-117 48.5z" />
    <glyph glyph-name="uni01D1" unicode="&#x1d1;" horiz-adv-x="631" 
d="M531.5 620q75.5 -93 75.5 -272q0 -177 -76 -271.5t-216 -94.5t-215.5 93.5t-75.5 272.5q0 176 75.5 270.5t215.5 94.5q141 0 216.5 -93zM236.5 529.5q-24.5 -53.5 -24.5 -181.5q0 -129 24.5 -182.5t78.5 -53.5q38 0 60.5 22.5t33 74t10.5 139.5q0 128 -24.5 181.5
t-79.5 53.5q-54 0 -78.5 -53.5zM438 949l59 -64l-130 -136h-104l-130 136l59 64l123 -84z" />
    <glyph glyph-name="uni019F" unicode="&#x19f;" horiz-adv-x="631" 
d="M531.5 620q75.5 -93 75.5 -272q0 -177 -76 -271.5t-216 -94.5t-215.5 93.5t-75.5 272.5q0 176 75.5 270.5t215.5 94.5q141 0 216.5 -93zM238 540.5q-26 -42.5 -31 -140.5h217q-5 98 -31.5 140.5t-77.5 42.5t-77 -42.5zM394.5 155q25.5 43 29.5 147h-217q4 -103 30 -146.5
t78 -43.5q54 0 79.5 43z" />
    <glyph glyph-name="Ocircumflex" unicode="&#xd4;" horiz-adv-x="631" 
d="M531.5 620q75.5 -93 75.5 -272q0 -177 -76 -271.5t-216 -94.5t-215.5 93.5t-75.5 272.5q0 176 75.5 270.5t215.5 94.5q141 0 216.5 -93zM236.5 529.5q-24.5 -53.5 -24.5 -181.5q0 -129 24.5 -182.5t78.5 -53.5q38 0 60.5 22.5t33 74t10.5 139.5q0 128 -24.5 181.5
t-79.5 53.5q-54 0 -78.5 -53.5zM192 757l-59 64l130 136h104l130 -136l-59 -64l-123 84z" />
    <glyph glyph-name="uni1ED0" unicode="&#x1ed0;" horiz-adv-x="631" 
d="M531.5 620q75.5 -93 75.5 -272q0 -177 -76 -271.5t-216 -94.5t-215.5 93.5t-75.5 272.5q0 176 75.5 270.5t215.5 94.5q141 0 216.5 -93zM236.5 529.5q-24.5 -53.5 -24.5 -181.5q0 -129 24.5 -182.5t78.5 -53.5q38 0 60.5 22.5t33 74t10.5 139.5q0 128 -24.5 181.5
t-79.5 53.5q-54 0 -78.5 -53.5zM192 726l-59 64l130 136h104l130 -136l-59 -64l-123 84zM538 1111l97 -88l-158 -147l-65 56z" />
    <glyph glyph-name="uni1ED8" unicode="&#x1ed8;" horiz-adv-x="631" 
d="M531.5 620q75.5 -93 75.5 -272q0 -177 -76 -271.5t-216 -94.5t-215.5 93.5t-75.5 272.5q0 176 75.5 270.5t215.5 94.5q141 0 216.5 -93zM236.5 529.5q-24.5 -53.5 -24.5 -181.5q0 -129 24.5 -182.5t78.5 -53.5q38 0 60.5 22.5t33 74t10.5 139.5q0 128 -24.5 181.5
t-79.5 53.5q-54 0 -78.5 -53.5zM192 757l-59 64l130 136h104l130 -136l-59 -64l-123 84zM244.5 -222.5q-27.5 27.5 -27.5 68.5q0 42 27.5 69t70.5 27t70.5 -27t27.5 -69q0 -41 -27.5 -68.5t-70.5 -27.5t-70.5 27.5z" />
    <glyph glyph-name="uni1ED2" unicode="&#x1ed2;" horiz-adv-x="631" 
d="M531.5 620q75.5 -93 75.5 -272q0 -177 -76 -271.5t-216 -94.5t-215.5 93.5t-75.5 272.5q0 176 75.5 270.5t215.5 94.5q141 0 216.5 -93zM236.5 529.5q-24.5 -53.5 -24.5 -181.5q0 -129 24.5 -182.5t78.5 -53.5q38 0 60.5 22.5t33 74t10.5 139.5q0 128 -24.5 181.5
t-79.5 53.5q-54 0 -78.5 -53.5zM191 726l-59 64l130 136h104l130 -136l-59 -64l-123 84zM93 1111l127 -179l-66 -56l-158 147z" />
    <glyph glyph-name="uni1ED4" unicode="&#x1ed4;" horiz-adv-x="631" 
d="M531.5 620q75.5 -93 75.5 -272q0 -177 -76 -271.5t-216 -94.5t-215.5 93.5t-75.5 272.5q0 176 75.5 270.5t215.5 94.5q141 0 216.5 -93zM236.5 529.5q-24.5 -53.5 -24.5 -181.5q0 -129 24.5 -182.5t78.5 -53.5q38 0 60.5 22.5t33 74t10.5 139.5q0 128 -24.5 181.5
t-79.5 53.5q-54 0 -78.5 -53.5zM191 726l-59 64l130 136h104l130 -136l-59 -64l-123 84zM432 957q35 2 49.5 10t14.5 27q0 14 -9 21.5t-24 7.5q-16 0 -27.5 -3t-28.5 -9l-26 69q44 26 105 26q58 0 89 -28.5t31 -75.5q0 -39 -19.5 -63t-57.5 -32v-41h-97v91z" />
    <glyph glyph-name="uni1ED6" unicode="&#x1ed6;" horiz-adv-x="631" 
d="M531.5 620q75.5 -93 75.5 -272q0 -177 -76 -271.5t-216 -94.5t-215.5 93.5t-75.5 272.5q0 176 75.5 270.5t215.5 94.5q141 0 216.5 -93zM236.5 529.5q-24.5 -53.5 -24.5 -181.5q0 -129 24.5 -182.5t78.5 -53.5q38 0 60.5 22.5t33 74t10.5 139.5q0 128 -24.5 181.5
t-79.5 53.5q-54 0 -78.5 -53.5zM190 726l-59 64l130 136h104l130 -136l-59 -64l-123 84zM331 962q-15 6 -32 17q-2 1 -14 7.5t-23 6.5q-15 0 -24.5 -8.5t-22.5 -28.5l-81 35q18 50 51 81.5t74 31.5q21 0 37 -6.5t33 -17.5q9 -6 18.5 -10.5t18.5 -4.5q14 0 24 9t22 29l81 -35
q-18 -51 -50.5 -81.5t-75.5 -30.5q-21 0 -36 6z" />
    <glyph glyph-name="uni020C" unicode="&#x20c;" horiz-adv-x="631" 
d="M531.5 620q75.5 -93 75.5 -272q0 -177 -76 -271.5t-216 -94.5t-215.5 93.5t-75.5 272.5q0 176 75.5 270.5t215.5 94.5q141 0 216.5 -93zM236.5 529.5q-24.5 -53.5 -24.5 -181.5q0 -129 24.5 -182.5t78.5 -53.5q38 0 60.5 22.5t33 74t10.5 139.5q0 128 -24.5 181.5
t-79.5 53.5q-54 0 -78.5 -53.5zM192 992l91 -203l-82 -40l-117 187zM361 992l85 -204l-85 -35l-110 187z" />
    <glyph glyph-name="Odieresis" unicode="&#xd6;" horiz-adv-x="631" 
d="M531.5 620q75.5 -93 75.5 -272q0 -177 -76 -271.5t-216 -94.5t-215.5 93.5t-75.5 272.5q0 176 75.5 270.5t215.5 94.5q141 0 216.5 -93zM236.5 529.5q-24.5 -53.5 -24.5 -181.5q0 -129 24.5 -182.5t78.5 -53.5q38 0 60.5 22.5t33 74t10.5 139.5q0 128 -24.5 181.5
t-79.5 53.5q-54 0 -78.5 -53.5zM266 908q24 -24 24 -59q0 -36 -24 -60.5t-60 -24.5q-35 0 -59.5 24.5t-24.5 60.5q0 35 24.5 59t59.5 24q36 0 60 -24zM485 908q24 -24 24 -59q0 -36 -24 -60.5t-60 -24.5q-35 0 -59.5 24.5t-24.5 60.5q0 35 24.5 59t59.5 24q36 0 60 -24z" />
    <glyph glyph-name="uni022A" unicode="&#x22a;" horiz-adv-x="631" 
d="M531.5 620q75.5 -93 75.5 -272q0 -177 -76 -271.5t-216 -94.5t-215.5 93.5t-75.5 272.5q0 176 75.5 270.5t215.5 94.5q141 0 216.5 -93zM236.5 529.5q-24.5 -53.5 -24.5 -181.5q0 -129 24.5 -182.5t78.5 -53.5q38 0 60.5 22.5t33 74t10.5 139.5q0 128 -24.5 181.5
t-79.5 53.5q-54 0 -78.5 -53.5zM265 889q24 -24 24 -59q0 -36 -24 -60.5t-60 -24.5q-35 0 -59.5 24.5t-24.5 60.5q0 35 24.5 59t59.5 24q36 0 60 -24zM484 889q24 -24 24 -59q0 -36 -24 -60.5t-60 -24.5q-35 0 -59.5 24.5t-24.5 60.5q0 35 24.5 59t59.5 24q36 0 60 -24z
M462 953h-290v118h290v-118z" />
    <glyph glyph-name="uni022E" unicode="&#x22e;" horiz-adv-x="631" 
d="M531.5 620q75.5 -93 75.5 -272q0 -177 -76 -271.5t-216 -94.5t-215.5 93.5t-75.5 272.5q0 176 75.5 270.5t215.5 94.5q141 0 216.5 -93zM236.5 529.5q-24.5 -53.5 -24.5 -181.5q0 -129 24.5 -182.5t78.5 -53.5q38 0 60.5 22.5t33 74t10.5 139.5q0 128 -24.5 181.5
t-79.5 53.5q-54 0 -78.5 -53.5zM385.5 916.5q27.5 -27.5 27.5 -68.5q0 -42 -27.5 -69t-70.5 -27t-70.5 27t-27.5 69q0 41 27.5 68.5t70.5 27.5t70.5 -27.5z" />
    <glyph glyph-name="uni0230" unicode="&#x230;" horiz-adv-x="631" 
d="M531.5 620q75.5 -93 75.5 -272q0 -177 -76 -271.5t-216 -94.5t-215.5 93.5t-75.5 272.5q0 176 75.5 270.5t215.5 94.5q141 0 216.5 -93zM236.5 529.5q-24.5 -53.5 -24.5 -181.5q0 -129 24.5 -182.5t78.5 -53.5q38 0 60.5 22.5t33 74t10.5 139.5q0 128 -24.5 181.5
t-79.5 53.5q-54 0 -78.5 -53.5zM383.5 899.5q27.5 -27.5 27.5 -68.5q0 -42 -27.5 -69t-70.5 -27t-70.5 27t-27.5 69q0 41 27.5 68.5t70.5 27.5t70.5 -27.5zM459 953h-290v118h290v-118z" />
    <glyph glyph-name="uni1ECC" unicode="&#x1ecc;" horiz-adv-x="631" 
d="M531.5 620q75.5 -93 75.5 -272q0 -177 -76 -271.5t-216 -94.5t-215.5 93.5t-75.5 272.5q0 176 75.5 270.5t215.5 94.5q141 0 216.5 -93zM236.5 529.5q-24.5 -53.5 -24.5 -181.5q0 -129 24.5 -182.5t78.5 -53.5q38 0 60.5 22.5t33 74t10.5 139.5q0 128 -24.5 181.5
t-79.5 53.5q-54 0 -78.5 -53.5zM244.5 -222.5q-27.5 27.5 -27.5 68.5q0 42 27.5 69t70.5 27t70.5 -27t27.5 -69q0 -41 -27.5 -68.5t-70.5 -27.5t-70.5 27.5z" />
    <glyph glyph-name="Ograve" unicode="&#xd2;" horiz-adv-x="631" 
d="M531.5 620q75.5 -93 75.5 -272q0 -177 -76 -271.5t-216 -94.5t-215.5 93.5t-75.5 272.5q0 176 75.5 270.5t215.5 94.5q141 0 216.5 -93zM236.5 529.5q-24.5 -53.5 -24.5 -181.5q0 -129 24.5 -182.5t78.5 -53.5q38 0 60.5 22.5t33 74t10.5 139.5q0 128 -24.5 181.5
t-79.5 53.5q-54 0 -78.5 -53.5zM243 962l206 -127l-44 -85l-226 87z" />
    <glyph glyph-name="uni1ECE" unicode="&#x1ece;" horiz-adv-x="631" 
d="M531.5 620q75.5 -93 75.5 -272q0 -177 -76 -271.5t-216 -94.5t-215.5 93.5t-75.5 272.5q0 176 75.5 270.5t215.5 94.5q141 0 216.5 -93zM236.5 529.5q-24.5 -53.5 -24.5 -181.5q0 -129 24.5 -182.5t78.5 -53.5q38 0 60.5 22.5t33 74t10.5 139.5q0 128 -24.5 181.5
t-79.5 53.5q-54 0 -78.5 -53.5zM266 855q35 2 49.5 10t14.5 27q0 14 -9 21.5t-24 7.5q-16 0 -27.5 -3t-28.5 -9l-26 69q44 26 105 26q58 0 89 -28.5t31 -75.5q0 -39 -19.5 -63t-57.5 -32v-41h-97v91z" />
    <glyph glyph-name="Ohorn" unicode="&#x1a0;" horiz-adv-x="666" 
d="M644 598.5q-26 -31.5 -74 -41.5q37 -86 37 -209q0 -177 -76 -271.5t-216 -94.5t-215.5 93.5t-75.5 272.5q0 176 75.5 270.5t215.5 94.5q131 0 205 -79q21 3 29.5 15.5t8.5 37.5q0 22 -3 36t-9 35l107 15q17 -40 17 -90q0 -53 -26 -84.5zM375.5 134.5q22.5 22.5 33 74
t10.5 139.5q0 128 -24.5 181.5t-79.5 53.5q-54 0 -78.5 -53.5t-24.5 -181.5q0 -129 24.5 -182.5t78.5 -53.5q38 0 60.5 22.5z" />
    <glyph glyph-name="uni1EDA" unicode="&#x1eda;" horiz-adv-x="666" 
d="M449 837l-226 -87l-44 85l206 128zM644 598.5q-26 -31.5 -74 -41.5q37 -86 37 -209q0 -177 -76 -271.5t-216 -94.5t-215.5 93.5t-75.5 272.5q0 176 75.5 270.5t215.5 94.5q131 0 205 -79q21 3 29.5 15.5t8.5 37.5q0 22 -3 36t-9 35l107 15q17 -40 17 -90q0 -53 -26 -84.5
zM375.5 134.5q22.5 22.5 33 74t10.5 139.5q0 128 -24.5 181.5t-79.5 53.5q-54 0 -78.5 -53.5t-24.5 -181.5q0 -129 24.5 -182.5t78.5 -53.5q38 0 60.5 22.5z" />
    <glyph glyph-name="uni1EE2" unicode="&#x1ee2;" horiz-adv-x="666" 
d="M644 598.5q-26 -31.5 -74 -41.5q37 -86 37 -209q0 -177 -76 -271.5t-216 -94.5t-215.5 93.5t-75.5 272.5q0 176 75.5 270.5t215.5 94.5q131 0 205 -79q21 3 29.5 15.5t8.5 37.5q0 22 -3 36t-9 35l107 15q17 -40 17 -90q0 -53 -26 -84.5zM375.5 134.5q22.5 22.5 33 74
t10.5 139.5q0 128 -24.5 181.5t-79.5 53.5q-54 0 -78.5 -53.5t-24.5 -181.5q0 -129 24.5 -182.5t78.5 -53.5q38 0 60.5 22.5zM385.5 -85q27.5 -27 27.5 -69q0 -41 -27.5 -68.5t-70.5 -27.5t-70.5 27.5t-27.5 68.5q0 42 27.5 69t70.5 27t70.5 -27z" />
    <glyph glyph-name="uni1EDC" unicode="&#x1edc;" horiz-adv-x="666" 
d="M449 835l-44 -85l-226 87l64 125zM644 598.5q-26 -31.5 -74 -41.5q37 -86 37 -209q0 -177 -76 -271.5t-216 -94.5t-215.5 93.5t-75.5 272.5q0 176 75.5 270.5t215.5 94.5q131 0 205 -79q21 3 29.5 15.5t8.5 37.5q0 22 -3 36t-9 35l107 15q17 -40 17 -90q0 -53 -26 -84.5z
M375.5 134.5q22.5 22.5 33 74t10.5 139.5q0 128 -24.5 181.5t-79.5 53.5q-54 0 -78.5 -53.5t-24.5 -181.5q0 -129 24.5 -182.5t78.5 -53.5q38 0 60.5 22.5z" />
    <glyph glyph-name="uni1EDE" unicode="&#x1ede;" horiz-adv-x="666" 
d="M269.5 918q-11.5 -3 -28.5 -9l-26 69q44 26 105 26q58 0 89 -28.5t31 -75.5q0 -39 -19.5 -63t-57.5 -32v-41h-97v91q35 2 49.5 10t14.5 27q0 14 -9 21.5t-24 7.5q-16 0 -27.5 -3zM644 598.5q-26 -31.5 -74 -41.5q37 -86 37 -209q0 -177 -76 -271.5t-216 -94.5
t-215.5 93.5t-75.5 272.5q0 176 75.5 270.5t215.5 94.5q131 0 205 -79q21 3 29.5 15.5t8.5 37.5q0 22 -3 36t-9 35l107 15q17 -40 17 -90q0 -53 -26 -84.5zM375.5 134.5q22.5 22.5 33 74t10.5 139.5q0 128 -24.5 181.5t-79.5 53.5q-54 0 -78.5 -53.5t-24.5 -181.5
q0 -129 24.5 -182.5t78.5 -53.5q38 0 60.5 22.5z" />
    <glyph glyph-name="uni1EE0" unicode="&#x1ee0;" horiz-adv-x="666" 
d="M239.5 790.5q-9.5 -9.5 -22.5 -31.5l-81 38q18 54 51 88.5t74 34.5q21 0 37 -7t33 -19q2 -1 10 -6t14.5 -7.5t12.5 -2.5q14 0 24 9.5t22 31.5l81 -38q-18 -55 -50.5 -88.5t-75.5 -33.5q-21 0 -36 6.5t-32 18.5q-12 8 -20 12t-17 4q-15 0 -24.5 -9.5zM644 598.5
q-26 -31.5 -74 -41.5q37 -86 37 -209q0 -177 -76 -271.5t-216 -94.5t-215.5 93.5t-75.5 272.5q0 176 75.5 270.5t215.5 94.5q131 0 205 -79q21 3 29.5 15.5t8.5 37.5q0 22 -3 36t-9 35l107 15q17 -40 17 -90q0 -53 -26 -84.5zM375.5 134.5q22.5 22.5 33 74t10.5 139.5
q0 128 -24.5 181.5t-79.5 53.5q-54 0 -78.5 -53.5t-24.5 -181.5q0 -129 24.5 -182.5t78.5 -53.5q38 0 60.5 22.5z" />
    <glyph glyph-name="Ohungarumlaut" unicode="&#x150;" horiz-adv-x="631" 
d="M531.5 620q75.5 -93 75.5 -272q0 -177 -76 -271.5t-216 -94.5t-215.5 93.5t-75.5 272.5q0 176 75.5 270.5t215.5 94.5q141 0 216.5 -93zM236.5 529.5q-24.5 -53.5 -24.5 -181.5q0 -129 24.5 -182.5t78.5 -53.5q38 0 60.5 22.5t33 74t10.5 139.5q0 128 -24.5 181.5
t-79.5 53.5q-54 0 -78.5 -53.5zM273 992l109 -52l-109 -187l-85 35zM442 992l108 -56l-117 -187l-83 40z" />
    <glyph glyph-name="uni01A2" unicode="&#x1a2;" horiz-adv-x="884" 
d="M785 662.5q55 -50.5 55 -143.5v-731h-181v740q0 60 -47 60q-27 0 -53 -12q48 -90 48 -228q0 -177 -76 -271.5t-216 -94.5t-215.5 93.5t-75.5 272.5q0 176 75.5 270.5t215.5 94.5q99 0 169 -49q70 49 155 49q91 0 146 -50.5zM375.5 134.5q22.5 22.5 33 74t10.5 139.5
q0 128 -24.5 181.5t-79.5 53.5q-54 0 -78.5 -53.5t-24.5 -181.5q0 -129 24.5 -182.5t78.5 -53.5q38 0 60.5 22.5z" />
    <glyph glyph-name="uni020E" unicode="&#x20e;" horiz-adv-x="631" 
d="M531.5 620q75.5 -93 75.5 -272q0 -177 -76 -271.5t-216 -94.5t-215.5 93.5t-75.5 272.5q0 176 75.5 270.5t215.5 94.5q141 0 216.5 -93zM236.5 529.5q-24.5 -53.5 -24.5 -181.5q0 -129 24.5 -182.5t78.5 -53.5q38 0 60.5 22.5t33 74t10.5 139.5q0 128 -24.5 181.5
t-79.5 53.5q-54 0 -78.5 -53.5zM432.5 908q41.5 -50 47.5 -132l-91 -16q-16 80 -74 80t-74 -80l-91 16q6 82 47.5 132t117.5 50t117.5 -50z" />
    <glyph glyph-name="Omacron" unicode="&#x14c;" horiz-adv-x="631" 
d="M531.5 620q75.5 -93 75.5 -272q0 -177 -76 -271.5t-216 -94.5t-215.5 93.5t-75.5 272.5q0 176 75.5 270.5t215.5 94.5q141 0 216.5 -93zM236.5 529.5q-24.5 -53.5 -24.5 -181.5q0 -129 24.5 -182.5t78.5 -53.5q38 0 60.5 22.5t33 74t10.5 139.5q0 128 -24.5 181.5
t-79.5 53.5q-54 0 -78.5 -53.5zM460 779h-290v118h290v-118z" />
    <glyph glyph-name="uni1E52" unicode="&#x1e52;" horiz-adv-x="631" 
d="M531.5 620q75.5 -93 75.5 -272q0 -177 -76 -271.5t-216 -94.5t-215.5 93.5t-75.5 272.5q0 176 75.5 270.5t215.5 94.5q141 0 216.5 -93zM236.5 529.5q-24.5 -53.5 -24.5 -181.5q0 -129 24.5 -182.5t78.5 -53.5q38 0 60.5 22.5t33 74t10.5 139.5q0 128 -24.5 181.5
t-79.5 53.5q-54 0 -78.5 -53.5zM460 762h-290v118h290v-118zM383 1122l64 -126l-226 -87l-44 85z" />
    <glyph glyph-name="uni1E50" unicode="&#x1e50;" horiz-adv-x="631" 
d="M244 1123l206 -127l-44 -85l-226 87zM460 762h-290v118h290v-118zM531.5 620q75.5 -93 75.5 -272q0 -177 -76 -271.5t-216 -94.5t-215.5 93.5t-75.5 272.5q0 176 75.5 270.5t215.5 94.5q141 0 216.5 -93zM236.5 529.5q-24.5 -53.5 -24.5 -181.5q0 -129 24.5 -182.5
t78.5 -53.5q38 0 60.5 22.5t33 74t10.5 139.5q0 128 -24.5 181.5t-79.5 53.5q-54 0 -78.5 -53.5z" />
    <glyph glyph-name="uniA7B6" unicode="&#xa7b6;" horiz-adv-x="824" 
d="M767 517.5q19 -91.5 19 -214.5q0 -167 -52.5 -244t-154.5 -77q-67 0 -107.5 30t-58.5 93q-15 -62 -56.5 -92.5t-101.5 -30.5q-111 0 -164 76t-53 245q0 122 19 213t52 179h167q-21 -83 -31 -129t-18 -111.5t-8 -141.5q0 -77 6 -120.5t19 -62t36 -18.5q45 0 45 64v223h179
v-223q0 -34 10.5 -49t34.5 -15q21 0 33 17.5t17.5 60.5t5.5 122q0 111 -16.5 194.5t-48.5 188.5h174q34 -86 53 -177.5z" />
    <glyph glyph-name="uni01EA" unicode="&#x1ea;" horiz-adv-x="631" 
d="M560.5 122q-46.5 -89 -134.5 -122q-60 -24 -82 -48.5t-22 -50.5q0 -23 12.5 -34.5t34.5 -11.5t54 8l-10 -104q-32 -8 -66 -8q-64 0 -104.5 32t-40.5 88q0 68 57 115q-114 18 -174.5 110t-60.5 252q0 176 75.5 270.5t215.5 94.5q141 0 216.5 -93t75.5 -272
q0 -137 -46.5 -226zM236.5 165.5q24.5 -53.5 78.5 -53.5q38 0 60.5 22.5t33 74t10.5 139.5q0 128 -24.5 181.5t-79.5 53.5q-54 0 -78.5 -53.5t-24.5 -181.5q0 -129 24.5 -182.5z" />
    <glyph glyph-name="uni01EC" unicode="&#x1ec;" horiz-adv-x="631" 
d="M460 897v-118h-290v118h290zM560.5 122q-46.5 -89 -134.5 -122q-60 -24 -82 -48.5t-22 -50.5q0 -23 12.5 -34.5t34.5 -11.5t54 8l-10 -104q-32 -8 -66 -8q-64 0 -104.5 32t-40.5 88q0 68 57 115q-114 18 -174.5 110t-60.5 252q0 176 75.5 270.5t215.5 94.5
q141 0 216.5 -93t75.5 -272q0 -137 -46.5 -226zM236.5 165.5q24.5 -53.5 78.5 -53.5q38 0 60.5 22.5t33 74t10.5 139.5q0 128 -24.5 181.5t-79.5 53.5q-54 0 -78.5 -53.5t-24.5 -181.5q0 -129 24.5 -182.5z" />
    <glyph glyph-name="uni0186" unicode="&#x186;" horiz-adv-x="530" 
d="M369.5 672q64.5 -41 100 -122.5t35.5 -200.5q0 -180 -79 -273.5t-216 -93.5q-64 0 -117 26t-92 66l80 98q34 -26 60 -39t59 -13q57 0 87 53t30 176q0 126 -27.5 179t-81.5 53q-33 0 -59.5 -11.5t-54.5 -35.5l-86 100q43 39 94 59t117 20q86 0 150.5 -41z" />
    <glyph glyph-name="Oslash" unicode="&#xd8;" horiz-adv-x="631" 
d="M574 546q33 -81 33 -198q0 -176 -76 -271t-216 -95q-22 0 -33 1l-33 -119l-132 35l36 127q-63 42 -96 123.5t-33 198.5q0 175 75.5 270t215.5 95q23 0 34 -1l33 118l132 -36l-36 -125q63 -42 96 -123zM251.5 561.5q-23.5 -22.5 -34.5 -74t-11 -139.5q0 -135 22 -186
l105 421q-6 1 -18 1q-40 0 -63.5 -22.5zM403 528l-105 -417q6 -1 17 -1q41 0 64.5 22.5t34 74t10.5 141.5q0 130 -21 180z" />
    <glyph glyph-name="Oslashacute" unicode="&#x1fe;" horiz-adv-x="631" 
d="M574 546q33 -81 33 -198q0 -176 -76 -271t-216 -95q-22 0 -33 1l-33 -119l-132 35l36 127q-63 42 -96 123.5t-33 198.5q0 175 75.5 270t215.5 95q23 0 34 -1l33 118l132 -36l-36 -125q63 -42 96 -123zM251.5 561.5q-23.5 -22.5 -34.5 -74t-11 -139.5q0 -135 22 -186
l105 421q-6 1 -18 1q-40 0 -63.5 -22.5zM403 528l-105 -417q6 -1 17 -1q41 0 64.5 22.5t34 74t10.5 141.5q0 130 -21 180zM385 1001l64 -126l-226 -87l-44 85z" />
    <glyph glyph-name="Otilde" unicode="&#xd5;" horiz-adv-x="631" 
d="M531.5 620q75.5 -93 75.5 -272q0 -177 -76 -271.5t-216 -94.5t-215.5 93.5t-75.5 272.5q0 176 75.5 270.5t215.5 94.5q141 0 216.5 -93zM236.5 529.5q-24.5 -53.5 -24.5 -181.5q0 -129 24.5 -182.5t78.5 -53.5q38 0 60.5 22.5t33 74t10.5 139.5q0 128 -24.5 181.5
t-79.5 53.5q-54 0 -78.5 -53.5zM333 765.5q-15 6.5 -32 18.5q-12 8 -20 12t-17 4q-15 0 -24.5 -9.5t-22.5 -31.5l-81 38q18 54 51 88.5t74 34.5q21 0 37 -7t33 -19q2 -1 10 -6t14.5 -7.5t12.5 -2.5q14 0 24 9.5t22 31.5l81 -38q-18 -55 -50.5 -88.5t-75.5 -33.5
q-21 0 -36 6.5z" />
    <glyph glyph-name="uni1E4C" unicode="&#x1e4c;" horiz-adv-x="631" 
d="M531.5 620q75.5 -93 75.5 -272q0 -177 -76 -271.5t-216 -94.5t-215.5 93.5t-75.5 272.5q0 176 75.5 270.5t215.5 94.5q141 0 216.5 -93zM236.5 529.5q-24.5 -53.5 -24.5 -181.5q0 -129 24.5 -182.5t78.5 -53.5q38 0 60.5 22.5t33 74t10.5 139.5q0 128 -24.5 181.5
t-79.5 53.5q-54 0 -78.5 -53.5zM333 764.5q-15 6.5 -32 18.5q-12 8 -20 12t-17 4q-15 0 -24.5 -9.5t-22.5 -31.5l-81 38q18 54 51 88.5t74 34.5q21 0 37 -7t33 -19q2 -1 10 -6t14.5 -7.5t12.5 -2.5q14 0 24 9.5t22 31.5l81 -38q-18 -55 -50.5 -88.5t-75.5 -33.5
q-21 0 -36 6.5zM386 1146l64 -126l-226 -87l-44 85z" />
    <glyph glyph-name="uni022C" unicode="&#x22c;" horiz-adv-x="631" 
d="M531.5 620q75.5 -93 75.5 -272q0 -177 -76 -271.5t-216 -94.5t-215.5 93.5t-75.5 272.5q0 176 75.5 270.5t215.5 94.5q141 0 216.5 -93zM236.5 529.5q-24.5 -53.5 -24.5 -181.5q0 -129 24.5 -182.5t78.5 -53.5q38 0 60.5 22.5t33 74t10.5 139.5q0 128 -24.5 181.5
t-79.5 53.5q-54 0 -78.5 -53.5zM333 764.5q-15 6.5 -32 18.5q-12 8 -20 12t-17 4q-15 0 -24.5 -9.5t-22.5 -31.5l-81 38q18 54 51 88.5t74 34.5q21 0 37 -7t33 -19q2 -1 10 -6t14.5 -7.5t12.5 -2.5q14 0 24 9.5t22 31.5l81 -38q-18 -55 -50.5 -88.5t-75.5 -33.5
q-21 0 -36 6.5zM462 954h-290v118h290v-118z" />
    <glyph glyph-name="OE" unicode="&#x152;" horiz-adv-x="823" 
d="M529 129h270v-129h-404q-42 -18 -96 -18q-85 0 -147 42.5t-95 125t-33 198.5q0 115 33 197t95 125t147 43q55 0 97 -18h408l-19 -128h-255q42 -64 53 -152h177v-125h-176q-11 -98 -55 -161zM378 165.5q22 53.5 22 182.5q0 128 -22.5 181.5t-71.5 53.5q-48 0 -71 -53.5
t-23 -181.5t23 -182t71 -54q50 0 72 53.5z" />
    <glyph glyph-name="P" unicode="P" horiz-adv-x="551" 
d="M465 636.5q73 -58.5 73 -171.5q0 -117 -70 -178.5t-192 -61.5h-50v-225h-181v695h211q136 0 209 -58.5zM330.5 380q22.5 26 22.5 85q0 52 -22 77.5t-72 25.5h-33v-214h33q49 0 71.5 26z" />
    <glyph glyph-name="uni1E54" unicode="&#x1e54;" horiz-adv-x="551" 
d="M465 636.5q73 -58.5 73 -171.5q0 -117 -70 -178.5t-192 -61.5h-50v-225h-181v695h211q136 0 209 -58.5zM330.5 380q22.5 26 22.5 85q0 52 -22 77.5t-72 25.5h-33v-214h33q49 0 71.5 26zM348 963l64 -126l-226 -87l-44 85z" />
    <glyph glyph-name="uni1E56" unicode="&#x1e56;" horiz-adv-x="551" 
d="M465 636.5q73 -58.5 73 -171.5q0 -117 -70 -178.5t-192 -61.5h-50v-225h-181v695h211q136 0 209 -58.5zM330.5 380q22.5 26 22.5 85q0 52 -22 77.5t-72 25.5h-33v-214h33q49 0 71.5 26zM348.5 916.5q27.5 -27.5 27.5 -68.5q0 -42 -27.5 -69t-70.5 -27t-70.5 27t-27.5 69
q0 41 27.5 68.5t70.5 27.5t70.5 -27.5z" />
    <glyph glyph-name="uni01A4" unicode="&#x1a4;" horiz-adv-x="704" 
d="M618 636.5q73 -58.5 73 -171.5q0 -117 -70 -178.5t-192 -61.5h-50v-225h-181v567h-23q-37 0 -37 -39q0 -28 16 -65l-110 -47q-20 31 -31 61t-11 66q0 71 49 111.5t134 40.5h224q136 0 209 -58.5zM483.5 380q22.5 26 22.5 85q0 52 -22 77.5t-72 25.5h-33v-214h33
q49 0 71.5 26z" />
    <glyph glyph-name="Thorn" unicode="&#xde;" horiz-adv-x="551" 
d="M466.5 529.5q71.5 -58.5 71.5 -172.5q0 -122 -68.5 -184t-188.5 -62h-55v-111h-181v695h181v-107h40q129 0 200.5 -58.5zM333 266.5q23 27.5 23 90.5q0 54 -23.5 79t-71.5 25h-35v-222h38q46 0 69 27.5z" />
    <glyph glyph-name="Q" unicode="Q" horiz-adv-x="631" 
d="M565 30.5q45 -15.5 86 -50.5l-107 -137q-45 64 -102.5 103t-138.5 39q-132 0 -205.5 94t-73.5 269t76 270t215 95q141 0 216.5 -94t75.5 -271q0 -118 -42.5 -189t-110.5 -113q66 0 111 -15.5zM236.5 165.5q24.5 -53.5 78.5 -53.5q38 0 60.5 23t33 74t10.5 139
q0 129 -24.5 182t-79.5 53q-54 0 -78.5 -53t-24.5 -182t24.5 -182.5z" />
    <glyph glyph-name="uni024A" unicode="&#x24a;" horiz-adv-x="615" 
d="M734 -180q-56 -44 -142 -44q-93 0 -148 48.5t-55 143.5v33h1v25q-51 -44 -121 -44q-72 0 -127.5 41t-86.5 121t-31 193q0 119 31.5 204t87.5 128.5t128 43.5q78 0 133 -53l5 35h162v-738q0 -51 45 -51q17 0 29.5 4t30.5 13zM390 140v410q-17 16 -35.5 24.5t-42.5 8.5
q-51 0 -75.5 -55t-24.5 -191q0 -88 11.5 -138t33 -70t54.5 -20q45 0 79 31z" />
    <glyph glyph-name="R" unicode="R" horiz-adv-x="566" 
d="M265 258h-39v-258h-181v695h217q277 0 277 -216q0 -131 -113 -187l154 -292h-195zM226 381h41q46 0 66.5 23.5t20.5 74.5q0 46 -23 68t-71 22h-34v-188z" />
    <glyph glyph-name="Racute" unicode="&#x154;" horiz-adv-x="566" 
d="M265 258h-39v-258h-181v695h217q277 0 277 -216q0 -131 -113 -187l154 -292h-195zM226 381h41q46 0 66.5 23.5t20.5 74.5q0 46 -23 68t-71 22h-34v-188zM346 963l64 -126l-226 -87l-44 85z" />
    <glyph glyph-name="Rcaron" unicode="&#x158;" horiz-adv-x="566" 
d="M265 258h-39v-258h-181v695h217q277 0 277 -216q0 -131 -113 -187l154 -292h-195zM226 381h41q46 0 66.5 23.5t20.5 74.5q0 46 -23 68t-71 22h-34v-188zM399 949l59 -64l-130 -136h-104l-130 136l59 64l123 -84z" />
    <glyph glyph-name="Rcommaaccent" unicode="&#x156;" horiz-adv-x="566" 
d="M265 258h-39v-258h-181v695h217q277 0 277 -216q0 -131 -113 -187l154 -292h-195zM226 381h41q46 0 66.5 23.5t20.5 74.5q0 46 -23 68t-71 22h-34v-188zM343 -88.5q23 -23.5 23 -59.5q0 -19 -5.5 -36t-19.5 -50l-44 -98h-83l26 115q-37 26 -37 69q0 34 23 58.5t58 24.5
q36 0 59 -23.5z" />
    <glyph glyph-name="uni0210" unicode="&#x210;" horiz-adv-x="566" 
d="M265 258h-39v-258h-181v695h217q277 0 277 -216q0 -131 -113 -187l154 -292h-195zM226 381h41q46 0 66.5 23.5t20.5 74.5q0 46 -23 68t-71 22h-34v-188zM153 992l91 -203l-82 -40l-117 187zM322 992l85 -204l-85 -35l-110 187z" />
    <glyph glyph-name="uni1E5A" unicode="&#x1e5a;" horiz-adv-x="566" 
d="M265 258h-39v-258h-181v695h217q277 0 277 -216q0 -131 -113 -187l154 -292h-195zM226 381h41q46 0 66.5 23.5t20.5 74.5q0 46 -23 68t-71 22h-34v-188zM213.5 -222.5q-27.5 27.5 -27.5 68.5q0 42 27.5 69t70.5 27t70.5 -27t27.5 -69q0 -41 -27.5 -68.5t-70.5 -27.5
t-70.5 27.5z" />
    <glyph glyph-name="uni0212" unicode="&#x212;" horiz-adv-x="566" 
d="M265 258h-39v-258h-181v695h217q277 0 277 -216q0 -131 -113 -187l154 -292h-195zM226 381h41q46 0 66.5 23.5t20.5 74.5q0 46 -23 68t-71 22h-34v-188zM393.5 908q41.5 -50 47.5 -132l-91 -16q-16 80 -74 80t-74 -80l-91 16q6 82 47.5 132t117.5 50t117.5 -50z" />
    <glyph glyph-name="uni024C" unicode="&#x24c;" horiz-adv-x="578" 
d="M277 258h-39v-258h-181v258h-45v123h45v314h217q277 0 277 -216q0 -131 -113 -187l154 -292h-195zM279 381q46 0 66.5 23.5t20.5 74.5q0 46 -23 68t-71 22h-34v-188h41z" />
    <glyph glyph-name="uni2C64" unicode="&#x2c64;" horiz-adv-x="566" 
d="M300.5 -90q12.5 4 30.5 13l58 -103q-56 -44 -142 -44q-93 0 -148 48.5t-55 143.5v33h1v694h217q277 0 277 -216q0 -131 -113 -187l154 -292h-195l-120 258h-39v-301q0 -51 45 -51q17 0 29.5 4zM226 569v-188h41q46 0 66.5 23.5t20.5 74.5q0 46 -23 68t-71 22h-34z" />
    <glyph glyph-name="uni2C64.ss01" horiz-adv-x="409" 
d="M271 -94q17 0 29.5 4t30.5 13l58 -103q-56 -44 -142 -44q-93 0 -148 48.5t-55 143.5v33h1v694h158l14 -92q19 50 55 79t85 29q33 0 61 -10l-28 -171q-26 7 -55 7q-46 0 -71.5 -29.5t-37.5 -83.5v-467q0 -51 45 -51z" />
    <glyph glyph-name="S" unicode="S" horiz-adv-x="528" 
d="M396 690q56 -23 100 -69l-79 -94q-64 56 -131 56q-36 0 -55 -16.5t-19 -45.5q0 -20 10 -33.5t34 -26t71 -30.5q65 -26 104.5 -54t60 -69.5t20.5 -102.5q0 -66 -31.5 -116.5t-90.5 -78.5t-140 -28q-153 0 -250 101l87 96q38 -32 74.5 -49t77.5 -17q42 0 63.5 21t21.5 56
t-22 56t-81 43q-107 41 -151 91t-44 126q0 62 31.5 109t86.5 72.5t123 25.5q73 0 129 -23z" />
    <glyph glyph-name="Sacute" unicode="&#x15a;" horiz-adv-x="528" 
d="M396 690q56 -23 100 -69l-79 -94q-64 56 -131 56q-36 0 -55 -16.5t-19 -45.5q0 -20 10 -33.5t34 -26t71 -30.5q65 -26 104.5 -54t60 -69.5t20.5 -102.5q0 -66 -31.5 -116.5t-90.5 -78.5t-140 -28q-153 0 -250 101l87 96q38 -32 74.5 -49t77.5 -17q42 0 63.5 21t21.5 56
t-22 56t-81 43q-107 41 -151 91t-44 126q0 62 31.5 109t86.5 72.5t123 25.5q73 0 129 -23zM344 963l64 -126l-226 -87l-44 85z" />
    <glyph glyph-name="Sacute.loclPLK" horiz-adv-x="528" 
d="M396 690q56 -23 100 -69l-79 -94q-64 56 -131 56q-36 0 -55 -16.5t-19 -45.5q0 -20 10 -33.5t34 -26t71 -30.5q65 -26 104.5 -54t60 -69.5t20.5 -102.5q0 -66 -31.5 -116.5t-90.5 -78.5t-140 -28q-153 0 -250 101l87 96q38 -32 74.5 -49t77.5 -17q42 0 63.5 21t21.5 56
t-22 56t-81 43q-107 41 -151 91t-44 126q0 62 31.5 109t86.5 72.5t123 25.5q73 0 129 -23zM283 975l127 -71l-133 -160l-77 44z" />
    <glyph glyph-name="uniA78B" unicode="&#xa78b;" horiz-adv-x="245" 
d="M60 331l-19 364h163l-19 -364h-125z" />
    <glyph glyph-name="Scaron" unicode="&#x160;" horiz-adv-x="528" 
d="M396 690q56 -23 100 -69l-79 -94q-64 56 -131 56q-36 0 -55 -16.5t-19 -45.5q0 -20 10 -33.5t34 -26t71 -30.5q65 -26 104.5 -54t60 -69.5t20.5 -102.5q0 -66 -31.5 -116.5t-90.5 -78.5t-140 -28q-153 0 -250 101l87 96q38 -32 74.5 -49t77.5 -17q42 0 63.5 21t21.5 56
t-22 56t-81 43q-107 41 -151 91t-44 126q0 62 31.5 109t86.5 72.5t123 25.5q73 0 129 -23zM397 949l59 -64l-130 -136h-104l-130 136l59 64l123 -84z" />
    <glyph glyph-name="Scedilla" unicode="&#x15e;" horiz-adv-x="528" 
d="M457.5 59q-54.5 -59 -151.5 -73v-35q98 -14 98 -100q0 -52 -39 -85t-107 -33q-33 0 -61.5 9t-49.5 23l38 75q30 -15 59 -15q39 0 39 28q0 17 -20 24.5t-64 7.5l11 99q-124 12 -210 99l87 96q38 -32 74.5 -49t77.5 -17q42 0 63.5 21t21.5 56t-22 56t-81 43
q-107 41 -151 91t-44 126q0 62 31.5 109t86.5 72.5t123 25.5q73 0 129 -23t100 -69l-79 -94q-64 56 -131 56q-36 0 -55 -16.5t-19 -45.5q0 -20 10 -33.5t34 -26t71 -30.5q65 -26 104.5 -54t60 -69.5t20.5 -102.5q0 -87 -54.5 -146z" />
    <glyph glyph-name="Scircumflex" unicode="&#x15c;" horiz-adv-x="528" 
d="M396 690q56 -23 100 -69l-79 -94q-64 56 -131 56q-36 0 -55 -16.5t-19 -45.5q0 -20 10 -33.5t34 -26t71 -30.5q65 -26 104.5 -54t60 -69.5t20.5 -102.5q0 -66 -31.5 -116.5t-90.5 -78.5t-140 -28q-153 0 -250 101l87 96q38 -32 74.5 -49t77.5 -17q42 0 63.5 21t21.5 56
t-22 56t-81 43q-107 41 -151 91t-44 126q0 62 31.5 109t86.5 72.5t123 25.5q73 0 129 -23zM151 757l-59 64l130 136h104l130 -136l-59 -64l-123 84z" />
    <glyph glyph-name="Scommaaccent" unicode="&#x218;" horiz-adv-x="528" 
d="M396 690q56 -23 100 -69l-79 -94q-64 56 -131 56q-36 0 -55 -16.5t-19 -45.5q0 -20 10 -33.5t34 -26t71 -30.5q65 -26 104.5 -54t60 -69.5t20.5 -102.5q0 -66 -31.5 -116.5t-90.5 -78.5t-140 -28q-153 0 -250 101l87 96q38 -32 74.5 -49t77.5 -17q42 0 63.5 21t21.5 56
t-22 56t-81 43q-107 41 -151 91t-44 126q0 62 31.5 109t86.5 72.5t123 25.5q73 0 129 -23zM321 -88.5q23 -23.5 23 -59.5q0 -19 -5.5 -36t-19.5 -50l-44 -98h-83l26 115q-37 26 -37 69q0 34 23 58.5t58 24.5q36 0 59 -23.5z" />
    <glyph glyph-name="uni1E60" unicode="&#x1e60;" horiz-adv-x="528" 
d="M396 690q56 -23 100 -69l-79 -94q-64 56 -131 56q-36 0 -55 -16.5t-19 -45.5q0 -20 10 -33.5t34 -26t71 -30.5q65 -26 104.5 -54t60 -69.5t20.5 -102.5q0 -66 -31.5 -116.5t-90.5 -78.5t-140 -28q-153 0 -250 101l87 96q38 -32 74.5 -49t77.5 -17q42 0 63.5 21t21.5 56
t-22 56t-81 43q-107 41 -151 91t-44 126q0 62 31.5 109t86.5 72.5t123 25.5q73 0 129 -23zM344.5 916.5q27.5 -27.5 27.5 -68.5q0 -42 -27.5 -69t-70.5 -27t-70.5 27t-27.5 69q0 41 27.5 68.5t70.5 27.5t70.5 -27.5z" />
    <glyph glyph-name="uni1E62" unicode="&#x1e62;" horiz-adv-x="528" 
d="M396 690q56 -23 100 -69l-79 -94q-64 56 -131 56q-36 0 -55 -16.5t-19 -45.5q0 -20 10 -33.5t34 -26t71 -30.5q65 -26 104.5 -54t60 -69.5t20.5 -102.5q0 -66 -31.5 -116.5t-90.5 -78.5t-140 -28q-153 0 -250 101l87 96q38 -32 74.5 -49t77.5 -17q42 0 63.5 21t21.5 56
t-22 56t-81 43q-107 41 -151 91t-44 126q0 62 31.5 109t86.5 72.5t123 25.5q73 0 129 -23zM191.5 -222.5q-27.5 27.5 -27.5 68.5q0 42 27.5 69t70.5 27t70.5 -27t27.5 -69q0 -41 -27.5 -68.5t-70.5 -27.5t-70.5 27.5z" />
    <glyph glyph-name="uni1E9E" unicode="&#x1e9e;" horiz-adv-x="612" 
d="M420 695q63 -18 136 -52v-78l-124 -171q165 -34 165 -197q0 -70 -30.5 -118.5t-82 -72.5t-112.5 -24q-74 0 -123 27l52 116q18 -9 45 -9q29 0 46 20.5t17 63.5q0 50 -29 77t-98 35v89l116 165q-54 17 -102 17q-37 0 -53.5 -20t-16.5 -62v-501h-181v495q0 101 60 159.5
t174 58.5q78 0 141 -18z" />
    <glyph glyph-name="uni018F" unicode="&#x18f;" horiz-adv-x="580" 
d="M485 623.5q71 -89.5 71 -272.5q0 -184 -71.5 -276.5t-202.5 -92.5q-268 0 -268 357q0 30 6 70h354q-2 93 -30 133.5t-83 40.5q-41 0 -71 -14t-62 -39l-79 93q49 46 104.5 68t125.5 22q135 0 206 -89.5zM349 150.5q22 38.5 25 137.5h-187q1 -98 24.5 -137t70.5 -39
q45 0 67 38.5z" />
    <glyph glyph-name="T" unicode="T" horiz-adv-x="497" 
d="M501 695l-19 -137h-143v-558h-181v558h-153v137h496z" />
    <glyph glyph-name="Tbar" unicode="&#x166;" horiz-adv-x="497" 
d="M482 558h-143v-168h99v-98h-99v-292h-181v292h-100v98h100v168h-153v137h496z" />
    <glyph glyph-name="Tcaron" unicode="&#x164;" horiz-adv-x="497" 
d="M501 695l-19 -137h-143v-558h-181v558h-153v137h496zM371 949l59 -64l-130 -136h-104l-130 136l59 64l123 -84z" />
    <glyph glyph-name="uni0162" unicode="&#x162;" horiz-adv-x="497" 
d="M412.5 -78.5q24.5 -26.5 24.5 -70.5q0 -52 -38.5 -85t-107.5 -33q-33 0 -62.5 9t-48.5 23l38 78q29 -18 56 -18q21 0 31.5 6.5t10.5 22.5t-20 23.5t-64 7.5l13 115h-87v558h-153v137h496l-19 -137h-143v-604q49 -6 73.5 -32.5z" />
    <glyph glyph-name="uni1E70" unicode="&#x1e70;" horiz-adv-x="497" 
d="M501 695l-19 -137h-143v-558h-181v558h-153v137h496zM123 -271l-59 64l130 145h104l130 -145l-59 -64l-123 93z" />
    <glyph glyph-name="uni021A" unicode="&#x21a;" horiz-adv-x="497" 
d="M501 695l-19 -137h-143v-558h-181v558h-153v137h496zM307 -88.5q23 -23.5 23 -59.5q0 -19 -5.5 -36t-19.5 -50l-44 -98h-83l26 115q-37 26 -37 69q0 34 23 58.5t58 24.5q36 0 59 -23.5z" />
    <glyph glyph-name="uni023E" unicode="&#x23e;" horiz-adv-x="499" 
d="M482 566h-71l-85 -183v-383h-156v44l-55 -119l-48 23l103 223v395h-165v129h407l29 63l48 -22l-19 -41h31zM326 509l26 57h-26v-57z" />
    <glyph glyph-name="uni1E6A" unicode="&#x1e6a;" horiz-adv-x="497" 
d="M501 695l-19 -137h-143v-558h-181v558h-153v137h496zM318.5 916.5q27.5 -27.5 27.5 -68.5q0 -42 -27.5 -69t-70.5 -27t-70.5 27t-27.5 69q0 41 27.5 68.5t70.5 27.5t70.5 -27.5z" />
    <glyph glyph-name="uni1E6C" unicode="&#x1e6c;" horiz-adv-x="497" 
d="M501 695l-19 -137h-143v-558h-181v558h-153v137h496zM177.5 -222.5q-27.5 27.5 -27.5 68.5q0 42 27.5 69t70.5 27t70.5 -27t27.5 -69q0 -41 -27.5 -68.5t-70.5 -27.5t-70.5 27.5z" />
    <glyph glyph-name="uni01AC" unicode="&#x1ac;" horiz-adv-x="556" 
d="M541 558h-143v-558h-181v558h-38q-42 0 -42 -39q0 -14 3.5 -26t10.5 -28l-114 -49q-35 60 -35 123q0 73 51.5 114.5t139.5 41.5h367z" />
    <glyph glyph-name="uni1E6E" unicode="&#x1e6e;" horiz-adv-x="497" 
d="M501 695l-19 -137h-143v-558h-181v558h-153v137h496zM393 -195h-290v118h290v-118z" />
    <glyph glyph-name="uni01BC" unicode="&#x1bc;" horiz-adv-x="506" 
d="M430 572h-219v-138q47 25 93 25q50 0 90.5 -26t63.5 -77.5t23 -124.5q0 -75 -31.5 -131.5t-89.5 -87t-137 -30.5q-135 0 -217 106l95 85q25 -30 52.5 -46t61.5 -16q90 0 90 118q0 62 -19 87t-55 25q-18 0 -34 -5.5t-36 -18.5h-114v378h402z" />
    <glyph glyph-name="uni0184" unicode="&#x184;" horiz-adv-x="574" 
d="M498 406q66 -56 66 -168q0 -118 -68 -178t-189 -60h-236v483l-70 54q58 61 101 158h150v-233h55q125 0 191 -56zM355.5 155q20.5 26 20.5 81q0 51 -20.5 76.5t-68.5 25.5h-35v-209h40q43 0 63.5 26z" />
    <glyph glyph-name="uni01A7" unicode="&#x1a7;" horiz-adv-x="519" 
d="M393.5 688q53.5 -25 83 -71t29.5 -107q0 -76 -46 -125.5t-153 -86.5q-60 -20 -82 -44.5t-22 -62.5q0 -36 21 -55.5t60 -19.5q38 0 74 16.5t72 47.5l88 -97q-45 -46 -107 -73.5t-143 -27.5q-76 0 -133.5 27.5t-88 77.5t-30.5 116q0 85 43.5 134t141.5 85q68 24 93 45.5
t25 55.5q0 29 -17 44.5t-50 15.5q-73 0 -136 -54l-81 92q97 92 234 92q71 0 124.5 -25z" />
    <glyph glyph-name="uni01AE" unicode="&#x1ae;" horiz-adv-x="503" 
d="M502 -180q-56 -44 -142 -44q-93 0 -148 48.5t-55 143.5v33h1v557h-153v137h496l-19 -137h-143v-601q0 -51 45 -51q17 0 29.5 4t30.5 13z" />
    <glyph glyph-name="U" unicode="U" horiz-adv-x="585" 
d="M551 218q0 -68 -28.5 -121t-86.5 -84t-143 -31q-127 0 -192.5 64t-65.5 172v477h181v-471q0 -57 18 -83.5t59 -26.5t59 27t18 83v471h181v-477z" />
    <glyph glyph-name="Uacute" unicode="&#xda;" horiz-adv-x="585" 
d="M551 218q0 -68 -28.5 -121t-86.5 -84t-143 -31q-127 0 -192.5 64t-65.5 172v477h181v-471q0 -57 18 -83.5t59 -26.5t59 27t18 83v471h181v-477zM362 963l64 -126l-226 -87l-44 85z" />
    <glyph glyph-name="uni0244" unicode="&#x244;" horiz-adv-x="617" 
d="M612 498h-45v-280q0 -68 -28.5 -121t-86.5 -84t-143 -31q-127 0 -192.5 64t-65.5 172v280h-45v97h45v100h181v-100h154v100h181v-100h45v-97zM386 498h-154v-274q0 -57 18 -83.5t59 -26.5t59 27t18 83v274z" />
    <glyph glyph-name="Ubreve" unicode="&#x16c;" horiz-adv-x="585" 
d="M551 218q0 -68 -28.5 -121t-86.5 -84t-143 -31q-127 0 -192.5 64t-65.5 172v477h181v-471q0 -57 18 -83.5t59 -26.5t59 27t18 83v471h181v-477zM175 797.5q-42 48.5 -48 122.5l91 17q17 -69 74 -69q29 0 47.5 18.5t26.5 50.5l91 -17q-6 -74 -48 -122.5t-117 -48.5
t-117 48.5z" />
    <glyph glyph-name="uni01D3" unicode="&#x1d3;" horiz-adv-x="585" 
d="M551 218q0 -68 -28.5 -121t-86.5 -84t-143 -31q-127 0 -192.5 64t-65.5 172v477h181v-471q0 -57 18 -83.5t59 -26.5t59 27t18 83v471h181v-477zM415 949l59 -64l-130 -136h-104l-130 136l59 64l123 -84z" />
    <glyph glyph-name="Ucircumflex" unicode="&#xdb;" horiz-adv-x="585" 
d="M551 218q0 -68 -28.5 -121t-86.5 -84t-143 -31q-127 0 -192.5 64t-65.5 172v477h181v-471q0 -57 18 -83.5t59 -26.5t59 27t18 83v471h181v-477zM169 757l-59 64l130 136h104l130 -136l-59 -64l-123 84z" />
    <glyph glyph-name="uni0214" unicode="&#x214;" horiz-adv-x="585" 
d="M551 218q0 -68 -28.5 -121t-86.5 -84t-143 -31q-127 0 -192.5 64t-65.5 172v477h181v-471q0 -57 18 -83.5t59 -26.5t59 27t18 83v471h181v-477zM169 992l91 -203l-82 -40l-117 187zM338 992l85 -204l-85 -35l-110 187z" />
    <glyph glyph-name="Udieresis" unicode="&#xdc;" horiz-adv-x="585" 
d="M551 218q0 -68 -28.5 -121t-86.5 -84t-143 -31q-127 0 -192.5 64t-65.5 172v477h181v-471q0 -57 18 -83.5t59 -26.5t59 27t18 83v471h181v-477zM243 908q24 -24 24 -59q0 -36 -24 -60.5t-60 -24.5q-35 0 -59.5 24.5t-24.5 60.5q0 35 24.5 59t59.5 24q36 0 60 -24z
M462 908q24 -24 24 -59q0 -36 -24 -60.5t-60 -24.5q-35 0 -59.5 24.5t-24.5 60.5q0 35 24.5 59t59.5 24q36 0 60 -24z" />
    <glyph glyph-name="uni01D7" unicode="&#x1d7;" horiz-adv-x="585" 
d="M551 218q0 -68 -28.5 -121t-86.5 -84t-143 -31q-127 0 -192.5 64t-65.5 172v477h181v-471q0 -57 18 -83.5t59 -26.5t59 27t18 83v471h181v-477zM355 1116l97 -88l-158 -147l-65 56zM233 892.5q24 -24.5 24 -59.5q0 -36 -24 -60.5t-60 -24.5t-60 24.5t-24 60.5
q0 35 24 59.5t60 24.5t60 -24.5zM469 893q24 -24 24 -60t-24 -60.5t-60 -24.5q-35 0 -59.5 24.5t-24.5 60.5q0 35 24.5 59.5t59.5 24.5q36 0 60 -24z" />
    <glyph glyph-name="uni01D9" unicode="&#x1d9;" horiz-adv-x="585" 
d="M551 218q0 -68 -28.5 -121t-86.5 -84t-143 -31q-127 0 -192.5 64t-65.5 172v477h181v-471q0 -57 18 -83.5t59 -26.5t59 27t18 83v471h181v-477zM416 1115l59 -64l-130 -136h-104l-130 136l59 64l123 -84zM234 892.5q24 -24.5 24 -59.5q0 -36 -24 -60.5t-60 -24.5
t-60 24.5t-24 60.5q0 35 24 59.5t60 24.5t60 -24.5zM470 892.5q24 -24.5 24 -59.5q0 -36 -24 -60.5t-60 -24.5t-60 24.5t-24 60.5q0 35 24 59.5t60 24.5t60 -24.5z" />
    <glyph glyph-name="uni01DB" unicode="&#x1db;" horiz-adv-x="585" 
d="M551 218q0 -68 -28.5 -121t-86.5 -84t-143 -31q-127 0 -192.5 64t-65.5 172v477h181v-471q0 -57 18 -83.5t59 -26.5t59 27t18 83v471h181v-477zM233 1116l127 -179l-66 -56l-158 147zM233 893q24 -24 24 -60t-24 -60.5t-60 -24.5q-35 0 -59.5 24.5t-24.5 60.5
q0 35 24.5 59.5t59.5 24.5q36 0 60 -24zM469 893q24 -24 24 -60t-24 -60.5t-60 -24.5q-35 0 -59.5 24.5t-24.5 60.5q0 35 24.5 59.5t59.5 24.5q36 0 60 -24z" />
    <glyph glyph-name="uni01D5" unicode="&#x1d5;" horiz-adv-x="585" 
d="M551 218q0 -68 -28.5 -121t-86.5 -84t-143 -31q-127 0 -192.5 64t-65.5 172v477h181v-471q0 -57 18 -83.5t59 -26.5t59 27t18 83v471h181v-477zM242 889q24 -24 24 -59q0 -36 -24 -60.5t-60 -24.5q-35 0 -59.5 24.5t-24.5 60.5q0 35 24.5 59t59.5 24q36 0 60 -24z
M461 889q24 -24 24 -59q0 -36 -24 -60.5t-60 -24.5q-35 0 -59.5 24.5t-24.5 60.5q0 35 24.5 59t59.5 24q36 0 60 -24zM439 953h-290v118h290v-118z" />
    <glyph glyph-name="uni1EE4" unicode="&#x1ee4;" horiz-adv-x="585" 
d="M551 218q0 -68 -28.5 -121t-86.5 -84t-143 -31q-127 0 -192.5 64t-65.5 172v477h181v-471q0 -57 18 -83.5t59 -26.5t59 27t18 83v471h181v-477zM221.5 -222.5q-27.5 27.5 -27.5 68.5q0 42 27.5 69t70.5 27t70.5 -27t27.5 -69q0 -41 -27.5 -68.5t-70.5 -27.5t-70.5 27.5z
" />
    <glyph glyph-name="Ugrave" unicode="&#xd9;" horiz-adv-x="585" 
d="M551 218q0 -68 -28.5 -121t-86.5 -84t-143 -31q-127 0 -192.5 64t-65.5 172v477h181v-471q0 -57 18 -83.5t59 -26.5t59 27t18 83v471h181v-477zM220 962l206 -127l-44 -85l-226 87z" />
    <glyph glyph-name="uni1EE6" unicode="&#x1ee6;" horiz-adv-x="585" 
d="M551 218q0 -68 -28.5 -121t-86.5 -84t-143 -31q-127 0 -192.5 64t-65.5 172v477h181v-471q0 -57 18 -83.5t59 -26.5t59 27t18 83v471h181v-477zM243 855q35 2 49.5 10t14.5 27q0 14 -9 21.5t-24 7.5q-16 0 -27.5 -3t-28.5 -9l-26 69q44 26 105 26q58 0 89 -28.5t31 -75.5
q0 -39 -19.5 -63t-57.5 -32v-41h-97v91z" />
    <glyph glyph-name="Uhorn" unicode="&#x1af;" horiz-adv-x="682" 
d="M657.5 586q-38.5 -33 -106.5 -34v-334q0 -68 -28.5 -121t-86.5 -84t-143 -31q-127 0 -192.5 64t-65.5 172v477h181v-471q0 -57 18 -83.5t59 -26.5t59 27t18 83v471h181v-60q18 4 25.5 16t7.5 36q0 22 -3 36t-9 35l107 15q17 -40 17 -90q0 -64 -38.5 -97z" />
    <glyph glyph-name="uni1EE8" unicode="&#x1ee8;" horiz-adv-x="682" 
d="M426 837l-226 -87l-44 85l206 128zM657.5 586q-38.5 -33 -106.5 -34v-334q0 -68 -28.5 -121t-86.5 -84t-143 -31q-127 0 -192.5 64t-65.5 172v477h181v-471q0 -57 18 -83.5t59 -26.5t59 27t18 83v471h181v-60q18 4 25.5 16t7.5 36q0 22 -3 36t-9 35l107 15q17 -40 17 -90
q0 -64 -38.5 -97z" />
    <glyph glyph-name="uni1EF0" unicode="&#x1ef0;" horiz-adv-x="682" 
d="M657.5 586q-38.5 -33 -106.5 -34v-334q0 -68 -28.5 -121t-86.5 -84t-143 -31q-127 0 -192.5 64t-65.5 172v477h181v-471q0 -57 18 -83.5t59 -26.5t59 27t18 83v471h181v-60q18 4 25.5 16t7.5 36q0 22 -3 36t-9 35l107 15q17 -40 17 -90q0 -64 -38.5 -97zM362.5 -85
q27.5 -27 27.5 -69q0 -41 -27.5 -68.5t-70.5 -27.5t-70.5 27.5t-27.5 68.5q0 42 27.5 69t70.5 27t70.5 -27z" />
    <glyph glyph-name="uni1EEA" unicode="&#x1eea;" horiz-adv-x="682" 
d="M426 835l-44 -85l-226 87l64 125zM657.5 586q-38.5 -33 -106.5 -34v-334q0 -68 -28.5 -121t-86.5 -84t-143 -31q-127 0 -192.5 64t-65.5 172v477h181v-471q0 -57 18 -83.5t59 -26.5t59 27t18 83v471h181v-60q18 4 25.5 16t7.5 36q0 22 -3 36t-9 35l107 15q17 -40 17 -90
q0 -64 -38.5 -97z" />
    <glyph glyph-name="uni1EEC" unicode="&#x1eec;" horiz-adv-x="682" 
d="M246.5 918q-11.5 -3 -28.5 -9l-26 69q44 26 105 26q58 0 89 -28.5t31 -75.5q0 -39 -19.5 -63t-57.5 -32v-41h-97v91q35 2 49.5 10t14.5 27q0 14 -9 21.5t-24 7.5q-16 0 -27.5 -3zM657.5 586q-38.5 -33 -106.5 -34v-334q0 -68 -28.5 -121t-86.5 -84t-143 -31
q-127 0 -192.5 64t-65.5 172v477h181v-471q0 -57 18 -83.5t59 -26.5t59 27t18 83v471h181v-60q18 4 25.5 16t7.5 36q0 22 -3 36t-9 35l107 15q17 -40 17 -90q0 -64 -38.5 -97z" />
    <glyph glyph-name="uni1EEE" unicode="&#x1eee;" horiz-adv-x="682" 
d="M216.5 790.5q-9.5 -9.5 -22.5 -31.5l-81 38q18 54 51 88.5t74 34.5q21 0 37 -7t33 -19q2 -1 10 -6t14.5 -7.5t12.5 -2.5q14 0 24 9.5t22 31.5l81 -38q-18 -55 -50.5 -88.5t-75.5 -33.5q-21 0 -36 6.5t-32 18.5q-12 8 -20 12t-17 4q-15 0 -24.5 -9.5zM657.5 586
q-38.5 -33 -106.5 -34v-334q0 -68 -28.5 -121t-86.5 -84t-143 -31q-127 0 -192.5 64t-65.5 172v477h181v-471q0 -57 18 -83.5t59 -26.5t59 27t18 83v471h181v-60q18 4 25.5 16t7.5 36q0 22 -3 36t-9 35l107 15q17 -40 17 -90q0 -64 -38.5 -97z" />
    <glyph glyph-name="Uhungarumlaut" unicode="&#x170;" horiz-adv-x="585" 
d="M551 218q0 -68 -28.5 -121t-86.5 -84t-143 -31q-127 0 -192.5 64t-65.5 172v477h181v-471q0 -57 18 -83.5t59 -26.5t59 27t18 83v471h181v-477zM250 992l109 -52l-109 -187l-85 35zM419 992l108 -56l-117 -187l-83 40z" />
    <glyph glyph-name="uni0216" unicode="&#x216;" horiz-adv-x="585" 
d="M551 218q0 -68 -28.5 -121t-86.5 -84t-143 -31q-127 0 -192.5 64t-65.5 172v477h181v-471q0 -57 18 -83.5t59 -26.5t59 27t18 83v471h181v-477zM409.5 908q41.5 -50 47.5 -132l-91 -16q-16 80 -74 80t-74 -80l-91 16q6 82 47.5 132t117.5 50t117.5 -50z" />
    <glyph glyph-name="Umacron" unicode="&#x16a;" horiz-adv-x="585" 
d="M551 218q0 -68 -28.5 -121t-86.5 -84t-143 -31q-127 0 -192.5 64t-65.5 172v477h181v-471q0 -57 18 -83.5t59 -26.5t59 27t18 83v471h181v-477zM437 779h-290v118h290v-118z" />
    <glyph glyph-name="Uogonek" unicode="&#x172;" horiz-adv-x="585" 
d="M551 695v-477q0 -77 -37.5 -135t-109.5 -84q-101 -42 -101 -98q0 -22 12 -33.5t34 -11.5q27 0 55 7l-11 -104q-32 -8 -66 -8q-62 0 -102.5 32.5t-40.5 88.5q0 71 77 111q-111 8 -168.5 71t-57.5 164v477h181v-471q0 -57 18 -83.5t59 -26.5t59 27t18 83v471h181z" />
    <glyph glyph-name="uni01B1" unicode="&#x1b1;" horiz-adv-x="621" 
d="M153 21.5q-66 39.5 -100 111t-34 165.5q0 97 31 162t89 107h-101v128h228v-120q-31 -51 -45 -111t-14 -166q0 -98 24.5 -142t78.5 -44t79 44t25 142q0 106 -14 166.5t-45 110.5v120h228v-128h-101q58 -41 89 -106t31 -163q0 -93 -34.5 -164.5t-100 -111.5t-157.5 -40
q-91 0 -157 39.5z" />
    <glyph glyph-name="Uring" unicode="&#x16e;" horiz-adv-x="585" 
d="M551 218q0 -68 -28.5 -121t-86.5 -84t-143 -31q-127 0 -192.5 64t-65.5 172v477h181v-471q0 -57 18 -83.5t59 -26.5t59 27t18 83v471h181v-477zM392 962q37 -39 37 -98q0 -60 -37 -99t-100 -39t-100 39t-37 99q0 59 37 98t100 39t100 -39zM255 864q0 -50 37 -50t37 50
t-37 50t-37 -50z" />
    <glyph glyph-name="Utilde" unicode="&#x168;" horiz-adv-x="585" 
d="M551 218q0 -68 -28.5 -121t-86.5 -84t-143 -31q-127 0 -192.5 64t-65.5 172v477h181v-471q0 -57 18 -83.5t59 -26.5t59 27t18 83v471h181v-477zM310 765.5q-15 6.5 -32 18.5q-12 8 -20 12t-17 4q-15 0 -24.5 -9.5t-22.5 -31.5l-81 38q18 54 51 88.5t74 34.5q21 0 37 -7
t33 -19q2 -1 10 -6t14.5 -7.5t12.5 -2.5q14 0 24 9.5t22 31.5l81 -38q-18 -55 -50.5 -88.5t-75.5 -33.5q-21 0 -36 6.5z" />
    <glyph glyph-name="uni1E78" unicode="&#x1e78;" horiz-adv-x="585" 
d="M551 218q0 -68 -28.5 -121t-86.5 -84t-143 -31q-127 0 -192.5 64t-65.5 172v477h181v-471q0 -57 18 -83.5t59 -26.5t59 27t18 83v471h181v-477zM310 764.5q-15 6.5 -32 18.5q-12 8 -20 12t-17 4q-15 0 -24.5 -9.5t-22.5 -31.5l-81 38q18 54 51 88.5t74 34.5q21 0 37 -7
t33 -19q2 -1 10 -6t14.5 -7.5t12.5 -2.5q14 0 24 9.5t22 31.5l81 -38q-18 -55 -50.5 -88.5t-75.5 -33.5q-21 0 -36 6.5zM363 1146l64 -126l-226 -87l-44 85z" />
    <glyph glyph-name="V" unicode="V" horiz-adv-x="529" 
d="M546 695l-160 -695h-233l-170 695h186l103 -561l94 561h180z" />
    <glyph glyph-name="uni01B2" unicode="&#x1b2;" horiz-adv-x="585" 
d="M511 671.5q40 -41.5 40 -123.5v-271q0 -92 -34.5 -158.5t-97.5 -101.5t-146 -35q-73 0 -127 28.5t-82.5 78.5t-28.5 114v492h181v-497q0 -40 16 -62t47 -22q41 0 66 38t25 116v285q0 31 -24 31q-6 0 -20 -4l-24 116q43 17 95 17q74 0 114 -41.5z" />
    <glyph glyph-name="uni0245" unicode="&#x245;" horiz-adv-x="549" 
d="M383 695l183 -695h-189l-104 565l-104 -565h-186l184 695h216z" />
    <glyph glyph-name="W" unicode="W" horiz-adv-x="779" 
d="M774 695l-92 -695h-236l-58 520l-64 -520h-231l-89 695h176l47 -561l70 561h187l63 -561l58 561h169z" />
    <glyph glyph-name="Wacute" unicode="&#x1e82;" horiz-adv-x="779" 
d="M774 695l-92 -695h-236l-58 520l-64 -520h-231l-89 695h176l47 -561l70 561h187l63 -561l58 561h169zM462 963l64 -126l-226 -87l-44 85z" />
    <glyph glyph-name="Wcircumflex" unicode="&#x174;" horiz-adv-x="779" 
d="M774 695l-92 -695h-236l-58 520l-64 -520h-231l-89 695h176l47 -561l70 561h187l63 -561l58 561h169zM269 757l-59 64l130 136h104l130 -136l-59 -64l-123 84z" />
    <glyph glyph-name="Wdieresis" unicode="&#x1e84;" horiz-adv-x="779" 
d="M774 695l-92 -695h-236l-58 520l-64 -520h-231l-89 695h176l47 -561l70 561h187l63 -561l58 561h169zM343 908q24 -24 24 -59q0 -36 -24 -60.5t-60 -24.5q-35 0 -59.5 24.5t-24.5 60.5q0 35 24.5 59t59.5 24q36 0 60 -24zM562 908q24 -24 24 -59q0 -36 -24 -60.5
t-60 -24.5q-35 0 -59.5 24.5t-24.5 60.5q0 35 24.5 59t59.5 24q36 0 60 -24z" />
    <glyph glyph-name="Wgrave" unicode="&#x1e80;" horiz-adv-x="779" 
d="M774 695l-92 -695h-236l-58 520l-64 -520h-231l-89 695h176l47 -561l70 561h187l63 -561l58 561h169zM320 962l206 -127l-44 -85l-226 87z" />
    <glyph glyph-name="uni2C72" unicode="&#x2c72;" horiz-adv-x="842" 
d="M93 0h231l64 520l58 -520h233l58 535q4 28 14 40t30 12q14 0 23.5 -3t21.5 -9l45 102q-51 36 -119 36q-74 0 -116.5 -41t-51.5 -136l-37 -402l-63 561h-187l-70 -561l-47 561h-176z" />
    <glyph glyph-name="uni01F7" unicode="&#x1f7;" horiz-adv-x="551" 
d="M452.5 689q39.5 -24 62.5 -68t23 -102q0 -79 -32 -133t-84.5 -89t-133.5 -69l-62 -25v-203h-181v695h181v-38q56 56 139 56q48 0 87.5 -24zM327.5 409q25.5 40 25.5 98q0 78 -57 78q-38 0 -70 -32v-226l18 9q58 33 83.5 73z" />
    <glyph glyph-name="X" unicode="X" horiz-adv-x="543" 
d="M376 374l175 -374h-192l-92 254l-87 -254h-188l168 369l-157 326h192l74 -214l81 214h188z" />
    <glyph glyph-name="Y" unicode="Y" horiz-adv-x="555" 
d="M568 695l-200 -436v-259h-181v258l-200 437h193l100 -298l101 298h187z" />
    <glyph glyph-name="Yacute" unicode="&#xdd;" horiz-adv-x="555" 
d="M568 695l-200 -436v-259h-181v258l-200 437h193l100 -298l101 298h187zM347 963l64 -126l-226 -87l-44 85z" />
    <glyph glyph-name="Ycircumflex" unicode="&#x176;" horiz-adv-x="555" 
d="M568 695l-200 -436v-259h-181v258l-200 437h193l100 -298l101 298h187zM154 757l-59 64l130 136h104l130 -136l-59 -64l-123 84z" />
    <glyph glyph-name="Ydieresis" unicode="&#x178;" horiz-adv-x="555" 
d="M568 695l-200 -436v-259h-181v258l-200 437h193l100 -298l101 298h187zM228 908q24 -24 24 -59q0 -36 -24 -60.5t-60 -24.5q-35 0 -59.5 24.5t-24.5 60.5q0 35 24.5 59t59.5 24q36 0 60 -24zM447 908q24 -24 24 -59q0 -36 -24 -60.5t-60 -24.5q-35 0 -59.5 24.5
t-24.5 60.5q0 35 24.5 59t59.5 24q36 0 60 -24z" />
    <glyph glyph-name="uni1EF4" unicode="&#x1ef4;" horiz-adv-x="555" 
d="M568 695l-200 -436v-259h-181v258l-200 437h193l100 -298l101 298h187zM206.5 -222.5q-27.5 27.5 -27.5 68.5q0 42 27.5 69t70.5 27t70.5 -27t27.5 -69q0 -41 -27.5 -68.5t-70.5 -27.5t-70.5 27.5z" />
    <glyph glyph-name="Ygrave" unicode="&#x1ef2;" horiz-adv-x="555" 
d="M568 695l-200 -436v-259h-181v258l-200 437h193l100 -298l101 298h187zM205 962l206 -127l-44 -85l-226 87z" />
    <glyph glyph-name="uni01B3" unicode="&#x1b3;" horiz-adv-x="590" 
d="M187 258l-200 437h193l100 -297l51 163q24 82 62.5 117t107.5 35q65 0 118 -35l-45 -103q-22 12 -44 12q-20 0 -32 -11t-23 -40l-107 -277v-259h-181v258z" />
    <glyph glyph-name="uni1EF6" unicode="&#x1ef6;" horiz-adv-x="555" 
d="M568 695l-200 -436v-259h-181v258l-200 437h193l100 -298l101 298h187zM228 855q35 2 49.5 10t14.5 27q0 14 -9 21.5t-24 7.5q-16 0 -27.5 -3t-28.5 -9l-26 69q44 26 105 26q58 0 89 -28.5t31 -75.5q0 -39 -19.5 -63t-57.5 -32v-41h-97v91z" />
    <glyph glyph-name="uni0232" unicode="&#x232;" horiz-adv-x="555" 
d="M568 695l-200 -436v-259h-181v258l-200 437h193l100 -298l101 298h187zM422 779h-290v118h290v-118z" />
    <glyph glyph-name="uni01A6" unicode="&#x1a6;" horiz-adv-x="570" 
d="M268 145h-42v-145h-181v695h181v-114h40q140 0 208.5 -53.5t68.5 -161.5q0 -131 -113 -187l154 -292h-196zM226 268h45q46 0 66.5 23.5t20.5 74.5q0 46 -23 68t-71 22h-38v-188z" />
    <glyph glyph-name="uni024E" unicode="&#x24e;" horiz-adv-x="555" 
d="M532 617h36v-97h-80l-120 -261v-259h-181v258l-120 262h-79v97h35l-36 78h185l27 -78h163l28 78h178zM280 386l48 134h-95z" />
    <glyph glyph-name="uni1EF8" unicode="&#x1ef8;" horiz-adv-x="555" 
d="M568 695l-200 -436v-259h-181v258l-200 437h193l100 -298l101 298h187zM295 765.5q-15 6.5 -32 18.5q-12 8 -20 12t-17 4q-15 0 -24.5 -9.5t-22.5 -31.5l-81 38q18 54 51 88.5t74 34.5q21 0 37 -7t33 -19q2 -1 10 -6t14.5 -7.5t12.5 -2.5q14 0 24 9.5t22 31.5l81 -38
q-18 -55 -50.5 -88.5t-75.5 -33.5q-21 0 -36 6.5z" />
    <glyph glyph-name="Z" unicode="Z" horiz-adv-x="499" 
d="M478 695v-136l-262 -416h269l-17 -143h-458v134l265 422h-240v139h443z" />
    <glyph glyph-name="Zacute" unicode="&#x179;" horiz-adv-x="499" 
d="M478 695v-136l-262 -416h269l-17 -143h-458v134l265 422h-240v139h443zM321 963l64 -126l-226 -87l-44 85z" />
    <glyph glyph-name="Zacute.loclPLK" horiz-adv-x="499" 
d="M478 695v-136l-262 -416h269l-17 -143h-458v134l265 422h-240v139h443zM260 975l127 -71l-133 -160l-77 44z" />
    <glyph glyph-name="Zcaron" unicode="&#x17d;" horiz-adv-x="499" 
d="M478 695v-136l-262 -416h269l-17 -143h-458v134l265 422h-240v139h443zM374 949l59 -64l-130 -136h-104l-130 136l59 64l123 -84z" />
    <glyph glyph-name="Zdotaccent" unicode="&#x17b;" horiz-adv-x="499" 
d="M478 695v-136l-262 -416h269l-17 -143h-458v134l265 422h-240v139h443zM321.5 916.5q27.5 -27.5 27.5 -68.5q0 -42 -27.5 -69t-70.5 -27t-70.5 27t-27.5 69q0 41 27.5 68.5t70.5 27.5t70.5 -27.5z" />
    <glyph glyph-name="uni1E92" unicode="&#x1e92;" horiz-adv-x="499" 
d="M478 695v-136l-262 -416h269l-17 -143h-458v134l265 422h-240v139h443zM170.5 -222.5q-27.5 27.5 -27.5 68.5q0 42 27.5 69t70.5 27t70.5 -27t27.5 -69q0 -41 -27.5 -68.5t-70.5 -27.5t-70.5 27.5z" />
    <glyph glyph-name="uni0224" unicode="&#x224;" horiz-adv-x="492" 
d="M478 559l-262 -416h261v-175q0 -94 -54.5 -143t-146.5 -49q-85 0 -143 44l57 104q18 -10 31.5 -14t33.5 -4q50 0 50 51v43h-295v134l265 422h-240v139h443v-136z" />
    <glyph glyph-name="uni01B5" unicode="&#x1b5;" horiz-adv-x="499" 
d="M199 143h286l-17 -143h-458v126l108 164h-71v111h143l102 155h-257v139h443v-128l-109 -166h68v-111h-141z" />
    <glyph glyph-name="uni0299" unicode="&#x299;" horiz-adv-x="505" 
d="M483 162q0 -81 -60 -121.5t-166 -40.5h-214v528q118 23 207 23q100 0 157 -38t57 -107q0 -44 -27.5 -73t-81.5 -40q128 -16 128 -131zM217 442v-117h30q24 0 36.5 13t12.5 46q0 34 -12 47t-37 13q-18 0 -30 -2zM294.5 124.5q13.5 14.5 13.5 51.5q0 35 -13 49t-42 14h-36
v-129h37q27 0 40.5 14.5z" />
    <glyph glyph-name="uni0262" unicode="&#x262;" horiz-adv-x="516" 
d="M394.5 531q47.5 -20 85.5 -55l-79 -87q-28 20 -53 30t-54 10q-49 0 -71 -37.5t-22 -123.5q0 -66 8.5 -101.5t24 -48.5t40.5 -13q27 0 55 11v87h-51l-16 112h225v-265q-44 -30 -99 -48t-118 -18q-127 0 -187.5 68.5t-60.5 216.5q0 89 33.5 152.5t92 96.5t134.5 33
q65 0 112.5 -20z" />
    <glyph glyph-name="uni029B" unicode="&#x29b;" horiz-adv-x="515" 
d="M625 724l-46 -106q-31 16 -57 16q-22 0 -32 -12t-10 -40v-106l-72 -81q-31 17 -56 25.5t-56 8.5q-50 0 -72.5 -37.5t-22.5 -123.5q0 -66 8.5 -101.5t24 -48.5t40.5 -13q28 0 55 11v87h-51l-16 112h225v-265q-41 -30 -96.5 -48t-119.5 -18q-128 0 -188.5 69t-60.5 216
q0 89 32.5 152.5t87.5 96.5t122 33q36 0 68 -10v57q0 78 42 120.5t120 42.5q71 0 131 -37z" />
    <glyph glyph-name="uni029C" unicode="&#x29c;" horiz-adv-x="530" 
d="M313 0v207h-96v-207h-174v533h174v-201h96v201h174v-533h-174z" />
    <glyph glyph-name="uni026A" unicode="&#x26a;" horiz-adv-x="307" 
d="M297 412h-57v-288h57v-124h-287v124h56v288h-56v121h287v-121z" />
    <glyph glyph-name="uni029F" unicode="&#x29f;" horiz-adv-x="414" 
d="M217 533v-401h193l-17 -132h-350v533h174z" />
    <glyph glyph-name="uni0274" unicode="&#x274;" horiz-adv-x="532" 
d="M489 0h-206l-115 384q11 -72 17 -125t6 -123v-136h-148v533h203l118 -384q-12 76 -17.5 123t-5.5 115v146h148v-533z" />
    <glyph glyph-name="uni0276" unicode="&#x276;" horiz-adv-x="703" 
d="M464 118h219v-118h-321q-45 -18 -95 -18q-114 0 -179.5 73t-65.5 212q0 134 66 209t179 75q49 0 95 -18h327l-17 -118h-207q25 -40 35 -89h151v-113h-150q-8 -51 -37 -95zM319 143.5q15 35.5 15 123.5q0 86 -16 121.5t-50 35.5q-35 0 -51 -35.5t-16 -121.5
q0 -88 15.5 -123.5t51.5 -35.5t51 35.5z" />
    <glyph glyph-name="uni0280" unicode="&#x280;" horiz-adv-x="487" 
d="M235 179h-27v-179h-165v533h192q110 0 167.5 -45t57.5 -135q0 -49 -19 -87t-59 -60l111 -206h-176zM208 280h25q29 0 42.5 16.5t13.5 58.5q0 39 -13.5 54t-42.5 15h-25v-144z" />
    <glyph glyph-name="uni0281" unicode="&#x281;" horiz-adv-x="487" 
d="M460 181q0 -91 -57.5 -136t-167.5 -45h-192v533h165v-179h28l81 179h176l-111 -205q78 -44 78 -147zM275.5 124q13.5 15 13.5 55q0 41 -13 57t-43 16h-25v-143h25q29 0 42.5 15z" />
    <glyph glyph-name="uni028F" unicode="&#x28f;" horiz-adv-x="467" 
d="M484 533l-163 -342v-191h-174v190l-164 343h181l72 -235l72 235h176z" />
    <glyph glyph-name="a" unicode="a" horiz-adv-x="499" 
d="M459 117q6 -12 23 -19l-35 -113q-49 4 -79.5 20.5t-48.5 53.5q-50 -77 -145 -77q-72 0 -115 46t-43 121q0 88 59.5 134.5t172.5 46.5h35v20q0 45 -15 61t-56 16q-48 0 -124 -27l-38 110q44 20 95.5 30.5t97.5 10.5q108 0 159 -46.5t51 -144.5v-204q0 -27 6 -39z
M259.5 115q14.5 11 23.5 29v93h-20q-40 0 -58.5 -17.5t-18.5 -54.5q0 -29 11 -45t31 -16q17 0 31.5 11z" />
    <glyph glyph-name="a.ss04" horiz-adv-x="546" 
d="M506 133.5q8 -15.5 29 -27.5l-49 -124q-53 8 -85 26.5t-52 50.5q-24 -35 -60 -56t-80 -21q-92 0 -139.5 74t-47.5 212q0 86 25 150t69.5 98.5t103.5 34.5q71 0 118 -57l8 39h152v-353q0 -31 8 -46.5zM324 156v237q-13 17 -26.5 24.5t-30.5 7.5q-31 0 -48.5 -35
t-17.5 -123q0 -94 15.5 -127t43.5 -33q36 0 64 49z" />
    <glyph glyph-name="aacute" unicode="&#xe1;" horiz-adv-x="499" 
d="M459 117q6 -12 23 -19l-35 -113q-49 4 -79.5 20.5t-48.5 53.5q-50 -77 -145 -77q-72 0 -115 46t-43 121q0 88 59.5 134.5t172.5 46.5h35v20q0 45 -15 61t-56 16q-48 0 -124 -27l-38 110q44 20 95.5 30.5t97.5 10.5q108 0 159 -46.5t51 -144.5v-204q0 -27 6 -39z
M259.5 115q14.5 11 23.5 29v93h-20q-40 0 -58.5 -17.5t-18.5 -54.5q0 -29 11 -45t31 -16q17 0 31.5 11zM309 840l67 -125l-224 -96l-47 85z" />
    <glyph glyph-name="abreve" unicode="&#x103;" horiz-adv-x="499" 
d="M459 117q6 -12 23 -19l-35 -113q-49 4 -79.5 20.5t-48.5 53.5q-50 -77 -145 -77q-72 0 -115 46t-43 121q0 88 59.5 134.5t172.5 46.5h35v20q0 45 -15 61t-56 16q-48 0 -124 -27l-38 110q44 20 95.5 30.5t97.5 10.5q108 0 159 -46.5t51 -144.5v-204q0 -27 6 -39z
M259.5 115q14.5 11 23.5 29v93h-20q-40 0 -58.5 -17.5t-18.5 -54.5q0 -29 11 -45t31 -16q17 0 31.5 11zM131.5 680q-41.5 50 -47.5 132l91 16q16 -80 74 -80t74 80l91 -16q-6 -82 -47.5 -132t-117.5 -50t-117.5 50z" />
    <glyph glyph-name="uni1EAF" unicode="&#x1eaf;" horiz-adv-x="499" 
d="M459 117q6 -12 23 -19l-35 -113q-49 4 -79.5 20.5t-48.5 53.5q-50 -77 -145 -77q-72 0 -115 46t-43 121q0 88 59.5 134.5t172.5 46.5h35v20q0 45 -15 61t-56 16q-48 0 -124 -27l-38 110q44 20 95.5 30.5t97.5 10.5q108 0 159 -46.5t51 -144.5v-204q0 -27 6 -39z
M259.5 115q14.5 11 23.5 29v93h-20q-40 0 -58.5 -17.5t-18.5 -54.5q0 -29 11 -45t31 -16q17 0 31.5 11zM133 650.5q-42 48.5 -48 122.5l91 17q17 -69 74 -69q29 0 47.5 18.5t26.5 50.5l91 -17q-6 -74 -48 -122.5t-117 -48.5t-117 48.5zM318 1011l97 -88l-158 -147l-65 56z
" />
    <glyph glyph-name="uni1EB7" unicode="&#x1eb7;" horiz-adv-x="499" 
d="M459 117q6 -12 23 -19l-35 -113q-49 4 -79.5 20.5t-48.5 53.5q-50 -77 -145 -77q-72 0 -115 46t-43 121q0 88 59.5 134.5t172.5 46.5h35v20q0 45 -15 61t-56 16q-48 0 -124 -27l-38 110q44 20 95.5 30.5t97.5 10.5q108 0 159 -46.5t51 -144.5v-204q0 -27 6 -39z
M259.5 115q14.5 11 23.5 29v93h-20q-40 0 -58.5 -17.5t-18.5 -54.5q0 -29 11 -45t31 -16q17 0 31.5 11zM131.5 680q-41.5 50 -47.5 132l91 16q16 -80 74 -80t74 80l91 -16q-6 -82 -47.5 -132t-117.5 -50t-117.5 50zM179.5 -222.5q-27.5 27.5 -27.5 68.5q0 42 27.5 69
t70.5 27t70.5 -27t27.5 -69q0 -41 -27.5 -68.5t-70.5 -27.5t-70.5 27.5z" />
    <glyph glyph-name="uni1EB1" unicode="&#x1eb1;" horiz-adv-x="499" 
d="M459 117q6 -12 23 -19l-35 -113q-49 4 -79.5 20.5t-48.5 53.5q-50 -77 -145 -77q-72 0 -115 46t-43 121q0 88 59.5 134.5t172.5 46.5h35v20q0 45 -15 61t-56 16q-48 0 -124 -27l-38 110q44 20 95.5 30.5t97.5 10.5q108 0 159 -46.5t51 -144.5v-204q0 -27 6 -39z
M259.5 115q14.5 11 23.5 29v93h-20q-40 0 -58.5 -17.5t-18.5 -54.5q0 -29 11 -45t31 -16q17 0 31.5 11zM135 650.5q-42 48.5 -48 122.5l91 17q17 -69 74 -69q29 0 47.5 18.5t26.5 50.5l91 -17q-6 -74 -48 -122.5t-117 -48.5t-117 48.5zM186 1011l127 -179l-66 -56l-158 147z
" />
    <glyph glyph-name="uni1EB3" unicode="&#x1eb3;" horiz-adv-x="499" 
d="M459 117q6 -12 23 -19l-35 -113q-49 4 -79.5 20.5t-48.5 53.5q-50 -77 -145 -77q-72 0 -115 46t-43 121q0 88 59.5 134.5t172.5 46.5h35v20q0 45 -15 61t-56 16q-48 0 -124 -27l-38 110q44 20 95.5 30.5t97.5 10.5q108 0 159 -46.5t51 -144.5v-204q0 -27 6 -39z
M259.5 115q14.5 11 23.5 29v93h-20q-40 0 -58.5 -17.5t-18.5 -54.5q0 -29 11 -45t31 -16q17 0 31.5 11zM135 650.5q-42 48.5 -48 122.5l91 17q17 -69 74 -69q29 0 47.5 18.5t26.5 50.5l91 -17q-6 -74 -48 -122.5t-117 -48.5t-117 48.5zM203 880q35 2 49.5 10t14.5 27
q0 15 -9 22.5t-24 7.5q-16 0 -28 -3t-28 -10l-26 69q44 26 105 26q58 0 89 -28.5t31 -74.5q0 -40 -19.5 -64t-57.5 -32v-51h-97v101z" />
    <glyph glyph-name="uni1EB5" unicode="&#x1eb5;" horiz-adv-x="499" 
d="M459 117q6 -12 23 -19l-35 -113q-49 4 -79.5 20.5t-48.5 53.5q-50 -77 -145 -77q-72 0 -115 46t-43 121q0 88 59.5 134.5t172.5 46.5h35v20q0 45 -15 61t-56 16q-48 0 -124 -27l-38 110q44 20 95.5 30.5t97.5 10.5q108 0 159 -46.5t51 -144.5v-204q0 -27 6 -39z
M259.5 115q14.5 11 23.5 29v93h-20q-40 0 -58.5 -17.5t-18.5 -54.5q0 -29 11 -45t31 -16q17 0 31.5 11zM132 650.5q-42 48.5 -48 122.5l91 17q17 -69 74 -69q29 0 47.5 18.5t26.5 50.5l91 -17q-6 -74 -48 -122.5t-117 -48.5t-117 48.5zM267 826q-15 6 -32 17q-2 1 -14 7.5
t-23 6.5q-15 0 -24.5 -8.5t-22.5 -28.5l-81 35q18 50 51 81.5t74 31.5q21 0 37 -6.5t33 -17.5q9 -6 18.5 -10.5t18.5 -4.5q14 0 24 9t22 29l81 -35q-18 -51 -50.5 -81.5t-75.5 -30.5q-21 0 -36 6z" />
    <glyph glyph-name="uni01CE" unicode="&#x1ce;" horiz-adv-x="499" 
d="M459 117q6 -12 23 -19l-35 -113q-49 4 -79.5 20.5t-48.5 53.5q-50 -77 -145 -77q-72 0 -115 46t-43 121q0 88 59.5 134.5t172.5 46.5h35v20q0 45 -15 61t-56 16q-48 0 -124 -27l-38 110q44 20 95.5 30.5t97.5 10.5q108 0 159 -46.5t51 -144.5v-204q0 -27 6 -39z
M259.5 115q14.5 11 23.5 29v93h-20q-40 0 -58.5 -17.5t-18.5 -54.5q0 -29 11 -45t31 -16q17 0 31.5 11zM372 818l59 -65l-130 -145h-104l-130 145l59 65l123 -94z" />
    <glyph glyph-name="acircumflex" unicode="&#xe2;" horiz-adv-x="499" 
d="M459 117q6 -12 23 -19l-35 -113q-49 4 -79.5 20.5t-48.5 53.5q-50 -77 -145 -77q-72 0 -115 46t-43 121q0 88 59.5 134.5t172.5 46.5h35v20q0 45 -15 61t-56 16q-48 0 -124 -27l-38 110q44 20 95.5 30.5t97.5 10.5q108 0 159 -46.5t51 -144.5v-204q0 -27 6 -39z
M259.5 115q14.5 11 23.5 29v93h-20q-40 0 -58.5 -17.5t-18.5 -54.5q0 -29 11 -45t31 -16q17 0 31.5 11zM126 620l-59 64l130 145h104l130 -145l-59 -64l-123 93z" />
    <glyph glyph-name="uni1EA5" unicode="&#x1ea5;" horiz-adv-x="499" 
d="M459 117q6 -12 23 -19l-35 -113q-49 4 -79.5 20.5t-48.5 53.5q-50 -77 -145 -77q-72 0 -115 46t-43 121q0 88 59.5 134.5t172.5 46.5h35v20q0 45 -15 61t-56 16q-48 0 -124 -27l-38 110q44 20 95.5 30.5t97.5 10.5q108 0 159 -46.5t51 -144.5v-204q0 -27 6 -39z
M259.5 115q14.5 11 23.5 29v93h-20q-40 0 -58.5 -17.5t-18.5 -54.5q0 -29 11 -45t31 -16q17 0 31.5 11zM126 587l-59 64l130 136h104l130 -136l-59 -64l-123 84zM472 972l97 -88l-158 -147l-65 56z" />
    <glyph glyph-name="uni1EAD" unicode="&#x1ead;" horiz-adv-x="499" 
d="M459 117q6 -12 23 -19l-35 -113q-49 4 -79.5 20.5t-48.5 53.5q-50 -77 -145 -77q-72 0 -115 46t-43 121q0 88 59.5 134.5t172.5 46.5h35v20q0 45 -15 61t-56 16q-48 0 -124 -27l-38 110q44 20 95.5 30.5t97.5 10.5q108 0 159 -46.5t51 -144.5v-204q0 -27 6 -39z
M259.5 115q14.5 11 23.5 29v93h-20q-40 0 -58.5 -17.5t-18.5 -54.5q0 -29 11 -45t31 -16q17 0 31.5 11zM126 620l-59 64l130 145h104l130 -145l-59 -64l-123 93zM179.5 -222.5q-27.5 27.5 -27.5 68.5q0 42 27.5 69t70.5 27t70.5 -27t27.5 -69q0 -41 -27.5 -68.5t-70.5 -27.5
t-70.5 27.5z" />
    <glyph glyph-name="uni1EA7" unicode="&#x1ea7;" horiz-adv-x="499" 
d="M459 117q6 -12 23 -19l-35 -113q-49 4 -79.5 20.5t-48.5 53.5q-50 -77 -145 -77q-72 0 -115 46t-43 121q0 88 59.5 134.5t172.5 46.5h35v20q0 45 -15 61t-56 16q-48 0 -124 -27l-38 110q44 20 95.5 30.5t97.5 10.5q108 0 159 -46.5t51 -144.5v-204q0 -27 6 -39z
M259.5 115q14.5 11 23.5 29v93h-20q-40 0 -58.5 -17.5t-18.5 -54.5q0 -29 11 -45t31 -16q17 0 31.5 11zM124 587l-59 64l130 136h104l130 -136l-59 -64l-123 84zM26 972l127 -179l-66 -56l-158 147z" />
    <glyph glyph-name="uni1EA9" unicode="&#x1ea9;" horiz-adv-x="499" 
d="M459 117q6 -12 23 -19l-35 -113q-49 4 -79.5 20.5t-48.5 53.5q-50 -77 -145 -77q-72 0 -115 46t-43 121q0 88 59.5 134.5t172.5 46.5h35v20q0 45 -15 61t-56 16q-48 0 -124 -27l-38 110q44 20 95.5 30.5t97.5 10.5q108 0 159 -46.5t51 -144.5v-204q0 -27 6 -39z
M259.5 115q14.5 11 23.5 29v93h-20q-40 0 -58.5 -17.5t-18.5 -54.5q0 -29 11 -45t31 -16q17 0 31.5 11zM125 587l-59 64l130 136h104l130 -136l-59 -64l-123 84zM343 863q35 2 49.5 10t14.5 27q0 15 -9 22.5t-24 7.5q-16 0 -28 -3t-28 -10l-26 69q44 26 105 26
q58 0 89 -28.5t31 -74.5q0 -40 -19.5 -64t-57.5 -32v-51h-97v101z" />
    <glyph glyph-name="uni1EAB" unicode="&#x1eab;" horiz-adv-x="499" 
d="M459 117q6 -12 23 -19l-35 -113q-49 4 -79.5 20.5t-48.5 53.5q-50 -77 -145 -77q-72 0 -115 46t-43 121q0 88 59.5 134.5t172.5 46.5h35v20q0 45 -15 61t-56 16q-48 0 -124 -27l-38 110q44 20 95.5 30.5t97.5 10.5q108 0 159 -46.5t51 -144.5v-204q0 -27 6 -39z
M259.5 115q14.5 11 23.5 29v93h-20q-40 0 -58.5 -17.5t-18.5 -54.5q0 -29 11 -45t31 -16q17 0 31.5 11zM125 585l-59 64l130 136h104l130 -136l-59 -64l-123 84zM266 821q-15 6 -32 17q-2 1 -14 7.5t-23 6.5q-15 0 -24.5 -8.5t-22.5 -28.5l-81 35q18 50 51 81.5t74 31.5
q21 0 37 -6.5t33 -17.5q9 -6 18.5 -10.5t18.5 -4.5q14 0 24 9t22 29l81 -35q-18 -51 -50.5 -81.5t-75.5 -30.5q-21 0 -36 6z" />
    <glyph glyph-name="uni0201" unicode="&#x201;" horiz-adv-x="499" 
d="M459 117q6 -12 23 -19l-35 -113q-49 4 -79.5 20.5t-48.5 53.5q-50 -77 -145 -77q-72 0 -115 46t-43 121q0 88 59.5 134.5t172.5 46.5h35v20q0 45 -15 61t-56 16q-48 0 -124 -27l-38 110q44 20 95.5 30.5t97.5 10.5q108 0 159 -46.5t51 -144.5v-204q0 -27 6 -39z
M259.5 115q14.5 11 23.5 29v93h-20q-40 0 -58.5 -17.5t-18.5 -54.5q0 -29 11 -45t31 -16q17 0 31.5 11zM138 866l91 -203l-82 -40l-117 187zM307 866l85 -204l-85 -35l-110 187z" />
    <glyph glyph-name="adieresis" unicode="&#xe4;" horiz-adv-x="499" 
d="M459 117q6 -12 23 -19l-35 -113q-49 4 -79.5 20.5t-48.5 53.5q-50 -77 -145 -77q-72 0 -115 46t-43 121q0 88 59.5 134.5t172.5 46.5h35v20q0 45 -15 61t-56 16q-48 0 -124 -27l-38 110q44 20 95.5 30.5t97.5 10.5q108 0 159 -46.5t51 -144.5v-204q0 -27 6 -39z
M259.5 115q14.5 11 23.5 29v93h-20q-40 0 -58.5 -17.5t-18.5 -54.5q0 -29 11 -45t31 -16q17 0 31.5 11zM199 782q24 -24 24 -59q0 -36 -24 -60.5t-60 -24.5q-35 0 -59.5 24.5t-24.5 60.5q0 35 24.5 59t59.5 24q36 0 60 -24zM418 782q24 -24 24 -59q0 -36 -24 -60.5
t-60 -24.5q-35 0 -59.5 24.5t-24.5 60.5q0 35 24.5 59t59.5 24q36 0 60 -24z" />
    <glyph glyph-name="uni01DF" unicode="&#x1df;" horiz-adv-x="499" 
d="M459 117q6 -12 23 -19l-35 -113q-49 4 -79.5 20.5t-48.5 53.5q-50 -77 -145 -77q-72 0 -115 46t-43 121q0 88 59.5 134.5t172.5 46.5h35v20q0 45 -15 61t-56 16q-48 0 -124 -27l-38 110q44 20 95.5 30.5t97.5 10.5q108 0 159 -46.5t51 -144.5v-204q0 -27 6 -39z
M259.5 115q14.5 11 23.5 29v93h-20q-40 0 -58.5 -17.5t-18.5 -54.5q0 -29 11 -45t31 -16q17 0 31.5 11zM199 740q24 -24 24 -59q0 -36 -24 -60.5t-60 -24.5q-35 0 -59.5 24.5t-24.5 60.5q0 35 24.5 59t59.5 24q36 0 60 -24zM418 740q24 -24 24 -59q0 -36 -24 -60.5
t-60 -24.5q-35 0 -59.5 24.5t-24.5 60.5q0 35 24.5 59t59.5 24q36 0 60 -24zM394 805h-290v118h290v-118z" />
    <glyph glyph-name="uni0227" unicode="&#x227;" horiz-adv-x="499" 
d="M459 117q6 -12 23 -19l-35 -113q-49 4 -79.5 20.5t-48.5 53.5q-50 -77 -145 -77q-72 0 -115 46t-43 121q0 88 59.5 134.5t172.5 46.5h35v20q0 45 -15 61t-56 16q-48 0 -124 -27l-38 110q44 20 95.5 30.5t97.5 10.5q108 0 159 -46.5t51 -144.5v-204q0 -27 6 -39z
M259.5 115q14.5 11 23.5 29v93h-20q-40 0 -58.5 -17.5t-18.5 -54.5q0 -29 11 -45t31 -16q17 0 31.5 11zM319.5 790.5q27.5 -27.5 27.5 -68.5q0 -42 -27.5 -69t-70.5 -27t-70.5 27t-27.5 69q0 41 27.5 68.5t70.5 27.5t70.5 -27.5z" />
    <glyph glyph-name="uni1EA1" unicode="&#x1ea1;" horiz-adv-x="499" 
d="M459 117q6 -12 23 -19l-35 -113q-49 4 -79.5 20.5t-48.5 53.5q-50 -77 -145 -77q-72 0 -115 46t-43 121q0 88 59.5 134.5t172.5 46.5h35v20q0 45 -15 61t-56 16q-48 0 -124 -27l-38 110q44 20 95.5 30.5t97.5 10.5q108 0 159 -46.5t51 -144.5v-204q0 -27 6 -39z
M259.5 115q14.5 11 23.5 29v93h-20q-40 0 -58.5 -17.5t-18.5 -54.5q0 -29 11 -45t31 -16q17 0 31.5 11zM179.5 -222.5q-27.5 27.5 -27.5 68.5q0 42 27.5 69t70.5 27t70.5 -27t27.5 -69q0 -41 -27.5 -68.5t-70.5 -27.5t-70.5 27.5z" />
    <glyph glyph-name="uni01E1" unicode="&#x1e1;" horiz-adv-x="499" 
d="M459 117q6 -12 23 -19l-35 -113q-49 4 -79.5 20.5t-48.5 53.5q-50 -77 -145 -77q-72 0 -115 46t-43 121q0 88 59.5 134.5t172.5 46.5h35v20q0 45 -15 61t-56 16q-48 0 -124 -27l-38 110q44 20 95.5 30.5t97.5 10.5q108 0 159 -46.5t51 -144.5v-204q0 -27 6 -39z
M259.5 115q14.5 11 23.5 29v93h-20q-40 0 -58.5 -17.5t-18.5 -54.5q0 -29 11 -45t31 -16q17 0 31.5 11zM318.5 755.5q27.5 -27.5 27.5 -68.5q0 -42 -27.5 -69t-70.5 -27t-70.5 27t-27.5 69q0 41 27.5 68.5t70.5 27.5t70.5 -27.5zM394 816h-290v118h290v-118z" />
    <glyph glyph-name="agrave" unicode="&#xe0;" horiz-adv-x="499" 
d="M459 117q6 -12 23 -19l-35 -113q-49 4 -79.5 20.5t-48.5 53.5q-50 -77 -145 -77q-72 0 -115 46t-43 121q0 88 59.5 134.5t172.5 46.5h35v20q0 45 -15 61t-56 16q-48 0 -124 -27l-38 110q44 20 95.5 30.5t97.5 10.5q108 0 159 -46.5t51 -144.5v-204q0 -27 6 -39z
M259.5 115q14.5 11 23.5 29v93h-20q-40 0 -58.5 -17.5t-18.5 -54.5q0 -29 11 -45t31 -16q17 0 31.5 11zM189 840l204 -136l-47 -85l-224 96z" />
    <glyph glyph-name="uni1EA3" unicode="&#x1ea3;" horiz-adv-x="499" 
d="M459 117q6 -12 23 -19l-35 -113q-49 4 -79.5 20.5t-48.5 53.5q-50 -77 -145 -77q-72 0 -115 46t-43 121q0 88 59.5 134.5t172.5 46.5h35v20q0 45 -15 61t-56 16q-48 0 -124 -27l-38 110q44 20 95.5 30.5t97.5 10.5q108 0 159 -46.5t51 -144.5v-204q0 -27 6 -39z
M259.5 115q14.5 11 23.5 29v93h-20q-40 0 -58.5 -17.5t-18.5 -54.5q0 -29 11 -45t31 -16q17 0 31.5 11zM201 704q35 2 49.5 10t14.5 27q0 15 -9 22.5t-24 7.5q-16 0 -28 -3t-28 -10l-26 69q44 26 105 26q58 0 89 -28.5t31 -74.5q0 -40 -19.5 -64t-57.5 -32v-51h-97v101z" />
    <glyph glyph-name="uni0203" unicode="&#x203;" horiz-adv-x="499" 
d="M459 117q6 -12 23 -19l-35 -113q-49 4 -79.5 20.5t-48.5 53.5q-50 -77 -145 -77q-72 0 -115 46t-43 121q0 88 59.5 134.5t172.5 46.5h35v20q0 45 -15 61t-56 16q-48 0 -124 -27l-38 110q44 20 95.5 30.5t97.5 10.5q108 0 159 -46.5t51 -144.5v-204q0 -27 6 -39z
M259.5 115q14.5 11 23.5 29v93h-20q-40 0 -58.5 -17.5t-18.5 -54.5q0 -29 11 -45t31 -16q17 0 31.5 11zM366.5 746q41.5 -50 47.5 -132l-91 -16q-16 80 -74 80t-74 -80l-91 16q6 82 47.5 132t117.5 50t117.5 -50z" />
    <glyph glyph-name="uni0251" unicode="&#x251;" horiz-adv-x="546" 
d="M506 133.5q8 -15.5 29 -27.5l-49 -124q-53 8 -85 26.5t-52 50.5q-24 -35 -60 -56t-80 -21q-92 0 -139.5 74t-47.5 212q0 86 25 150t69.5 98.5t103.5 34.5q71 0 118 -57l8 39h152v-353q0 -31 8 -46.5zM324 156v237q-13 17 -26.5 24.5t-30.5 7.5q-31 0 -48.5 -35
t-17.5 -123q0 -94 15.5 -127t43.5 -33q36 0 64 49z" />
    <glyph glyph-name="uni0252" unicode="&#x252;" horiz-adv-x="546" 
d="M476.5 477q47.5 -74 47.5 -212q0 -86 -25 -150t-69.5 -98.5t-103.5 -34.5q-71 0 -118 57l-8 -39h-152v353q0 31 -8 46.5t-29 27.5l49 124q53 -8 85 -26.5t52 -50.5q24 35 60 56t80 21q92 0 139.5 -74zM327.5 143q17.5 35 17.5 123q0 94 -15.5 127t-43.5 33q-36 0 -64 -49
v-237q13 -17 26.5 -24.5t30.5 -7.5q31 0 48.5 35z" />
    <glyph glyph-name="amacron" unicode="&#x101;" horiz-adv-x="499" 
d="M459 117q6 -12 23 -19l-35 -113q-49 4 -79.5 20.5t-48.5 53.5q-50 -77 -145 -77q-72 0 -115 46t-43 121q0 88 59.5 134.5t172.5 46.5h35v20q0 45 -15 61t-56 16q-48 0 -124 -27l-38 110q44 20 95.5 30.5t97.5 10.5q108 0 159 -46.5t51 -144.5v-204q0 -27 6 -39z
M259.5 115q14.5 11 23.5 29v93h-20q-40 0 -58.5 -17.5t-18.5 -54.5q0 -29 11 -45t31 -16q17 0 31.5 11zM394 653h-290v118h290v-118z" />
    <glyph glyph-name="aogonek" unicode="&#x105;" horiz-adv-x="499" 
d="M365 -63.5q-22 -24.5 -22 -50.5q0 -23 12.5 -34.5t34.5 -11.5t54 8l-10 -104q-32 -8 -66 -8q-64 0 -104.5 32t-40.5 88q0 55 34 93t96 66q-22 19 -34 44q-50 -77 -145 -77q-72 0 -115 46t-43 121q0 88 59.5 134.5t172.5 46.5h35v20q0 45 -15 61t-56 16q-48 0 -124 -27
l-38 110q44 20 95.5 30.5t97.5 10.5q108 0 159 -46.5t51 -144.5v-204q0 -27 6 -39t23 -19l-35 -113q-60 -24 -82 -48.5zM259.5 115q14.5 11 23.5 29v93h-20q-40 0 -58.5 -17.5t-18.5 -54.5q0 -29 11 -45t31 -16q17 0 31.5 11z" />
    <glyph glyph-name="aring" unicode="&#xe5;" horiz-adv-x="499" 
d="M459 117q6 -12 23 -19l-35 -113q-49 4 -79.5 20.5t-48.5 53.5q-50 -77 -145 -77q-72 0 -115 46t-43 121q0 88 59.5 134.5t172.5 46.5h35v20q0 45 -15 61t-56 16q-48 0 -124 -27l-38 110q44 20 95.5 30.5t97.5 10.5q108 0 159 -46.5t51 -144.5v-204q0 -27 6 -39z
M259.5 115q14.5 11 23.5 29v93h-20q-40 0 -58.5 -17.5t-18.5 -54.5q0 -29 11 -45t31 -16q17 0 31.5 11zM349 836q37 -39 37 -98q0 -60 -37 -99t-100 -39t-100 39t-37 99q0 59 37 98t100 39t100 -39zM212 738q0 -50 37 -50t37 50t-37 50t-37 -50z" />
    <glyph glyph-name="aringacute" unicode="&#x1fb;" horiz-adv-x="499" 
d="M385 943l-226 -87l-44 85l206 128zM149 614q-37 39 -37 99q0 59 37 98t100 39t100 -39t37 -98q0 -60 -37 -99t-100 -39t-100 39zM212 713q0 -50 37 -50t37 50t-37 50t-37 -50zM459 117q6 -12 23 -19l-35 -113q-49 4 -79.5 20.5t-48.5 53.5q-50 -77 -145 -77
q-72 0 -115 46t-43 121q0 88 59.5 134.5t172.5 46.5h35v20q0 45 -15 61t-56 16q-48 0 -124 -27l-38 110q44 20 95.5 30.5t97.5 10.5q108 0 159 -46.5t51 -144.5v-204q0 -27 6 -39zM259.5 115q14.5 11 23.5 29v93h-20q-40 0 -58.5 -17.5t-18.5 -54.5q0 -29 11 -45t31 -16
q17 0 31.5 11z" />
    <glyph glyph-name="uni2C65" unicode="&#x2c65;" horiz-adv-x="499" 
d="M459 117q6 -12 23 -19l-35 -113q-49 4 -79.5 20.5t-48.5 53.5q-38 -60 -108 -74l-13 -60l-52 11l10 47q-65 6 -102.5 51t-37.5 115q0 81 54 125t158 48l25 114q-7 1 -21 1q-68 0 -144 -27l-38 100q44 20 95.5 30.5t97.5 10.5q23 0 34 -1l11 52l52 -12l-10 -49
q63 -16 93 -61t30 -120v-204q0 -27 6 -39zM300 405l-17 -83h24v33q0 33 -7 50zM307 144v93h-42l-30 -139q36 6 72 46zM182 107l27 124q-24 -8 -34 -24.5t-10 -44.5q0 -40 17 -55z" />
    <glyph glyph-name="atilde" unicode="&#xe3;" horiz-adv-x="499" 
d="M459 117q6 -12 23 -19l-35 -113q-49 4 -79.5 20.5t-48.5 53.5q-50 -77 -145 -77q-72 0 -115 46t-43 121q0 88 59.5 134.5t172.5 46.5h35v20q0 45 -15 61t-56 16q-48 0 -124 -27l-38 110q44 20 95.5 30.5t97.5 10.5q108 0 159 -46.5t51 -144.5v-204q0 -27 6 -39z
M259.5 115q14.5 11 23.5 29v93h-20q-40 0 -58.5 -17.5t-18.5 -54.5q0 -29 11 -45t31 -16q17 0 31.5 11zM266 639.5q-15 6.5 -32 18.5q-12 8 -20 12t-17 4q-15 0 -24.5 -9.5t-22.5 -31.5l-81 38q18 54 51 88.5t74 34.5q21 0 37 -7t33 -19q2 -1 10 -6t14.5 -7.5t12.5 -2.5
q14 0 24 9.5t22 31.5l81 -38q-18 -55 -50.5 -88.5t-75.5 -33.5q-21 0 -36 6.5z" />
    <glyph glyph-name="uni0250" unicode="&#x250;" horiz-adv-x="499" 
d="M411 133l38 -110q-44 -20 -95.5 -30.5t-97.5 -10.5q-108 0 -159 46.5t-51 144.5v204q0 27 -6 39t-23 19l35 113q49 -4 79.5 -20.5t48.5 -53.5q50 77 145 77q72 0 115 -46t43 -121q0 -88 -59.5 -134.5t-172.5 -46.5h-35v-20q0 -45 15 -61t56 -16q48 0 124 27zM239.5 418
q-14.5 -11 -23.5 -29v-93h20q40 0 58.5 17.5t18.5 54.5q0 29 -11 45t-31 16q-17 0 -31.5 -11z" />
    <glyph glyph-name="ae" unicode="&#xe6;" horiz-adv-x="779" 
d="M758 216h-293q6 -62 30.5 -85.5t68.5 -23.5q25 0 51 10.5t58 33.5l70 -93q-38 -35 -87.5 -55.5t-108.5 -20.5q-65 0 -114.5 23t-82.5 64q-62 -87 -168 -87q-76 0 -121 46t-45 121q0 86 61 132t178 46h35v21q0 46 -15 62.5t-55 16.5q-22 0 -56 -7.5t-69 -20.5l-38 111
q94 41 189 41q53 0 88.5 -16t58.5 -47q60 63 150 63q65 0 114.5 -31.5t77 -94t27.5 -150.5q0 -25 -4 -59zM594 324q-1 56 -15.5 85t-47.5 29q-31 0 -47 -26.5t-20 -94.5h130v7zM305 160q-10 35 -11 70v1h-22q-39 0 -58 -16.5t-19 -52.5q0 -57 42 -57q36 0 68 55z" />
    <glyph glyph-name="aeacute" unicode="&#x1fd;" horiz-adv-x="779" 
d="M758 216h-293q6 -62 30.5 -85.5t68.5 -23.5q25 0 51 10.5t58 33.5l70 -93q-38 -35 -87.5 -55.5t-108.5 -20.5q-65 0 -114.5 23t-82.5 64q-62 -87 -168 -87q-76 0 -121 46t-45 121q0 86 61 132t178 46h35v21q0 46 -15 62.5t-55 16.5q-22 0 -56 -7.5t-69 -20.5l-38 111
q94 41 189 41q53 0 88.5 -16t58.5 -47q60 63 150 63q65 0 114.5 -31.5t77 -94t27.5 -150.5q0 -25 -4 -59zM594 324q-1 56 -15.5 85t-47.5 29q-31 0 -47 -26.5t-20 -94.5h130v7zM305 160q-10 35 -11 70v1h-22q-39 0 -58 -16.5t-19 -52.5q0 -57 42 -57q36 0 68 55zM448 840
l67 -125l-224 -96l-47 85z" />
    <glyph glyph-name="uni01E3" unicode="&#x1e3;" horiz-adv-x="779" 
d="M758 216h-293q6 -62 30.5 -85.5t68.5 -23.5q25 0 51 10.5t58 33.5l70 -93q-38 -35 -87.5 -55.5t-108.5 -20.5q-65 0 -114.5 23t-82.5 64q-62 -87 -168 -87q-76 0 -121 46t-45 121q0 86 61 132t178 46h35v21q0 46 -15 62.5t-55 16.5q-22 0 -56 -7.5t-69 -20.5l-38 111
q94 41 189 41q53 0 88.5 -16t58.5 -47q60 63 150 63q65 0 114.5 -31.5t77 -94t27.5 -150.5q0 -25 -4 -59zM594 324q-1 56 -15.5 85t-47.5 29q-31 0 -47 -26.5t-20 -94.5h130v7zM305 160q-10 35 -11 70v1h-22q-39 0 -58 -16.5t-19 -52.5q0 -57 42 -57q36 0 68 55zM533 653
h-290v118h290v-118z" />
    <glyph glyph-name="b" unicode="b" horiz-adv-x="545" 
d="M475.5 478q44.5 -73 44.5 -212q0 -85 -23 -149t-66 -99.5t-103 -35.5q-39 0 -70.5 17t-52.5 49l-7 -48h-155v743l174 18v-277q21 31 55 49t73 18q86 0 130.5 -73zM325 142q17 35 17 124q0 94 -15 126.5t-44 32.5q-36 0 -66 -53v-224q24 -41 59 -41q32 0 49 35z" />
    <glyph glyph-name="uni1E03" unicode="&#x1e03;" horiz-adv-x="545" 
d="M475.5 478q44.5 -73 44.5 -212q0 -85 -23 -149t-66 -99.5t-103 -35.5q-39 0 -70.5 17t-52.5 49l-7 -48h-155v743l174 18v-277q21 31 55 49t73 18q86 0 130.5 -73zM325 142q17 35 17 124q0 94 -15 126.5t-44 32.5q-36 0 -66 -53v-224q24 -41 59 -41q32 0 49 35z
M363.5 964.5q27.5 -27.5 27.5 -68.5q0 -42 -27.5 -69t-70.5 -27t-70.5 27t-27.5 69q0 41 27.5 68.5t70.5 27.5t70.5 -27.5z" />
    <glyph glyph-name="uni1E05" unicode="&#x1e05;" horiz-adv-x="545" 
d="M475.5 478q44.5 -73 44.5 -212q0 -85 -23 -149t-66 -99.5t-103 -35.5q-39 0 -70.5 17t-52.5 49l-7 -48h-155v743l174 18v-277q21 31 55 49t73 18q86 0 130.5 -73zM325 142q17 35 17 124q0 94 -15 126.5t-44 32.5q-36 0 -66 -53v-224q24 -41 59 -41q32 0 49 35z
M209.5 -222.5q-27.5 27.5 -27.5 68.5q0 42 27.5 69t70.5 27t70.5 -27t27.5 -69q0 -41 -27.5 -68.5t-70.5 -27.5t-70.5 27.5z" />
    <glyph glyph-name="uniA7B5" unicode="&#xa7b5;" horiz-adv-x="556" 
d="M538 208q0 -68 -26.5 -119.5t-73 -79t-105.5 -27.5q-69 0 -124 37v-220l-166 -24v772q0 104 62.5 159t162.5 55q104 0 161 -52.5t57 -138.5q0 -67 -30 -108t-95 -56q177 -21 177 -198zM363 224q0 63 -26 89.5t-67 26.5h-28l9 116h13q53 0 53 98q0 47 -13 67t-39 20
q-29 0 -42.5 -21t-13.5 -71v-420q30 -15 70 -15q84 0 84 110z" />
    <glyph glyph-name="uni0253" unicode="&#x253;" horiz-adv-x="545" 
d="M475.5 478q44.5 -73 44.5 -212q0 -85 -23 -149t-66 -99.5t-103 -35.5q-39 0 -70.5 17t-52.5 49l-7 -48h-155v578q0 80 52 131.5t149 51.5q39 0 75.5 -9.5t64.5 -25.5l-47 -109q-34 17 -68 17q-27 0 -39.5 -14.5t-12.5 -47.5v-88q21 31 55 49t71 18q88 0 132.5 -73z
M325 142q17 35 17 124q0 94 -15 126.5t-43 32.5q-37 0 -67 -53v-224q24 -41 59 -41q32 0 49 35z" />
    <glyph glyph-name="uni02AD" unicode="&#x2ad;" horiz-adv-x="346" 
d="M30 400v169h286v-169h-99v82h-87v-82h-100zM30 -1v169h286v-169h-99v82h-87v-82h-100z" />
    <glyph glyph-name="uni0298" unicode="&#x298;" horiz-adv-x="730" 
d="M545 669q77 -44 119 -126.5t42 -194.5q0 -109 -42 -192t-119.5 -128.5t-178.5 -45.5q-102 0 -179.5 44t-120 127t-42.5 195q0 108 42.5 191t120.5 128.5t179 45.5q102 0 179 -44zM238 536q-44 -59 -44 -188t44.5 -188.5t127.5 -59.5q84 0 127.5 59t43.5 189
q0 127 -46 187t-125 60q-84 0 -128 -59zM426 399q23 -23 23 -57q0 -35 -23 -58t-59 -23t-59 23t-23 58q0 34 23 57t59 23t59 -23z" />
    <glyph glyph-name="uni02AC" unicode="&#x2ac;" horiz-adv-x="423" 
d="M395 668l-51 -268h-102l-27 194l-31 -194h-99l-57 268h72l38 -209l32 209h92l32 -210l32 210h69zM395 268l-51 -268h-102l-27 194l-31 -194h-99l-57 268h72l38 -209l32 209h92l32 -210l32 210h69z" />
    <glyph glyph-name="uni0180" unicode="&#x180;" horiz-adv-x="551" 
d="M482.5 478q44.5 -73 44.5 -212q0 -85 -23 -149t-66 -99.5t-103 -35.5q-39 0 -70.5 17t-52.5 49l-7 -48h-155v594h-48v98h48v51l174 18v-69h111v-98h-111v-110q21 31 55 49t73 18q86 0 130.5 -73zM332 142q17 35 17 124q0 94 -15 126.5t-44 32.5q-36 0 -66 -53v-224
q24 -41 59 -41q32 0 49 35z" />
    <glyph glyph-name="uni0183" unicode="&#x183;" horiz-adv-x="545" 
d="M475.5 471.5q44.5 -72.5 44.5 -209.5q0 -83 -23 -146.5t-66.5 -98.5t-102.5 -35q-39 0 -70.5 17t-52.5 49l-7 -48h-155v743h367l-18 -123h-175v-143q21 31 55 49t71 18q88 0 132.5 -72.5zM325 141.5q17 34.5 17 120.5q0 92 -15 124t-43 32q-37 0 -67 -53v-217
q24 -41 59 -41q32 0 49 34.5z" />
    <glyph glyph-name="c" unicode="c" horiz-adv-x="437" 
d="M366 534q42 -17 78 -51l-72 -98q-44 35 -85 35q-42 0 -63 -35t-21 -122q0 -83 21.5 -115t61.5 -32q21 0 39 7.5t44 24.5l75 -102q-72 -64 -169 -64q-119 0 -186 74t-67 206q0 87 30.5 152.5t87 101t132.5 35.5q52 0 94 -17z" />
    <glyph glyph-name="cacute" unicode="&#x107;" horiz-adv-x="437" 
d="M366 534q42 -17 78 -51l-72 -98q-44 35 -85 35q-42 0 -63 -35t-21 -122q0 -83 21.5 -115t61.5 -32q21 0 39 7.5t44 24.5l75 -102q-72 -64 -169 -64q-119 0 -186 74t-67 206q0 87 30.5 152.5t87 101t132.5 35.5q52 0 94 -17zM329 840l67 -125l-224 -96l-47 85z" />
    <glyph glyph-name="cacute.loclPLK" horiz-adv-x="437" 
d="M366 534q42 -17 78 -51l-72 -98q-44 35 -85 35q-42 0 -63 -35t-21 -122q0 -83 21.5 -115t61.5 -32q21 0 39 7.5t44 24.5l75 -102q-72 -64 -169 -64q-119 0 -186 74t-67 206q0 87 30.5 152.5t87 101t132.5 35.5q52 0 94 -17zM277 818l127 -71l-132 -164l-77 44z" />
    <glyph glyph-name="ccaron" unicode="&#x10d;" horiz-adv-x="437" 
d="M366 534q42 -17 78 -51l-72 -98q-44 35 -85 35q-42 0 -63 -35t-21 -122q0 -83 21.5 -115t61.5 -32q21 0 39 7.5t44 24.5l75 -102q-72 -64 -169 -64q-119 0 -186 74t-67 206q0 87 30.5 152.5t87 101t132.5 35.5q52 0 94 -17zM392 818l59 -65l-130 -145h-104l-130 145
l59 65l123 -94z" />
    <glyph glyph-name="ccedilla" unicode="&#xe7;" horiz-adv-x="437" 
d="M305 -16v-33q98 -14 98 -100q0 -52 -39 -85t-107 -33q-33 0 -61.5 9t-49.5 23l38 75q30 -15 59 -15q39 0 39 28q0 17 -20 24.5t-64 7.5l12 104q-90 19 -139 89.5t-49 183.5q0 87 30.5 152.5t87 101t132.5 35.5q52 0 94 -17t78 -51l-72 -98q-44 35 -85 35q-42 0 -63 -35
t-21 -122q0 -83 21.5 -115t61.5 -32q21 0 39 7.5t44 24.5l75 -102q-62 -54 -139 -62z" />
    <glyph glyph-name="ccircumflex" unicode="&#x109;" horiz-adv-x="437" 
d="M366 534q42 -17 78 -51l-72 -98q-44 35 -85 35q-42 0 -63 -35t-21 -122q0 -83 21.5 -115t61.5 -32q21 0 39 7.5t44 24.5l75 -102q-72 -64 -169 -64q-119 0 -186 74t-67 206q0 87 30.5 152.5t87 101t132.5 35.5q52 0 94 -17zM146 620l-59 64l130 145h104l130 -145l-59 -64
l-123 93z" />
    <glyph glyph-name="uni0255" unicode="&#x255;" horiz-adv-x="462" 
d="M431.5 226.5q34.5 -32.5 34.5 -89.5q0 -76 -50.5 -115.5t-127.5 -39.5q-38 0 -64 6l-30 -75l-79 32l32 72q-60 32 -92.5 96t-32.5 149q0 87 30.5 152.5t87 101t132.5 35.5q52 0 94 -17t78 -51l-72 -98q-44 35 -85 35q-42 0 -63 -35t-21 -122q0 -60 12 -99q21 50 53 72.5
t77 22.5q52 0 86.5 -32.5zM353 142q0 28 -24 28q-33 0 -55 -62q16 -4 36 -4q43 0 43 38z" />
    <glyph glyph-name="cdotaccent" unicode="&#x10b;" horiz-adv-x="437" 
d="M366 534q42 -17 78 -51l-72 -98q-44 35 -85 35q-42 0 -63 -35t-21 -122q0 -83 21.5 -115t61.5 -32q21 0 39 7.5t44 24.5l75 -102q-72 -64 -169 -64q-119 0 -186 74t-67 206q0 87 30.5 152.5t87 101t132.5 35.5q52 0 94 -17zM339.5 790.5q27.5 -27.5 27.5 -68.5
q0 -42 -27.5 -69t-70.5 -27t-70.5 27t-27.5 69q0 41 27.5 68.5t70.5 27.5t70.5 -27.5z" />
    <glyph glyph-name="uni0188" unicode="&#x188;" horiz-adv-x="437" 
d="M588 724l-46 -106q-31 16 -57 16q-22 0 -31.5 -12t-9.5 -40v-99l-67 -92q-44 29 -89 29q-43 0 -64 -35t-21 -122q0 -83 21.5 -115t61.5 -32q21 0 39 7.5t44 24.5l75 -102q-72 -64 -169 -64q-119 0 -186 74t-67 206q0 86 29.5 151.5t81 101.5t115.5 36q23 0 47 -6v53
q0 78 42 120.5t120 42.5q71 0 131 -37z" />
    <glyph glyph-name="uni0297" unicode="&#x297;" horiz-adv-x="450" 
d="M456 483l-70 -98q-44 33 -85 33q-47 0 -69 -57.5t-22 -200.5q0 -96 10 -150.5t29 -75.5t48 -21q22 0 40 7t42 24l75 -103q-73 -65 -165 -65q-127 0 -193.5 97.5t-66.5 286.5t68.5 290t193.5 101q97 0 165 -68z" />
    <glyph glyph-name="uni023C" unicode="&#x23c;" horiz-adv-x="437" 
d="M325 123.5q18 7.5 44 24.5l75 -102q-72 -64 -169 -64q-13 0 -37 2l-14 -59l-54 12l14 58q-78 26 -120 94.5t-42 172.5q0 87 30.5 152.5t87 101t132.5 35.5q23 0 44 -3l13 54l53 -12l-14 -57q43 -18 76 -50l-72 -98q-15 12 -33 22l-69 -290q5 -1 16 -1q21 0 39 7.5z
M222 153l63 267q-41 -1 -61.5 -35.5t-20.5 -121.5q0 -74 19 -110z" />
    <glyph glyph-name="d" unicode="d" horiz-adv-x="547" 
d="M504 743v-743h-155l-6 57q-52 -75 -136 -75q-90 0 -136.5 75t-46.5 211q0 84 25 148.5t70 99.5t104 35q66 0 107 -46v256zM330 156v233q-14 18 -27 27t-29 9q-71 0 -71 -158q0 -93 16.5 -126.5t46.5 -33.5q36 0 64 49z" />
    <glyph glyph-name="eth" unicode="&#xf0;" horiz-adv-x="536" 
d="M468.5 504q40.5 -95 40.5 -224q0 -84 -28.5 -151.5t-84 -107t-134.5 -39.5q-68 0 -123 30t-86 86.5t-31 134.5q0 72 26 128t69.5 87.5t93.5 31.5q35 0 62.5 -10.5t51.5 -30.5q-14 44 -32.5 76t-51.5 62l-47 -52l-105 49l51 56q-33 11 -76 20l33 110q63 -11 132 -35l68 78
l88 -71l-51 -61q94 -72 134.5 -167zM317.5 139.5q15.5 32.5 15.5 105.5l-1 83q-27 32 -67 32q-35 0 -51.5 -30.5t-16.5 -93.5q0 -71 17 -100t51 -29q37 0 52.5 32.5z" />
    <glyph glyph-name="uni0238" unicode="&#x238;" horiz-adv-x="796" 
d="M729.5 479q41.5 -72 41.5 -213q0 -86 -22.5 -150.5t-64 -99t-96.5 -34.5q-34 0 -64 19t-50 53l-8 -54h-135l-8 57q-47 -75 -125 -75q-85 0 -129.5 75t-44.5 211q0 86 23.5 150t64.5 98.5t94 34.5q31 0 59 -15t47 -44v251l174 18v-277q22 31 53.5 49t70.5 18
q78 0 119.5 -72zM312 153v235q-22 37 -51 37q-27 0 -42.5 -35.5t-15.5 -122.5q0 -94 14 -126.5t39 -32.5q29 0 56 45zM577.5 141.5q15.5 34.5 15.5 124.5q0 93 -13.5 125.5t-37.5 32.5q-31 0 -56 -43v-231q22 -43 51 -43q25 0 40.5 34.5z" />
    <glyph glyph-name="dcaron" unicode="&#x10f;" horiz-adv-x="660" 
d="M504 743v-743h-155l-6 57q-52 -75 -136 -75q-90 0 -136.5 75t-46.5 211q0 84 25 148.5t70 99.5t104 35q66 0 107 -46v256zM330 156v233q-14 18 -27 27t-29 9q-71 0 -71 -158q0 -93 16.5 -126.5t46.5 -33.5q36 0 64 49zM630 519l52 223l-124 18l-23 -227z" />
    <glyph glyph-name="uni1E13" unicode="&#x1e13;" horiz-adv-x="547" 
d="M504 743v-743h-155l-6 57q-52 -75 -136 -75q-90 0 -136.5 75t-46.5 211q0 84 25 148.5t70 99.5t104 35q66 0 107 -46v256zM330 156v233q-14 18 -27 27t-29 9q-71 0 -71 -158q0 -93 16.5 -126.5t46.5 -33.5q36 0 64 49zM155 -271l-59 64l130 145h104l130 -145l-59 -64
l-123 93z" />
    <glyph glyph-name="dcroat" unicode="&#x111;" horiz-adv-x="553" 
d="M551 692v-98h-47v-594h-155l-6 57q-52 -75 -136 -75q-90 0 -136.5 75t-46.5 211q0 84 25 148.5t70 99.5t104 35q66 0 107 -46v89h-113v98h113v69l174 -18v-51h47zM330 156v233q-14 18 -27 27t-29 9q-71 0 -71 -158q0 -93 16.5 -126.5t46.5 -33.5q36 0 64 49z" />
    <glyph glyph-name="uni0221" unicode="&#x221;" horiz-adv-x="734" 
d="M705.5 218.5q31.5 -31.5 31.5 -86.5q0 -74 -50.5 -112t-131.5 -38q-13 0 -39 2l-30 -71l-77 32l27 61q-48 22 -76 67q-29 -43 -66 -67t-87 -24q-90 0 -136.5 75t-46.5 211q0 85 25 149t70.5 99t105.5 35q62 0 105 -46v256l174 -18v-551q0 -14 2 -34q24 50 51.5 71
t68.5 21q48 0 79.5 -31.5zM332 159q-2 22 -2 35v195q-14 18 -27 27t-29 9q-71 0 -71 -158q0 -93 16.5 -126.5t47.5 -33.5q37 0 65 52zM624 138q0 23 -19 23q-11 0 -19.5 -12t-22.5 -45q6 -1 20 -1q41 0 41 35z" />
    <glyph glyph-name="uni1E0B" unicode="&#x1e0b;" horiz-adv-x="547" 
d="M504 743v-743h-155l-6 57q-52 -75 -136 -75q-90 0 -136.5 75t-46.5 211q0 84 25 148.5t70 99.5t104 35q66 0 107 -46v256zM330 156v233q-14 18 -27 27t-29 9q-71 0 -71 -158q0 -93 16.5 -126.5t46.5 -33.5q36 0 64 49zM339.5 964.5q27.5 -27.5 27.5 -68.5
q0 -42 -27.5 -69t-70.5 -27t-70.5 27t-27.5 69q0 41 27.5 68.5t70.5 27.5t70.5 -27.5z" />
    <glyph glyph-name="uni1E0D" unicode="&#x1e0d;" horiz-adv-x="547" 
d="M504 743v-743h-155l-6 57q-52 -75 -136 -75q-90 0 -136.5 75t-46.5 211q0 84 25 148.5t70 99.5t104 35q66 0 107 -46v256zM330 156v233q-14 18 -27 27t-29 9q-71 0 -71 -158q0 -93 16.5 -126.5t46.5 -33.5q36 0 64 49zM209.5 -222.5q-27.5 27.5 -27.5 68.5q0 42 27.5 69
t70.5 27t70.5 -27t27.5 -69q0 -41 -27.5 -68.5t-70.5 -27.5t-70.5 27.5z" />
    <glyph glyph-name="uni018D" unicode="&#x18d;" horiz-adv-x="529" 
d="M368 76q54 -32 72.5 -64.5t18.5 -77.5q0 -69 -52.5 -114t-157.5 -45q-55 0 -102 17.5t-78 44.5l74 88q24 -16 46 -23.5t48 -7.5q29 0 43.5 11.5t14.5 31.5q0 16 -5.5 26t-22.5 21t-53 28q-70 33 -111.5 68.5t-61 84t-19.5 119.5q0 127 65.5 197t177.5 70q114 0 178 -66
t64 -191q0 -148 -139 -218zM207 206q6 -26 23 -45.5t52 -39.5q30 32 39 70.5t9 103.5q0 71 -15.5 100.5t-48.5 29.5q-35 0 -50 -32.5t-15 -115.5q0 -45 6 -71z" />
    <glyph glyph-name="uni02A4" unicode="&#x2a4;" horiz-adv-x="952" 
d="M942 10q0 -67 -30 -120t-88 -83.5t-137 -30.5q-145 0 -225 105l90 86q35 -32 62 -46t61 -14q42 0 65.5 28t23.5 84q0 52 -25.5 74.5t-77.5 22.5h-85v97l145 192h-217v-405h-155l-6 57q-52 -75 -136 -75q-90 0 -136.5 75t-46.5 211q0 84 25 148.5t70 99.5t104 35
q66 0 107 -46v256l174 -18v-210h405v-118l-157 -202q190 -17 190 -203zM330 156v233q-14 18 -27 27t-29 9q-71 0 -71 -158q0 -93 16.5 -126.5t46.5 -33.5q36 0 64 49z" />
    <glyph glyph-name="uni0257" unicode="&#x257;" horiz-adv-x="547" 
d="M648 724l-47 -106q-29 16 -57 16q-22 0 -31.5 -12t-9.5 -40v-49h1v-533h-155l-6 57q-52 -75 -135 -75q-91 0 -137.5 74.5t-46.5 211.5q0 85 25 149t70.5 99t105.5 35q62 0 105 -46v26h-1v47q0 83 48.5 133t138.5 50q70 0 132 -37zM330 156v233q-14 18 -27 27t-29 9
q-71 0 -71 -158q0 -93 16.5 -126.5t47.5 -33.5q35 0 63 49z" />
    <glyph glyph-name="uni1E0F" unicode="&#x1e0f;" horiz-adv-x="547" 
d="M504 743v-743h-155l-6 57q-52 -75 -136 -75q-90 0 -136.5 75t-46.5 211q0 84 25 148.5t70 99.5t104 35q66 0 107 -46v256zM330 156v233q-14 18 -27 27t-29 9q-71 0 -71 -158q0 -93 16.5 -126.5t46.5 -33.5q36 0 64 49zM425 -195h-290v118h290v-118z" />
    <glyph glyph-name="uni0256" unicode="&#x256;" horiz-adv-x="547" 
d="M668 -180q-58 -44 -142 -44q-90 0 -143.5 48.5t-53.5 140.5v36h1v39q-47 -58 -122 -58q-91 0 -137.5 74.5t-46.5 211.5q0 85 25 149t70.5 99t105.5 35q62 0 105 -46v256l174 -18v-743h-1v-48q0 -26 12.5 -38.5t34.5 -12.5q17 0 30 4t31 13zM330 156v233q-14 18 -27 27
t-29 9q-71 0 -71 -158q0 -93 16.5 -126.5t47.5 -33.5q35 0 63 49z" />
    <glyph glyph-name="uni018C" unicode="&#x18c;" horiz-adv-x="547" 
d="M504 0h-155l-6 57q-52 -75 -135 -75q-91 0 -137.5 73.5t-46.5 204.5q0 80 25 142.5t70.5 97.5t105.5 35q62 0 105 -46v131h-184v123h358v-743zM330 156v217q-14 18 -27 27t-29 9q-33 0 -52 -35.5t-19 -114.5q0 -87 16.5 -119.5t47.5 -32.5q35 0 63 49z" />
    <glyph glyph-name="uni01F3" unicode="&#x1f3;" horiz-adv-x="972" 
d="M504 743v-743h-155l-6 57q-52 -75 -136 -75q-90 0 -136.5 75t-46.5 211q0 84 25 148.5t70 99.5t104 35q66 0 107 -46v256zM330 156v233q-14 18 -27 27t-29 9q-71 0 -71 -158q0 -93 16.5 -126.5t46.5 -33.5q36 0 64 49zM957 533v-122l-207 -281h212l-14 -130h-394v122
l208 282h-189v129h384z" />
    <glyph glyph-name="uni02A3" unicode="&#x2a3;" horiz-adv-x="915" 
d="M906 130l-15 -130h-542l-6 57q-52 -75 -136 -75q-90 0 -136.5 75t-46.5 211q0 84 25 148.5t70 99.5t104 35q66 0 107 -46v256l174 -18v-210h396v-122l-211 -281h217zM330 156v233q-14 18 -27 27t-29 9q-71 0 -71 -158q0 -93 16.5 -126.5t46.5 -33.5q36 0 64 49zM504 404
v-275l205 275h-205z" />
    <glyph glyph-name="uni01C6" unicode="&#x1c6;" horiz-adv-x="972" 
d="M504 743v-743h-155l-6 57q-52 -75 -136 -75q-90 0 -136.5 75t-46.5 211q0 84 25 148.5t70 99.5t104 35q66 0 107 -46v256zM330 156v233q-14 18 -27 27t-29 9q-71 0 -71 -158q0 -93 16.5 -126.5t46.5 -33.5q36 0 64 49zM957 533v-122l-207 -281h212l-14 -130h-394v122
l208 282h-189v129h384zM888 818l59 -65l-130 -145h-104l-130 145l59 65l123 -94z" />
    <glyph glyph-name="uni02A5" unicode="&#x2a5;" horiz-adv-x="1025" 
d="M1005 245.5q34 -32.5 34 -90.5q0 -156 -202 -155l2 7l-2 -6q-5 -33 -5 -94v-37h-93q0 84 5 130h-395l-6 57q-52 -75 -136 -75q-90 0 -136.5 75t-46.5 211q0 84 25 148.5t70 99.5t104 35q66 0 107 -46v256l174 -18v-210h395v-114l-214 -289h78q22 80 60 114t94 34
q54 0 88 -32.5zM330 156v233q-14 18 -27 27t-29 9q-71 0 -71 -158q0 -93 16.5 -126.5t46.5 -33.5q36 0 64 49zM504 404v-273l204 273h-204zM912.5 138q13.5 8 13.5 27q0 25 -24 25q-35 0 -48 -60h18q27 0 40.5 8z" />
    <glyph glyph-name="e" unicode="e" horiz-adv-x="511" 
d="M490 216h-294q6 -63 29 -86t67 -23q28 0 54.5 10.5t58.5 33.5l70 -94q-84 -75 -198 -75q-125 0 -190 76t-65 206q0 83 27 148t80.5 102t130.5 37q108 0 171 -71.5t63 -204.5q0 -25 -4 -59zM323 324q0 58 -13.5 86.5t-47.5 28.5q-31 0 -47 -26.5t-20 -95.5h128v7z" />
    <glyph glyph-name="eacute" unicode="&#xe9;" horiz-adv-x="511" 
d="M490 216h-294q6 -63 29 -86t67 -23q28 0 54.5 10.5t58.5 33.5l70 -94q-84 -75 -198 -75q-125 0 -190 76t-65 206q0 83 27 148t80.5 102t130.5 37q108 0 171 -71.5t63 -204.5q0 -25 -4 -59zM323 324q0 58 -13.5 86.5t-47.5 28.5q-31 0 -47 -26.5t-20 -95.5h128v7zM322 840
l67 -125l-224 -96l-47 85z" />
    <glyph glyph-name="ebreve" unicode="&#x115;" horiz-adv-x="511" 
d="M490 216h-294q6 -63 29 -86t67 -23q28 0 54.5 10.5t58.5 33.5l70 -94q-84 -75 -198 -75q-125 0 -190 76t-65 206q0 83 27 148t80.5 102t130.5 37q108 0 171 -71.5t63 -204.5q0 -25 -4 -59zM323 324q0 58 -13.5 86.5t-47.5 28.5q-31 0 -47 -26.5t-20 -95.5h128v7z
M144.5 680q-41.5 50 -47.5 132l91 16q16 -80 74 -80t74 80l91 -16q-6 -82 -47.5 -132t-117.5 -50t-117.5 50z" />
    <glyph glyph-name="ecaron" unicode="&#x11b;" horiz-adv-x="511" 
d="M490 216h-294q6 -63 29 -86t67 -23q28 0 54.5 10.5t58.5 33.5l70 -94q-84 -75 -198 -75q-125 0 -190 76t-65 206q0 83 27 148t80.5 102t130.5 37q108 0 171 -71.5t63 -204.5q0 -25 -4 -59zM323 324q0 58 -13.5 86.5t-47.5 28.5q-31 0 -47 -26.5t-20 -95.5h128v7zM385 818
l59 -65l-130 -145h-104l-130 145l59 65l123 -94z" />
    <glyph glyph-name="uni0229" unicode="&#x229;" horiz-adv-x="511" 
d="M490 216h-294q6 -63 29 -86t67 -23q28 0 54.5 10.5t58.5 33.5l70 -94q-67 -60 -155 -72v-34q98 -14 98 -100q0 -52 -39 -85t-107 -33q-33 0 -61.5 9t-49.5 23l38 75q30 -15 59 -15q39 0 39 28q0 17 -20 24.5t-64 7.5l12 101q-100 15 -151.5 88.5t-51.5 189.5q0 83 27 148
t80.5 102t130.5 37q108 0 171 -71.5t63 -204.5q0 -25 -4 -59zM323 324q0 58 -13.5 86.5t-47.5 28.5q-31 0 -47 -26.5t-20 -95.5h128v7z" />
    <glyph glyph-name="ecircumflex" unicode="&#xea;" horiz-adv-x="511" 
d="M490 216h-294q6 -63 29 -86t67 -23q28 0 54.5 10.5t58.5 33.5l70 -94q-84 -75 -198 -75q-125 0 -190 76t-65 206q0 83 27 148t80.5 102t130.5 37q108 0 171 -71.5t63 -204.5q0 -25 -4 -59zM323 324q0 58 -13.5 86.5t-47.5 28.5q-31 0 -47 -26.5t-20 -95.5h128v7zM139 620
l-59 64l130 145h104l130 -145l-59 -64l-123 93z" />
    <glyph glyph-name="uni1EBF" unicode="&#x1ebf;" horiz-adv-x="511" 
d="M490 216h-294q6 -63 29 -86t67 -23q28 0 54.5 10.5t58.5 33.5l70 -94q-84 -75 -198 -75q-125 0 -190 76t-65 206q0 83 27 148t80.5 102t130.5 37q108 0 171 -71.5t63 -204.5q0 -25 -4 -59zM323 324q0 58 -13.5 86.5t-47.5 28.5q-31 0 -47 -26.5t-20 -95.5h128v7zM139 587
l-59 64l130 136h104l130 -136l-59 -64l-123 84zM485 972l97 -88l-158 -147l-65 56z" />
    <glyph glyph-name="uni1EC7" unicode="&#x1ec7;" horiz-adv-x="511" 
d="M490 216h-294q6 -63 29 -86t67 -23q28 0 54.5 10.5t58.5 33.5l70 -94q-84 -75 -198 -75q-125 0 -190 76t-65 206q0 83 27 148t80.5 102t130.5 37q108 0 171 -71.5t63 -204.5q0 -25 -4 -59zM323 324q0 58 -13.5 86.5t-47.5 28.5q-31 0 -47 -26.5t-20 -95.5h128v7zM139 620
l-59 64l130 145h104l130 -145l-59 -64l-123 93zM199.5 -222.5q-27.5 27.5 -27.5 68.5q0 42 27.5 69t70.5 27t70.5 -27t27.5 -69q0 -41 -27.5 -68.5t-70.5 -27.5t-70.5 27.5z" />
    <glyph glyph-name="uni1EC1" unicode="&#x1ec1;" horiz-adv-x="511" 
d="M490 216h-294q6 -63 29 -86t67 -23q28 0 54.5 10.5t58.5 33.5l70 -94q-84 -75 -198 -75q-125 0 -190 76t-65 206q0 83 27 148t80.5 102t130.5 37q108 0 171 -71.5t63 -204.5q0 -25 -4 -59zM323 324q0 58 -13.5 86.5t-47.5 28.5q-31 0 -47 -26.5t-20 -95.5h128v7zM137 587
l-59 64l130 136h104l130 -136l-59 -64l-123 84zM39 972l127 -179l-66 -56l-158 147z" />
    <glyph glyph-name="uni1EC3" unicode="&#x1ec3;" horiz-adv-x="511" 
d="M490 216h-294q6 -63 29 -86t67 -23q28 0 54.5 10.5t58.5 33.5l70 -94q-84 -75 -198 -75q-125 0 -190 76t-65 206q0 83 27 148t80.5 102t130.5 37q108 0 171 -71.5t63 -204.5q0 -25 -4 -59zM323 324q0 58 -13.5 86.5t-47.5 28.5q-31 0 -47 -26.5t-20 -95.5h128v7zM138 587
l-59 64l130 136h104l130 -136l-59 -64l-123 84zM356 863q35 2 49.5 10t14.5 27q0 15 -9 22.5t-24 7.5q-16 0 -28 -3t-28 -10l-26 69q44 26 105 26q58 0 89 -28.5t31 -74.5q0 -40 -19.5 -64t-57.5 -32v-51h-97v101z" />
    <glyph glyph-name="uni1EC5" unicode="&#x1ec5;" horiz-adv-x="511" 
d="M490 216h-294q6 -63 29 -86t67 -23q28 0 54.5 10.5t58.5 33.5l70 -94q-84 -75 -198 -75q-125 0 -190 76t-65 206q0 83 27 148t80.5 102t130.5 37q108 0 171 -71.5t63 -204.5q0 -25 -4 -59zM323 324q0 58 -13.5 86.5t-47.5 28.5q-31 0 -47 -26.5t-20 -95.5h128v7zM138 585
l-59 64l130 136h104l130 -136l-59 -64l-123 84zM279 821q-15 6 -32 17q-2 1 -14 7.5t-23 6.5q-15 0 -24.5 -8.5t-22.5 -28.5l-81 35q18 50 51 81.5t74 31.5q21 0 37 -6.5t33 -17.5q9 -6 18.5 -10.5t18.5 -4.5q14 0 24 9t22 29l81 -35q-18 -51 -50.5 -81.5t-75.5 -30.5
q-21 0 -36 6z" />
    <glyph glyph-name="uni0205" unicode="&#x205;" horiz-adv-x="511" 
d="M490 216h-294q6 -63 29 -86t67 -23q28 0 54.5 10.5t58.5 33.5l70 -94q-84 -75 -198 -75q-125 0 -190 76t-65 206q0 83 27 148t80.5 102t130.5 37q108 0 171 -71.5t63 -204.5q0 -25 -4 -59zM323 324q0 58 -13.5 86.5t-47.5 28.5q-31 0 -47 -26.5t-20 -95.5h128v7zM151 866
l91 -203l-82 -40l-117 187zM320 866l85 -204l-85 -35l-110 187z" />
    <glyph glyph-name="edieresis" unicode="&#xeb;" horiz-adv-x="511" 
d="M490 216h-294q6 -63 29 -86t67 -23q28 0 54.5 10.5t58.5 33.5l70 -94q-84 -75 -198 -75q-125 0 -190 76t-65 206q0 83 27 148t80.5 102t130.5 37q108 0 171 -71.5t63 -204.5q0 -25 -4 -59zM323 324q0 58 -13.5 86.5t-47.5 28.5q-31 0 -47 -26.5t-20 -95.5h128v7zM212 782
q24 -24 24 -59q0 -36 -24 -60.5t-60 -24.5q-35 0 -59.5 24.5t-24.5 60.5q0 35 24.5 59t59.5 24q36 0 60 -24zM431 782q24 -24 24 -59q0 -36 -24 -60.5t-60 -24.5q-35 0 -59.5 24.5t-24.5 60.5q0 35 24.5 59t59.5 24q36 0 60 -24z" />
    <glyph glyph-name="edotaccent" unicode="&#x117;" horiz-adv-x="511" 
d="M490 216h-294q6 -63 29 -86t67 -23q28 0 54.5 10.5t58.5 33.5l70 -94q-84 -75 -198 -75q-125 0 -190 76t-65 206q0 83 27 148t80.5 102t130.5 37q108 0 171 -71.5t63 -204.5q0 -25 -4 -59zM323 324q0 58 -13.5 86.5t-47.5 28.5q-31 0 -47 -26.5t-20 -95.5h128v7z
M332.5 790.5q27.5 -27.5 27.5 -68.5q0 -42 -27.5 -69t-70.5 -27t-70.5 27t-27.5 69q0 41 27.5 68.5t70.5 27.5t70.5 -27.5z" />
    <glyph glyph-name="uni1EB9" unicode="&#x1eb9;" horiz-adv-x="511" 
d="M490 216h-294q6 -63 29 -86t67 -23q28 0 54.5 10.5t58.5 33.5l70 -94q-84 -75 -198 -75q-125 0 -190 76t-65 206q0 83 27 148t80.5 102t130.5 37q108 0 171 -71.5t63 -204.5q0 -25 -4 -59zM323 324q0 58 -13.5 86.5t-47.5 28.5q-31 0 -47 -26.5t-20 -95.5h128v7z
M199.5 -222.5q-27.5 27.5 -27.5 68.5q0 42 27.5 69t70.5 27t70.5 -27t27.5 -69q0 -41 -27.5 -68.5t-70.5 -27.5t-70.5 27.5z" />
    <glyph glyph-name="egrave" unicode="&#xe8;" horiz-adv-x="511" 
d="M490 216h-294q6 -63 29 -86t67 -23q28 0 54.5 10.5t58.5 33.5l70 -94q-84 -75 -198 -75q-125 0 -190 76t-65 206q0 83 27 148t80.5 102t130.5 37q108 0 171 -71.5t63 -204.5q0 -25 -4 -59zM323 324q0 58 -13.5 86.5t-47.5 28.5q-31 0 -47 -26.5t-20 -95.5h128v7zM202 840
l204 -136l-47 -85l-224 96z" />
    <glyph glyph-name="uni1EBB" unicode="&#x1ebb;" horiz-adv-x="511" 
d="M490 216h-294q6 -63 29 -86t67 -23q28 0 54.5 10.5t58.5 33.5l70 -94q-84 -75 -198 -75q-125 0 -190 76t-65 206q0 83 27 148t80.5 102t130.5 37q108 0 171 -71.5t63 -204.5q0 -25 -4 -59zM323 324q0 58 -13.5 86.5t-47.5 28.5q-31 0 -47 -26.5t-20 -95.5h128v7zM214 704
q35 2 49.5 10t14.5 27q0 15 -9 22.5t-24 7.5q-16 0 -28 -3t-28 -10l-26 69q44 26 105 26q58 0 89 -28.5t31 -74.5q0 -40 -19.5 -64t-57.5 -32v-51h-97v101z" />
    <glyph glyph-name="uni0207" unicode="&#x207;" horiz-adv-x="511" 
d="M490 216h-294q6 -63 29 -86t67 -23q28 0 54.5 10.5t58.5 33.5l70 -94q-84 -75 -198 -75q-125 0 -190 76t-65 206q0 83 27 148t80.5 102t130.5 37q108 0 171 -71.5t63 -204.5q0 -25 -4 -59zM323 324q0 58 -13.5 86.5t-47.5 28.5q-31 0 -47 -26.5t-20 -95.5h128v7z
M379.5 746q41.5 -50 47.5 -132l-91 -16q-16 80 -74 80t-74 -80l-91 16q6 82 47.5 132t117.5 50t117.5 -50z" />
    <glyph glyph-name="emacron" unicode="&#x113;" horiz-adv-x="511" 
d="M490 216h-294q6 -63 29 -86t67 -23q28 0 54.5 10.5t58.5 33.5l70 -94q-84 -75 -198 -75q-125 0 -190 76t-65 206q0 83 27 148t80.5 102t130.5 37q108 0 171 -71.5t63 -204.5q0 -25 -4 -59zM323 324q0 58 -13.5 86.5t-47.5 28.5q-31 0 -47 -26.5t-20 -95.5h128v7zM407 653
h-290v118h290v-118z" />
    <glyph glyph-name="eogonek" unicode="&#x119;" horiz-adv-x="511" 
d="M490 216h-294q6 -63 29 -86t67 -23q28 0 54.5 10.5t58.5 33.5l70 -94q-44 -39 -95 -57q-80 -39 -80 -89q0 -22 12 -33.5t34 -11.5q27 0 55 7l-11 -104q-32 -8 -66 -8q-62 0 -102.5 32.5t-40.5 88.5q0 62 61 102q-108 11 -164 85.5t-56 194.5q0 83 27 148t80.5 102
t130.5 37q108 0 171 -71.5t63 -204.5q0 -25 -4 -59zM323 324q0 58 -13.5 86.5t-47.5 28.5q-31 0 -47 -26.5t-20 -95.5h128v7z" />
    <glyph glyph-name="uni025B" unicode="&#x25b;" horiz-adv-x="444" 
d="M435 488l-67 -87q-27 16 -50 23.5t-49 7.5q-25 0 -39.5 -13t-14.5 -38q0 -55 58 -55h58l-16 -107h-49q-35 0 -50 -14.5t-15 -42.5q0 -58 67 -58q25 0 50 8.5t58 27.5l71 -94q-80 -64 -208 -64q-96 0 -156.5 43t-60.5 121q0 58 34 92t104 45q-120 27 -120 121q0 67 56 107
t146 40q111 0 193 -63z" />
    <glyph glyph-name="uni029A" unicode="&#x29a;" horiz-adv-x="528" 
d="M85 27q-63 45 -63 126q0 58 33 89t101 42q-112 28 -112 118q0 44 26 77.5t73.5 52.5t109.5 19q120 0 186.5 -75t66.5 -209q0 -139 -65 -212t-185 -73q-108 0 -171 45zM305 119q17 15 23.5 49.5t6.5 98.5q0 91 -17 128t-57 37q-22 0 -34 -13t-12 -38q0 -54 50 -54h9
l9 -109h-26q-32 0 -46.5 -12.5t-14.5 -41.5q0 -30 14.5 -45t45.5 -15q32 0 49 15z" />
    <glyph glyph-name="uni025C" unicode="&#x25c;" horiz-adv-x="452" 
d="M352.5 510.5q55.5 -40.5 55.5 -108.5q0 -89 -116 -118q70 -11 104 -42t34 -89q0 -84 -62.5 -127.5t-169.5 -43.5q-122 0 -201 64l78 93q33 -20 57.5 -27.5t54.5 -7.5q65 0 65 59q0 29 -17 42.5t-53 13.5h-71l10 107h49q32 0 47 14.5t15 42.5q0 25 -13.5 37t-37.5 12
q-25 0 -46.5 -7.5t-45.5 -23.5l-78 88q83 62 201 62q85 0 140.5 -40.5z" />
    <glyph glyph-name="uni025E" unicode="&#x25e;" horiz-adv-x="528" 
d="M87 55q-65 73 -65 212q0 134 66.5 209t186.5 75q62 0 109.5 -19t73.5 -52.5t26 -77.5q0 -90 -112 -118q68 -11 101 -42t33 -89q0 -81 -63 -126t-171 -45q-120 0 -185 73zM317.5 119q14.5 15 14.5 45q0 29 -14.5 41.5t-46.5 12.5h-26l9 109h9q50 0 50 54q0 25 -12 38
t-34 13q-40 0 -57 -37t-17 -128q0 -64 6.5 -98.5t23.5 -49.5t49 -15q31 0 45.5 15z" />
    <glyph glyph-name="uni025D" unicode="&#x25d;" horiz-adv-x="724" 
d="M734 343q-51 -38 -117 -38q-63 0 -100.5 30t-46.5 82l-2 12l-61 -39q-7 -79 -115 -106q70 -11 104 -42t34 -89q0 -84 -62.5 -127.5t-169.5 -43.5q-122 0 -201 64l78 93q33 -20 57.5 -27.5t54.5 -7.5q65 0 65 59q0 29 -17 42.5t-53 13.5h-71l10 107h49q32 0 47 14.5
t15 42.5q0 25 -13.5 37t-37.5 12q-25 0 -46.5 -7.5t-45.5 -23.5l-78 88q83 62 201 62q54 0 98 -17.5t69 -48.5l80 48h140v-65q0 -22 10.5 -33t28.5 -11q15 0 25 3t26 10z" />
    <glyph glyph-name="uni0258" unicode="&#x258;" horiz-adv-x="511" 
d="M431 476q58 -75 58 -212q0 -132 -65 -207t-193 -75q-58 0 -108 20t-88 54l70 95q33 -23 59.5 -33.5t55.5 -10.5q43 0 65.5 23t28.5 86h-293q-4 34 -4 59q0 133 64.5 204.5t172.5 71.5q119 0 177 -75zM187 317h128q-2 50 -9 76.5t-20 36t-35 9.5q-34 0 -48.5 -29
t-15.5 -86v-7z" />
    <glyph glyph-name="uni0283" unicode="&#x283;" horiz-adv-x="259" 
d="M362 724l-47 -106q-29 16 -57 16q-22 0 -31.5 -12t-9.5 -40v-617q0 -92 -53.5 -140.5t-143.5 -48.5q-84 0 -142 44l57 98q18 -9 31 -13t30 -4q22 0 34.5 12.5t12.5 38.5v626q0 83 48.5 133t138.5 50q70 0 132 -37z" />
    <glyph glyph-name="uni0286" unicode="&#x286;" horiz-adv-x="323" 
d="M282 -5q45 -15 84 -38l-32 -67q-27 13 -63 26q-18 -70 -66 -105t-129 -35q-70 0 -107 32t-37 88q0 63 38.5 96t106.5 33q13 0 31 -2v555q0 83 48.5 133t138.5 50q70 0 132 -37l-47 -106q-29 16 -57 16q-22 0 -31.5 -12t-9.5 -40v-566v-21zM97 -118.5q11 18.5 11 61.5v3
q-9 1 -32 1q-50 0 -50 -45q0 -39 36 -39q24 0 35 18.5z" />
    <glyph glyph-name="uni01AA" unicode="&#x1aa;" horiz-adv-x="411" 
d="M533 -180q-58 -44 -142 -44q-90 0 -143.5 48.5t-53.5 140.5v450q-25 -11 -56 -11q-72 0 -115 48t-43 129t50 130.5t138 49.5q62 0 107.5 -24t69 -66t23.5 -95v-624q0 -26 12.5 -38.5t34.5 -12.5q17 0 30 4t31 13zM194 526v66q0 27 -8 38.5t-25 11.5q-36 0 -36 -58
q0 -33 10.5 -47.5t32.5 -14.5q15 0 26 4z" />
    <glyph glyph-name="uni0285" unicode="&#x285;" horiz-adv-x="457" 
d="M470 26q-58 -44 -142 -44q-90 0 -143.5 48.5t-53.5 140.5v152h1v49q0 28 -9.5 40t-31.5 12q-28 0 -57 -16l-47 106q62 37 132 37q90 0 138.5 -50t48.5 -133v-47h-1v-163q0 -26 12.5 -38.5t34.5 -12.5q17 0 30 4t31 13z" />
    <glyph glyph-name="uni0247" unicode="&#x247;" horiz-adv-x="511" 
d="M275 220l-27 -111q17 -4 44 -4q28 0 54.5 11t58.5 34l70 -92q-83 -76 -198 -76q-28 0 -58 5l-15 -62l-52 12l15 64q-72 30 -108.5 98t-36.5 165q0 83 27 148t80.5 102t130.5 37q14 0 38 -2l13 53l52 -12l-13 -54q68 -26 106 -92.5t38 -168.5q0 -21 -4 -55h-215z
M202 414.5q-20 -28.5 -25 -100.5h65l31 129h-11q-40 0 -60 -28.5zM340.5 381q-5.5 24 -18.5 39l-25 -106h49v7q0 36 -5.5 60zM220 220h-42q4 -53 23 -79z" />
    <glyph glyph-name="uni1EBD" unicode="&#x1ebd;" horiz-adv-x="511" 
d="M490 216h-294q6 -63 29 -86t67 -23q28 0 54.5 10.5t58.5 33.5l70 -94q-84 -75 -198 -75q-125 0 -190 76t-65 206q0 83 27 148t80.5 102t130.5 37q108 0 171 -71.5t63 -204.5q0 -25 -4 -59zM323 324q0 58 -13.5 86.5t-47.5 28.5q-31 0 -47 -26.5t-20 -95.5h128v7z
M279 639.5q-15 6.5 -32 18.5q-12 8 -20 12t-17 4q-15 0 -24.5 -9.5t-22.5 -31.5l-81 38q18 54 51 88.5t74 34.5q21 0 37 -7t33 -19q2 -1 10 -6t14.5 -7.5t12.5 -2.5q14 0 24 9.5t22 31.5l81 -38q-18 -55 -50.5 -88.5t-75.5 -33.5q-21 0 -36 6.5z" />
    <glyph glyph-name="uni01DD" unicode="&#x1dd;" horiz-adv-x="511" 
d="M429 476q60 -75 60 -209q0 -129 -61.5 -207t-177.5 -78q-108 0 -170.5 70t-62.5 205q0 24 4 60h304q-3 60 -24.5 86t-61.5 26q-32 0 -60.5 -9.5t-60.5 -30.5l-69 93q82 69 198 69q122 0 182 -75zM304 127.5q18 24.5 21 87.5h-147v-8q1 -104 73 -104q35 0 53 24.5z" />
    <glyph glyph-name="uni0259" unicode="&#x259;" horiz-adv-x="511" 
d="M429 476q60 -75 60 -209q0 -129 -61.5 -207t-177.5 -78q-108 0 -170.5 70t-62.5 205q0 24 4 60h304q-3 60 -24.5 86t-61.5 26q-32 0 -60.5 -9.5t-60.5 -30.5l-69 93q82 69 198 69q122 0 182 -75zM304 127.5q18 24.5 21 87.5h-147v-8q1 -104 73 -104q35 0 53 24.5z" />
    <glyph glyph-name="uni025A" unicode="&#x25a;" horiz-adv-x="779" 
d="M789 343q-51 -38 -117 -38q-63 0 -100.5 30t-46.5 82l-2 12l-52 -34q18 -55 18 -128q0 -129 -61.5 -207t-177.5 -78q-108 0 -170.5 70t-62.5 205q0 24 4 60h304q-3 60 -24.5 86t-61.5 26q-32 0 -60.5 -9.5t-60.5 -30.5l-69 93q82 69 198 69t179 -71l88 53h140v-65
q0 -22 10.5 -33t28.5 -11q15 0 25 3t26 10zM304 127.5q18 24.5 21 87.5h-147v-8q1 -104 73 -104q35 0 53 24.5z" />
    <glyph glyph-name="uni0292" unicode="&#x292;" horiz-adv-x="472" 
d="M462 10q0 -67 -30 -120t-88 -83.5t-137 -30.5q-145 0 -225 105l90 86q35 -32 62 -46t61 -14q42 0 65.5 28t23.5 84q0 52 -25.5 74.5t-77.5 22.5h-85v97l145 192h-218v128h406v-118l-157 -202q190 -17 190 -203z" />
    <glyph glyph-name="uni01EF" unicode="&#x1ef;" horiz-adv-x="472" 
d="M462 10q0 -67 -30 -120t-88 -83.5t-137 -30.5q-145 0 -225 105l90 86q35 -32 62 -46t61 -14q42 0 65.5 28t23.5 84q0 52 -25.5 74.5t-77.5 22.5h-85v97l145 192h-218v128h406v-118l-157 -202q190 -17 190 -203zM349 818l59 -65l-130 -145h-104l-130 145l59 65l123 -94z
" />
    <glyph glyph-name="uni0293" unicode="&#x293;" horiz-adv-x="472" 
d="M422.5 -121.5q-39.5 -57.5 -116.5 -83.5l25 -56l-78 -32l-30 71q-26 -2 -43 -2q-90 0 -144.5 41.5t-54.5 118.5q0 59 34 92t85 33q50 0 82 -29t63 -102l2 -4q37 27 37 99q0 53 -24.5 75.5t-73.5 22.5h-90v98l146 184h-219v128h406v-118l-156 -194q91 -8 140 -59t49 -148
q0 -78 -39.5 -135.5zM110.5 -84q16.5 -8 60.5 -8q-16 38 -27.5 51.5t-25.5 13.5q-24 0 -24 -29q0 -20 16.5 -28z" />
    <glyph glyph-name="uni01B9" unicode="&#x1b9;" horiz-adv-x="472" 
d="M490 -119q-80 -105 -227 -105q-78 0 -135.5 30t-87.5 82.5t-30 118.5q0 94 49.5 146t140.5 60l-157 202v118h407v-128h-220l146 -193v-96h-85q-51 0 -77 -24.5t-26 -77.5q0 -54 23.5 -80.5t65.5 -26.5q34 0 61.5 13.5t61.5 45.5z" />
    <glyph glyph-name="uni01BA" unicode="&#x1ba;" horiz-adv-x="476" 
d="M66.5 -162.5q-42.5 39.5 -42.5 93.5q0 55 37.5 87t116.5 50q60 14 82 28.5t22 43.5q0 24 -16.5 34.5t-55.5 10.5h-109v90l134 137h-217v121h407v-111l-146 -140h14q77 0 121 -39.5t44 -108.5q0 -76 -47.5 -115t-130.5 -58q-43 -10 -63.5 -17t-28 -14.5t-7.5 -18.5
q0 -22 36 -41l-36 -94q-72 22 -114.5 61.5z" />
    <glyph glyph-name="f" unicode="f" horiz-adv-x="336" 
d="M253 621q-12 -14 -12 -46v-42h107l-19 -120h-88v-413h-174v413h-66v120h66v41q0 85 51 136t149 51q75 0 141 -34l-46 -110q-36 18 -70 18q-27 0 -39 -14z" />
    <glyph glyph-name="uni1E1F" unicode="&#x1e1f;" horiz-adv-x="336" 
d="M253 621q-12 -14 -12 -46v-42h107l-19 -120h-88v-413h-174v413h-66v120h66v41q0 85 51 136t149 51q75 0 141 -34l-46 -110q-36 18 -70 18q-27 0 -39 -14zM315.5 964.5q27.5 -27.5 27.5 -68.5q0 -42 -27.5 -69t-70.5 -27t-70.5 27t-27.5 69q0 41 27.5 68.5t70.5 27.5
t70.5 -27.5z" />
    <glyph glyph-name="uni02A9" unicode="&#x2a9;" horiz-adv-x="807" 
d="M733 510q35 -41 35 -114v-431q0 -92 -53.5 -140.5t-143.5 -48.5q-84 0 -142 44l57 98q18 -9 31 -13t30 -4q22 0 34.5 12.5t12.5 38.5v421q0 26 -7.5 37t-21.5 11q-29 0 -63 -56v-365h-174v413h-87v-413h-174v413h-66v119h66v42q0 85 51 136t149 51q75 0 141 -34l-46 -110
q-36 18 -70 18q-27 0 -39 -14t-12 -46v-43h87v1h152l12 -59q31 39 65.5 58t78.5 19q62 0 97 -41z" />
    <glyph glyph-name="g" unicode="g" horiz-adv-x="505" 
d="M509 499q-46 -22 -136 -22q49 -21 72 -53.5t23 -84.5t-26 -92t-74.5 -62.5t-113.5 -22.5q-32 0 -52 5q-14 -9 -14 -27q0 -15 10.5 -22.5t40.5 -7.5h64q92 0 145.5 -43t53.5 -112q0 -83 -68.5 -131t-195.5 -48q-94 0 -147.5 21t-74.5 59t-21 94h156q0 -34 18 -48.5
t71 -14.5q49 0 68 15t19 41q0 49 -62 49h-56q-84 0 -123.5 28.5t-39.5 76.5q0 30 17 57.5t44 45.5q-47 28 -68 64t-21 89q0 93 61.5 145.5t167.5 51.5q67 -1 117 17.5t106 53.5zM189 357q0 -84 58 -84q29 0 43 20t14 66q0 42 -14 60t-43 18q-58 0 -58 -80z" />
    <glyph glyph-name="g.ss04" horiz-adv-x="547" 
d="M504 533v-531q0 -112 -65 -169t-182 -57q-109 0 -188 51l53 104q27 -14 55 -22t64 -8q89 0 89 83v75q-47 -57 -119 -57q-91 0 -139 73.5t-48 202.5q0 80 25.5 142t71.5 96.5t106 34.5q34 0 64 -15t53 -43l8 40h152zM330 180v212q-27 33 -57 33q-70 0 -70 -148
q0 -87 16.5 -118t46.5 -31q37 0 64 52z" />
    <glyph glyph-name="uni01F5" unicode="&#x1f5;" horiz-adv-x="505" 
d="M509 499q-46 -22 -136 -22q49 -21 72 -53.5t23 -84.5t-26 -92t-74.5 -62.5t-113.5 -22.5q-32 0 -52 5q-14 -9 -14 -27q0 -15 10.5 -22.5t40.5 -7.5h64q92 0 145.5 -43t53.5 -112q0 -83 -68.5 -131t-195.5 -48q-94 0 -147.5 21t-74.5 59t-21 94h156q0 -34 18 -48.5
t71 -14.5q49 0 68 15t19 41q0 49 -62 49h-56q-84 0 -123.5 28.5t-39.5 76.5q0 30 17 57.5t44 45.5q-47 28 -68 64t-21 89q0 93 61.5 145.5t167.5 51.5q67 -1 117 17.5t106 53.5zM189 357q0 -84 58 -84q29 0 43 20t14 66q0 42 -14 60t-43 18q-58 0 -58 -80zM314 840l67 -125
l-224 -96l-47 85z" />
    <glyph glyph-name="uni0263" unicode="&#x263;" horiz-adv-x="483" 
d="M326 87q35 -59 50.5 -100t15.5 -84q0 -60 -36 -93.5t-112 -33.5q-75 0 -111 34t-36 93q0 40 14.5 80.5t50.5 102.5l-172 447h181l73 -338l76 338h173zM263 -53q-6 19 -19 47q-24 -55 -24 -85q0 -28 24 -28q25 0 25 29q0 18 -6 37z" />
    <glyph glyph-name="gbreve" unicode="&#x11f;" horiz-adv-x="505" 
d="M509 499q-46 -22 -136 -22q49 -21 72 -53.5t23 -84.5t-26 -92t-74.5 -62.5t-113.5 -22.5q-32 0 -52 5q-14 -9 -14 -27q0 -15 10.5 -22.5t40.5 -7.5h64q92 0 145.5 -43t53.5 -112q0 -83 -68.5 -131t-195.5 -48q-94 0 -147.5 21t-74.5 59t-21 94h156q0 -34 18 -48.5
t71 -14.5q49 0 68 15t19 41q0 49 -62 49h-56q-84 0 -123.5 28.5t-39.5 76.5q0 30 17 57.5t44 45.5q-47 28 -68 64t-21 89q0 93 61.5 145.5t167.5 51.5q67 -1 117 17.5t106 53.5zM189 357q0 -84 58 -84q29 0 43 20t14 66q0 42 -14 60t-43 18q-58 0 -58 -80zM136.5 680
q-41.5 50 -47.5 132l91 16q16 -80 74 -80t74 80l91 -16q-6 -82 -47.5 -132t-117.5 -50t-117.5 50z" />
    <glyph glyph-name="gcaron" unicode="&#x1e7;" horiz-adv-x="505" 
d="M509 499q-46 -22 -136 -22q49 -21 72 -53.5t23 -84.5t-26 -92t-74.5 -62.5t-113.5 -22.5q-32 0 -52 5q-14 -9 -14 -27q0 -15 10.5 -22.5t40.5 -7.5h64q92 0 145.5 -43t53.5 -112q0 -83 -68.5 -131t-195.5 -48q-94 0 -147.5 21t-74.5 59t-21 94h156q0 -34 18 -48.5
t71 -14.5q49 0 68 15t19 41q0 49 -62 49h-56q-84 0 -123.5 28.5t-39.5 76.5q0 30 17 57.5t44 45.5q-47 28 -68 64t-21 89q0 93 61.5 145.5t167.5 51.5q67 -1 117 17.5t106 53.5zM189 357q0 -84 58 -84q29 0 43 20t14 66q0 42 -14 60t-43 18q-58 0 -58 -80zM377 818l59 -65
l-130 -145h-104l-130 145l59 65l123 -94z" />
    <glyph glyph-name="gcircumflex" unicode="&#x11d;" horiz-adv-x="505" 
d="M509 499q-46 -22 -136 -22q49 -21 72 -53.5t23 -84.5t-26 -92t-74.5 -62.5t-113.5 -22.5q-32 0 -52 5q-14 -9 -14 -27q0 -15 10.5 -22.5t40.5 -7.5h64q92 0 145.5 -43t53.5 -112q0 -83 -68.5 -131t-195.5 -48q-94 0 -147.5 21t-74.5 59t-21 94h156q0 -34 18 -48.5
t71 -14.5q49 0 68 15t19 41q0 49 -62 49h-56q-84 0 -123.5 28.5t-39.5 76.5q0 30 17 57.5t44 45.5q-47 28 -68 64t-21 89q0 93 61.5 145.5t167.5 51.5q67 -1 117 17.5t106 53.5zM189 357q0 -84 58 -84q29 0 43 20t14 66q0 42 -14 60t-43 18q-58 0 -58 -80zM131 620l-59 64
l130 145h104l130 -145l-59 -64l-123 93z" />
    <glyph glyph-name="gcommaaccent" unicode="&#x123;" horiz-adv-x="505" 
d="M509 499q-46 -22 -136 -22q49 -21 72 -53.5t23 -84.5t-26 -92t-74.5 -62.5t-113.5 -22.5q-32 0 -52 5q-14 -9 -14 -27q0 -15 10.5 -22.5t40.5 -7.5h64q92 0 145.5 -43t53.5 -112q0 -83 -68.5 -131t-195.5 -48q-94 0 -147.5 21t-74.5 59t-21 94h156q0 -34 18 -48.5
t71 -14.5q49 0 68 15t19 41q0 49 -62 49h-56q-84 0 -123.5 28.5t-39.5 76.5q0 30 17 57.5t44 45.5q-47 28 -68 64t-21 89q0 93 61.5 145.5t167.5 51.5q67 -1 117 17.5t106 53.5zM189 357q0 -84 58 -84q29 0 43 20t14 66q0 42 -14 60t-43 18q-58 0 -58 -80zM192 598.5
q-23 23.5 -23 59.5q0 19 5.5 36t19.5 50l44 98h83l-26 -115q37 -26 37 -69q0 -34 -23 -58.5t-58 -24.5q-36 0 -59 23.5z" />
    <glyph glyph-name="gdotaccent" unicode="&#x121;" horiz-adv-x="505" 
d="M509 499q-46 -22 -136 -22q49 -21 72 -53.5t23 -84.5t-26 -92t-74.5 -62.5t-113.5 -22.5q-32 0 -52 5q-14 -9 -14 -27q0 -15 10.5 -22.5t40.5 -7.5h64q92 0 145.5 -43t53.5 -112q0 -83 -68.5 -131t-195.5 -48q-94 0 -147.5 21t-74.5 59t-21 94h156q0 -34 18 -48.5
t71 -14.5q49 0 68 15t19 41q0 49 -62 49h-56q-84 0 -123.5 28.5t-39.5 76.5q0 30 17 57.5t44 45.5q-47 28 -68 64t-21 89q0 93 61.5 145.5t167.5 51.5q67 -1 117 17.5t106 53.5zM189 357q0 -84 58 -84q29 0 43 20t14 66q0 42 -14 60t-43 18q-58 0 -58 -80zM324.5 790.5
q27.5 -27.5 27.5 -68.5q0 -42 -27.5 -69t-70.5 -27t-70.5 27t-27.5 69q0 41 27.5 68.5t70.5 27.5t70.5 -27.5z" />
    <glyph glyph-name="uni0260" unicode="&#x260;" horiz-adv-x="547" 
d="M648 724l-47 -106q-29 16 -57 16q-22 0 -31.5 -12t-9.5 -40v-49h1v-531q0 -112 -65 -169t-182 -57q-109 0 -188 51l53 104q27 -14 55 -22t64 -8q89 0 89 83v75q-47 -57 -119 -57q-91 0 -139 73.5t-48 202.5q0 80 25.5 142t71.5 96.5t106 34.5q58 0 103 -43v23h-1v47
q0 83 48.5 133t138.5 50q70 0 132 -37zM330 180v212q-27 33 -57 33q-70 0 -70 -148q0 -87 16.5 -118t46.5 -31q37 0 64 52z" />
    <glyph glyph-name="uni01BE" unicode="&#x1be;" horiz-adv-x="467" 
d="M412.5 359q32.5 -49 32.5 -135q0 -115 -64.5 -178.5t-172.5 -63.5q-64 0 -116.5 23.5t-97.5 70.5l84 83q27 -26 51.5 -38t53.5 -12q39 0 62 28.5t23 87.5q0 66 -25 101t-83 51l-42 11v138h-62v97h62v120l174 18v-138h79v-97h-79v-88l26 -8q62 -22 94.5 -71z" />
    <glyph glyph-name="uni0294" unicode="&#x294;" horiz-adv-x="448" 
d="M116 355l30 11q59 23 84.5 56t25.5 96q0 59 -23 87.5t-62 28.5q-29 0 -53.5 -12t-51.5 -38l-84 83q45 47 98 70.5t118 23.5q107 0 171 -63t64 -177q0 -86 -32 -133.5t-95 -75.5l-16 -8v-304h-174v355z" />
    <glyph glyph-name="uni0296" unicode="&#x296;" horiz-adv-x="467" 
d="M292 761v-323l26 -8q62 -22 94.5 -71t32.5 -135q0 -115 -64.5 -178.5t-172.5 -63.5q-64 0 -116.5 23.5t-97.5 70.5l84 83q27 -26 51.5 -38t53.5 -12q39 0 62 28.5t23 87.5q0 66 -25 101t-83 51l-42 11v355z" />
    <glyph glyph-name="uni0295" unicode="&#x295;" horiz-adv-x="448" 
d="M158 0v304l-16 8q-64 28 -96 75.5t-32 133.5q0 76 30.5 130t84.5 82t124 28q64 0 116 -23.5t97 -70.5l-84 -83q-26 26 -51 38t-54 12q-39 0 -62 -29t-23 -88q0 -63 25.5 -95.5t84.5 -55.5l30 -11v-355h-174z" />
    <glyph glyph-name="uni0242" unicode="&#x242;" horiz-adv-x="427" 
d="M97 204l37 13q48 17 72.5 44.5t24.5 75.5q0 43 -19 65t-50 22q-25 0 -45 -10t-45 -32l-80 82q79 87 195 87q65 0 115.5 -26.5t78.5 -74.5t28 -111q0 -70 -29 -111.5t-84 -64.5l-25 -10v-153h-174v204z" />
    <glyph glyph-name="uni02A1" unicode="&#x2a1;" horiz-adv-x="448" 
d="M290 304v-81h82v-97h-82v-126h-174v126h-59v97h59v132l30 11q59 23 84.5 56t25.5 96q0 59 -23 87.5t-62 28.5q-29 0 -53.5 -12t-51.5 -38l-84 83q45 47 98 70.5t118 23.5q107 0 171 -63t64 -177q0 -86 -32 -133.5t-95 -75.5z" />
    <glyph glyph-name="uni02A2" unicode="&#x2a2;" horiz-adv-x="448" 
d="M332 223h60v-97h-60v-126h-174v126h-81v97h81v81l-16 8q-64 28 -96 75.5t-32 133.5q0 76 30.5 130t84.5 82t124 28q64 0 116 -23.5t97 -70.5l-84 -83q-26 26 -51 38t-54 12q-39 0 -62 -29t-23 -88q0 -63 25.5 -95.5t84.5 -55.5l30 -11v-132z" />
    <glyph glyph-name="uni0261" unicode="&#x261;" horiz-adv-x="547" 
d="M504 533v-531q0 -112 -65 -169t-182 -57q-109 0 -188 51l53 104q27 -14 55 -22t64 -8q89 0 89 83v75q-47 -57 -119 -57q-91 0 -139 73.5t-48 202.5q0 80 25.5 142t71.5 96.5t106 34.5q34 0 64 -15t53 -43l8 40h152zM330 180v212q-27 33 -57 33q-70 0 -70 -148
q0 -87 16.5 -118t46.5 -31q37 0 64 52z" />
    <glyph glyph-name="uni01E5" unicode="&#x1e5;" horiz-adv-x="505" 
d="M550 -86h-53q-16 -65 -82.5 -101.5t-176.5 -36.5q-94 0 -147.5 21t-74.5 59t-21 94h156q0 -26 7.5 -40.5t27.5 -21t59 -6.5q44 0 67.5 7.5t33.5 24.5h-100v64h99q-17 28 -80 28h-56q-84 0 -123.5 25.5t-39.5 68.5q0 30 16.5 56t44.5 44q-47 28 -68 64t-21 89
q0 93 61.5 145.5t167.5 51.5q67 -1 117 17.5t106 53.5l39 -122q-46 -22 -136 -22q49 -21 72 -53.5t23 -84.5t-26 -92t-74.5 -62.5t-113.5 -22.5q-32 0 -52 5q-14 -9 -14 -27q0 -14 10 -21t41 -7h64q84 0 136.5 -36.5t60.5 -97.5h50v-64zM189 357q0 -84 58 -84q29 0 43 20
t14 66q0 42 -14 60t-43 18q-58 0 -58 -80z" />
    <glyph glyph-name="uni021D" unicode="&#x21d;" horiz-adv-x="438" 
d="M338.5 510.5q55.5 -40.5 55.5 -112.5q0 -49 -29 -79.5t-87 -44.5q138 -10 138 -119q0 -88 -94.5 -157t-270.5 -106l-15 112q109 39 155.5 74t46.5 82q0 48 -54 48h-78l10 109h40q32 0 47.5 14.5t15.5 46.5q0 54 -50 54q-26 0 -47 -7.5t-48 -23.5l-77 88q83 62 199 62
q87 0 142.5 -40.5z" />
    <glyph glyph-name="h" unicode="h" horiz-adv-x="522" 
d="M448 510q35 -41 35 -114v-396h-174v373q0 26 -7.5 37t-21.5 11q-29 0 -63 -56v-365h-174v743l174 18v-281q29 37 61 54t73 17q62 0 97 -41z" />
    <glyph glyph-name="hbar" unicode="&#x127;" horiz-adv-x="529" 
d="M455 510q35 -41 35 -114v-396h-174v373q0 26 -7.5 37t-21.5 11q-29 0 -63 -56v-365h-174v595h-48v97h48v51l174 18v-69h111v-97h-111v-115q29 37 61 54t73 17q62 0 97 -41z" />
    <glyph glyph-name="uni021F" unicode="&#x21f;" horiz-adv-x="522" 
d="M448 510q35 -41 35 -114v-396h-174v373q0 26 -7.5 37t-21.5 11q-29 0 -63 -56v-365h-174v743l174 18v-281q29 37 61 54t73 17q62 0 97 -41zM384 997l59 -64l-130 -136h-104l-130 136l59 64l123 -84z" />
    <glyph glyph-name="hcircumflex" unicode="&#x125;" horiz-adv-x="522" 
d="M448 510q35 -41 35 -114v-396h-174v373q0 26 -7.5 37t-21.5 11q-29 0 -63 -56v-365h-174v743l174 18v-281q29 37 61 54t73 17q62 0 97 -41zM138 805l-59 64l130 136h104l130 -136l-59 -64l-123 84z" />
    <glyph glyph-name="uni1E25" unicode="&#x1e25;" horiz-adv-x="522" 
d="M448 510q35 -41 35 -114v-396h-174v373q0 26 -7.5 37t-21.5 11q-29 0 -63 -56v-365h-174v743l174 18v-281q29 37 61 54t73 17q62 0 97 -41zM193.5 -222.5q-27.5 27.5 -27.5 68.5q0 42 27.5 69t70.5 27t70.5 -27t27.5 -69q0 -41 -27.5 -68.5t-70.5 -27.5t-70.5 27.5z" />
    <glyph glyph-name="uni0267" unicode="&#x267;" horiz-adv-x="522" 
d="M448 509q35 -42 35 -119v-425q0 -92 -53.5 -140.5t-143.5 -48.5q-84 0 -142 44l57 98q18 -9 31 -13t30 -4q22 0 34.5 12.5t12.5 38.5v415q0 30 -7.5 42t-21.5 12q-29 0 -63 -56v-365h-174v578q0 80 52 131.5t149 51.5q39 0 75.5 -9.5t64.5 -25.5l-47 -109q-34 17 -68 17
q-27 0 -39.5 -14.5t-12.5 -47.5v-92q29 37 61 54t73 17q62 0 97 -42z" />
    <glyph glyph-name="uni0266" unicode="&#x266;" horiz-adv-x="522" 
d="M448 509q35 -42 35 -119v-390h-174v367q0 30 -7.5 42t-21.5 12q-29 0 -63 -56v-365h-174v578q0 80 52 131.5t149 51.5q39 0 75.5 -9.5t64.5 -25.5l-47 -109q-34 17 -68 17q-27 0 -39.5 -14.5t-12.5 -47.5v-92q29 37 61 54t73 17q62 0 97 -42z" />
    <glyph glyph-name="uni0265" unicode="&#x265;" horiz-adv-x="522" 
d="M479 533v-757l-174 18v259q-29 -37 -61.5 -54t-72.5 -17q-62 0 -97 41t-35 114v396h174v-373q0 -26 7.5 -37t21.5 -11q29 0 63 56v365h174z" />
    <glyph glyph-name="uni02AE" unicode="&#x2ae;" horiz-adv-x="637" 
d="M595 533v-757l-174 18v259q-29 -37 -61.5 -54t-72.5 -17q-62 0 -97 41t-35 114v239q0 26 -12.5 38.5t-34.5 12.5q-17 0 -30 -4t-31 -13l-57 98q58 44 142 44q90 0 143.5 -48.5t53.5 -140.5v-203q0 -26 7 -37t21 -11q30 0 64 56v365h174z" />
    <glyph glyph-name="uni02AF" unicode="&#x2af;" horiz-adv-x="637" 
d="M759 -180q-58 -44 -142 -44q-90 0 -143.5 48.5t-53.5 140.5v36h1v52q-29 -37 -61.5 -54t-72.5 -17q-62 0 -97 41t-35 114v239q0 26 -12.5 38.5t-34.5 12.5q-17 0 -30 -4t-31 -13l-57 98q58 44 142 44q90 0 143.5 -48.5t53.5 -140.5v-203q0 -26 7 -37t21 -11q30 0 64 56
v365h174v-533h-1v-48q0 -26 12.5 -38.5t34.5 -12.5q17 0 30 4t31 13z" />
    <glyph glyph-name="uni0195" unicode="&#x195;" horiz-adv-x="783" 
d="M748 389q7 -66 7 -139q0 -140 -71 -204t-175 -64q-89 0 -144.5 48.5t-55.5 143.5v199q0 26 -7.5 37t-21.5 11q-29 0 -63 -56v-365h-174v743l174 18v-281q29 37 61 54t73 17q62 0 97 -41t35 -114v-226q0 -34 9.5 -48t29.5 -14q27 0 43 34.5t16 117.5q0 110 -23 273h170
q13 -78 20 -144z" />
    <glyph glyph-name="i" unicode="i" horiz-adv-x="260" 
d="M217 533v-533h-174v533h174zM200.5 790.5q27.5 -27.5 27.5 -68.5q0 -42 -27.5 -69t-70.5 -27t-70.5 27t-27.5 69q0 41 27.5 68.5t70.5 27.5t70.5 -27.5z" />
    <glyph glyph-name="dotlessi" unicode="&#x131;" horiz-adv-x="260" 
d="M217 533v-533h-174v533h174z" />
    <glyph glyph-name="iacute" unicode="&#xed;" horiz-adv-x="260" 
d="M217 533v-533h-174v533h174zM190 840l67 -125l-224 -96l-47 85z" />
    <glyph glyph-name="ibreve" unicode="&#x12d;" horiz-adv-x="260" 
d="M217 533v-533h-174v533h174zM12.5 680q-41.5 50 -47.5 132l91 16q16 -80 74 -80t74 80l91 -16q-6 -82 -47.5 -132t-117.5 -50t-117.5 50z" />
    <glyph glyph-name="uni01D0" unicode="&#x1d0;" horiz-adv-x="260" 
d="M217 533v-533h-174v533h174zM253 818l59 -65l-130 -145h-104l-130 145l59 65l123 -94z" />
    <glyph glyph-name="icircumflex" unicode="&#xee;" horiz-adv-x="260" 
d="M217 533v-533h-174v533h174zM7 620l-59 64l130 145h104l130 -145l-59 -64l-123 93z" />
    <glyph glyph-name="uni0209" unicode="&#x209;" horiz-adv-x="260" 
d="M217 533v-533h-174v533h174zM19 866l91 -203l-82 -40l-117 187zM188 866l85 -204l-85 -35l-110 187z" />
    <glyph glyph-name="idieresis" unicode="&#xef;" horiz-adv-x="260" 
d="M217 533v-533h-174v533h174zM80 782q24 -24 24 -59q0 -36 -24 -60.5t-60 -24.5q-35 0 -59.5 24.5t-24.5 60.5q0 35 24.5 59t59.5 24q36 0 60 -24zM299 782q24 -24 24 -59q0 -36 -24 -60.5t-60 -24.5q-35 0 -59.5 24.5t-24.5 60.5q0 35 24.5 59t59.5 24q36 0 60 -24z" />
    <glyph glyph-name="uni1E2F" unicode="&#x1e2f;" horiz-adv-x="260" 
d="M217 533v-533h-174v533h174zM193 963l97 -88l-158 -147l-65 56zM71 739.5q24 -24.5 24 -59.5q0 -36 -24 -60.5t-60 -24.5t-60 24.5t-24 60.5q0 35 24 59.5t60 24.5t60 -24.5zM307 740q24 -24 24 -60t-24 -60.5t-60 -24.5q-35 0 -59.5 24.5t-24.5 60.5q0 35 24.5 59.5
t59.5 24.5q36 0 60 -24z" />
    <glyph glyph-name="i.loclTRK" horiz-adv-x="260" 
d="M217 533v-533h-174v533h174zM200.5 790.5q27.5 -27.5 27.5 -68.5q0 -42 -27.5 -69t-70.5 -27t-70.5 27t-27.5 69q0 41 27.5 68.5t70.5 27.5t70.5 -27.5z" />
    <glyph glyph-name="uni1ECB" unicode="&#x1ecb;" horiz-adv-x="260" 
d="M217 533v-533h-174v533h174zM200.5 790.5q27.5 -27.5 27.5 -68.5q0 -42 -27.5 -69t-70.5 -27t-70.5 27t-27.5 69q0 41 27.5 68.5t70.5 27.5t70.5 -27.5zM59.5 -222.5q-27.5 27.5 -27.5 68.5q0 42 27.5 69t70.5 27t70.5 -27t27.5 -69q0 -41 -27.5 -68.5t-70.5 -27.5
t-70.5 27.5z" />
    <glyph glyph-name="igrave" unicode="&#xec;" horiz-adv-x="260" 
d="M217 533v-533h-174v533h174zM70 840l204 -136l-47 -85l-224 96z" />
    <glyph glyph-name="uni1EC9" unicode="&#x1ec9;" horiz-adv-x="260" 
d="M217 533v-533h-174v533h174zM82 704q35 2 49.5 10t14.5 27q0 15 -9 22.5t-24 7.5q-16 0 -28 -3t-28 -10l-26 69q44 26 105 26q58 0 89 -28.5t31 -74.5q0 -40 -19.5 -64t-57.5 -32v-51h-97v101z" />
    <glyph glyph-name="uni020B" unicode="&#x20b;" horiz-adv-x="260" 
d="M217 533v-533h-174v533h174zM247.5 746q41.5 -50 47.5 -132l-91 -16q-16 80 -74 80t-74 -80l-91 16q6 82 47.5 132t117.5 50t117.5 -50z" />
    <glyph glyph-name="ij" unicode="&#x133;" horiz-adv-x="520" 
d="M217 533v-533h-174v533h174zM200.5 790.5q27.5 -27.5 27.5 -68.5q0 -42 -27.5 -69t-70.5 -27t-70.5 27t-27.5 69q0 41 27.5 68.5t70.5 27.5t70.5 -27.5zM477 56q0 -116 -56.5 -178.5t-158.5 -101.5l-60 127q35 18 56 35t33 43.5t12 68.5v483h174v-477zM460.5 790.5
q27.5 -27.5 27.5 -68.5q0 -42 -27.5 -69t-70.5 -27t-70.5 27t-27.5 69q0 41 27.5 68.5t70.5 27.5t70.5 -27.5z" />
    <glyph glyph-name="imacron" unicode="&#x12b;" horiz-adv-x="260" 
d="M217 533v-533h-174v533h174zM275 653h-290v118h290v-118z" />
    <glyph glyph-name="iogonek" unicode="&#x12f;" horiz-adv-x="260" 
d="M59.5 653q-27.5 27 -27.5 69q0 41 27.5 68.5t70.5 27.5t70.5 -27.5t27.5 -68.5q0 -42 -27.5 -69t-70.5 -27t-70.5 27zM43 533h174v-533h-34q-60 -24 -82 -48.5t-22 -50.5q0 -23 12.5 -34.5t34.5 -11.5t54 8l-10 -104q-32 -8 -66 -8q-64 0 -104.5 32t-40.5 88q0 82 84 135
v527z" />
    <glyph glyph-name="uni0269" unicode="&#x269;" horiz-adv-x="276" 
d="M77 23q-39 41 -39 114v396h174v-389q0 -25 22 -25q10 0 19 3l31 -122q-40 -18 -96 -18q-72 0 -111 41z" />
    <glyph glyph-name="uni0268" unicode="&#x268;" horiz-adv-x="309" 
d="M83.5 653q-27.5 27 -27.5 69q0 41 27.5 68.5t70.5 27.5t70.5 -27.5t27.5 -68.5q0 -42 -27.5 -69t-70.5 -27t-70.5 27zM306 342v-121h-65v-221h-174v221h-65v121h65v191h174v-191h65z" />
    <glyph glyph-name="itilde" unicode="&#x129;" horiz-adv-x="260" 
d="M217 533v-533h-174v533h174zM147 639.5q-15 6.5 -32 18.5q-12 8 -20 12t-17 4q-15 0 -24.5 -9.5t-22.5 -31.5l-81 38q18 54 51 88.5t74 34.5q21 0 37 -7t33 -19q2 -1 10 -6t14.5 -7.5t12.5 -2.5q14 0 24 9.5t22 31.5l81 -38q-18 -55 -50.5 -88.5t-75.5 -33.5
q-21 0 -36 6.5z" />
    <glyph glyph-name="j" unicode="j" horiz-adv-x="260" 
d="M217 56q0 -116 -56.5 -178.5t-158.5 -101.5l-60 127q35 18 56 35t33 43.5t12 68.5v483h174v-477zM200.5 790.5q27.5 -27.5 27.5 -68.5q0 -42 -27.5 -69t-70.5 -27t-70.5 27t-27.5 69q0 41 27.5 68.5t70.5 27.5t70.5 -27.5z" />
    <glyph glyph-name="uni0237" unicode="&#x237;" horiz-adv-x="260" 
d="M217 56q0 -116 -56.5 -178.5t-158.5 -101.5l-60 127q35 18 56 35t33 43.5t12 68.5v483h174v-477z" />
    <glyph glyph-name="uni01F0" unicode="&#x1f0;" horiz-adv-x="260" 
d="M217 56q0 -116 -56.5 -178.5t-158.5 -101.5l-60 127q35 18 56 35t33 43.5t12 68.5v483h174v-477zM253 818l59 -65l-130 -145h-104l-130 145l59 65l123 -94z" />
    <glyph glyph-name="jcircumflex" unicode="&#x135;" horiz-adv-x="260" 
d="M217 56q0 -116 -56.5 -178.5t-158.5 -101.5l-60 127q35 18 56 35t33 43.5t12 68.5v483h174v-477zM7 620l-59 64l130 145h104l130 -145l-59 -64l-123 93z" />
    <glyph glyph-name="uni029D" unicode="&#x29d;" horiz-adv-x="325" 
d="M334 -110q-27 13 -63 26q-18 -70 -66 -105t-129 -35q-70 0 -107 32t-37 88q0 63 38.5 96t106.5 33q13 0 31 -2v510h174v-517v-21q45 -15 84 -38zM97 -118.5q11 18.5 11 61.5v3q-9 1 -32 1q-50 0 -50 -45q0 -39 36 -39q24 0 35 18.5zM265.5 790.5q27.5 -27.5 27.5 -68.5
q0 -42 -27.5 -69t-70.5 -27t-70.5 27t-27.5 69q0 41 27.5 68.5t70.5 27.5t70.5 -27.5z" />
    <glyph glyph-name="uni025F" unicode="&#x25f;" horiz-adv-x="311" 
d="M308 199h-64v-143q0 -116 -56.5 -178.5t-158.5 -101.5l-60 127q35 18 56 35t33 43.5t12 68.5v149h-66v121h66v213h174v-213h64v-121z" />
    <glyph glyph-name="uni0284" unicode="&#x284;" horiz-adv-x="310" 
d="M252.5 622q-9.5 -12 -9.5 -40v-49h1v-413h62v-120h-66q-13 -88 -67 -138.5t-144 -85.5l-59 122q43 22 65.5 43.5t30.5 58.5h-63v120h67v411h-1v47q0 83 48.5 133t138.5 50q70 0 132 -37l-47 -106q-29 16 -57 16q-22 0 -31.5 -12z" />
    <glyph glyph-name="uni0249" unicode="&#x249;" horiz-adv-x="311" 
d="M308 199h-64v-143q0 -116 -56.5 -178.5t-158.5 -101.5l-60 127q35 18 56 35t33 43.5t12 68.5v149h-66v121h66v213h174v-213h64v-121zM227.5 790.5q27.5 -27.5 27.5 -68.5q0 -42 -27.5 -69t-70.5 -27t-70.5 27t-27.5 69q0 41 27.5 68.5t70.5 27.5t70.5 -27.5z" />
    <glyph glyph-name="k" unicode="k" horiz-adv-x="522" 
d="M217 761v-761h-174v743zM524 533l-132 -234l140 -299h-187l-124 291l134 242h169z" />
    <glyph glyph-name="uni01E9" unicode="&#x1e9;" horiz-adv-x="522" 
d="M217 761v-761h-174v743zM524 533l-132 -234l140 -299h-187l-124 291l134 242h169zM401 997l59 -64l-130 -136h-104l-130 136l59 64l123 -84z" />
    <glyph glyph-name="kcommaaccent" unicode="&#x137;" horiz-adv-x="522" 
d="M217 761v-761h-174v743zM524 533l-132 -234l140 -299h-187l-124 291l134 242h169zM320 -88.5q23 -23.5 23 -59.5q0 -19 -5.5 -36t-19.5 -50l-44 -98h-83l26 115q-37 26 -37 69q0 34 23 58.5t58 24.5q36 0 59 -23.5z" />
    <glyph glyph-name="kgreenlandic" unicode="&#x138;" horiz-adv-x="522" 
d="M217 533v-533h-174v533h174zM524 533l-132 -240l140 -293h-187l-124 286l134 247h169z" />
    <glyph glyph-name="uni0199" unicode="&#x199;" horiz-adv-x="522" 
d="M229.5 619.5q-12.5 -14.5 -12.5 -47.5v-572h-174v578q0 80 52 131.5t149 51.5q39 0 75.5 -9.5t64.5 -25.5l-47 -109q-34 17 -68 17q-27 0 -39.5 -14.5zM392 299l140 -299h-187l-124 291l134 242h169z" />
    <glyph glyph-name="uni029E" unicode="&#x29e;" horiz-adv-x="522" 
d="M-2 0l131 234l-139 299h187l124 -292l-134 -241h-169zM305 -206v739h174v-757z" />
    <glyph glyph-name="l" unicode="l" horiz-adv-x="276" 
d="M77 23q-39 41 -39 114v606l174 18v-617q0 -25 22 -25q12 0 19 3l31 -122q-40 -18 -96 -18q-72 0 -111 41z" />
    <glyph glyph-name="lacute" unicode="&#x13a;" horiz-adv-x="276" 
d="M77 23q-39 41 -39 114v606l174 18v-617q0 -25 22 -25q12 0 19 3l31 -122q-40 -18 -96 -18q-72 0 -111 41zM195 1011l64 -126l-226 -87l-44 85z" />
    <glyph glyph-name="uni019B" unicode="&#x19b;" horiz-adv-x="496" 
d="M442.5 195q27.5 -89 72.5 -159l-167 -54q-38 77 -59.5 160t-41.5 223l-72 -383l-172 36l142 474h81q-9 42 -21 71l-52 -48l-84 58l66 61q-29 12 -80 22l19 104q104 -16 161 -50l69 59l65 -76l-60 -51q47 -65 70 -180q36 -178 63.5 -267z" />
    <glyph glyph-name="uni019A" unicode="&#x19a;" horiz-adv-x="317" 
d="M314 0q-40 -18 -96 -18q-72 0 -111 41t-39 114v174h-66v121h66v311l174 18v-329h64v-121h-64v-167q0 -25 22 -25q12 0 19 3z" />
    <glyph glyph-name="uni026C" unicode="&#x26c;" horiz-adv-x="415" 
d="M365 122l31 -122q-40 -18 -96 -18q-72 0 -111 41t-39 114v101q-80 2 -119 36t-39 93q0 56 33.5 86.5t88.5 30.5q23 0 36 -4v263l174 18v-429q26 2 59 9l14 -85q-32 -11 -73 -14v-98q0 -25 22 -25q12 0 19 3zM150 329v68q-12 2 -21 2q-28 0 -28 -30q0 -40 49 -40z" />
    <glyph glyph-name="lcaron" unicode="&#x13e;" horiz-adv-x="369" 
d="M77 23q-39 41 -39 114v606l174 18v-617q0 -25 22 -25q12 0 19 3l31 -122q-40 -18 -96 -18q-72 0 -111 41zM338 519l52 223l-124 18l-23 -227z" />
    <glyph glyph-name="uni1E3D" unicode="&#x1e3d;" horiz-adv-x="276" 
d="M77 23q-39 41 -39 114v606l174 18v-617q0 -25 22 -25q12 0 19 3l31 -122q-40 -18 -96 -18q-72 0 -111 41zM45 -271l-59 64l130 145h104l130 -145l-59 -64l-123 93z" />
    <glyph glyph-name="lcommaaccent" unicode="&#x13c;" horiz-adv-x="276" 
d="M77 23q-39 41 -39 114v606l174 18v-617q0 -25 22 -25q12 0 19 3l31 -122q-40 -18 -96 -18q-72 0 -111 41zM229 -88.5q23 -23.5 23 -59.5q0 -19 -5.5 -36t-19.5 -50l-44 -98h-83l26 115q-37 26 -37 69q0 34 23 58.5t58 24.5q36 0 59 -23.5z" />
    <glyph glyph-name="uni0234" unicode="&#x234;" horiz-adv-x="443" 
d="M414 218.5q32 -31.5 32 -86.5q0 -74 -51 -112t-131 -38q-13 0 -39 2l-30 -71l-78 32l27 61q-49 23 -77.5 69.5t-28.5 118.5v549l174 18v-569q0 -15 2 -35q23 50 51 71.5t69 21.5q48 0 80 -31.5zM332 138q0 23 -18 23q-12 0 -20.5 -12t-22.5 -45q6 -1 20 -1q41 0 41 35z
" />
    <glyph glyph-name="ldot" unicode="&#x140;" horiz-adv-x="449" 
d="M77 23q-39 41 -39 114v606l174 18v-617q0 -25 22 -25q12 0 19 3l31 -122q-40 -18 -96 -18q-72 0 -111 41zM420.5 445.5q27.5 -27.5 27.5 -68.5q0 -42 -27.5 -69t-70.5 -27t-70.5 27t-27.5 69q0 41 27.5 68.5t70.5 27.5t70.5 -27.5z" />
    <glyph glyph-name="uni1E37" unicode="&#x1e37;" horiz-adv-x="276" 
d="M77 23q-39 41 -39 114v606l174 18v-617q0 -25 22 -25q12 0 19 3l31 -122q-40 -18 -96 -18q-72 0 -111 41zM99.5 -222.5q-27.5 27.5 -27.5 68.5q0 42 27.5 69t70.5 27t70.5 -27t27.5 -69q0 -41 -27.5 -68.5t-70.5 -27.5t-70.5 27.5z" />
    <glyph glyph-name="uni026E" unicode="&#x26e;" horiz-adv-x="660" 
d="M602 153.5q48 -50.5 48 -143.5q0 -67 -30 -120t-88 -83.5t-137 -30.5q-122 0 -197 75l82 99q26 -22 50 -32.5t53 -10.5q42 0 65.5 28t23.5 83q0 53 -25 75.5t-78 22.5h-80v97l140 192h-217v-261q0 -25 22 -25q12 0 19 3l31 -122q-40 -18 -96 -18q-72 0 -111 41t-39 114
v606l174 18v-228h405v-118l-153 -202q90 -9 138 -59.5z" />
    <glyph glyph-name="uni026D" unicode="&#x26d;" horiz-adv-x="260" 
d="M382 -180q-58 -44 -142 -44q-90 0 -143.5 48.5t-53.5 140.5v778l174 18v-809q0 -26 12.5 -38.5t34.5 -12.5q17 0 30 4t31 13z" />
    <glyph glyph-name="uni01C9" unicode="&#x1c9;" horiz-adv-x="536" 
d="M77 23q-39 41 -39 114v606l174 18v-617q0 -25 22 -25q12 0 19 3l31 -122q-40 -18 -96 -18q-72 0 -111 41zM493 56q0 -116 -56.5 -178.5t-158.5 -101.5l-60 127q35 18 56 35t33 43.5t12 68.5v483h174v-477zM476.5 790.5q27.5 -27.5 27.5 -68.5q0 -42 -27.5 -69t-70.5 -27
t-70.5 27t-27.5 69q0 41 27.5 68.5t70.5 27.5t70.5 -27.5z" />
    <glyph glyph-name="uni026B" unicode="&#x26b;" horiz-adv-x="442" 
d="M396.5 309.5q-34.5 -34.5 -84.5 -37.5v-128q0 -25 22 -25q12 0 19 3l31 -122q-40 -18 -96 -18q-72 0 -111 41t-39 114v193q-18 -3 -28.5 -13.5t-28.5 -36.5l-86 44q25 56 59.5 91.5t83.5 39.5v288l174 18v-363q19 1 30.5 12t28.5 36l88 -44q-28 -58 -62.5 -92.5z" />
    <glyph glyph-name="uni02AA" unicode="&#x2aa;" horiz-adv-x="638" 
d="M101.5 40.5q-63.5 58.5 -63.5 165.5v537l174 18v-557q0 -53 28.5 -76.5t95.5 -23.5t98.5 12.5t31.5 38.5q0 15 -6 24.5t-24 19t-56 23.5q-66 25 -95.5 61t-29.5 99q0 74 50 121.5t137 47.5q48 0 91 -16.5t77 -46.5l-56 -92q-51 32 -99 32q-22 0 -33 -9.5t-11 -26.5
q0 -13 6.5 -22t24.5 -18.5t56 -23.5q67 -24 98 -62.5t31 -97.5q0 -91 -75.5 -138.5t-220.5 -47.5q-166 0 -229.5 58.5z" />
    <glyph glyph-name="lslash" unicode="&#x142;" horiz-adv-x="347" 
d="M291 122l31 -122q-40 -18 -96 -18q-72 0 -111 41t-39 114v123l-33 -21l-55 90l88 60v354l174 18v-261l48 30l56 -90l-104 -67v-229q0 -25 22 -25q12 0 19 3z" />
    <glyph glyph-name="uni02AB" unicode="&#x2ab;" horiz-adv-x="670" 
d="M646 0h-362q-43 -18 -96 -18q-72 0 -111 41t-39 114v606l174 18v-617q0 -25 22 -25q11 0 18 3l208 282h-189v129h384v-122l-208 -281h213z" />
    <glyph glyph-name="m" unicode="m" horiz-adv-x="761" 
d="M687.5 509q34.5 -42 34.5 -113v-396h-172v373q0 48 -27 48q-29 0 -55 -52v-369h-171v373q0 48 -27 48q-29 0 -55 -52v-369h-172v533h152l11 -60q29 40 62.5 59t75.5 19q38 0 67 -21t44 -60q29 41 63.5 61t78.5 20q56 0 90.5 -42z" />
    <glyph glyph-name="uni1E3F" unicode="&#x1e3f;" horiz-adv-x="761" 
d="M687.5 509q34.5 -42 34.5 -113v-396h-172v373q0 48 -27 48q-29 0 -55 -52v-369h-171v373q0 48 -27 48q-29 0 -55 -52v-369h-172v533h152l11 -60q29 40 62.5 59t75.5 19q38 0 67 -21t44 -60q29 41 63.5 61t78.5 20q56 0 90.5 -42zM440 840l67 -125l-224 -96l-47 85z" />
    <glyph glyph-name="uni1E41" unicode="&#x1e41;" horiz-adv-x="761" 
d="M687.5 509q34.5 -42 34.5 -113v-396h-172v373q0 48 -27 48q-29 0 -55 -52v-369h-171v373q0 48 -27 48q-29 0 -55 -52v-369h-172v533h152l11 -60q29 40 62.5 59t75.5 19q38 0 67 -21t44 -60q29 41 63.5 61t78.5 20q56 0 90.5 -42zM450.5 790.5q27.5 -27.5 27.5 -68.5
q0 -42 -27.5 -69t-70.5 -27t-70.5 27t-27.5 69q0 41 27.5 68.5t70.5 27.5t70.5 -27.5z" />
    <glyph glyph-name="uni0271" unicode="&#x271;" horiz-adv-x="761" 
d="M687.5 509q34.5 -42 34.5 -113v-428q0 -94 -53.5 -143t-142.5 -49q-85 0 -141 44l58 99q18 -10 31 -14t29 -4q22 0 34.5 12.5t12.5 38.5v421q0 48 -27 48q-29 0 -55 -52v-369h-171v373q0 48 -27 48q-29 0 -55 -52v-369h-172v533h152l11 -60q29 40 62.5 59t75.5 19
q38 0 67 -21t44 -60q29 41 63.5 61t78.5 20q56 0 90.5 -42z" />
    <glyph glyph-name="uni0270" unicode="&#x270;" horiz-adv-x="761" 
d="M718 533v-757l-174 18v252q-52 -64 -127 -64q-38 0 -67 21t-44 60q-29 -41 -63.5 -61t-78.5 -20q-56 0 -90.5 42t-34.5 113v396h172v-373q0 -48 27 -48q29 0 55 52v369h171v-373q0 -48 27 -48q29 0 55 52v369h172z" />
    <glyph glyph-name="uni026F" unicode="&#x26f;" horiz-adv-x="761" 
d="M718 533v-533h-152l-11 60q-29 -40 -62.5 -59t-75.5 -19q-38 0 -67 21t-44 60q-29 -41 -63.5 -61t-78.5 -20q-56 0 -90.5 42t-34.5 113v396h172v-373q0 -48 27 -48q29 0 55 52v369h171v-373q0 -48 27 -48q29 0 55 52v369h172z" />
    <glyph glyph-name="n" unicode="n" horiz-adv-x="522" 
d="M448 510q35 -41 35 -114v-396h-174v373q0 26 -7.5 37t-21.5 11q-29 0 -63 -56v-365h-174v533h152l12 -59q31 39 65.5 58t78.5 19q62 0 97 -41z" />
    <glyph glyph-name="nacute" unicode="&#x144;" horiz-adv-x="522" 
d="M448 510q35 -41 35 -114v-396h-174v373q0 26 -7.5 37t-21.5 11q-29 0 -63 -56v-365h-174v533h152l12 -59q31 39 65.5 58t78.5 19q62 0 97 -41zM325 840l67 -125l-224 -96l-47 85z" />
    <glyph glyph-name="nacute.loclPLK" horiz-adv-x="522" 
d="M448 510q35 -41 35 -114v-396h-174v373q0 26 -7.5 37t-21.5 11q-29 0 -63 -56v-365h-174v533h152l12 -59q31 39 65.5 58t78.5 19q62 0 97 -41zM273 818l127 -71l-132 -164l-77 44z" />
    <glyph glyph-name="napostrophe" unicode="&#x149;" horiz-adv-x="647" 
d="M148 741q19 -20 19 -50q0 -17 -5 -32.5t-17 -41.5l-36 -82h-70l19 97q-30 23 -30 59q0 29 19.5 49.5t50.5 20.5t50 -20zM573 510q35 -41 35 -114v-396h-174v373q0 26 -7.5 37t-21.5 11q-29 0 -63 -56v-365h-174v533h152l12 -59q31 39 65.5 58t78.5 19q62 0 97 -41z" />
    <glyph glyph-name="ncaron" unicode="&#x148;" horiz-adv-x="522" 
d="M448 510q35 -41 35 -114v-396h-174v373q0 26 -7.5 37t-21.5 11q-29 0 -63 -56v-365h-174v533h152l12 -59q31 39 65.5 58t78.5 19q62 0 97 -41zM388 818l59 -65l-130 -145h-104l-130 145l59 65l123 -94z" />
    <glyph glyph-name="uni1E4B" unicode="&#x1e4b;" horiz-adv-x="522" 
d="M448 510q35 -41 35 -114v-396h-174v373q0 26 -7.5 37t-21.5 11q-29 0 -63 -56v-365h-174v533h152l12 -59q31 39 65.5 58t78.5 19q62 0 97 -41zM136 -271l-59 64l130 145h104l130 -145l-59 -64l-123 93z" />
    <glyph glyph-name="ncommaaccent" unicode="&#x146;" horiz-adv-x="522" 
d="M448 510q35 -41 35 -114v-396h-174v373q0 26 -7.5 37t-21.5 11q-29 0 -63 -56v-365h-174v533h152l12 -59q31 39 65.5 58t78.5 19q62 0 97 -41zM320 -88.5q23 -23.5 23 -59.5q0 -19 -5.5 -36t-19.5 -50l-44 -98h-83l26 115q-37 26 -37 69q0 34 23 58.5t58 24.5
q36 0 59 -23.5z" />
    <glyph glyph-name="uni0235" unicode="&#x235;" horiz-adv-x="714" 
d="M685 218.5q32 -31.5 32 -86.5q0 -74 -51 -112t-131 -38q-13 0 -39 2l-30 -71l-78 32l27 61q-49 23 -77.5 69.5t-28.5 118.5v179q0 26 -7.5 37t-21.5 11q-29 0 -63 -56v-365h-174v533h152l12 -59q31 39 65.5 58t78.5 19q62 0 97 -41t35 -114v-204q0 -15 2 -35
q23 50 51 71.5t69 21.5q48 0 80 -31.5zM603 138q0 23 -18 23q-12 0 -20.5 -12t-22.5 -45q6 -1 20 -1q41 0 41 35z" />
    <glyph glyph-name="uni1E45" unicode="&#x1e45;" horiz-adv-x="522" 
d="M448 510q35 -41 35 -114v-396h-174v373q0 26 -7.5 37t-21.5 11q-29 0 -63 -56v-365h-174v533h152l12 -59q31 39 65.5 58t78.5 19q62 0 97 -41zM335.5 790.5q27.5 -27.5 27.5 -68.5q0 -42 -27.5 -69t-70.5 -27t-70.5 27t-27.5 69q0 41 27.5 68.5t70.5 27.5t70.5 -27.5z
" />
    <glyph glyph-name="uni1E47" unicode="&#x1e47;" horiz-adv-x="522" 
d="M448 510q35 -41 35 -114v-396h-174v373q0 26 -7.5 37t-21.5 11q-29 0 -63 -56v-365h-174v533h152l12 -59q31 39 65.5 58t78.5 19q62 0 97 -41zM190.5 -222.5q-27.5 27.5 -27.5 68.5q0 42 27.5 69t70.5 27t70.5 -27t27.5 -69q0 -41 -27.5 -68.5t-70.5 -27.5t-70.5 27.5z
" />
    <glyph glyph-name="uni01F9" unicode="&#x1f9;" horiz-adv-x="522" 
d="M448 510q35 -41 35 -114v-396h-174v373q0 26 -7.5 37t-21.5 11q-29 0 -63 -56v-365h-174v533h152l12 -59q31 39 65.5 58t78.5 19q62 0 97 -41zM205 840l204 -136l-47 -85l-224 96z" />
    <glyph glyph-name="eng" unicode="&#x14b;" horiz-adv-x="522" 
d="M448 510q35 -41 35 -114v-431q0 -92 -53.5 -140.5t-143.5 -48.5q-84 0 -142 44l57 98q18 -9 31 -13t30 -4q22 0 34.5 12.5t12.5 38.5v421q0 26 -7.5 37t-21.5 11q-29 0 -63 -56v-365h-174v533h152l12 -59q31 39 65.5 58t78.5 19q62 0 97 -41z" />
    <glyph glyph-name="uni0272" unicode="&#x272;" horiz-adv-x="522" 
d="M448 510q35 -41 35 -114v-396h-174v373q0 26 -7.5 37t-21.5 11q-29 0 -63 -56v-400q0 -92 -53.5 -140.5t-143.5 -48.5q-84 0 -142 44l57 98q18 -9 31 -13t30 -4q22 0 34.5 12.5t12.5 38.5v581h152l12 -59q31 39 65.5 58t78.5 19q62 0 97 -41z" />
    <glyph glyph-name="uni0273" unicode="&#x273;" horiz-adv-x="522" 
d="M647 -180q-58 -44 -142 -44q-90 0 -143.5 48.5t-53.5 140.5v36h1v372q0 26 -7.5 37t-21.5 11q-29 0 -63 -56v-365h-174v533h152l12 -59q31 39 65.5 58t78.5 19q62 0 97 -41t35 -114v-396h-1v-48q0 -26 12.5 -38.5t34.5 -12.5q17 0 30 4t31 13z" />
    <glyph glyph-name="uni01CC" unicode="&#x1cc;" horiz-adv-x="782" 
d="M448 510q35 -41 35 -114v-396h-174v373q0 26 -7.5 37t-21.5 11q-29 0 -63 -56v-365h-174v533h152l12 -59q31 39 65.5 58t78.5 19q62 0 97 -41zM739 56q0 -116 -56.5 -178.5t-158.5 -101.5l-60 127q35 18 56 35t33 43.5t12 68.5v483h174v-477zM722.5 790.5
q27.5 -27.5 27.5 -68.5q0 -42 -27.5 -69t-70.5 -27t-70.5 27t-27.5 69q0 41 27.5 68.5t70.5 27.5t70.5 -27.5z" />
    <glyph glyph-name="uni019E" unicode="&#x19e;" horiz-adv-x="522" 
d="M448 510q35 -41 35 -114v-620l-174 18v579q0 26 -7.5 37t-21.5 11q-29 0 -63 -56v-365h-174v533h152l12 -59q31 39 65.5 58t78.5 19q62 0 97 -41z" />
    <glyph glyph-name="ntilde" unicode="&#xf1;" horiz-adv-x="522" 
d="M448 510q35 -41 35 -114v-396h-174v373q0 26 -7.5 37t-21.5 11q-29 0 -63 -56v-365h-174v533h152l12 -59q31 39 65.5 58t78.5 19q62 0 97 -41zM282 639.5q-15 6.5 -32 18.5q-12 8 -20 12t-17 4q-15 0 -24.5 -9.5t-22.5 -31.5l-81 38q18 54 51 88.5t74 34.5q21 0 37 -7
t33 -19q2 -1 10 -6t14.5 -7.5t12.5 -2.5q14 0 24 9.5t22 31.5l81 -38q-18 -55 -50.5 -88.5t-75.5 -33.5q-21 0 -36 6.5z" />
    <glyph glyph-name="o" unicode="o" horiz-adv-x="536" 
d="M448.5 478.5q65.5 -72.5 65.5 -212.5q0 -134 -65.5 -209t-180.5 -75q-116 0 -181 72.5t-65 212.5q0 134 65.5 209t180.5 75t180.5 -72.5zM217 388q-16 -36 -16 -121q0 -88 15.5 -123.5t51.5 -35.5q35 0 51 36t16 122q0 87 -16 122.5t-51 35.5t-51 -36z" />
    <glyph glyph-name="oacute" unicode="&#xf3;" horiz-adv-x="536" 
d="M448.5 478.5q65.5 -72.5 65.5 -212.5q0 -134 -65.5 -209t-180.5 -75q-116 0 -181 72.5t-65 212.5q0 134 65.5 209t180.5 75t180.5 -72.5zM217 388q-16 -36 -16 -121q0 -88 15.5 -123.5t51.5 -35.5q35 0 51 36t16 122q0 87 -16 122.5t-51 35.5t-51 -36zM328 840l67 -125
l-224 -96l-47 85z" />
    <glyph glyph-name="oacute.loclPLK" horiz-adv-x="536" 
d="M448.5 478.5q65.5 -72.5 65.5 -212.5q0 -134 -65.5 -209t-180.5 -75q-116 0 -181 72.5t-65 212.5q0 134 65.5 209t180.5 75t180.5 -72.5zM217 388q-16 -36 -16 -121q0 -88 15.5 -123.5t51.5 -35.5q35 0 51 36t16 122q0 87 -16 122.5t-51 35.5t-51 -36zM276 818l127 -71
l-132 -164l-77 44z" />
    <glyph glyph-name="uni0275" unicode="&#x275;" horiz-adv-x="536" 
d="M448.5 478.5q65.5 -72.5 65.5 -212.5q0 -134 -65.5 -209t-180.5 -75q-116 0 -181 72.5t-65 212.5q0 134 65.5 209t180.5 75t180.5 -72.5zM216.5 402q-17.5 -26 -21.5 -85h146q-4 60 -21.5 85.5t-51.5 25.5t-51.5 -26zM320.5 132.5q17.5 27.5 21.5 91.5h-148
q4 -65 21.5 -92t52.5 -27t52.5 27.5z" />
    <glyph glyph-name="obreve" unicode="&#x14f;" horiz-adv-x="536" 
d="M448.5 478.5q65.5 -72.5 65.5 -212.5q0 -134 -65.5 -209t-180.5 -75q-116 0 -181 72.5t-65 212.5q0 134 65.5 209t180.5 75t180.5 -72.5zM217 388q-16 -36 -16 -121q0 -88 15.5 -123.5t51.5 -35.5q35 0 51 36t16 122q0 87 -16 122.5t-51 35.5t-51 -36zM150.5 680
q-41.5 50 -47.5 132l91 16q16 -80 74 -80t74 80l91 -16q-6 -82 -47.5 -132t-117.5 -50t-117.5 50z" />
    <glyph glyph-name="uni01D2" unicode="&#x1d2;" horiz-adv-x="536" 
d="M448.5 478.5q65.5 -72.5 65.5 -212.5q0 -134 -65.5 -209t-180.5 -75q-116 0 -181 72.5t-65 212.5q0 134 65.5 209t180.5 75t180.5 -72.5zM217 388q-16 -36 -16 -121q0 -88 15.5 -123.5t51.5 -35.5q35 0 51 36t16 122q0 87 -16 122.5t-51 35.5t-51 -36zM391 818l59 -65
l-130 -145h-104l-130 145l59 65l123 -94z" />
    <glyph glyph-name="ocircumflex" unicode="&#xf4;" horiz-adv-x="536" 
d="M448.5 478.5q65.5 -72.5 65.5 -212.5q0 -134 -65.5 -209t-180.5 -75q-116 0 -181 72.5t-65 212.5q0 134 65.5 209t180.5 75t180.5 -72.5zM217 388q-16 -36 -16 -121q0 -88 15.5 -123.5t51.5 -35.5q35 0 51 36t16 122q0 87 -16 122.5t-51 35.5t-51 -36zM145 620l-59 64
l130 145h104l130 -145l-59 -64l-123 93z" />
    <glyph glyph-name="uni1ED1" unicode="&#x1ed1;" horiz-adv-x="536" 
d="M448.5 478.5q65.5 -72.5 65.5 -212.5q0 -134 -65.5 -209t-180.5 -75q-116 0 -181 72.5t-65 212.5q0 134 65.5 209t180.5 75t180.5 -72.5zM217 388q-16 -36 -16 -121q0 -88 15.5 -123.5t51.5 -35.5q35 0 51 36t16 122q0 87 -16 122.5t-51 35.5t-51 -36zM145 587l-59 64
l130 136h104l130 -136l-59 -64l-123 84zM491 972l97 -88l-158 -147l-65 56z" />
    <glyph glyph-name="uni1ED9" unicode="&#x1ed9;" horiz-adv-x="536" 
d="M448.5 478.5q65.5 -72.5 65.5 -212.5q0 -134 -65.5 -209t-180.5 -75q-116 0 -181 72.5t-65 212.5q0 134 65.5 209t180.5 75t180.5 -72.5zM217 388q-16 -36 -16 -121q0 -88 15.5 -123.5t51.5 -35.5q35 0 51 36t16 122q0 87 -16 122.5t-51 35.5t-51 -36zM145 620l-59 64
l130 145h104l130 -145l-59 -64l-123 93zM197.5 -222.5q-27.5 27.5 -27.5 68.5q0 42 27.5 69t70.5 27t70.5 -27t27.5 -69q0 -41 -27.5 -68.5t-70.5 -27.5t-70.5 27.5z" />
    <glyph glyph-name="uni1ED3" unicode="&#x1ed3;" horiz-adv-x="536" 
d="M448.5 478.5q65.5 -72.5 65.5 -212.5q0 -134 -65.5 -209t-180.5 -75q-116 0 -181 72.5t-65 212.5q0 134 65.5 209t180.5 75t180.5 -72.5zM217 388q-16 -36 -16 -121q0 -88 15.5 -123.5t51.5 -35.5q35 0 51 36t16 122q0 87 -16 122.5t-51 35.5t-51 -36zM143 587l-59 64
l130 136h104l130 -136l-59 -64l-123 84zM45 972l127 -179l-66 -56l-158 147z" />
    <glyph glyph-name="uni1ED5" unicode="&#x1ed5;" horiz-adv-x="536" 
d="M448.5 478.5q65.5 -72.5 65.5 -212.5q0 -134 -65.5 -209t-180.5 -75q-116 0 -181 72.5t-65 212.5q0 134 65.5 209t180.5 75t180.5 -72.5zM217 388q-16 -36 -16 -121q0 -88 15.5 -123.5t51.5 -35.5q35 0 51 36t16 122q0 87 -16 122.5t-51 35.5t-51 -36zM144 587l-59 64
l130 136h104l130 -136l-59 -64l-123 84zM362 863q35 2 49.5 10t14.5 27q0 15 -9 22.5t-24 7.5q-16 0 -28 -3t-28 -10l-26 69q44 26 105 26q58 0 89 -28.5t31 -74.5q0 -40 -19.5 -64t-57.5 -32v-51h-97v101z" />
    <glyph glyph-name="uni1ED7" unicode="&#x1ed7;" horiz-adv-x="536" 
d="M448.5 478.5q65.5 -72.5 65.5 -212.5q0 -134 -65.5 -209t-180.5 -75q-116 0 -181 72.5t-65 212.5q0 134 65.5 209t180.5 75t180.5 -72.5zM217 388q-16 -36 -16 -121q0 -88 15.5 -123.5t51.5 -35.5q35 0 51 36t16 122q0 87 -16 122.5t-51 35.5t-51 -36zM144 585l-59 64
l130 136h104l130 -136l-59 -64l-123 84zM285 821q-15 6 -32 17q-2 1 -14 7.5t-23 6.5q-15 0 -24.5 -8.5t-22.5 -28.5l-81 35q18 50 51 81.5t74 31.5q21 0 37 -6.5t33 -17.5q9 -6 18.5 -10.5t18.5 -4.5q14 0 24 9t22 29l81 -35q-18 -51 -50.5 -81.5t-75.5 -30.5q-21 0 -36 6z
" />
    <glyph glyph-name="uni020D" unicode="&#x20d;" horiz-adv-x="536" 
d="M448.5 478.5q65.5 -72.5 65.5 -212.5q0 -134 -65.5 -209t-180.5 -75q-116 0 -181 72.5t-65 212.5q0 134 65.5 209t180.5 75t180.5 -72.5zM217 388q-16 -36 -16 -121q0 -88 15.5 -123.5t51.5 -35.5q35 0 51 36t16 122q0 87 -16 122.5t-51 35.5t-51 -36zM157 866l91 -203
l-82 -40l-117 187zM326 866l85 -204l-85 -35l-110 187z" />
    <glyph glyph-name="odieresis" unicode="&#xf6;" horiz-adv-x="536" 
d="M448.5 478.5q65.5 -72.5 65.5 -212.5q0 -134 -65.5 -209t-180.5 -75q-116 0 -181 72.5t-65 212.5q0 134 65.5 209t180.5 75t180.5 -72.5zM217 388q-16 -36 -16 -121q0 -88 15.5 -123.5t51.5 -35.5q35 0 51 36t16 122q0 87 -16 122.5t-51 35.5t-51 -36zM218 782
q24 -24 24 -59q0 -36 -24 -60.5t-60 -24.5q-35 0 -59.5 24.5t-24.5 60.5q0 35 24.5 59t59.5 24q36 0 60 -24zM437 782q24 -24 24 -59q0 -36 -24 -60.5t-60 -24.5q-35 0 -59.5 24.5t-24.5 60.5q0 35 24.5 59t59.5 24q36 0 60 -24z" />
    <glyph glyph-name="uni022B" unicode="&#x22b;" horiz-adv-x="536" 
d="M448.5 478.5q65.5 -72.5 65.5 -212.5q0 -134 -65.5 -209t-180.5 -75q-116 0 -181 72.5t-65 212.5q0 134 65.5 209t180.5 75t180.5 -72.5zM217 388q-16 -36 -16 -121q0 -88 15.5 -123.5t51.5 -35.5q35 0 51 36t16 122q0 87 -16 122.5t-51 35.5t-51 -36zM218 740
q24 -24 24 -59q0 -36 -24 -60.5t-60 -24.5q-35 0 -59.5 24.5t-24.5 60.5q0 35 24.5 59t59.5 24q36 0 60 -24zM437 740q24 -24 24 -59q0 -36 -24 -60.5t-60 -24.5q-35 0 -59.5 24.5t-24.5 60.5q0 35 24.5 59t59.5 24q36 0 60 -24zM413 805h-290v118h290v-118z" />
    <glyph glyph-name="uni022F" unicode="&#x22f;" horiz-adv-x="536" 
d="M448.5 478.5q65.5 -72.5 65.5 -212.5q0 -134 -65.5 -209t-180.5 -75q-116 0 -181 72.5t-65 212.5q0 134 65.5 209t180.5 75t180.5 -72.5zM217 388q-16 -36 -16 -121q0 -88 15.5 -123.5t51.5 -35.5q35 0 51 36t16 122q0 87 -16 122.5t-51 35.5t-51 -36zM338.5 790.5
q27.5 -27.5 27.5 -68.5q0 -42 -27.5 -69t-70.5 -27t-70.5 27t-27.5 69q0 41 27.5 68.5t70.5 27.5t70.5 -27.5z" />
    <glyph glyph-name="uni0231" unicode="&#x231;" horiz-adv-x="536" 
d="M448.5 478.5q65.5 -72.5 65.5 -212.5q0 -134 -65.5 -209t-180.5 -75q-116 0 -181 72.5t-65 212.5q0 134 65.5 209t180.5 75t180.5 -72.5zM217 388q-16 -36 -16 -121q0 -88 15.5 -123.5t51.5 -35.5q35 0 51 36t16 122q0 87 -16 122.5t-51 35.5t-51 -36zM337.5 755.5
q27.5 -27.5 27.5 -68.5q0 -42 -27.5 -69t-70.5 -27t-70.5 27t-27.5 69q0 41 27.5 68.5t70.5 27.5t70.5 -27.5zM413 816h-290v118h290v-118z" />
    <glyph glyph-name="uni1ECD" unicode="&#x1ecd;" horiz-adv-x="536" 
d="M448.5 478.5q65.5 -72.5 65.5 -212.5q0 -134 -65.5 -209t-180.5 -75q-116 0 -181 72.5t-65 212.5q0 134 65.5 209t180.5 75t180.5 -72.5zM217 388q-16 -36 -16 -121q0 -88 15.5 -123.5t51.5 -35.5q35 0 51 36t16 122q0 87 -16 122.5t-51 35.5t-51 -36zM197.5 -222.5
q-27.5 27.5 -27.5 68.5q0 42 27.5 69t70.5 27t70.5 -27t27.5 -69q0 -41 -27.5 -68.5t-70.5 -27.5t-70.5 27.5z" />
    <glyph glyph-name="ograve" unicode="&#xf2;" horiz-adv-x="536" 
d="M448.5 478.5q65.5 -72.5 65.5 -212.5q0 -134 -65.5 -209t-180.5 -75q-116 0 -181 72.5t-65 212.5q0 134 65.5 209t180.5 75t180.5 -72.5zM217 388q-16 -36 -16 -121q0 -88 15.5 -123.5t51.5 -35.5q35 0 51 36t16 122q0 87 -16 122.5t-51 35.5t-51 -36zM208 840l204 -136
l-47 -85l-224 96z" />
    <glyph glyph-name="uni1ECF" unicode="&#x1ecf;" horiz-adv-x="536" 
d="M448.5 478.5q65.5 -72.5 65.5 -212.5q0 -134 -65.5 -209t-180.5 -75q-116 0 -181 72.5t-65 212.5q0 134 65.5 209t180.5 75t180.5 -72.5zM217 388q-16 -36 -16 -121q0 -88 15.5 -123.5t51.5 -35.5q35 0 51 36t16 122q0 87 -16 122.5t-51 35.5t-51 -36zM220 704
q35 2 49.5 10t14.5 27q0 15 -9 22.5t-24 7.5q-16 0 -28 -3t-28 -10l-26 69q44 26 105 26q58 0 89 -28.5t31 -74.5q0 -40 -19.5 -64t-57.5 -32v-51h-97v101z" />
    <glyph glyph-name="ohorn" unicode="&#x1a1;" horiz-adv-x="585" 
d="M572 435q-27 -32 -76 -42q18 -54 18 -127q0 -134 -65.5 -209t-180.5 -75q-116 0 -181 72.5t-65 212.5q0 134 65.5 209t180.5 75q122 0 186 -79q18 4 25.5 16.5t7.5 35.5q0 22 -2.5 37t-8.5 34l106 15q17 -40 17 -90q0 -53 -27 -85zM319 144q16 36 16 122q0 87 -16 122.5
t-51 35.5t-51 -36t-16 -121q0 -88 15.5 -123.5t51.5 -35.5q35 0 51 36z" />
    <glyph glyph-name="uni1EDB" unicode="&#x1edb;" horiz-adv-x="585" 
d="M395 715l-224 -96l-47 85l204 136zM572 435q-27 -32 -76 -42q18 -54 18 -127q0 -134 -65.5 -209t-180.5 -75q-116 0 -181 72.5t-65 212.5q0 134 65.5 209t180.5 75q122 0 186 -79q18 4 25.5 16.5t7.5 35.5q0 22 -2.5 37t-8.5 34l106 15q17 -40 17 -90q0 -53 -27 -85z
M319 144q16 36 16 122q0 87 -16 122.5t-51 35.5t-51 -36t-16 -121q0 -88 15.5 -123.5t51.5 -35.5q35 0 51 36z" />
    <glyph glyph-name="uni1EE3" unicode="&#x1ee3;" horiz-adv-x="585" 
d="M572 435q-27 -32 -76 -42q18 -54 18 -127q0 -134 -65.5 -209t-180.5 -75q-116 0 -181 72.5t-65 212.5q0 134 65.5 209t180.5 75q122 0 186 -79q18 4 25.5 16.5t7.5 35.5q0 22 -2.5 37t-8.5 34l106 15q17 -40 17 -90q0 -53 -27 -85zM319 144q16 36 16 122q0 87 -16 122.5
t-51 35.5t-51 -36t-16 -121q0 -88 15.5 -123.5t51.5 -35.5q35 0 51 36zM338.5 -85q27.5 -27 27.5 -69q0 -41 -27.5 -68.5t-70.5 -27.5t-70.5 27.5t-27.5 68.5q0 42 27.5 69t70.5 27t70.5 -27z" />
    <glyph glyph-name="uni1EDD" unicode="&#x1edd;" horiz-adv-x="585" 
d="M412 704l-47 -85l-224 96l67 125zM572 435q-27 -32 -76 -42q18 -54 18 -127q0 -134 -65.5 -209t-180.5 -75q-116 0 -181 72.5t-65 212.5q0 134 65.5 209t180.5 75q122 0 186 -79q18 4 25.5 16.5t7.5 35.5q0 22 -2.5 37t-8.5 34l106 15q17 -40 17 -90q0 -53 -27 -85z
M319 144q16 36 16 122q0 87 -16 122.5t-51 35.5t-51 -36t-16 -121q0 -88 15.5 -123.5t51.5 -35.5q35 0 51 36z" />
    <glyph glyph-name="uni1EDF" unicode="&#x1edf;" horiz-adv-x="585" 
d="M223 768q-12 -3 -28 -10l-26 69q44 26 105 26q58 0 89 -28.5t31 -74.5q0 -40 -19.5 -64t-57.5 -32v-51h-97v101q35 2 49.5 10t14.5 27q0 15 -9 22.5t-24 7.5q-16 0 -28 -3zM572 435q-27 -32 -76 -42q18 -54 18 -127q0 -134 -65.5 -209t-180.5 -75q-116 0 -181 72.5
t-65 212.5q0 134 65.5 209t180.5 75q122 0 186 -79q18 4 25.5 16.5t7.5 35.5q0 22 -2.5 37t-8.5 34l106 15q17 -40 17 -90q0 -53 -27 -85zM319 144q16 36 16 122q0 87 -16 122.5t-51 35.5t-51 -36t-16 -121q0 -88 15.5 -123.5t51.5 -35.5q35 0 51 36z" />
    </font>
</defs>
</svg>
