<?xml version="1.0" standalone="no"?>
<!DOCTYPE svg PUBLIC "-//W3C//DTD SVG 1.1//EN" "http://www.w3.org/Graphics/SVG/1.1/DTD/svg11.dtd" >
<svg>
<metadata>
Created by FontForge 20120731 at Fri May  5 09:32:43 2017
 By www-data
Digitized data copyright 2012-2016, The Mozilla Foundation and Telefonica S.A.
</metadata>
<defs>
<font id="FiraSansCondensed-BoldItalic" horiz-adv-x="504" >
  <font-face 
    font-family="Fira Sans Condensed"
    font-weight="700"
    font-style="italic"
    font-stretch="condensed"
    units-per-em="1000"
    panose-1="2 11 8 3 5 0 0 2 0 4"
    ascent="800"
    descent="-200"
    x-height="531"
    cap-height="693"
    bbox="-711 -355 1416 1179"
    underline-thickness="50"
    underline-position="-50"
    slope="-8"
    unicode-range="U+000D-FEFF"
  />
<missing-glyph horiz-adv-x="656" 
d="M645 1050l-197 -1400h-414l198 1400h413zM585 998h-306l-183 -1296h306zM416.5 425.5q23.5 -25.5 23.5 -66.5q0 -9 -2 -27q-7 -52 -32 -79.5t-75 -34.5l-8 -47q-1 -10 -9 -16t-16 -6q-11 0 -18.5 7.5t-5.5 18.5l10 82q52 3 74.5 21t27.5 60q2 14 2 21q0 44 -50 44
q-27 0 -53 -12q-6 -2 -12 -2q-11 0 -17.5 6.5t-6.5 16.5q0 19 29 29t64 10q51 0 74.5 -25.5zM311 110.5q9 -9.5 9 -23.5q0 -17 -10.5 -28t-26.5 -11q-14 0 -22.5 10t-8.5 25q0 16 10.5 26.5t25.5 10.5q14 0 23 -9.5z" />
    <glyph glyph-name="fi" unicode="fi" horiz-adv-x="534" 
d="M444 0h-148l59 425h-112l-51 -372q-12 -84 -43.5 -136t-76.5 -82t-113 -56l-36 109q37 16 60.5 34t38 48.5t21.5 79.5l52 375h-69l15 106h69l7 51q11 78 68 127t147 49q46 0 84 -11t78 -33l-53 -94q-52 26 -96 26q-38 0 -57.5 -17.5t-24.5 -55.5l-6 -42h262z" />
    <glyph glyph-name="fl" unicode="fl" horiz-adv-x="562" 
d="M515 108l15 -105q-41 -19 -92 -19q-55 0 -85 29.5t-30 84.5q0 21 2 32l73 512q-28 8 -60 8q-36 0 -53 -18.5t-22 -58.5l-6 -42h85l-31 -106h-68l-51 -372q-12 -84 -43.5 -136t-76.5 -82t-113 -56l-36 109q37 16 60.5 34t38 48.5t21.5 79.5l52 375h-69l15 106h69l7 51
q11 79 64.5 127.5t141.5 48.5q63 0 114 -19l123 13l-86 -615l-1 -11q0 -23 20 -23q9 0 22 5z" />
    <glyph glyph-name=".notdef" horiz-adv-x="656" 
d="M645 1050l-197 -1400h-414l198 1400h413zM585 998h-306l-183 -1296h306zM416.5 425.5q23.5 -25.5 23.5 -66.5q0 -9 -2 -27q-7 -52 -32 -79.5t-75 -34.5l-8 -47q-1 -10 -9 -16t-16 -6q-11 0 -18.5 7.5t-5.5 18.5l10 82q52 3 74.5 21t27.5 60q2 14 2 21q0 44 -50 44
q-27 0 -53 -12q-6 -2 -12 -2q-11 0 -17.5 6.5t-6.5 16.5q0 19 29 29t64 10q51 0 74.5 -25.5zM311 110.5q9 -9.5 9 -23.5q0 -17 -10.5 -28t-26.5 -11q-14 0 -22.5 10t-8.5 25q0 16 10.5 26.5t25.5 10.5q14 0 23 -9.5z" />
    <glyph glyph-name="nonmarkingreturn" unicode="&#xd;" horiz-adv-x="200" 
 />
    <glyph glyph-name="space" unicode=" " horiz-adv-x="200" 
 />
    <glyph glyph-name="A" unicode="A" horiz-adv-x="533" 
d="M346 0l-10 152h-173l-51 -152h-160l281 693h186l87 -693h-160zM201 266h128l-21 320z" />
    <glyph glyph-name="Aacute" unicode="&#xc1;" horiz-adv-x="533" 
d="M346 0l-10 152h-173l-51 -152h-160l281 693h186l87 -693h-160zM201 266h128l-21 320zM434 942l49 -111l-224 -83l-34 72z" />
    <glyph glyph-name="Abreve" unicode="&#x102;" horiz-adv-x="533" 
d="M346 0l-10 152h-173l-51 -152h-160l281 693h186l87 -693h-160zM201 266h128l-21 320zM231 797.5q-35 46.5 -30 113.5l79 12q3 -30 18.5 -48t44.5 -18q30 0 52 19t34 50l81 -19q-14 -68 -59.5 -112t-114.5 -44q-70 0 -105 46.5z" />
    <glyph glyph-name="uni1EAE" unicode="&#x1eae;" horiz-adv-x="533" 
d="M519 1037l-164 -142l-52 49l143 171zM395 862q22 19 34 50l81 -19q-14 -68 -59.5 -112t-114.5 -44q-70 0 -105 46.5t-30 113.5l79 12q3 -30 18.5 -48t44.5 -18q30 0 52 19zM233 693h186l87 -693h-160l-10 152h-173l-51 -152h-160zM201 266h128l-21 320z" />
    <glyph glyph-name="uni1EB6" unicode="&#x1eb6;" horiz-adv-x="533" 
d="M346 0l-10 152h-173l-51 -152h-160l281 693h186l87 -693h-160zM201 266h128l-21 320zM231 797.5q-35 46.5 -30 113.5l79 12q3 -30 18.5 -48t44.5 -18q30 0 52 19t34 50l81 -19q-14 -68 -59.5 -112t-114.5 -44q-70 0 -105 46.5zM273.5 -83q21.5 -21 21.5 -55
q0 -42 -28 -69.5t-70 -27.5q-36 0 -57 21t-21 55q0 42 28 69.5t69 27.5q36 0 57.5 -21z" />
    <glyph glyph-name="uni1EB0" unicode="&#x1eb0;" horiz-adv-x="533" 
d="M405 939l-61 -44l-125 148l90 69zM231 783.5q-35 46.5 -30 113.5l79 12q3 -30 18.5 -48t44.5 -18q30 0 52 19t34 50l81 -19q-14 -68 -59.5 -112t-114.5 -44q-70 0 -105 46.5zM233 693h186l87 -693h-160l-10 152h-173l-51 -152h-160zM201 266h128l-21 320z" />
    <glyph glyph-name="uni1EB2" unicode="&#x1eb2;" horiz-adv-x="533" 
d="M346 0l-10 152h-173l-51 -152h-160l281 693h186l87 -693h-160zM201 266h128l-21 320zM233 783.5q-35 46.5 -30 113.5l79 12q3 -30 18.5 -48t44.5 -18q30 0 52 19t34 50l81 -19q-14 -68 -59.5 -112t-114.5 -44q-70 0 -105 46.5zM320 988q35 2 52.5 12t17.5 32q0 26 -31 26
q-25 0 -53 -14l-17 66q41 24 96 24q50 0 78 -25.5t28 -67.5q0 -81 -90 -99l-5 -43h-86z" />
    <glyph glyph-name="uni1EB4" unicode="&#x1eb4;" horiz-adv-x="533" 
d="M288.5 972q-11.5 -10 -27.5 -32l-66 37q25 48 58 77.5t69 29.5q20 0 34 -7t31 -19q11 -9 19 -13t16 -4q14 0 25.5 9.5t26.5 31.5l67 -36q-26 -48 -59 -77t-68 -29q-17 0 -31.5 6.5t-31.5 18.5q-9 7 -18.5 12t-17.5 5q-15 0 -26.5 -10zM394 862q22 19 34 50l81 -19
q-14 -68 -59.5 -112t-114.5 -44q-70 0 -105 46.5t-30 113.5l79 12q3 -30 18.5 -48t44.5 -18q30 0 52 19zM233 693h186l87 -693h-160l-10 152h-173l-51 -152h-160zM201 266h128l-21 320z" />
    <glyph glyph-name="uni01CD" unicode="&#x1cd;" horiz-adv-x="533" 
d="M346 0l-10 152h-173l-51 -152h-160l281 693h186l87 -693h-160zM201 266h128l-21 320zM474 939l51 -61l-145 -128h-90l-112 132l60 57l107 -84z" />
    <glyph glyph-name="Acircumflex" unicode="&#xc2;" horiz-adv-x="533" 
d="M346 0l-10 152h-173l-51 -152h-160l281 693h186l87 -693h-160zM201 266h128l-21 320zM216 756l-51 61l145 128h90l111 -132l-58 -57l-108 85z" />
    <glyph glyph-name="uni1EA4" unicode="&#x1ea4;" horiz-adv-x="533" 
d="M651 1008l-164 -142l-52 49l143 171zM306 911h90l111 -132l-58 -57l-108 85l-129 -85l-51 61zM233 693h186l87 -693h-160l-10 152h-173l-51 -152h-160zM201 266h128l-21 320z" />
    <glyph glyph-name="uni1EAC" unicode="&#x1eac;" horiz-adv-x="533" 
d="M346 0l-10 152h-173l-51 -152h-160l281 693h186l87 -693h-160zM201 266h128l-21 320zM216 756l-51 61l145 128h90l111 -132l-58 -57l-108 85zM273.5 -83q21.5 -21 21.5 -55q0 -42 -28 -69.5t-70 -27.5q-36 0 -57 21t-21 55q0 42 28 69.5t69 27.5q36 0 57.5 -21z" />
    <glyph glyph-name="uni1EA6" unicode="&#x1ea6;" horiz-adv-x="533" 
d="M263 910l-61 -44l-125 148l90 69zM212 722l-51 61l145 128h90l111 -132l-58 -57l-108 85zM233 693h186l87 -693h-160l-10 152h-173l-51 -152h-160zM201 266h128l-21 320z" />
    <glyph glyph-name="uni1EA8" unicode="&#x1ea8;" horiz-adv-x="533" 
d="M346 0l-10 152h-173l-51 -152h-160l281 693h186l87 -693h-160zM201 266h128l-21 320zM210 722l-51 61l145 128h90l111 -132l-58 -57l-108 85zM463 942q35 2 52.5 12t17.5 32q0 26 -31 26q-25 0 -53 -14l-17 66q41 24 96 24q50 0 78 -25.5t28 -67.5q0 -81 -90 -99l-5 -43
h-86z" />
    <glyph glyph-name="uni1EAA" unicode="&#x1eaa;" horiz-adv-x="533" 
d="M288.5 970q-11.5 -10 -27.5 -32l-66 37q25 48 58 77.5t69 29.5q20 0 34 -7t31 -19q11 -9 19 -13t16 -4q14 0 25.5 9.5t26.5 31.5l67 -36q-26 -48 -59 -77t-68 -29q-17 0 -31.5 6.5t-31.5 18.5q-9 7 -18.5 12t-17.5 5q-15 0 -26.5 -10zM305 911h90l111 -132l-58 -57
l-108 85l-129 -85l-51 61zM233 693h186l87 -693h-160l-10 152h-173l-51 -152h-160zM201 266h128l-21 320z" />
    <glyph glyph-name="uni0200" unicode="&#x200;" horiz-adv-x="533" 
d="M346 0l-10 152h-173l-51 -152h-160l281 693h186l87 -693h-160zM201 266h128l-21 320zM248 983l62 -196l-83 -35l-88 183zM406 983l54 -196l-82 -30l-81 181z" />
    <glyph glyph-name="Adieresis" unicode="&#xc4;" horiz-adv-x="533" 
d="M346 0l-10 152h-173l-51 -152h-160l281 693h186l87 -693h-160zM201 266h128l-21 320zM182.5 787.5q-18.5 18.5 -18.5 47.5q0 37 24.5 61.5t60.5 24.5q32 0 50.5 -18.5t18.5 -47.5q0 -37 -24.5 -61.5t-60.5 -24.5q-32 0 -50.5 18.5zM393 787.5q-19 18.5 -19 47.5
q0 37 24.5 61.5t60.5 24.5q31 0 50 -18.5t19 -47.5q0 -37 -24.5 -61.5t-60.5 -24.5q-31 0 -50 18.5z" />
    <glyph glyph-name="uni01DE" unicode="&#x1de;" horiz-adv-x="533" 
d="M346 0l-10 152h-173l-51 -152h-160l281 693h186l87 -693h-160zM201 266h128l-21 320zM177.5 764.5q-18.5 18.5 -18.5 47.5q0 37 24.5 61.5t60.5 24.5q32 0 50.5 -18.5t18.5 -47.5q0 -37 -24.5 -61.5t-60.5 -24.5q-32 0 -50.5 18.5zM388 764.5q-19 18.5 -19 47.5
q0 37 24.5 61.5t60.5 24.5q31 0 50 -18.5t19 -47.5q0 -37 -24.5 -61.5t-60.5 -24.5q-31 0 -50 18.5zM490 938h-274l16 106h274z" />
    <glyph glyph-name="uni0226" unicode="&#x226;" horiz-adv-x="533" 
d="M346 0l-10 152h-173l-51 -152h-160l281 693h186l87 -693h-160zM201 266h128l-21 320zM284.5 781q-21.5 21 -21.5 55q0 42 28 69.5t70 27.5q36 0 57 -21t21 -55q0 -42 -28 -69.5t-69 -27.5q-36 0 -57.5 21z" />
    <glyph glyph-name="uni1EA0" unicode="&#x1ea0;" horiz-adv-x="533" 
d="M346 0l-10 152h-173l-51 -152h-160l281 693h186l87 -693h-160zM201 266h128l-21 320zM273.5 -83q21.5 -21 21.5 -55q0 -42 -28 -69.5t-70 -27.5q-36 0 -57 21t-21 55q0 42 28 69.5t69 27.5q36 0 57.5 -21z" />
    <glyph glyph-name="uni01E0" unicode="&#x1e0;" horiz-adv-x="533" 
d="M346 0l-10 152h-173l-51 -152h-160l281 693h186l87 -693h-160zM201 266h128l-21 320zM275.5 758q-21.5 21 -21.5 55q0 42 28 69.5t70 27.5q36 0 57 -21t21 -55q0 -42 -28 -69.5t-69 -27.5q-36 0 -57.5 21zM495 939h-274l16 106h274z" />
    <glyph glyph-name="Agrave" unicode="&#xc0;" horiz-adv-x="533" 
d="M346 0l-10 152h-173l-51 -152h-160l281 693h186l87 -693h-160zM201 266h128l-21 320zM295 940l182 -122l-42 -69l-204 81z" />
    <glyph glyph-name="uni1EA2" unicode="&#x1ea2;" horiz-adv-x="533" 
d="M346 0l-10 152h-173l-51 -152h-160l281 693h186l87 -693h-160zM201 266h128l-21 320zM304 853q35 2 52.5 12t17.5 32q0 26 -31 26q-25 0 -53 -14l-17 66q41 24 96 24q50 0 78 -25.5t28 -67.5q0 -81 -90 -99l-5 -43h-86z" />
    <glyph glyph-name="uni0202" unicode="&#x202;" horiz-adv-x="533" 
d="M346 0l-10 152h-173l-51 -152h-160l281 693h186l87 -693h-160zM201 266h128l-21 320zM182 782q17 74 63.5 120t115.5 46q70 0 105 -48t31 -122l-83 -11q-6 76 -63 76q-61 0 -89 -80z" />
    <glyph glyph-name="uni2C6D" unicode="&#x2c6d;" horiz-adv-x="617" 
d="M538 124q0 -15 5.5 -24t18.5 -15l-44 -99q-87 6 -118 76q-32 -38 -69 -58t-86 -20q-98 0 -153.5 69t-55.5 193t38 230.5t107 170t157 63.5q44 0 75 -18.5t54 -52.5l19 54h131l-77 -547q-2 -18 -2 -22zM386 149l55 395q-17 25 -36 37.5t-46 12.5q-52 0 -89.5 -50.5
t-56.5 -131t-19 -169.5q0 -78 23.5 -112.5t67.5 -34.5q56 0 101 53z" />
    <glyph glyph-name="Amacron" unicode="&#x100;" horiz-adv-x="533" 
d="M346 0l-10 152h-173l-51 -152h-160l281 693h186l87 -693h-160zM201 266h128l-21 320zM474 782h-274l16 106h274z" />
    <glyph glyph-name="Aogonek" unicode="&#x104;" horiz-adv-x="533" 
d="M314 -115q0 -34 41 -34q24 0 54 6l-21 -93q-27 -7 -63 -7q-53 0 -86.5 28.5t-33.5 76.5q0 102 139 162l-8 128h-173l-51 -152h-160l281 693h186l87 -693h-71q-121 -50 -121 -115zM201 266h128l-21 320z" />
    <glyph glyph-name="Aring" unicode="&#xc5;" horiz-adv-x="533" 
d="M346 0l-10 152h-173l-51 -152h-160l281 693h186l87 -693h-160zM201 266h128l-21 320zM449 957q30 -32 30 -82q0 -39 -18 -71t-50.5 -51t-74.5 -19q-52 0 -82 31.5t-30 81.5q0 38 18 70.5t50.5 52t73.5 19.5q53 0 83 -32zM322.5 894.5q-13.5 -18.5 -13.5 -43.5
q0 -21 9 -31.5t25 -10.5q23 0 36.5 18.5t13.5 43.5q0 42 -34 42q-23 0 -36.5 -18.5z" />
    <glyph glyph-name="Aringacute" unicode="&#x1fa;" horiz-adv-x="533" 
d="M346 0l-10 152h-173l-51 -152h-160l281 693h186l87 -693h-160zM201 266h128l-21 320zM443 951q30 -32 30 -82q0 -39 -18 -71t-50.5 -51t-74.5 -19q-52 0 -82 31.5t-30 81.5q0 38 18 70.5t50.5 52t73.5 19.5q53 0 83 -32zM316.5 888.5q-13.5 -18.5 -13.5 -43.5
q0 -21 9 -31.5t25 -10.5q23 0 36.5 18.5t13.5 43.5q0 42 -34 42q-23 0 -36.5 -18.5zM440 1179l49 -111l-224 -83l-34 72z" />
    <glyph glyph-name="uni023A" unicode="&#x23a;" horiz-adv-x="533" 
d="M364 0l-14 152h-100l-85 -226l-51 13l80 213h-42l-53 -152h-147l281 693h166l23 62l51 -13l-45 -120l78 -622h-142zM190 259h45l85 227l-10 114zM291 259h50l-10 107z" />
    <glyph glyph-name="Atilde" unicode="&#xc3;" horiz-adv-x="533" 
d="M346 0l-10 152h-173l-51 -152h-160l281 693h186l87 -693h-160zM201 266h128l-21 320zM363.5 770q-13.5 7 -32.5 20q-9 7 -19 12.5t-18 5.5q-15 0 -26.5 -10.5t-27.5 -34.5l-67 40q25 50 58.5 81.5t70.5 31.5q20 0 33.5 -7t31.5 -20q22 -18 36 -18q13 0 25 10t27 33
l68 -38q-26 -51 -59.5 -82t-68.5 -31q-18 0 -31.5 7z" />
    <glyph glyph-name="AE" unicode="&#xc6;" horiz-adv-x="757" 
d="M725 580h-235l6 -174h214l-16 -111h-194l6 -181h204l-17 -114h-327l-2 152h-188l-64 -152h-165l330 693h481zM225 266h137l-5 312z" />
    <glyph glyph-name="AEacute" unicode="&#x1fc;" horiz-adv-x="757" 
d="M725 580h-235l6 -174h214l-16 -111h-194l6 -181h204l-17 -114h-327l-2 152h-188l-64 -152h-165l330 693h481zM225 266h137l-5 312zM600 942l49 -111l-224 -83l-34 72z" />
    <glyph glyph-name="uni01E2" unicode="&#x1e2;" horiz-adv-x="757" 
d="M725 580h-235l6 -174h214l-16 -111h-194l6 -181h204l-17 -114h-327l-2 152h-188l-64 -152h-165l330 693h481zM225 266h137l-5 312zM640 782h-274l16 106h274z" />
    <glyph glyph-name="B" unicode="B" horiz-adv-x="553" 
d="M524 226q0 -105 -75.5 -165.5t-226.5 -60.5h-203l97 693h190q112 0 175 -39t63 -117q0 -69 -41.5 -112t-106.5 -59q128 -26 128 -140zM360.5 442.5q26.5 28.5 26.5 78.5q0 32 -20 46.5t-60 14.5h-53l-24 -168h50q54 0 80.5 28.5zM367 235q0 39 -23 56.5t-68 17.5h-60
l-28 -195h49q130 0 130 121z" />
    <glyph glyph-name="uni1E02" unicode="&#x1e02;" horiz-adv-x="553" 
d="M524 226q0 -105 -75.5 -165.5t-226.5 -60.5h-203l97 693h190q112 0 175 -39t63 -117q0 -69 -41.5 -112t-106.5 -59q128 -26 128 -140zM360.5 442.5q26.5 28.5 26.5 78.5q0 32 -20 46.5t-60 14.5h-53l-24 -168h50q54 0 80.5 28.5zM367 235q0 39 -23 56.5t-68 17.5h-60
l-28 -195h49q130 0 130 121zM275.5 781q-21.5 21 -21.5 55q0 42 28 69.5t70 27.5q36 0 57 -21t21 -55q0 -42 -28 -69.5t-69 -27.5q-36 0 -57.5 21z" />
    <glyph glyph-name="uni1E04" unicode="&#x1e04;" horiz-adv-x="553" 
d="M524 226q0 -105 -75.5 -165.5t-226.5 -60.5h-203l97 693h190q112 0 175 -39t63 -117q0 -69 -41.5 -112t-106.5 -59q128 -26 128 -140zM360.5 442.5q26.5 28.5 26.5 78.5q0 32 -20 46.5t-60 14.5h-53l-24 -168h50q54 0 80.5 28.5zM367 235q0 39 -23 56.5t-68 17.5h-60
l-28 -195h49q130 0 130 121zM284.5 -83q21.5 -21 21.5 -55q0 -42 -28 -69.5t-70 -27.5q-36 0 -57 21t-21 55q0 42 28 69.5t69 27.5q36 0 57.5 -21z" />
    <glyph glyph-name="uniA7B4" unicode="&#xa7b4;" horiz-adv-x="552" 
d="M489 322.5q35 -32.5 35 -93.5q0 -71 -34.5 -123t-93.5 -79t-131 -27q-47 0 -91 11l-31 -221h-154l127 903h185q112 0 175 -39.5t63 -118.5q0 -69 -41 -111.5t-102 -57.5q58 -11 93 -43.5zM255 309l24 105h11q42 0 66.5 27t24.5 78q0 33 -19.5 48t-57.5 15h-50l-65 -461
q29 -7 63 -7q54 0 84.5 33t30.5 88q0 74 -84 74h-28z" />
    <glyph glyph-name="uni0181" unicode="&#x181;" horiz-adv-x="687" 
d="M658 226q0 -105 -75.5 -165.5t-226.5 -60.5h-203l81 580h-25q-23 0 -35.5 -15t-12.5 -43q0 -18 8 -54l-103 -39q-11 26 -17 48.5t-6 49.5q0 76 48.5 121t129.5 45h219q112 0 175 -39t63 -117q0 -69 -41.5 -112t-106.5 -59q128 -26 128 -140zM494.5 442.5
q26.5 28.5 26.5 78.5q0 32 -20 46.5t-60 14.5h-53l-24 -168h50q54 0 80.5 28.5zM501 235q0 39 -23 56.5t-68 17.5h-60l-28 -195h49q130 0 130 121z" />
    <glyph glyph-name="uni0243" unicode="&#x243;" horiz-adv-x="561" 
d="M533 226q0 -105 -75.5 -165.5t-226.5 -60.5h-203l24 175h-54l11 78h54l62 440h190q112 0 175 -39t63 -117q0 -69 -41.5 -112t-106.5 -59q128 -26 128 -140zM369.5 442.5q26.5 28.5 26.5 78.5q0 32 -20 46.5t-60 14.5h-53l-24 -168h50q54 0 80.5 28.5zM376 235
q0 39 -23 56.5t-68 17.5h-60l-8 -56h97l-11 -78h-97l-9 -61h49q130 0 130 121z" />
    <glyph glyph-name="uni0182" unicode="&#x182;" horiz-adv-x="535" 
d="M458 397q60 -48 60 -139q0 -65 -28 -124t-90.5 -96.5t-160.5 -37.5h-220l97 693h391l-34 -119h-220l-18 -129h56q107 0 167 -48zM328 153.5q28 39.5 28 98.5q0 42 -21 62.5t-64 20.5h-51l-31 -221h50q61 0 89 39.5z" />
    <glyph glyph-name="C" unicode="C" horiz-adv-x="517" 
d="M557 630l-81 -80q-49 43 -103 43q-62 0 -102 -53.5t-57.5 -132t-17.5 -156.5q0 -146 102 -146q33 0 61 13.5t66 41.5l58 -90q-95 -87 -212 -87q-107 0 -170.5 70.5t-63.5 203.5q0 114 36 218t112 169.5t188 65.5q114 0 184 -80z" />
    <glyph glyph-name="Cacute" unicode="&#x106;" horiz-adv-x="517" 
d="M557 630l-81 -80q-49 43 -103 43q-62 0 -102 -53.5t-57.5 -132t-17.5 -156.5q0 -146 102 -146q33 0 61 13.5t66 41.5l58 -90q-95 -87 -212 -87q-107 0 -170.5 70.5t-63.5 203.5q0 114 36 218t112 169.5t188 65.5q114 0 184 -80zM484 942l49 -111l-224 -83l-34 72z" />
    <glyph glyph-name="Ccaron" unicode="&#x10c;" horiz-adv-x="517" 
d="M557 630l-81 -80q-49 43 -103 43q-62 0 -102 -53.5t-57.5 -132t-17.5 -156.5q0 -146 102 -146q33 0 61 13.5t66 41.5l58 -90q-95 -87 -212 -87q-107 0 -170.5 70.5t-63.5 203.5q0 114 36 218t112 169.5t188 65.5q114 0 184 -80zM524 939l51 -61l-145 -128h-90l-112 132
l60 57l107 -84z" />
    <glyph glyph-name="Ccedilla" unicode="&#xc7;" horiz-adv-x="517" 
d="M306 -15l-5 -36q40 -5 61 -27.5t21 -58.5q0 -29 -15 -57.5t-48.5 -47t-85.5 -18.5q-60 0 -100 32l42 66q14 -8 26.5 -11.5t28.5 -3.5q20 0 32.5 9t13.5 26q0 17 -17.5 24t-60.5 7l24 98q-86 15 -136 84.5t-50 185.5q0 114 36 218t112 169.5t188 65.5q114 0 184 -80
l-81 -80q-49 43 -103 43q-62 0 -102 -53.5t-57.5 -132t-17.5 -156.5q0 -146 102 -146q33 0 61 13.5t66 41.5l58 -90q-79 -73 -177 -85z" />
    <glyph glyph-name="Ccircumflex" unicode="&#x108;" horiz-adv-x="517" 
d="M557 630l-81 -80q-49 43 -103 43q-62 0 -102 -53.5t-57.5 -132t-17.5 -156.5q0 -146 102 -146q33 0 61 13.5t66 41.5l58 -90q-95 -87 -212 -87q-107 0 -170.5 70.5t-63.5 203.5q0 114 36 218t112 169.5t188 65.5q114 0 184 -80zM266 756l-51 61l145 128h90l111 -132
l-58 -57l-108 85z" />
    <glyph glyph-name="Cdotaccent" unicode="&#x10a;" horiz-adv-x="517" 
d="M557 630l-81 -80q-49 43 -103 43q-62 0 -102 -53.5t-57.5 -132t-17.5 -156.5q0 -146 102 -146q33 0 61 13.5t66 41.5l58 -90q-95 -87 -212 -87q-107 0 -170.5 70.5t-63.5 203.5q0 114 36 218t112 169.5t188 65.5q114 0 184 -80zM334.5 781q-21.5 21 -21.5 55
q0 42 28 69.5t70 27.5q36 0 57 -21t21 -55q0 -42 -28 -69.5t-69 -27.5q-36 0 -57.5 21z" />
    <glyph glyph-name="uniA7B3" unicode="&#xa7b3;" horiz-adv-x="510" 
d="M562 693l-216 -401l110 -450h-161l-55 345l-136 -345h-169l229 449l-95 402h161l41 -303l126 303h165z" />
    <glyph glyph-name="uni0187" unicode="&#x187;" horiz-adv-x="520" 
d="M726 811l-54 -91q-27 18 -55 18q-46 0 -54 -63l-6 -45l-73 -75q-55 38 -110 38q-63 0 -103 -53.5t-57.5 -132t-17.5 -156.5q0 -146 101 -146q33 0 61 13.5t67 41.5l58 -90q-42 -39 -95.5 -63t-114.5 -24q-110 0 -173.5 70.5t-63.5 203.5q0 112 37 216.5t109.5 170.5
t171.5 66q46 0 82 -17l1 7q10 69 53 109t118 40q68 0 118 -38z" />
    <glyph glyph-name="uni023B" unicode="&#x23b;" horiz-adv-x="517" 
d="M359 118.5q28 13.5 66 41.5l58 -90q-95 -87 -212 -87q-34 0 -61 7l-24 -64l-53 14l26 68q-58 30 -90 93t-32 156q0 114 36 218t112 169.5t188 65.5q19 0 51 -4l19 49l53 -14l-19 -51q45 -20 80 -60l-81 -80q-20 17 -42 29l-177 -466q16 -8 41 -8q33 0 61 13.5zM214 154
l167 439h-8q-62 0 -102 -53.5t-57.5 -132t-17.5 -156.5q0 -62 18 -97z" />
    <glyph glyph-name="D" unicode="D" horiz-adv-x="590" 
d="M499.5 637.5q76.5 -55.5 76.5 -196.5q0 -197 -88 -319t-278 -122h-191l97 693h179q128 0 204.5 -55.5zM254 579l-65 -465h45q99 0 142 99.5t43 229.5q0 77 -30 106.5t-87 29.5h-48z" />
    <glyph glyph-name="uni01F1" unicode="&#x1f1;" horiz-adv-x="1049" 
d="M499.5 637.5q76.5 -55.5 76.5 -196.5q0 -197 -88 -319t-278 -122h-191l97 693h179q128 0 204.5 -55.5zM254 579l-65 -465h45q99 0 142 99.5t43 229.5q0 77 -30 106.5t-87 29.5h-48zM541 0l17 117l334 454h-245l18 122h417l-18 -119l-333 -449h278l-34 -125h-434z" />
    <glyph glyph-name="uni01C4" unicode="&#x1c4;" horiz-adv-x="1049" 
d="M499.5 637.5q76.5 -55.5 76.5 -196.5q0 -197 -88 -319t-278 -122h-191l97 693h179q128 0 204.5 -55.5zM254 579l-65 -465h45q99 0 142 99.5t43 229.5q0 77 -30 106.5t-87 29.5h-48zM541 0l17 117l334 454h-245l18 122h417l-18 -119l-333 -449h278l-34 -125h-434z
M1017 939l51 -61l-145 -128h-90l-112 132l60 57l107 -84z" />
    <glyph glyph-name="uni0189" unicode="&#x189;" horiz-adv-x="598" 
d="M507.5 637.5q76.5 -55.5 76.5 -196.5q0 -197 -88 -319t-278 -122h-191l43 305h-54l14 96h53l41 292h179q128 0 204.5 -55.5zM384 213.5q43 99.5 43 229.5q0 77 -30 106.5t-87 29.5h-48l-25 -178h116l-14 -96h-115l-27 -191h45q99 0 142 99.5z" />
    <glyph glyph-name="Eth" unicode="&#xd0;" horiz-adv-x="598" 
d="M507.5 637.5q76.5 -55.5 76.5 -196.5q0 -197 -88 -319t-278 -122h-191l43 305h-54l14 96h53l41 292h179q128 0 204.5 -55.5zM384 213.5q43 99.5 43 229.5q0 77 -30 106.5t-87 29.5h-48l-25 -178h116l-14 -96h-115l-27 -191h45q99 0 142 99.5z" />
    <glyph glyph-name="Dcaron" unicode="&#x10e;" horiz-adv-x="590" 
d="M499.5 637.5q76.5 -55.5 76.5 -196.5q0 -197 -88 -319t-278 -122h-191l97 693h179q128 0 204.5 -55.5zM254 579l-65 -465h45q99 0 142 99.5t43 229.5q0 77 -30 106.5t-87 29.5h-48zM476 939l51 -61l-145 -128h-90l-112 132l60 57l107 -84z" />
    <glyph glyph-name="uni1E12" unicode="&#x1e12;" horiz-adv-x="590" 
d="M499.5 637.5q76.5 -55.5 76.5 -196.5q0 -197 -88 -319t-278 -122h-191l97 693h179q128 0 204.5 -55.5zM254 579l-65 -465h45q99 0 142 99.5t43 229.5q0 77 -30 106.5t-87 29.5h-48zM77 -259l-50 61l146 134h90l111 -138l-62 -57l-105 91z" />
    <glyph glyph-name="Dcroat" unicode="&#x110;" horiz-adv-x="598" 
d="M507.5 637.5q76.5 -55.5 76.5 -196.5q0 -197 -88 -319t-278 -122h-191l43 305h-54l14 96h53l41 292h179q128 0 204.5 -55.5zM384 213.5q43 99.5 43 229.5q0 77 -30 106.5t-87 29.5h-48l-25 -178h116l-14 -96h-115l-27 -191h45q99 0 142 99.5z" />
    <glyph glyph-name="uni1E0A" unicode="&#x1e0a;" horiz-adv-x="590" 
d="M499.5 637.5q76.5 -55.5 76.5 -196.5q0 -197 -88 -319t-278 -122h-191l97 693h179q128 0 204.5 -55.5zM254 579l-65 -465h45q99 0 142 99.5t43 229.5q0 77 -30 106.5t-87 29.5h-48zM286.5 781q-21.5 21 -21.5 55q0 42 28 69.5t70 27.5q36 0 57 -21t21 -55
q0 -42 -28 -69.5t-69 -27.5q-36 0 -57.5 21z" />
    <glyph glyph-name="uni1E0C" unicode="&#x1e0c;" horiz-adv-x="590" 
d="M499.5 637.5q76.5 -55.5 76.5 -196.5q0 -197 -88 -319t-278 -122h-191l97 693h179q128 0 204.5 -55.5zM254 579l-65 -465h45q99 0 142 99.5t43 229.5q0 77 -30 106.5t-87 29.5h-48zM274.5 -83q21.5 -21 21.5 -55q0 -42 -28 -69.5t-70 -27.5q-36 0 -57 21t-21 55
q0 42 28 69.5t69 27.5q36 0 57.5 -21z" />
    <glyph glyph-name="uni018A" unicode="&#x18a;" horiz-adv-x="723" 
d="M633.5 637.5q76.5 -55.5 76.5 -196.5q0 -197 -88 -319t-278 -122h-191l81 580h-25q-23 0 -35.5 -15t-12.5 -43q0 -18 8 -54l-103 -39q-11 26 -17 48.5t-6 49.5q0 76 48.5 121t129.5 45h208q128 0 204.5 -55.5zM510 213.5q43 99.5 43 229.5q0 77 -30 106.5t-87 29.5h-48
l-65 -465h45q99 0 142 99.5z" />
    <glyph glyph-name="uni1E0E" unicode="&#x1e0e;" horiz-adv-x="590" 
d="M499.5 637.5q76.5 -55.5 76.5 -196.5q0 -197 -88 -319t-278 -122h-191l97 693h179q128 0 204.5 -55.5zM254 579l-65 -465h45q99 0 142 99.5t43 229.5q0 77 -30 106.5t-87 29.5h-48zM88 -83h274l-16 -106h-274z" />
    <glyph glyph-name="uni018B" unicode="&#x18b;" horiz-adv-x="536" 
d="M443 0h-209q-107 0 -166.5 50.5t-59.5 148.5q0 117 75.5 181t203.5 64h64l18 130h-232l16 119h387zM305 114l31 221h-50q-58 0 -87 -35t-29 -96q0 -47 21.5 -68.5t68.5 -21.5h45z" />
    <glyph glyph-name="uni01F2" unicode="&#x1f2;" horiz-adv-x="990" 
d="M499.5 637.5q76.5 -55.5 76.5 -196.5q0 -197 -88 -319t-278 -122h-191l97 693h179q128 0 204.5 -55.5zM254 579l-65 -465h45q99 0 142 99.5t43 229.5q0 77 -30 106.5t-87 29.5h-48zM1007 531l-15 -107l-245 -309h209l-31 -115h-372l15 107l246 310h-185l17 114h361z" />
    <glyph glyph-name="uni01C5" unicode="&#x1c5;" horiz-adv-x="990" 
d="M499.5 637.5q76.5 -55.5 76.5 -196.5q0 -197 -88 -319t-278 -122h-191l97 693h179q128 0 204.5 -55.5zM254 579l-65 -465h45q99 0 142 99.5t43 229.5q0 77 -30 106.5t-87 29.5h-48zM1007 531l-15 -107l-245 -309h209l-31 -115h-372l15 107l246 310h-185l17 114h361z
M979 808l49 -61l-145 -134h-90l-108 134l56 61l105 -90z" />
    <glyph glyph-name="E" unicode="E" horiz-adv-x="467" 
d="M499 693l-33 -113h-212l-24 -173h186l-16 -110h-186l-25 -183h229l-17 -114h-382l97 693h383z" />
    <glyph glyph-name="Eacute" unicode="&#xc9;" horiz-adv-x="467" 
d="M499 693l-33 -113h-212l-24 -173h186l-16 -110h-186l-25 -183h229l-17 -114h-382l97 693h383zM416 942l49 -111l-224 -83l-34 72z" />
    <glyph glyph-name="Ebreve" unicode="&#x114;" horiz-adv-x="467" 
d="M499 693l-33 -113h-212l-24 -173h186l-16 -110h-186l-25 -183h229l-17 -114h-382l97 693h383zM213 797.5q-35 46.5 -30 113.5l79 12q3 -30 18.5 -48t44.5 -18q30 0 52 19t34 50l81 -19q-14 -68 -59.5 -112t-114.5 -44q-70 0 -105 46.5z" />
    <glyph glyph-name="Ecaron" unicode="&#x11a;" horiz-adv-x="467" 
d="M499 693l-33 -113h-212l-24 -173h186l-16 -110h-186l-25 -183h229l-17 -114h-382l97 693h383zM456 939l51 -61l-145 -128h-90l-112 132l60 57l107 -84z" />
    <glyph glyph-name="uni0228" unicode="&#x228;" horiz-adv-x="467" 
d="M254 580l-24 -173h186l-16 -110h-186l-25 -183h229l-17 -114h-150l-8 -51q41 -5 61.5 -27t20.5 -58q0 -29 -15 -57.5t-49 -47.5t-86 -19q-31 0 -56.5 9t-42.5 23l42 66q26 -15 55 -15q21 0 33.5 9t12.5 26t-17.5 24t-60.5 7l27 111h-149l97 693h383l-33 -113h-212z" />
    <glyph glyph-name="Ecircumflex" unicode="&#xca;" horiz-adv-x="467" 
d="M499 693l-33 -113h-212l-24 -173h186l-16 -110h-186l-25 -183h229l-17 -114h-382l97 693h383zM198 756l-51 61l145 128h90l111 -132l-58 -57l-108 85z" />
    <glyph glyph-name="uni1EBE" unicode="&#x1ebe;" horiz-adv-x="467" 
d="M560 1086l73 -78l-164 -142l-52 49zM194 722l-51 61l145 128h90l111 -132l-58 -57l-108 85zM499 693l-33 -113h-212l-24 -173h186l-16 -110h-186l-25 -183h229l-17 -114h-382l97 693h383z" />
    <glyph glyph-name="uni1EC6" unicode="&#x1ec6;" horiz-adv-x="467" 
d="M499 693l-33 -113h-212l-24 -173h186l-16 -110h-186l-25 -183h229l-17 -114h-382l97 693h383zM198 756l-51 61l145 128h90l111 -132l-58 -57l-108 85zM255.5 -83q21.5 -21 21.5 -55q0 -42 -28 -69.5t-70 -27.5q-36 0 -57 21t-21 55q0 42 28 69.5t69 27.5q36 0 57.5 -21z
" />
    <glyph glyph-name="uni1EC0" unicode="&#x1ec0;" horiz-adv-x="467" 
d="M149 1083l96 -173l-61 -44l-125 148zM194 722l-51 61l145 128h90l111 -132l-58 -57l-108 85zM499 693l-33 -113h-212l-24 -173h186l-16 -110h-186l-25 -183h229l-17 -114h-382l97 693h383z" />
    <glyph glyph-name="uni1EC2" unicode="&#x1ec2;" horiz-adv-x="467" 
d="M499 693l-33 -113h-212l-24 -173h186l-16 -110h-186l-25 -183h229l-17 -114h-382l97 693h383zM192 722l-51 61l145 128h90l111 -132l-58 -57l-108 85zM445 942q35 2 52.5 12t17.5 32q0 26 -31 26q-25 0 -53 -14l-17 66q41 24 96 24q50 0 78 -25.5t28 -67.5q0 -81 -90 -99
l-5 -43h-86z" />
    <glyph glyph-name="uni1EC4" unicode="&#x1ec4;" horiz-adv-x="467" 
d="M364.5 944.5q-14.5 6.5 -31.5 18.5q-9 7 -18.5 12t-17.5 5q-15 0 -26.5 -10t-27.5 -32l-66 37q25 48 58 77.5t69 29.5q20 0 34 -7t31 -19q11 -9 19 -13t16 -4q14 0 25.5 9.5t26.5 31.5l67 -36q-26 -48 -59 -77t-68 -29q-17 0 -31.5 6.5zM193 722l-51 61l145 128h90
l111 -132l-58 -57l-108 85zM499 693l-33 -113h-212l-24 -173h186l-16 -110h-186l-25 -183h229l-17 -114h-382l97 693h383z" />
    <glyph glyph-name="uni0204" unicode="&#x204;" horiz-adv-x="467" 
d="M499 693l-33 -113h-212l-24 -173h186l-16 -110h-186l-25 -183h229l-17 -114h-382l97 693h383zM230 983l62 -196l-83 -35l-88 183zM388 983l54 -196l-82 -30l-81 181z" />
    <glyph glyph-name="Edieresis" unicode="&#xcb;" horiz-adv-x="467" 
d="M499 693l-33 -113h-212l-24 -173h186l-16 -110h-186l-25 -183h229l-17 -114h-382l97 693h383zM164.5 787.5q-18.5 18.5 -18.5 47.5q0 37 24.5 61.5t60.5 24.5q32 0 50.5 -18.5t18.5 -47.5q0 -37 -24.5 -61.5t-60.5 -24.5q-32 0 -50.5 18.5zM375 787.5q-19 18.5 -19 47.5
q0 37 24.5 61.5t60.5 24.5q31 0 50 -18.5t19 -47.5q0 -37 -24.5 -61.5t-60.5 -24.5q-31 0 -50 18.5z" />
    <glyph glyph-name="Edotaccent" unicode="&#x116;" horiz-adv-x="467" 
d="M499 693l-33 -113h-212l-24 -173h186l-16 -110h-186l-25 -183h229l-17 -114h-382l97 693h383zM266.5 781q-21.5 21 -21.5 55q0 42 28 69.5t70 27.5q36 0 57 -21t21 -55q0 -42 -28 -69.5t-69 -27.5q-36 0 -57.5 21z" />
    <glyph glyph-name="uni1EB8" unicode="&#x1eb8;" horiz-adv-x="467" 
d="M499 693l-33 -113h-212l-24 -173h186l-16 -110h-186l-25 -183h229l-17 -114h-382l97 693h383zM255.5 -83q21.5 -21 21.5 -55q0 -42 -28 -69.5t-70 -27.5q-36 0 -57 21t-21 55q0 42 28 69.5t69 27.5q36 0 57.5 -21z" />
    <glyph glyph-name="Egrave" unicode="&#xc8;" horiz-adv-x="467" 
d="M499 693l-33 -113h-212l-24 -173h186l-16 -110h-186l-25 -183h229l-17 -114h-382l97 693h383zM277 940l182 -122l-42 -69l-204 81z" />
    <glyph glyph-name="uni1EBA" unicode="&#x1eba;" horiz-adv-x="467" 
d="M499 693l-33 -113h-212l-24 -173h186l-16 -110h-186l-25 -183h229l-17 -114h-382l97 693h383zM286 853q35 2 52.5 12t17.5 32q0 26 -31 26q-25 0 -53 -14l-17 66q41 24 96 24q50 0 78 -25.5t28 -67.5q0 -81 -90 -99l-5 -43h-86z" />
    <glyph glyph-name="uni0206" unicode="&#x206;" horiz-adv-x="467" 
d="M499 693l-33 -113h-212l-24 -173h186l-16 -110h-186l-25 -183h229l-17 -114h-382l97 693h383zM164 782q17 74 63.5 120t115.5 46q70 0 105 -48t31 -122l-83 -11q-6 76 -63 76q-61 0 -89 -80z" />
    <glyph glyph-name="Emacron" unicode="&#x112;" horiz-adv-x="467" 
d="M499 693l-33 -113h-212l-24 -173h186l-16 -110h-186l-25 -183h229l-17 -114h-382l97 693h383zM456 782h-274l16 106h274z" />
    <glyph glyph-name="Eogonek" unicode="&#x118;" horiz-adv-x="467" 
d="M254 580l-24 -173h186l-16 -110h-186l-25 -183h229l-17 -114h-34q-121 -50 -121 -115q0 -34 41 -34q24 0 54 6l-21 -93q-27 -7 -63 -7q-53 0 -86.5 28.5t-33.5 76.5q0 84 92 138h-210l97 693h383l-33 -113h-212z" />
    <glyph glyph-name="uni0190" unicode="&#x190;" horiz-adv-x="484" 
d="M436 686q48 -23 86 -69l-84 -77q-49 55 -109 55q-44 0 -69 -28.5t-25 -73.5q0 -35 20.5 -53t59.5 -18h63l-34 -114h-43q-63 0 -97.5 -31.5t-34.5 -91.5q0 -85 85 -85q36 0 68 15.5t66 45.5l71 -82q-93 -95 -230 -95q-100 0 -159.5 50t-59.5 135q0 89 51 139.5t141 59.5
q-122 27 -122 136q0 60 33 107t88.5 72.5t118.5 25.5q68 0 116 -23z" />
    <glyph glyph-name="uni018E" unicode="&#x18e;" horiz-adv-x="464" 
d="M88 693h379l-97 -693h-382l16 114h228l26 183h-188l16 110h187l24 173h-225z" />
    <glyph glyph-name="uni01A9" unicode="&#x1a9;" horiz-adv-x="452" 
d="M491 693l-16 -115h-250l121 -209l-7 -65l-171 -187h244l-16 -117h-412l16 114l203 231l-139 234l16 114h411z" />
    <glyph glyph-name="uni0246" unicode="&#x246;" horiz-adv-x="467" 
d="M466 580h-40l-66 -173h56l-16 -110h-82l-69 -183h169l-17 -114h-196l-28 -74l-53 14l23 60h-128l97 693h294l24 62l53 -14l-18 -48h30zM302 407l65 173h-113l-24 -173h72zM190 114l70 183h-46l-25 -183h1z" />
    <glyph glyph-name="uni1EBC" unicode="&#x1ebc;" horiz-adv-x="467" 
d="M499 693l-33 -113h-212l-24 -173h186l-16 -110h-186l-25 -183h229l-17 -114h-382l97 693h383zM345.5 770q-13.5 7 -32.5 20q-9 7 -19 12.5t-18 5.5q-15 0 -26.5 -10.5t-27.5 -34.5l-67 40q25 50 58.5 81.5t70.5 31.5q20 0 33.5 -7t31.5 -20q22 -18 36 -18q13 0 25 10
t27 33l68 -38q-26 -51 -59.5 -82t-68.5 -31q-18 0 -31.5 7z" />
    <glyph glyph-name="uni01B7" unicode="&#x1b7;" horiz-adv-x="491" 
d="M481 582l-183 -181q81 -4 124 -47t43 -117q0 -77 -36.5 -134.5t-99.5 -88t-140 -30.5q-75 0 -124.5 26t-82.5 76l89 74q27 -32 53.5 -46t63.5 -14q52 0 85 35.5t33 94.5q0 43 -23.5 61.5t-70.5 18.5h-91l1 1l13 89l176 179h-226l17 114h395z" />
    <glyph glyph-name="uni01EE" unicode="&#x1ee;" horiz-adv-x="491" 
d="M481 582l-183 -181q81 -4 124 -47t43 -117q0 -77 -36.5 -134.5t-99.5 -88t-140 -30.5q-75 0 -124.5 26t-82.5 76l89 74q27 -32 53.5 -46t63.5 -14q52 0 85 35.5t33 94.5q0 43 -23.5 61.5t-70.5 18.5h-91l1 1l13 89l176 179h-226l17 114h395zM446 939l51 -61l-145 -128
h-90l-112 132l60 57l107 -84z" />
    <glyph glyph-name="uni01B8" unicode="&#x1b8;" horiz-adv-x="493" 
d="M490 579h-235l138 -181l-13 -88h-85q-60 0 -93 -33.5t-33 -93.5q0 -40 20 -61.5t59 -21.5t72 15.5t69 47.5l71 -80q-45 -48 -101 -73.5t-130 -25.5q-104 0 -162 52.5t-58 141.5q0 65 29.5 115t82 78.5t118.5 30.5l-142 180l16 111h395z" />
    <glyph glyph-name="F" unicode="F" horiz-adv-x="433" 
d="M488 693l-34 -113h-200l-26 -189h177l-17 -113h-176l-39 -278h-154l97 693h372z" />
    <glyph glyph-name="uni1E1E" unicode="&#x1e1e;" horiz-adv-x="433" 
d="M488 693l-34 -113h-200l-26 -189h177l-17 -113h-176l-39 -278h-154l97 693h372zM259.5 781q-21.5 21 -21.5 55q0 42 28 69.5t70 27.5q36 0 57 -21t21 -55q0 -42 -28 -69.5t-69 -27.5q-36 0 -57.5 21z" />
    <glyph glyph-name="uni0191" unicode="&#x191;" horiz-adv-x="433" 
d="M254 580l-26 -189h177l-17 -113h-176l-39 -278l-6 -42q-13 -88 -67.5 -133.5t-137.5 -45.5q-77 0 -126 43l62 90q17 -10 28.5 -14t27.5 -4q24 0 39.5 15t19.5 43l6 48l97 693h372l-34 -113h-200z" />
    <glyph glyph-name="G" unicode="G" horiz-adv-x="581" 
d="M590 623l-86 -77q-29 26 -55 37.5t-61 11.5q-69 0 -113 -55.5t-63 -138.5t-19 -172q0 -69 23 -99.5t69 -30.5q45 0 87 24l23 163h-77l2 111h238l-47 -341q-53 -35 -114 -53.5t-121 -18.5q-120 0 -180.5 67t-60.5 197q0 118 39.5 224t120 172t196.5 66q122 0 199 -87z" />
    <glyph glyph-name="uni01F4" unicode="&#x1f4;" horiz-adv-x="581" 
d="M590 623l-86 -77q-29 26 -55 37.5t-61 11.5q-69 0 -113 -55.5t-63 -138.5t-19 -172q0 -69 23 -99.5t69 -30.5q45 0 87 24l23 163h-77l2 111h238l-47 -341q-53 -35 -114 -53.5t-121 -18.5q-120 0 -180.5 67t-60.5 197q0 118 39.5 224t120 172t196.5 66q122 0 199 -87z
M489 942l49 -111l-224 -83l-34 72z" />
    <glyph glyph-name="uni0194" unicode="&#x194;" horiz-adv-x="516" 
d="M310 84q20 -51 29.5 -85t9.5 -70q0 -72 -41 -111t-114 -39q-61 0 -92 30.5t-31 81.5q0 45 21 91t65 108l-107 603h158l42 -501l178 501h158zM224 8q-41 -68 -41 -105q0 -24 21 -24q33 0 33 47q0 33 -13 82z" />
    <glyph glyph-name="Gbreve" unicode="&#x11e;" horiz-adv-x="581" 
d="M590 623l-86 -77q-29 26 -55 37.5t-61 11.5q-69 0 -113 -55.5t-63 -138.5t-19 -172q0 -69 23 -99.5t69 -30.5q45 0 87 24l23 163h-77l2 111h238l-47 -341q-53 -35 -114 -53.5t-121 -18.5q-120 0 -180.5 67t-60.5 197q0 118 39.5 224t120 172t196.5 66q122 0 199 -87z
M286 797.5q-35 46.5 -30 113.5l79 12q3 -30 18.5 -48t44.5 -18q30 0 52 19t34 50l81 -19q-14 -68 -59.5 -112t-114.5 -44q-70 0 -105 46.5z" />
    <glyph glyph-name="Gcaron" unicode="&#x1e6;" horiz-adv-x="581" 
d="M590 623l-86 -77q-29 26 -55 37.5t-61 11.5q-69 0 -113 -55.5t-63 -138.5t-19 -172q0 -69 23 -99.5t69 -30.5q45 0 87 24l23 163h-77l2 111h238l-47 -341q-53 -35 -114 -53.5t-121 -18.5q-120 0 -180.5 67t-60.5 197q0 118 39.5 224t120 172t196.5 66q122 0 199 -87z
M529 939l51 -61l-145 -128h-90l-112 132l60 57l107 -84z" />
    <glyph glyph-name="Gcircumflex" unicode="&#x11c;" horiz-adv-x="581" 
d="M590 623l-86 -77q-29 26 -55 37.5t-61 11.5q-69 0 -113 -55.5t-63 -138.5t-19 -172q0 -69 23 -99.5t69 -30.5q45 0 87 24l23 163h-77l2 111h238l-47 -341q-53 -35 -114 -53.5t-121 -18.5q-120 0 -180.5 67t-60.5 197q0 118 39.5 224t120 172t196.5 66q122 0 199 -87z
M271 756l-51 61l145 128h90l111 -132l-58 -57l-108 85z" />
    <glyph glyph-name="Gcommaaccent" unicode="&#x122;" horiz-adv-x="581" 
d="M590 623l-86 -77q-29 26 -55 37.5t-61 11.5q-69 0 -113 -55.5t-63 -138.5t-19 -172q0 -69 23 -99.5t69 -30.5q45 0 87 24l23 163h-77l2 111h238l-47 -341q-53 -35 -114 -53.5t-121 -18.5q-120 0 -180.5 67t-60.5 197q0 118 39.5 224t120 172t196.5 66q122 0 199 -87z
M315 -88q19 -19 19 -47q0 -22 -8 -40.5t-29 -55.5l-55 -91h-73l43 118q-26 18 -26 51q0 37 22.5 60.5t56.5 23.5q31 0 50 -19z" />
    <glyph glyph-name="Gdotaccent" unicode="&#x120;" horiz-adv-x="581" 
d="M590 623l-86 -77q-29 26 -55 37.5t-61 11.5q-69 0 -113 -55.5t-63 -138.5t-19 -172q0 -69 23 -99.5t69 -30.5q45 0 87 24l23 163h-77l2 111h238l-47 -341q-53 -35 -114 -53.5t-121 -18.5q-120 0 -180.5 67t-60.5 197q0 118 39.5 224t120 172t196.5 66q122 0 199 -87z
M339.5 781q-21.5 21 -21.5 55q0 42 28 69.5t70 27.5q36 0 57 -21t21 -55q0 -42 -28 -69.5t-69 -27.5q-36 0 -57.5 21z" />
    <glyph glyph-name="uni0193" unicode="&#x193;" horiz-adv-x="554" 
d="M760 811l-54 -91q-27 18 -55 18q-46 0 -55 -63l-6 -52l-77 -70q-30 21 -60 31.5t-65 10.5q-69 0 -113 -55.5t-63 -138.5t-19 -172q0 -69 23 -99.5t69 -30.5q45 0 87 24l23 163h-77l1 111h239l-47 -341q-54 -35 -114.5 -53.5t-120.5 -18.5q-120 0 -180.5 67t-60.5 197
q0 117 39.5 223t116.5 172.5t185 66.5q55 0 93 -20l2 10q10 69 53 109t118 40q68 0 118 -38z" />
    <glyph glyph-name="uni0241" unicode="&#x241;" horiz-adv-x="464" 
d="M145 329l48 16q63 20 95 59.5t32 104.5q0 41 -18.5 63.5t-54.5 22.5q-32 0 -62 -14.5t-64 -42.5l-64 82q50 45 102.5 67t116.5 22q94 0 149 -51t55 -139q0 -89 -41 -145.5t-121 -84.5l-26 -9l-39 -280h-154z" />
    <glyph glyph-name="uni01E4" unicode="&#x1e4;" horiz-adv-x="604" 
d="M588 174h-61l-16 -118q-53 -35 -114 -53.5t-121 -18.5q-120 0 -180.5 67t-60.5 197q0 118 39.5 224t120 172t196.5 66q122 0 199 -87l-87 -77q-28 26 -54 37.5t-61 11.5q-69 0 -113 -55.5t-63 -138.5t-19 -172q0 -69 23 -99.5t69 -30.5q48 0 93 25l7 50h-82l12 91h82
l7 49h-83l-1 96h238l-19 -145h61z" />
    <glyph glyph-name="uni021C" unicode="&#x21c;" horiz-adv-x="461" 
d="M411 664q51 -46 51 -121q0 -145 -170 -186q68 -4 104.5 -37.5t36.5 -96.5q0 -130 -121.5 -214t-308.5 -121l4 114q130 38 197 87t67 134q0 40 -22.5 57.5t-72.5 17.5h-63l33 114h48q51 0 80 31t29 83q0 69 -64 69q-30 0 -61.5 -14t-68.5 -42l-61 81q100 90 223 90
q89 0 140 -46z" />
    <glyph glyph-name="H" unicode="H" horiz-adv-x="594" 
d="M172 0h-154l98 693h154l-38 -271h173l38 271h154l-97 -693h-154l42 300h-173z" />
    <glyph glyph-name="Hbar" unicode="&#x126;" horiz-adv-x="607" 
d="M638 590l-13 -89h-49l-70 -501h-154l42 300h-173l-43 -300h-154l71 501h-49l13 89h48l15 103h154l-14 -103h173l14 103h154l-14 -103h49zM411 422l11 79h-173l-11 -79h173z" />
    <glyph glyph-name="uni021E" unicode="&#x21e;" horiz-adv-x="594" 
d="M172 0h-154l98 693h154l-38 -271h173l38 271h154l-97 -693h-154l42 300h-173zM504 939l51 -61l-145 -128h-90l-112 132l60 57l107 -84z" />
    <glyph glyph-name="Hcircumflex" unicode="&#x124;" horiz-adv-x="594" 
d="M172 0h-154l98 693h154l-38 -271h173l38 271h154l-97 -693h-154l42 300h-173zM246 756l-51 61l145 128h90l111 -132l-58 -57l-108 85z" />
    <glyph glyph-name="uni1E24" unicode="&#x1e24;" horiz-adv-x="594" 
d="M172 0h-154l98 693h154l-38 -271h173l38 271h154l-97 -693h-154l42 300h-173zM306.5 -83q21.5 -21 21.5 -55q0 -42 -28 -69.5t-70 -27.5q-36 0 -57 21t-21 55q0 42 28 69.5t69 27.5q36 0 57.5 -21z" />
    <glyph glyph-name="uniA7AA" unicode="&#xa7aa;" horiz-adv-x="727" 
d="M731 693l-97 -693h-154l42 300h-173l-43 -300h-154l82 580h-25q-23 0 -35.5 -15t-12.5 -43q0 -18 8 -54l-103 -39q-11 26 -17 48.5t-6 49.5q0 76 48.5 121t129.5 45h183l-38 -271h173l38 271h154z" />
    <glyph glyph-name="uniA78D" unicode="&#xa78d;" horiz-adv-x="556" 
d="M559 693l-97 -693h-154l36 255q-34 -26 -67 -38t-74 -12q-78 0 -120.5 47.5t-42.5 128.5q0 21 3 45l37 267h151l-37 -269q-2 -20 -2 -29q0 -37 16.5 -55t51.5 -18q54 0 99 41l46 330h154z" />
    <glyph glyph-name="uni01F6" unicode="&#x1f6;" horiz-adv-x="847" 
d="M413 29.5q-45 45.5 -45 112.5q0 9 2 25l18 133h-173l-42 -300h-154l97 693h154l-38 -271h173l38 271h154l-73 -528q-2 -16 -2 -23q0 -47 40 -47q65 0 90 106.5t25 235.5q0 51 -3 94h140q6 -51 6 -104q0 -208 -59 -325.5t-215 -117.5q-88 0 -133 45.5z" />
    <glyph glyph-name="I" unicode="I" horiz-adv-x="266" 
d="M270 693l-97 -693h-154l97 693h154z" />
    <glyph glyph-name="IJ" unicode="&#x132;" horiz-adv-x="553" 
d="M270 693l-97 -693h-154l97 693h154zM477 100q-12 -82 -46 -134t-81 -81t-114 -51l-27 110q59 25 82 61.5t33 105.5l82 582h154z" />
    <glyph glyph-name="Iacute" unicode="&#xcd;" horiz-adv-x="266" 
d="M270 693l-97 -693h-154l97 693h154zM300 942l49 -111l-224 -83l-34 72z" />
    <glyph glyph-name="Ibreve" unicode="&#x12c;" horiz-adv-x="266" 
d="M270 693l-97 -693h-154l97 693h154zM97 797.5q-35 46.5 -30 113.5l79 12q3 -30 18.5 -48t44.5 -18q30 0 52 19t34 50l81 -19q-14 -68 -59.5 -112t-114.5 -44q-70 0 -105 46.5z" />
    <glyph glyph-name="uni01CF" unicode="&#x1cf;" horiz-adv-x="266" 
d="M270 693l-97 -693h-154l97 693h154zM340 939l51 -61l-145 -128h-90l-112 132l60 57l107 -84z" />
    <glyph glyph-name="Icircumflex" unicode="&#xce;" horiz-adv-x="266" 
d="M270 693l-97 -693h-154l97 693h154zM82 756l-51 61l145 128h90l111 -132l-58 -57l-108 85z" />
    <glyph glyph-name="uni0208" unicode="&#x208;" horiz-adv-x="266" 
d="M270 693l-97 -693h-154l97 693h154zM114 983l62 -196l-83 -35l-88 183zM272 983l54 -196l-82 -30l-81 181z" />
    <glyph glyph-name="Idieresis" unicode="&#xcf;" horiz-adv-x="266" 
d="M270 693l-97 -693h-154l97 693h154zM48.5 787.5q-18.5 18.5 -18.5 47.5q0 37 24.5 61.5t60.5 24.5q32 0 50.5 -18.5t18.5 -47.5q0 -37 -24.5 -61.5t-60.5 -24.5q-32 0 -50.5 18.5zM259 787.5q-19 18.5 -19 47.5q0 37 24.5 61.5t60.5 24.5q31 0 50 -18.5t19 -47.5
q0 -37 -24.5 -61.5t-60.5 -24.5q-31 0 -50 18.5z" />
    <glyph glyph-name="uni1E2E" unicode="&#x1e2e;" horiz-adv-x="266" 
d="M270 693l-97 -693h-154l97 693h154zM308 1088l73 -78l-164 -142l-52 49zM41.5 767q-18.5 18 -18.5 48q0 37 25 61.5t61 24.5q31 0 49.5 -18.5t18.5 -48.5q0 -36 -25 -60.5t-61 -24.5q-31 0 -49.5 18zM262.5 767q-18.5 18 -18.5 48q0 37 25 61.5t60 24.5q31 0 49.5 -18.5
t18.5 -48.5q0 -36 -24.5 -60.5t-60.5 -24.5q-31 0 -49.5 18z" />
    <glyph glyph-name="Idotaccent" unicode="&#x130;" horiz-adv-x="266" 
d="M270 693l-97 -693h-154l97 693h154zM150.5 781q-21.5 21 -21.5 55q0 42 28 69.5t70 27.5q36 0 57 -21t21 -55q0 -42 -28 -69.5t-69 -27.5q-36 0 -57.5 21z" />
    <glyph glyph-name="uni1ECA" unicode="&#x1eca;" horiz-adv-x="266" 
d="M270 693l-97 -693h-154l97 693h154zM140.5 -83q21.5 -21 21.5 -55q0 -42 -28 -69.5t-70 -27.5q-36 0 -57 21t-21 55q0 42 28 69.5t69 27.5q36 0 57.5 -21z" />
    <glyph glyph-name="Igrave" unicode="&#xcc;" horiz-adv-x="266" 
d="M270 693l-97 -693h-154l97 693h154zM161 940l182 -122l-42 -69l-204 81z" />
    <glyph glyph-name="uni1EC8" unicode="&#x1ec8;" horiz-adv-x="266" 
d="M270 693l-97 -693h-154l97 693h154zM170 853q35 2 52.5 12t17.5 32q0 26 -31 26q-25 0 -53 -14l-17 66q41 24 96 24q50 0 78 -25.5t28 -67.5q0 -81 -90 -99l-5 -43h-86z" />
    <glyph glyph-name="uni020A" unicode="&#x20a;" horiz-adv-x="266" 
d="M270 693l-97 -693h-154l97 693h154zM48 782q17 74 63.5 120t115.5 46q70 0 105 -48t31 -122l-83 -11q-6 76 -63 76q-61 0 -89 -80z" />
    <glyph glyph-name="Imacron" unicode="&#x12a;" horiz-adv-x="266" 
d="M270 693l-97 -693h-154l97 693h154zM340 782h-274l16 106h274z" />
    <glyph glyph-name="Iogonek" unicode="&#x12e;" horiz-adv-x="266" 
d="M270 693l-97 -693h-35q-121 -50 -121 -115q0 -34 41 -34q24 0 54 6l-21 -93q-27 -7 -63 -7q-53 0 -86.5 28.5t-33.5 76.5q0 92 113 149l95 682h154z" />
    <glyph glyph-name="uni0196" unicode="&#x196;" horiz-adv-x="349" 
d="M325 24q-57 -41 -133 -41t-118.5 38t-42.5 111q0 10 2 34l5 38l69 489h153l-68 -489l-7 -52l-1 -12q0 -42 38 -42q18 0 31 4t34 14z" />
    <glyph glyph-name="uni0197" unicode="&#x197;" horiz-adv-x="299" 
d="M314 417l-15 -115h-66l-42 -302h-154l42 302h-67l15 115h68l39 276h154l-39 -276h65z" />
    <glyph glyph-name="Itilde" unicode="&#x128;" horiz-adv-x="266" 
d="M270 693l-97 -693h-154l97 693h154zM229.5 770q-13.5 7 -32.5 20q-9 7 -19 12.5t-18 5.5q-15 0 -26.5 -10.5t-27.5 -34.5l-67 40q25 50 58.5 81.5t70.5 31.5q20 0 33.5 -7t31.5 -20q22 -18 36 -18q13 0 25 10t27 33l68 -38q-26 -51 -59.5 -82t-68.5 -31q-18 0 -31.5 7z
" />
    <glyph glyph-name="J" unicode="J" horiz-adv-x="287" 
d="M211 100q-12 -82 -46 -134t-81 -81t-114 -51l-27 110q59 25 82 61.5t33 105.5l82 582h154z" />
    <glyph glyph-name="Jcircumflex" unicode="&#x134;" horiz-adv-x="287" 
d="M211 100q-12 -82 -46 -134t-81 -81t-114 -51l-27 110q59 25 82 61.5t33 105.5l82 582h154zM105 756l-51 61l145 128h90l111 -132l-58 -57l-108 85z" />
    <glyph glyph-name="uniA7B2" unicode="&#xa7b2;" horiz-adv-x="332" 
d="M239 -9q34 -10 82 -38l-36 -62q-25 13 -63 27q-24 -70 -73.5 -104.5t-132.5 -34.5q-66 0 -101.5 29.5t-35.5 82.5q0 61 44 95.5t110 34.5q37 0 55 -3l95 675h153l-96 -695zM54 -121q15 20 24 66q-24 2 -46 2q-28 0 -43.5 -14t-15.5 -37q0 -18 9 -27.5t27 -9.5q30 0 45 20
z" />
    <glyph glyph-name="uni0248" unicode="&#x248;" horiz-adv-x="302" 
d="M302 284h-65l-26 -184q-12 -82 -46 -134t-81 -81t-114 -51l-27 110q59 25 82 61.5t33 105.5l24 173h-67l15 118h69l41 291h154l-41 -291h64z" />
    <glyph glyph-name="K" unicode="K" horiz-adv-x="574" 
d="M19 0l97 693h154l-97 -693h-154zM373 0l-143 370l235 323h160l-237 -321l156 -372h-171z" />
    <glyph glyph-name="uni01E8" unicode="&#x1e8;" horiz-adv-x="574" 
d="M19 0l97 693h154l-97 -693h-154zM373 0l-143 370l235 323h160l-237 -321l156 -372h-171zM502 939l51 -61l-145 -128h-90l-112 132l60 57l107 -84z" />
    <glyph glyph-name="Kcommaaccent" unicode="&#x136;" horiz-adv-x="574" 
d="M19 0l97 693h154l-97 -693h-154zM373 0l-143 370l235 323h160l-237 -321l156 -372h-171zM297 -88q19 -19 19 -47q0 -22 -8 -40.5t-29 -55.5l-55 -91h-73l43 118q-26 18 -26 51q0 37 22.5 60.5t56.5 23.5q31 0 50 -19z" />
    <glyph glyph-name="uni0198" unicode="&#x198;" horiz-adv-x="593" 
d="M230 370l159 234q39 58 75 81.5t90 23.5q35 0 59.5 -10.5t43.5 -28.5l-54 -85q-17 12 -35 12q-16 0 -28.5 -9t-30.5 -34l-120 -181l155 -373h-172zM19 0l97 693h154l-97 -693h-154z" />
    <glyph glyph-name="L" unicode="L" horiz-adv-x="456" 
d="M270 693l-80 -569h239l-34 -124h-376l97 693h154z" />
    <glyph glyph-name="uni01C7" unicode="&#x1c7;" horiz-adv-x="720" 
d="M270 693l-80 -569h239l-34 -124h-376l97 693h154zM644 100q-12 -82 -46 -134t-81 -81t-114 -51l-27 110q59 25 82 61.5t33 105.5l82 582h154z" />
    <glyph glyph-name="Lacute" unicode="&#x139;" horiz-adv-x="456" 
d="M270 693l-80 -569h239l-34 -124h-376l97 693h154zM300 942l49 -111l-224 -83l-34 72z" />
    <glyph glyph-name="uni023D" unicode="&#x23d;" horiz-adv-x="470" 
d="M204 124h239l-34 -124h-376l43 304h-63l15 118h64l38 271h154l-38 -271h69l-15 -118h-71z" />
    <glyph glyph-name="uniA7AD" unicode="&#xa7ad;" horiz-adv-x="553" 
d="M526 124l-34 -124h-376l35 253q-66 2 -100 33t-34 84q0 58 37 92.5t95 34.5q24 0 36 -4l28 200h154l-49 -350q41 3 75 7l20 3l3 -83q-66 -12 -110 -14l-19 -132h239zM164 341l10 73q-9 3 -21 3q-17 0 -26.5 -11t-9.5 -30q0 -35 47 -35z" />
    <glyph glyph-name="Lcaron" unicode="&#x13d;" horiz-adv-x="456" 
d="M270 693l-80 -569h239l-34 -124h-376l97 693h154zM322 706l108 -14l-73 -211l-75 8z" />
    <glyph glyph-name="uni1E3C" unicode="&#x1e3c;" horiz-adv-x="456" 
d="M270 693l-80 -569h239l-34 -124h-376l97 693h154zM55 -259l-50 61l146 134h90l111 -138l-62 -57l-105 91z" />
    <glyph glyph-name="Lcommaaccent" unicode="&#x13b;" horiz-adv-x="456" 
d="M270 693l-80 -569h239l-34 -124h-376l97 693h154zM249 -88q19 -19 19 -47q0 -22 -8 -40.5t-29 -55.5l-55 -91h-73l43 118q-26 18 -26 51q0 37 22.5 60.5t56.5 23.5q31 0 50 -19z" />
    <glyph glyph-name="Ldot" unicode="&#x13f;" horiz-adv-x="456" 
d="M270 693l-80 -569h239l-34 -124h-376l97 693h154zM307.5 330q-21.5 21 -21.5 55q0 42 28 69.5t70 27.5q36 0 57 -21t21 -55q0 -42 -28 -69.5t-69 -27.5q-36 0 -57.5 21z" />
    <glyph glyph-name="uni1E36" unicode="&#x1e36;" horiz-adv-x="456" 
d="M270 693l-80 -569h239l-34 -124h-376l97 693h154zM252.5 -83q21.5 -21 21.5 -55q0 -42 -28 -69.5t-70 -27.5q-36 0 -57 21t-21 55q0 42 28 69.5t69 27.5q36 0 57.5 -21z" />
    <glyph glyph-name="uni01C8" unicode="&#x1c8;" horiz-adv-x="694" 
d="M270 693l-80 -569h239l-34 -124h-376l97 693h154zM344 -112q37 16 60.5 34t38 48.5t21.5 79.5l67 481h148l-67 -478q-12 -84 -43.5 -136t-76.5 -82t-113 -56zM565.5 655q-21.5 21 -21.5 55q0 42 28 69.5t70 27.5q36 0 57 -21t21 -55q0 -42 -28 -69.5t-69 -27.5
q-36 0 -57.5 21z" />
    <glyph glyph-name="Lslash" unicode="&#x141;" horiz-adv-x="490" 
d="M224 124h239l-34 -124h-376l32 227l-39 -24l-39 79l94 58l49 353h154l-35 -249l119 74l40 -79l-175 -108z" />
    <glyph glyph-name="M" unicode="M" horiz-adv-x="711" 
d="M641 0h-149l27 275q11 125 39 295l-157 -496h-147l-30 494q-10 -152 -35 -297l-45 -271h-150l143 693h187l22 -484l146 484h200z" />
    <glyph glyph-name="uni1E3E" unicode="&#x1e3e;" horiz-adv-x="711" 
d="M641 0h-149l27 275q11 125 39 295l-157 -496h-147l-30 494q-10 -152 -35 -297l-45 -271h-150l143 693h187l22 -484l146 484h200zM515 942l49 -111l-224 -83l-34 72z" />
    <glyph glyph-name="uni1E40" unicode="&#x1e40;" horiz-adv-x="711" 
d="M641 0h-149l27 275q11 125 39 295l-157 -496h-147l-30 494q-10 -152 -35 -297l-45 -271h-150l143 693h187l22 -484l146 484h200zM365.5 781q-21.5 21 -21.5 55q0 42 28 69.5t70 27.5q36 0 57 -21t21 -55q0 -42 -28 -69.5t-69 -27.5q-36 0 -57.5 21z" />
    <glyph glyph-name="uni019C" unicode="&#x19c;" horiz-adv-x="814" 
d="M817 693l-97 -693h-135l-2 64q-36 -42 -70.5 -61t-75.5 -19q-45 0 -75.5 23t-43.5 63q-70 -86 -159 -86q-62 0 -96 41t-34 106q0 18 3 36l75 526h154l-74 -523q-1 -7 -1 -20q0 -23 9.5 -36t28.5 -13q23 0 43 16t44 51v1l74 524h154l-73 -521q-1 -7 -1 -20q0 -25 9.5 -38
t27.5 -13q23 0 43.5 16.5t44.5 53.5l73 522h154z" />
    <glyph glyph-name="N" unicode="N" horiz-adv-x="591" 
d="M498 0h-190l-104 563q1 -23 1 -69q0 -119 -16 -240l-34 -254h-136l97 693h189l104 -563q-1 30 -1 84q0 96 13 196l38 283h136z" />
    <glyph glyph-name="uni01CA" unicode="&#x1ca;" horiz-adv-x="878" 
d="M498 0h-190l-104 563q1 -23 1 -69q0 -119 -16 -240l-34 -254h-136l97 693h189l104 -563q-1 30 -1 84q0 96 13 196l38 283h136zM802 100q-12 -82 -46 -134t-81 -81t-114 -51l-27 110q59 25 82 61.5t33 105.5l82 582h154z" />
    <glyph glyph-name="Nacute" unicode="&#x143;" horiz-adv-x="591" 
d="M498 0h-190l-104 563q1 -23 1 -69q0 -119 -16 -240l-34 -254h-136l97 693h189l104 -563q-1 30 -1 84q0 96 13 196l38 283h136zM465 942l49 -111l-224 -83l-34 72z" />
    <glyph glyph-name="Ncaron" unicode="&#x147;" horiz-adv-x="591" 
d="M498 0h-190l-104 563q1 -23 1 -69q0 -119 -16 -240l-34 -254h-136l97 693h189l104 -563q-1 30 -1 84q0 96 13 196l38 283h136zM505 939l51 -61l-145 -128h-90l-112 132l60 57l107 -84z" />
    <glyph glyph-name="uni1E4A" unicode="&#x1e4a;" horiz-adv-x="591" 
d="M498 0h-190l-104 563q1 -23 1 -69q0 -119 -16 -240l-34 -254h-136l97 693h189l104 -563q-1 30 -1 84q0 96 13 196l38 283h136zM107 -259l-50 61l146 134h90l111 -138l-62 -57l-105 91z" />
    <glyph glyph-name="Ncommaaccent" unicode="&#x145;" horiz-adv-x="591" 
d="M498 0h-190l-104 563q1 -23 1 -69q0 -119 -16 -240l-34 -254h-136l97 693h189l104 -563q-1 30 -1 84q0 96 13 196l38 283h136zM301 -88q19 -19 19 -47q0 -22 -8 -40.5t-29 -55.5l-55 -91h-73l43 118q-26 18 -26 51q0 37 22.5 60.5t56.5 23.5q31 0 50 -19z" />
    <glyph glyph-name="uni1E44" unicode="&#x1e44;" horiz-adv-x="591" 
d="M498 0h-190l-104 563q1 -23 1 -69q0 -119 -16 -240l-34 -254h-136l97 693h189l104 -563q-1 30 -1 84q0 96 13 196l38 283h136zM315.5 781q-21.5 21 -21.5 55q0 42 28 69.5t70 27.5q36 0 57 -21t21 -55q0 -42 -28 -69.5t-69 -27.5q-36 0 -57.5 21z" />
    <glyph glyph-name="uni1E46" unicode="&#x1e46;" horiz-adv-x="591" 
d="M498 0h-190l-104 563q1 -23 1 -69q0 -119 -16 -240l-34 -254h-136l97 693h189l104 -563q-1 30 -1 84q0 96 13 196l38 283h136zM304.5 -83q21.5 -21 21.5 -55q0 -42 -28 -69.5t-70 -27.5q-36 0 -57 21t-21 55q0 42 28 69.5t69 27.5q36 0 57.5 -21z" />
    <glyph glyph-name="uni01F8" unicode="&#x1f8;" horiz-adv-x="591" 
d="M498 0h-190l-104 563q1 -23 1 -69q0 -119 -16 -240l-34 -254h-136l97 693h189l104 -563q-1 30 -1 84q0 96 13 196l38 283h136zM326 940l182 -122l-42 -69l-204 81z" />
    <glyph glyph-name="Eng" unicode="&#x14a;" horiz-adv-x="591" 
d="M595 693l-97 -693h-1l-6 -42q-13 -88 -67.5 -133.5t-137.5 -45.5q-77 0 -126 43l62 90q17 -10 28.5 -14t27.5 -4q24 0 39.5 15t19.5 43l6 48h-35l-104 563q1 -23 1 -69q0 -119 -16 -240l-34 -254h-136l97 693h189l104 -563q-1 30 -1 84q0 96 13 196l38 283h136z" />
    <glyph glyph-name="uni019D" unicode="&#x19d;" horiz-adv-x="591" 
d="M595 693l-97 -693h-190l-104 563q1 -23 1 -69q0 -119 -16 -240l-34 -254l-7 -47q-13 -85 -62 -129.5t-126 -44.5q-73 0 -125 44l63 84q15 -9 27.5 -13.5t29.5 -4.5q24 0 39 16t19 47l6 48l97 693h189l104 -563q-1 30 -1 84q0 96 13 196l38 283h136z" />
    <glyph glyph-name="uni01CB" unicode="&#x1cb;" horiz-adv-x="844" 
d="M498 0h-190l-104 563q1 -23 1 -69q0 -119 -16 -240l-34 -254h-136l97 693h189l104 -563q-1 30 -1 84q0 96 13 196l38 283h136zM494 -112q37 16 60.5 34t38 48.5t21.5 79.5l67 481h148l-67 -478q-12 -84 -43.5 -136t-76.5 -82t-113 -56zM715.5 655q-21.5 21 -21.5 55
q0 42 28 69.5t70 27.5q36 0 57 -21t21 -55q0 -42 -28 -69.5t-69 -27.5q-36 0 -57.5 21z" />
    <glyph glyph-name="uni0220" unicode="&#x220;" horiz-adv-x="583" 
d="M532 669q37 -41 37 -108q0 -22 -2 -34l-102 -737h-153l100 723q2 16 2 23q0 56 -50 56q-28 0 -56 -15.5t-61 -46.5l-75 -530h-153l97 693h134l2 -60q41 38 83.5 57.5t90.5 19.5q69 0 106 -41z" />
    <glyph glyph-name="Ntilde" unicode="&#xd1;" horiz-adv-x="591" 
d="M498 0h-190l-104 563q1 -23 1 -69q0 -119 -16 -240l-34 -254h-136l97 693h189l104 -563q-1 30 -1 84q0 96 13 196l38 283h136zM394.5 770q-13.5 7 -32.5 20q-9 7 -19 12.5t-18 5.5q-15 0 -26.5 -10.5t-27.5 -34.5l-67 40q25 50 58.5 81.5t70.5 31.5q20 0 33.5 -7
t31.5 -20q22 -18 36 -18q13 0 25 10t27 33l68 -38q-26 -51 -59.5 -82t-68.5 -31q-18 0 -31.5 7z" />
    <glyph glyph-name="O" unicode="O" horiz-adv-x="624" 
d="M549 640q62 -70 62 -201q0 -114 -35 -218t-110.5 -171t-191.5 -67q-114 0 -176 69.5t-62 200.5q0 113 35 217.5t110.5 172t191.5 67.5q114 0 176 -70zM264 534.5q-38 -59.5 -54 -143t-16 -158.5q0 -71 22.5 -102.5t67.5 -31.5q62 0 100 59t53.5 142t15.5 160
q0 70 -22.5 102t-67.5 32q-61 0 -99 -59.5z" />
    <glyph glyph-name="uni0222" unicode="&#x222;" horiz-adv-x="585" 
d="M449 394q100 -42 100 -149q0 -76 -37.5 -135t-104 -92.5t-150.5 -33.5q-73 0 -126.5 26.5t-81 72t-27.5 102.5q0 76 40 129t111 80q-70 35 -70 115q0 8 2 30l20 154h155l-23 -163q-2 -10 -2 -27q0 -30 15 -44.5t47 -14.5q40 0 60 23.5t26 65.5l23 160h154l-22 -157
q-14 -100 -109 -142zM356 137.5q32 38.5 32 103.5q0 44 -21 67.5t-64 23.5q-54 0 -87 -39t-33 -103q0 -44 21.5 -67.5t64.5 -23.5q55 0 87 38.5z" />
    <glyph glyph-name="Oacute" unicode="&#xd3;" horiz-adv-x="624" 
d="M549 640q62 -70 62 -201q0 -114 -35 -218t-110.5 -171t-191.5 -67q-114 0 -176 69.5t-62 200.5q0 113 35 217.5t110.5 172t191.5 67.5q114 0 176 -70zM264 534.5q-38 -59.5 -54 -143t-16 -158.5q0 -71 22.5 -102.5t67.5 -31.5q62 0 100 59t53.5 142t15.5 160
q0 70 -22.5 102t-67.5 32q-61 0 -99 -59.5zM480 942l49 -111l-224 -83l-34 72z" />
    <glyph glyph-name="Obreve" unicode="&#x14e;" horiz-adv-x="624" 
d="M549 640q62 -70 62 -201q0 -114 -35 -218t-110.5 -171t-191.5 -67q-114 0 -176 69.5t-62 200.5q0 113 35 217.5t110.5 172t191.5 67.5q114 0 176 -70zM264 534.5q-38 -59.5 -54 -143t-16 -158.5q0 -71 22.5 -102.5t67.5 -31.5q62 0 100 59t53.5 142t15.5 160
q0 70 -22.5 102t-67.5 32q-61 0 -99 -59.5zM277 797.5q-35 46.5 -30 113.5l79 12q3 -30 18.5 -48t44.5 -18q30 0 52 19t34 50l81 -19q-14 -68 -59.5 -112t-114.5 -44q-70 0 -105 46.5z" />
    <glyph glyph-name="uni01D1" unicode="&#x1d1;" horiz-adv-x="624" 
d="M549 640q62 -70 62 -201q0 -114 -35 -218t-110.5 -171t-191.5 -67q-114 0 -176 69.5t-62 200.5q0 113 35 217.5t110.5 172t191.5 67.5q114 0 176 -70zM264 534.5q-38 -59.5 -54 -143t-16 -158.5q0 -71 22.5 -102.5t67.5 -31.5q62 0 100 59t53.5 142t15.5 160
q0 70 -22.5 102t-67.5 32q-61 0 -99 -59.5zM520 939l51 -61l-145 -128h-90l-112 132l60 57l107 -84z" />
    <glyph glyph-name="uni019F" unicode="&#x19f;" horiz-adv-x="624" 
d="M549 640q62 -70 62 -201q0 -114 -35 -218t-110.5 -171t-191.5 -67q-114 0 -176 69.5t-62 200.5q0 114 34.5 218t110.5 171.5t192 67.5q114 0 176 -70zM263.5 541q-39.5 -56 -59.5 -145h253q3 35 3 63q0 72 -23 105t-71 33q-63 0 -102.5 -56zM387 155q40 59 58 151h-254
q-4 -35 -4 -73q0 -73 23 -105t71 -32q66 0 106 59z" />
    <glyph glyph-name="Ocircumflex" unicode="&#xd4;" horiz-adv-x="624" 
d="M549 640q62 -70 62 -201q0 -114 -35 -218t-110.5 -171t-191.5 -67q-114 0 -176 69.5t-62 200.5q0 113 35 217.5t110.5 172t191.5 67.5q114 0 176 -70zM264 534.5q-38 -59.5 -54 -143t-16 -158.5q0 -71 22.5 -102.5t67.5 -31.5q62 0 100 59t53.5 142t15.5 160
q0 70 -22.5 102t-67.5 32q-61 0 -99 -59.5zM262 756l-51 61l145 128h90l111 -132l-58 -57l-108 85z" />
    <glyph glyph-name="uni1ED0" unicode="&#x1ed0;" horiz-adv-x="624" 
d="M624 1086l73 -78l-164 -142l-52 49zM258 722l-51 61l145 128h90l111 -132l-58 -57l-108 85zM549 640q62 -70 62 -201q0 -114 -35 -218t-110.5 -171t-191.5 -67q-114 0 -176 69.5t-62 200.5q0 113 35 217.5t110.5 172t191.5 67.5q114 0 176 -70zM264 534.5
q-38 -59.5 -54 -143t-16 -158.5q0 -71 22.5 -102.5t67.5 -31.5q62 0 100 59t53.5 142t15.5 160q0 70 -22.5 102t-67.5 32q-61 0 -99 -59.5z" />
    <glyph glyph-name="uni1ED8" unicode="&#x1ed8;" horiz-adv-x="624" 
d="M549 640q62 -70 62 -201q0 -114 -35 -218t-110.5 -171t-191.5 -67q-114 0 -176 69.5t-62 200.5q0 113 35 217.5t110.5 172t191.5 67.5q114 0 176 -70zM264 534.5q-38 -59.5 -54 -143t-16 -158.5q0 -71 22.5 -102.5t67.5 -31.5q62 0 100 59t53.5 142t15.5 160
q0 70 -22.5 102t-67.5 32q-61 0 -99 -59.5zM262 756l-51 61l145 128h90l111 -132l-58 -57l-108 85zM319.5 -83q21.5 -21 21.5 -55q0 -42 -28 -69.5t-70 -27.5q-36 0 -57 21t-21 55q0 42 28 69.5t69 27.5q36 0 57.5 -21z" />
    <glyph glyph-name="uni1ED2" unicode="&#x1ed2;" horiz-adv-x="624" 
d="M213 1083l96 -173l-61 -44l-125 148zM258 722l-51 61l145 128h90l111 -132l-58 -57l-108 85zM549 640q62 -70 62 -201q0 -114 -35 -218t-110.5 -171t-191.5 -67q-114 0 -176 69.5t-62 200.5q0 113 35 217.5t110.5 172t191.5 67.5q114 0 176 -70zM264 534.5
q-38 -59.5 -54 -143t-16 -158.5q0 -71 22.5 -102.5t67.5 -31.5q62 0 100 59t53.5 142t15.5 160q0 70 -22.5 102t-67.5 32q-61 0 -99 -59.5z" />
    <glyph glyph-name="uni1ED4" unicode="&#x1ed4;" horiz-adv-x="624" 
d="M549 640q62 -70 62 -201q0 -114 -35 -218t-110.5 -171t-191.5 -67q-114 0 -176 69.5t-62 200.5q0 113 35 217.5t110.5 172t191.5 67.5q114 0 176 -70zM264 534.5q-38 -59.5 -54 -143t-16 -158.5q0 -71 22.5 -102.5t67.5 -31.5q62 0 100 59t53.5 142t15.5 160
q0 70 -22.5 102t-67.5 32q-61 0 -99 -59.5zM256 722l-51 61l145 128h90l111 -132l-58 -57l-108 85zM509 942q35 2 52.5 12t17.5 32q0 26 -31 26q-25 0 -53 -14l-17 66q41 24 96 24q50 0 78 -25.5t28 -67.5q0 -81 -90 -99l-5 -43h-86z" />
    <glyph glyph-name="uni1ED6" unicode="&#x1ed6;" horiz-adv-x="624" 
d="M428.5 944.5q-14.5 6.5 -31.5 18.5q-9 7 -18.5 12t-17.5 5q-15 0 -26.5 -10t-27.5 -32l-66 37q25 48 58 77.5t69 29.5q20 0 34 -7t31 -19q11 -9 19 -13t16 -4q14 0 25.5 9.5t26.5 31.5l67 -36q-26 -48 -59 -77t-68 -29q-17 0 -31.5 6.5zM257 722l-51 61l145 128h90
l111 -132l-58 -57l-108 85zM549 640q62 -70 62 -201q0 -114 -35 -218t-110.5 -171t-191.5 -67q-114 0 -176 69.5t-62 200.5q0 113 35 217.5t110.5 172t191.5 67.5q114 0 176 -70zM264 534.5q-38 -59.5 -54 -143t-16 -158.5q0 -71 22.5 -102.5t67.5 -31.5q62 0 100 59
t53.5 142t15.5 160q0 70 -22.5 102t-67.5 32q-61 0 -99 -59.5z" />
    <glyph glyph-name="uni020C" unicode="&#x20c;" horiz-adv-x="624" 
d="M549 640q62 -70 62 -201q0 -114 -35 -218t-110.5 -171t-191.5 -67q-114 0 -176 69.5t-62 200.5q0 113 35 217.5t110.5 172t191.5 67.5q114 0 176 -70zM264 534.5q-38 -59.5 -54 -143t-16 -158.5q0 -71 22.5 -102.5t67.5 -31.5q62 0 100 59t53.5 142t15.5 160
q0 70 -22.5 102t-67.5 32q-61 0 -99 -59.5zM294 983l62 -196l-83 -35l-88 183zM452 983l54 -196l-82 -30l-81 181z" />
    <glyph glyph-name="Odieresis" unicode="&#xd6;" horiz-adv-x="624" 
d="M549 640q62 -70 62 -201q0 -114 -35 -218t-110.5 -171t-191.5 -67q-114 0 -176 69.5t-62 200.5q0 113 35 217.5t110.5 172t191.5 67.5q114 0 176 -70zM264 534.5q-38 -59.5 -54 -143t-16 -158.5q0 -71 22.5 -102.5t67.5 -31.5q62 0 100 59t53.5 142t15.5 160
q0 70 -22.5 102t-67.5 32q-61 0 -99 -59.5zM228.5 787.5q-18.5 18.5 -18.5 47.5q0 37 24.5 61.5t60.5 24.5q32 0 50.5 -18.5t18.5 -47.5q0 -37 -24.5 -61.5t-60.5 -24.5q-32 0 -50.5 18.5zM439 787.5q-19 18.5 -19 47.5q0 37 24.5 61.5t60.5 24.5q31 0 50 -18.5t19 -47.5
q0 -37 -24.5 -61.5t-60.5 -24.5q-31 0 -50 18.5z" />
    <glyph glyph-name="uni022A" unicode="&#x22a;" horiz-adv-x="624" 
d="M549 640q62 -70 62 -201q0 -114 -35 -218t-110.5 -171t-191.5 -67q-114 0 -176 69.5t-62 200.5q0 113 35 217.5t110.5 172t191.5 67.5q114 0 176 -70zM264 534.5q-38 -59.5 -54 -143t-16 -158.5q0 -71 22.5 -102.5t67.5 -31.5q62 0 100 59t53.5 142t15.5 160
q0 70 -22.5 102t-67.5 32q-61 0 -99 -59.5zM223.5 764.5q-18.5 18.5 -18.5 47.5q0 37 24.5 61.5t60.5 24.5q32 0 50.5 -18.5t18.5 -47.5q0 -37 -24.5 -61.5t-60.5 -24.5q-32 0 -50.5 18.5zM434 764.5q-19 18.5 -19 47.5q0 37 24.5 61.5t60.5 24.5q31 0 50 -18.5t19 -47.5
q0 -37 -24.5 -61.5t-60.5 -24.5q-31 0 -50 18.5zM536 938h-274l16 106h274z" />
    <glyph glyph-name="uni022E" unicode="&#x22e;" horiz-adv-x="624" 
d="M549 640q62 -70 62 -201q0 -114 -35 -218t-110.5 -171t-191.5 -67q-114 0 -176 69.5t-62 200.5q0 113 35 217.5t110.5 172t191.5 67.5q114 0 176 -70zM264 534.5q-38 -59.5 -54 -143t-16 -158.5q0 -71 22.5 -102.5t67.5 -31.5q62 0 100 59t53.5 142t15.5 160
q0 70 -22.5 102t-67.5 32q-61 0 -99 -59.5zM330.5 781q-21.5 21 -21.5 55q0 42 28 69.5t70 27.5q36 0 57 -21t21 -55q0 -42 -28 -69.5t-69 -27.5q-36 0 -57.5 21z" />
    <glyph glyph-name="uni0230" unicode="&#x230;" horiz-adv-x="624" 
d="M549 640q62 -70 62 -201q0 -114 -35 -218t-110.5 -171t-191.5 -67q-114 0 -176 69.5t-62 200.5q0 113 35 217.5t110.5 172t191.5 67.5q114 0 176 -70zM264 534.5q-38 -59.5 -54 -143t-16 -158.5q0 -71 22.5 -102.5t67.5 -31.5q62 0 100 59t53.5 142t15.5 160
q0 70 -22.5 102t-67.5 32q-61 0 -99 -59.5zM321.5 758q-21.5 21 -21.5 55q0 42 28 69.5t70 27.5q36 0 57 -21t21 -55q0 -42 -28 -69.5t-69 -27.5q-36 0 -57.5 21zM541 939h-274l16 106h274z" />
    <glyph glyph-name="uni1ECC" unicode="&#x1ecc;" horiz-adv-x="624" 
d="M549 640q62 -70 62 -201q0 -114 -35 -218t-110.5 -171t-191.5 -67q-114 0 -176 69.5t-62 200.5q0 113 35 217.5t110.5 172t191.5 67.5q114 0 176 -70zM264 534.5q-38 -59.5 -54 -143t-16 -158.5q0 -71 22.5 -102.5t67.5 -31.5q62 0 100 59t53.5 142t15.5 160
q0 70 -22.5 102t-67.5 32q-61 0 -99 -59.5zM319.5 -83q21.5 -21 21.5 -55q0 -42 -28 -69.5t-70 -27.5q-36 0 -57 21t-21 55q0 42 28 69.5t69 27.5q36 0 57.5 -21z" />
    <glyph glyph-name="Ograve" unicode="&#xd2;" horiz-adv-x="624" 
d="M549 640q62 -70 62 -201q0 -114 -35 -218t-110.5 -171t-191.5 -67q-114 0 -176 69.5t-62 200.5q0 113 35 217.5t110.5 172t191.5 67.5q114 0 176 -70zM264 534.5q-38 -59.5 -54 -143t-16 -158.5q0 -71 22.5 -102.5t67.5 -31.5q62 0 100 59t53.5 142t15.5 160
q0 70 -22.5 102t-67.5 32q-61 0 -99 -59.5zM341 940l182 -122l-42 -69l-204 81z" />
    <glyph glyph-name="uni1ECE" unicode="&#x1ece;" horiz-adv-x="624" 
d="M549 640q62 -70 62 -201q0 -114 -35 -218t-110.5 -171t-191.5 -67q-114 0 -176 69.5t-62 200.5q0 113 35 217.5t110.5 172t191.5 67.5q114 0 176 -70zM264 534.5q-38 -59.5 -54 -143t-16 -158.5q0 -71 22.5 -102.5t67.5 -31.5q62 0 100 59t53.5 142t15.5 160
q0 70 -22.5 102t-67.5 32q-61 0 -99 -59.5zM350 853q35 2 52.5 12t17.5 32q0 26 -31 26q-25 0 -53 -14l-17 66q41 24 96 24q50 0 78 -25.5t28 -67.5q0 -81 -90 -99l-5 -43h-86z" />
    <glyph glyph-name="Ohorn" unicode="&#x1a0;" horiz-adv-x="653" 
d="M676 613.5q-29 -37.5 -84 -48.5q19 -51 19 -126q0 -114 -35 -218t-110.5 -171t-191.5 -67q-114 0 -176 69.5t-62 200.5q0 113 35 217.5t110.5 172t191.5 67.5q119 0 180 -75q28 4 40 23.5t12 54.5q0 29 -4 46l97 13q7 -26 7 -58q0 -63 -29 -100.5zM384 158
q38 59 53.5 142t15.5 160q0 70 -22.5 102t-67.5 32q-61 0 -99 -59.5t-54 -143t-16 -158.5q0 -71 22.5 -102.5t67.5 -31.5q62 0 100 59z" />
    <glyph glyph-name="uni1EDA" unicode="&#x1eda;" horiz-adv-x="653" 
d="M529 831l-224 -83l-34 72l209 122zM676 613.5q-29 -37.5 -84 -48.5q19 -51 19 -126q0 -114 -35 -218t-110.5 -171t-191.5 -67q-114 0 -176 69.5t-62 200.5q0 113 35 217.5t110.5 172t191.5 67.5q119 0 180 -75q28 4 40 23.5t12 54.5q0 29 -4 46l97 13q7 -26 7 -58
q0 -63 -29 -100.5zM384 158q38 59 53.5 142t15.5 160q0 70 -22.5 102t-67.5 32q-61 0 -99 -59.5t-54 -143t-16 -158.5q0 -71 22.5 -102.5t67.5 -31.5q62 0 100 59z" />
    <glyph glyph-name="uni1EE2" unicode="&#x1ee2;" horiz-adv-x="653" 
d="M676 613.5q-29 -37.5 -84 -48.5q19 -51 19 -126q0 -114 -35 -218t-110.5 -171t-191.5 -67q-114 0 -176 69.5t-62 200.5q0 113 35 217.5t110.5 172t191.5 67.5q119 0 180 -75q28 4 40 23.5t12 54.5q0 29 -4 46l97 13q7 -26 7 -58q0 -63 -29 -100.5zM384 158
q38 59 53.5 142t15.5 160q0 70 -22.5 102t-67.5 32q-61 0 -99 -59.5t-54 -143t-16 -158.5q0 -71 22.5 -102.5t67.5 -31.5q62 0 100 59zM319.5 -83q21.5 -21 21.5 -55q0 -42 -28 -69.5t-70 -27.5q-36 0 -57 21t-21 55q0 42 28 69.5t69 27.5q36 0 57.5 -21z" />
    <glyph glyph-name="uni1EDC" unicode="&#x1edc;" horiz-adv-x="653" 
d="M523 818l-42 -69l-204 81l64 110zM676 613.5q-29 -37.5 -84 -48.5q19 -51 19 -126q0 -114 -35 -218t-110.5 -171t-191.5 -67q-114 0 -176 69.5t-62 200.5q0 113 35 217.5t110.5 172t191.5 67.5q119 0 180 -75q28 4 40 23.5t12 54.5q0 29 -4 46l97 13q7 -26 7 -58
q0 -63 -29 -100.5zM384 158q38 59 53.5 142t15.5 160q0 70 -22.5 102t-67.5 32q-61 0 -99 -59.5t-54 -143t-16 -158.5q0 -71 22.5 -102.5t67.5 -31.5q62 0 100 59z" />
    <glyph glyph-name="uni1EDE" unicode="&#x1ede;" horiz-adv-x="653" 
d="M336 909l-17 66q41 24 96 24q50 0 78 -25.5t28 -67.5q0 -81 -90 -99l-5 -43h-86l10 89q35 2 52.5 12t17.5 32q0 26 -31 26q-25 0 -53 -14zM676 613.5q-29 -37.5 -84 -48.5q19 -51 19 -126q0 -114 -35 -218t-110.5 -171t-191.5 -67q-114 0 -176 69.5t-62 200.5
q0 113 35 217.5t110.5 172t191.5 67.5q119 0 180 -75q28 4 40 23.5t12 54.5q0 29 -4 46l97 13q7 -26 7 -58q0 -63 -29 -100.5zM384 158q38 59 53.5 142t15.5 160q0 70 -22.5 102t-67.5 32q-61 0 -99 -59.5t-54 -143t-16 -158.5q0 -71 22.5 -102.5t67.5 -31.5q62 0 100 59z
" />
    <glyph glyph-name="uni1EE0" unicode="&#x1ee0;" horiz-adv-x="653" 
d="M313.5 797.5q-11.5 -10.5 -27.5 -34.5l-67 40q25 50 58.5 81.5t70.5 31.5q20 0 34 -7t31 -20q22 -18 36 -18q13 0 25 10t27 33l68 -38q-26 -51 -59.5 -82t-68.5 -31q-18 0 -31.5 7t-32.5 20q-9 7 -19 12.5t-18 5.5q-15 0 -26.5 -10.5zM676 613.5q-29 -37.5 -84 -48.5
q19 -51 19 -126q0 -114 -35 -218t-110.5 -171t-191.5 -67q-114 0 -176 69.5t-62 200.5q0 113 35 217.5t110.5 172t191.5 67.5q119 0 180 -75q28 4 40 23.5t12 54.5q0 29 -4 46l97 13q7 -26 7 -58q0 -63 -29 -100.5zM384 158q38 59 53.5 142t15.5 160q0 70 -22.5 102
t-67.5 32q-61 0 -99 -59.5t-54 -143t-16 -158.5q0 -71 22.5 -102.5t67.5 -31.5q62 0 100 59z" />
    <glyph glyph-name="Ohungarumlaut" unicode="&#x150;" horiz-adv-x="624" 
d="M549 640q62 -70 62 -201q0 -114 -35 -218t-110.5 -171t-191.5 -67q-114 0 -176 69.5t-62 200.5q0 113 35 217.5t110.5 172t191.5 67.5q114 0 176 -70zM264 534.5q-38 -59.5 -54 -143t-16 -158.5q0 -71 22.5 -102.5t67.5 -31.5q62 0 100 59t53.5 142t15.5 160
q0 70 -22.5 102t-67.5 32q-61 0 -99 -59.5zM365 983l91 -49l-127 -177l-72 32zM522 983l91 -52l-134 -179l-71 37z" />
    <glyph glyph-name="uni01A2" unicode="&#x1a2;" horiz-adv-x="864" 
d="M805 671.5q43 -38.5 43 -107.5q0 -16 -3 -34l-104 -740h-154l105 747q1 6 1 17q0 46 -43 46q-18 0 -33 -5t-33 -15q27 -58 27 -141q0 -114 -35 -218t-110.5 -171t-191.5 -67q-114 0 -176 69.5t-62 200.5q0 113 35 217.5t110.5 172t191.5 67.5q93 0 153 -51q69 51 158 51
q78 0 121 -38.5zM384 158q38 59 53.5 142t15.5 160q0 70 -22.5 102t-67.5 32q-61 0 -99 -59.5t-54 -143t-16 -158.5q0 -71 22.5 -102.5t67.5 -31.5q62 0 100 59z" />
    <glyph glyph-name="uni020E" unicode="&#x20e;" horiz-adv-x="624" 
d="M549 640q62 -70 62 -201q0 -114 -35 -218t-110.5 -171t-191.5 -67q-114 0 -176 69.5t-62 200.5q0 113 35 217.5t110.5 172t191.5 67.5q114 0 176 -70zM264 534.5q-38 -59.5 -54 -143t-16 -158.5q0 -71 22.5 -102.5t67.5 -31.5q62 0 100 59t53.5 142t15.5 160
q0 70 -22.5 102t-67.5 32q-61 0 -99 -59.5zM228 782q17 74 63.5 120t115.5 46q70 0 105 -48t31 -122l-83 -11q-6 76 -63 76q-61 0 -89 -80z" />
    <glyph glyph-name="Omacron" unicode="&#x14c;" horiz-adv-x="624" 
d="M549 640q62 -70 62 -201q0 -114 -35 -218t-110.5 -171t-191.5 -67q-114 0 -176 69.5t-62 200.5q0 113 35 217.5t110.5 172t191.5 67.5q114 0 176 -70zM264 534.5q-38 -59.5 -54 -143t-16 -158.5q0 -71 22.5 -102.5t67.5 -31.5q62 0 100 59t53.5 142t15.5 160
q0 70 -22.5 102t-67.5 32q-61 0 -99 -59.5zM520 782h-274l16 106h274z" />
    <glyph glyph-name="uni1E52" unicode="&#x1e52;" horiz-adv-x="624" 
d="M549 640q62 -70 62 -201q0 -114 -35 -218t-110.5 -171t-191.5 -67q-114 0 -176 69.5t-62 200.5q0 113 35 217.5t110.5 172t191.5 67.5q114 0 176 -70zM264 534.5q-38 -59.5 -54 -143t-16 -158.5q0 -71 22.5 -102.5t67.5 -31.5q62 0 100 59t53.5 142t15.5 160
q0 70 -22.5 102t-67.5 32q-61 0 -99 -59.5zM524 760h-274l16 106h274zM489 1090l49 -111l-224 -83l-34 72z" />
    <glyph glyph-name="uni1E50" unicode="&#x1e50;" horiz-adv-x="624" 
d="M549 640q62 -70 62 -201q0 -114 -35 -218t-110.5 -171t-191.5 -67q-114 0 -176 69.5t-62 200.5q0 113 35 217.5t110.5 172t191.5 67.5q114 0 176 -70zM264 534.5q-38 -59.5 -54 -143t-16 -158.5q0 -71 22.5 -102.5t67.5 -31.5q62 0 100 59t53.5 142t15.5 160
q0 70 -22.5 102t-67.5 32q-61 0 -99 -59.5zM520 760h-274l16 106h274zM354 1088l182 -122l-42 -69l-204 81z" />
    <glyph glyph-name="uniA7B6" unicode="&#xa7b6;" horiz-adv-x="796" 
d="M83.5 35.5q-43.5 51.5 -43.5 161.5q0 120 35.5 249.5t96.5 246.5h143q-55 -129 -88.5 -257.5t-33.5 -241.5q0 -51 11.5 -73t38.5 -22q56 0 67 84l30 216h152l-31 -220q-2 -20 -2 -27q0 -53 43 -53q62 0 89 116.5t27 255.5q0 58 -6 109t-17 113h147q28 -108 28 -224
q0 -213 -60 -349t-197 -136q-61 0 -96 30t-42 91q-24 -62 -66 -91.5t-96 -29.5q-86 0 -129.5 51.5z" />
    <glyph glyph-name="uni01EA" unicode="&#x1ea;" horiz-adv-x="624" 
d="M256 -115q0 -34 41 -34q24 0 54 6l-21 -93q-27 -7 -63 -7q-53 0 -86.5 28.5t-33.5 76.5q0 75 73 125q-89 16 -136.5 84t-47.5 182q0 113 35 217.5t110.5 172t191.5 67.5q114 0 176 -70t62 -201q0 -96 -25 -186.5t-79 -159.5t-136 -95q-115 -49 -115 -113zM264 534.5
q-38 -59.5 -54 -143t-16 -158.5q0 -71 22.5 -102.5t67.5 -31.5q62 0 100 59t53.5 142t15.5 160q0 70 -22.5 102t-67.5 32q-61 0 -99 -59.5z" />
    <glyph glyph-name="uni01EC" unicode="&#x1ec;" horiz-adv-x="624" 
d="M536 888l-16 -106h-274l16 106h274zM256 -115q0 -34 41 -34q24 0 54 6l-21 -93q-27 -7 -63 -7q-53 0 -86.5 28.5t-33.5 76.5q0 75 73 125q-89 16 -136.5 84t-47.5 182q0 113 35 217.5t110.5 172t191.5 67.5q114 0 176 -70t62 -201q0 -96 -25 -186.5t-79 -159.5t-136 -95
q-115 -49 -115 -113zM264 534.5q-38 -59.5 -54 -143t-16 -158.5q0 -71 22.5 -102.5t67.5 -31.5q62 0 100 59t53.5 142t15.5 160q0 70 -22.5 102t-67.5 32q-61 0 -99 -59.5z" />
    <glyph glyph-name="uni0186" unicode="&#x186;" horiz-adv-x="518" 
d="M442.5 640q61.5 -70 61.5 -203q0 -126 -39.5 -229t-115.5 -163.5t-182 -60.5q-116 0 -190 89l80 85q29 -26 54 -39.5t58 -13.5q60 0 99.5 51t58.5 128.5t19 157.5t-24 115.5t-69 35.5q-32 0 -61.5 -12t-61.5 -35l-64 89q47 37 96.5 56t109.5 19q109 0 170.5 -70z" />
    <glyph glyph-name="Oslash" unicode="&#xd8;" horiz-adv-x="624" 
d="M587.5 574.5q23.5 -57.5 23.5 -135.5q0 -114 -35 -218t-110.5 -171t-191.5 -67q-21 0 -41 3l-47 -120l-111 32l52 130q-44 34 -67.5 91t-23.5 134q0 113 35 217.5t110.5 172t191.5 67.5q15 0 39 -2l49 119l110 -32l-52 -129q45 -34 68.5 -91.5zM261 535
q-39 -60 -55.5 -144t-16.5 -161q0 -61 15 -91l178 455q-6 1 -19 1q-63 0 -102 -60zM386 157.5q39 59.5 55 143t16 162.5q0 60 -15 90l-176 -454q6 -1 18 -1q63 0 102 59.5z" />
    <glyph glyph-name="Oslashacute" unicode="&#x1fe;" horiz-adv-x="624" 
d="M587.5 574.5q23.5 -57.5 23.5 -135.5q0 -114 -35 -218t-110.5 -171t-191.5 -67q-21 0 -41 3l-47 -120l-111 32l52 130q-44 34 -67.5 91t-23.5 134q0 113 35 217.5t110.5 172t191.5 67.5q15 0 39 -2l49 119l110 -32l-52 -129q45 -34 68.5 -91.5zM261 535
q-39 -60 -55.5 -144t-16.5 -161q0 -61 15 -91l178 455q-6 1 -19 1q-63 0 -102 -60zM386 157.5q39 59.5 55 143t16 162.5q0 60 -15 90l-176 -454q6 -1 18 -1q63 0 102 59.5zM472 974l49 -111l-224 -83l-34 72z" />
    <glyph glyph-name="Otilde" unicode="&#xd5;" horiz-adv-x="624" 
d="M549 640q62 -70 62 -201q0 -114 -35 -218t-110.5 -171t-191.5 -67q-114 0 -176 69.5t-62 200.5q0 113 35 217.5t110.5 172t191.5 67.5q114 0 176 -70zM264 534.5q-38 -59.5 -54 -143t-16 -158.5q0 -71 22.5 -102.5t67.5 -31.5q62 0 100 59t53.5 142t15.5 160
q0 70 -22.5 102t-67.5 32q-61 0 -99 -59.5zM409.5 770q-13.5 7 -32.5 20q-9 7 -19 12.5t-18 5.5q-15 0 -26.5 -10.5t-27.5 -34.5l-67 40q25 50 58.5 81.5t70.5 31.5q20 0 33.5 -7t31.5 -20q22 -18 36 -18q13 0 25 10t27 33l68 -38q-26 -51 -59.5 -82t-68.5 -31
q-18 0 -31.5 7z" />
    <glyph glyph-name="uni1E4C" unicode="&#x1e4c;" horiz-adv-x="624" 
d="M549 640q62 -70 62 -201q0 -114 -35 -218t-110.5 -171t-191.5 -67q-114 0 -176 69.5t-62 200.5q0 113 35 217.5t110.5 172t191.5 67.5q114 0 176 -70zM264 534.5q-38 -59.5 -54 -143t-16 -158.5q0 -71 22.5 -102.5t67.5 -31.5q62 0 100 59t53.5 142t15.5 160
q0 70 -22.5 102t-67.5 32q-61 0 -99 -59.5zM405.5 763q-13.5 7 -32.5 20q-9 7 -19 12.5t-18 5.5q-15 0 -26.5 -10.5t-27.5 -34.5l-67 40q25 50 58.5 81.5t70.5 31.5q20 0 33.5 -7t31.5 -20q22 -18 36 -18q13 0 25 10t27 33l68 -38q-26 -51 -59.5 -82t-68.5 -31
q-18 0 -31.5 7zM484 1120l49 -111l-224 -83l-34 72z" />
    <glyph glyph-name="uni022C" unicode="&#x22c;" horiz-adv-x="624" 
d="M536 941h-274l16 106h274zM404.5 763q-13.5 7 -32.5 20q-9 7 -19 12.5t-18 5.5q-15 0 -26.5 -10.5t-27.5 -34.5l-67 40q25 50 58.5 81.5t70.5 31.5q20 0 34 -7t31 -20q22 -18 36 -18q13 0 25 10t27 33l68 -38q-26 -51 -59.5 -82t-68.5 -31q-18 0 -31.5 7zM549 640
q62 -70 62 -201q0 -114 -35 -218t-110.5 -171t-191.5 -67q-114 0 -176 69.5t-62 200.5q0 113 35 217.5t110.5 172t191.5 67.5q114 0 176 -70zM264 534.5q-38 -59.5 -54 -143t-16 -158.5q0 -71 22.5 -102.5t67.5 -31.5q62 0 100 59t53.5 142t15.5 160q0 70 -22.5 102
t-67.5 32q-61 0 -99 -59.5z" />
    <glyph glyph-name="OE" unicode="&#x152;" horiz-adv-x="806" 
d="M806 580h-249q32 -61 32 -147v-26h166l-15 -110h-164q-25 -111 -83 -183h265l-18 -114h-391q-42 -17 -90 -17q-105 0 -164 70t-59 200q0 112 34.5 216.5t107 172.5t181.5 68q50 0 89 -17h390zM214.5 130q20.5 -31 59.5 -31q56 0 92 58t51.5 141.5t15.5 165.5
q0 68 -20.5 99t-60.5 31q-56 0 -91.5 -58.5t-51 -142.5t-15.5 -164q0 -68 20.5 -99z" />
    <glyph glyph-name="P" unicode="P" horiz-adv-x="534" 
d="M487 644.5q62 -48.5 62 -142.5q0 -73 -31 -134t-95.5 -98t-160.5 -37h-57l-32 -233h-154l97 693h195q114 0 176 -48.5zM361.5 390.5q29.5 43.5 29.5 107.5q0 44 -23 63.5t-70 19.5h-44l-33 -234h41q70 0 99.5 43.5z" />
    <glyph glyph-name="uni1E54" unicode="&#x1e54;" horiz-adv-x="534" 
d="M487 644.5q62 -48.5 62 -142.5q0 -73 -31 -134t-95.5 -98t-160.5 -37h-57l-32 -233h-154l97 693h195q114 0 176 -48.5zM361.5 390.5q29.5 43.5 29.5 107.5q0 44 -23 63.5t-70 19.5h-44l-33 -234h41q70 0 99.5 43.5zM435 942l49 -111l-224 -83l-34 72z" />
    <glyph glyph-name="uni1E56" unicode="&#x1e56;" horiz-adv-x="534" 
d="M487 644.5q62 -48.5 62 -142.5q0 -73 -31 -134t-95.5 -98t-160.5 -37h-57l-32 -233h-154l97 693h195q114 0 176 -48.5zM361.5 390.5q29.5 43.5 29.5 107.5q0 44 -23 63.5t-70 19.5h-44l-33 -234h41q70 0 99.5 43.5zM285.5 781q-21.5 21 -21.5 55q0 42 28 69.5t70 27.5
q36 0 57 -21t21 -55q0 -42 -28 -69.5t-69 -27.5q-36 0 -57.5 21z" />
    <glyph glyph-name="uni01A4" unicode="&#x1a4;" horiz-adv-x="667" 
d="M620 644.5q62 -48.5 62 -142.5q0 -73 -31 -134t-95.5 -98t-160.5 -37h-57l-32 -233h-154l81 580h-24q-23 0 -35.5 -15t-12.5 -43q0 -18 8 -54l-103 -39q-11 26 -17 48.5t-6 49.5q0 76 48.5 121t129.5 45h223q114 0 176 -48.5zM494.5 390.5q29.5 43.5 29.5 107.5
q0 44 -23 63.5t-70 19.5h-44l-33 -234h41q70 0 99.5 43.5z" />
    <glyph glyph-name="Thorn" unicode="&#xde;" horiz-adv-x="536" 
d="M474 534q61 -49 61 -147q0 -73 -30 -134t-94.5 -99t-163.5 -38h-58l-16 -116h-154l97 693h154l-15 -110h42q116 0 177 -49zM348 273.5q29 44.5 29 111.5q0 46 -22.5 66t-69.5 20h-46l-34 -242h43q71 0 100 44.5z" />
    <glyph glyph-name="Q" unicode="Q" horiz-adv-x="623" 
d="M564.5 199.5q-46.5 -109.5 -144.5 -157.5q59 -2 100 -19t76 -49l-110 -117q-38 61 -87 94.5t-125 33.5q-115 0 -176.5 68.5t-61.5 199.5q0 113 35 217.5t110.5 172t191.5 67.5q114 0 176 -70t62 -201q0 -130 -46.5 -239.5zM216.5 130q22.5 -31 67.5 -31q62 0 100 59
t53.5 142.5t15.5 162.5q0 68 -22.5 99.5t-67.5 31.5q-61 0 -99 -60t-54 -143.5t-16 -160.5q0 -69 22.5 -100z" />
    <glyph glyph-name="uni024A" unicode="&#x24a;" horiz-adv-x="614" 
d="M650 -180q-57 -41 -133 -41t-118.5 38t-42.5 111q0 10 2 34l5 38l5 35q-54 -51 -127 -51q-96 0 -151 69t-54 191q-1 123 36.5 230t106 171.5t157.5 64.5q43 0 73.5 -17t54.5 -49l15 49h134l-96 -693l-7 -52l-1 -12q0 -42 38 -42q18 0 31 4t34 14zM384 148l55 399
q-17 23 -36.5 35t-45.5 12q-52 0 -89 -52t-55.5 -133t-18.5 -169q0 -144 89 -144q55 0 101 52z" />
    <glyph glyph-name="R" unicode="R" horiz-adv-x="553" 
d="M408 296l112 -296h-163l-91 267h-56l-37 -267h-154l97 693h196q119 0 178.5 -47t59.5 -134q0 -150 -142 -216zM225 376h51q61 0 88.5 38t27.5 92q0 40 -22 58t-68 18h-48z" />
    <glyph glyph-name="Racute" unicode="&#x154;" horiz-adv-x="553" 
d="M408 296l112 -296h-163l-91 267h-56l-37 -267h-154l97 693h196q119 0 178.5 -47t59.5 -134q0 -150 -142 -216zM225 376h51q61 0 88.5 38t27.5 92q0 40 -22 58t-68 18h-48zM436 942l49 -111l-224 -83l-34 72z" />
    <glyph glyph-name="Rcaron" unicode="&#x158;" horiz-adv-x="553" 
d="M408 296l112 -296h-163l-91 267h-56l-37 -267h-154l97 693h196q119 0 178.5 -47t59.5 -134q0 -150 -142 -216zM225 376h51q61 0 88.5 38t27.5 92q0 40 -22 58t-68 18h-48zM476 939l51 -61l-145 -128h-90l-112 132l60 57l107 -84z" />
    <glyph glyph-name="Rcommaaccent" unicode="&#x156;" horiz-adv-x="553" 
d="M408 296l112 -296h-163l-91 267h-56l-37 -267h-154l97 693h196q119 0 178.5 -47t59.5 -134q0 -150 -142 -216zM225 376h51q61 0 88.5 38t27.5 92q0 40 -22 58t-68 18h-48zM295 -88q19 -19 19 -47q0 -22 -8 -40.5t-29 -55.5l-55 -91h-73l43 118q-26 18 -26 51
q0 37 22.5 60.5t56.5 23.5q31 0 50 -19z" />
    <glyph glyph-name="uni0210" unicode="&#x210;" horiz-adv-x="553" 
d="M408 296l112 -296h-163l-91 267h-56l-37 -267h-154l97 693h196q119 0 178.5 -47t59.5 -134q0 -150 -142 -216zM225 376h51q61 0 88.5 38t27.5 92q0 40 -22 58t-68 18h-48zM250 983l62 -196l-83 -35l-88 183zM408 983l54 -196l-82 -30l-81 181z" />
    <glyph glyph-name="uni1E5A" unicode="&#x1e5a;" horiz-adv-x="553" 
d="M408 296l112 -296h-163l-91 267h-56l-37 -267h-154l97 693h196q119 0 178.5 -47t59.5 -134q0 -150 -142 -216zM225 376h51q61 0 88.5 38t27.5 92q0 40 -22 58t-68 18h-48zM298.5 -83q21.5 -21 21.5 -55q0 -42 -28 -69.5t-70 -27.5q-36 0 -57 21t-21 55q0 42 28 69.5
t69 27.5q36 0 57.5 -21z" />
    <glyph glyph-name="uni0212" unicode="&#x212;" horiz-adv-x="553" 
d="M408 296l112 -296h-163l-91 267h-56l-37 -267h-154l97 693h196q119 0 178.5 -47t59.5 -134q0 -150 -142 -216zM225 376h51q61 0 88.5 38t27.5 92q0 40 -22 58t-68 18h-48zM184 782q17 74 63.5 120t115.5 46q70 0 105 -48t31 -122l-83 -11q-6 76 -63 76q-61 0 -89 -80z
" />
    <glyph glyph-name="uni024C" unicode="&#x24c;" horiz-adv-x="563" 
d="M418 296l112 -296h-163l-91 267h-56l-37 -267h-154l38 268h-56l15 108h56l44 317h196q119 0 178.5 -47t59.5 -134q0 -150 -142 -216zM264 582l-29 -206h51q61 0 88.5 38t27.5 92q0 40 -22 58t-68 18h-48z" />
    <glyph glyph-name="uni2C64" unicode="&#x2c64;" horiz-adv-x="553" 
d="M408 296l112 -296h-163l-91 267h-56l-37 -267l-7 -52l-1 -12q0 -42 38 -42q18 0 31 4t34 14l38 -92q-57 -41 -133 -41t-118.5 38t-42.5 111q0 10 2 34l5 38l97 693h196q119 0 178.5 -47t59.5 -134q0 -150 -142 -216zM225 376h51q61 0 88.5 38t27.5 92q0 40 -22 58t-68 18
h-48z" />
    <glyph glyph-name="S" unicode="S" horiz-adv-x="511" 
d="M527 620l-80 -81q-29 28 -59 41.5t-66 13.5q-45 0 -71.5 -23t-26.5 -59q0 -30 22 -49.5t85 -45.5q77 -31 114.5 -74.5t37.5 -116.5q0 -66 -32 -121t-94 -88.5t-149 -33.5q-143 0 -229 100l87 84q31 -33 65.5 -49.5t78.5 -16.5q52 0 83 27t31 74q0 36 -22.5 58t-82.5 48
q-82 34 -117.5 75.5t-35.5 107.5q0 59 30.5 109t87.5 80t133 30q131 0 210 -90z" />
    <glyph glyph-name="Sacute" unicode="&#x15a;" horiz-adv-x="511" 
d="M527 620l-80 -81q-29 28 -59 41.5t-66 13.5q-45 0 -71.5 -23t-26.5 -59q0 -30 22 -49.5t85 -45.5q77 -31 114.5 -74.5t37.5 -116.5q0 -66 -32 -121t-94 -88.5t-149 -33.5q-143 0 -229 100l87 84q31 -33 65.5 -49.5t78.5 -16.5q52 0 83 27t31 74q0 36 -22.5 58t-82.5 48
q-82 34 -117.5 75.5t-35.5 107.5q0 59 30.5 109t87.5 80t133 30q131 0 210 -90zM429 942l49 -111l-224 -83l-34 72z" />
    <glyph glyph-name="uniA78B" unicode="&#xa78b;" horiz-adv-x="228" 
d="M71 336l32 357h141l-70 -357h-103z" />
    <glyph glyph-name="Scaron" unicode="&#x160;" horiz-adv-x="511" 
d="M527 620l-80 -81q-29 28 -59 41.5t-66 13.5q-45 0 -71.5 -23t-26.5 -59q0 -30 22 -49.5t85 -45.5q77 -31 114.5 -74.5t37.5 -116.5q0 -66 -32 -121t-94 -88.5t-149 -33.5q-143 0 -229 100l87 84q31 -33 65.5 -49.5t78.5 -16.5q52 0 83 27t31 74q0 36 -22.5 58t-82.5 48
q-82 34 -117.5 75.5t-35.5 107.5q0 59 30.5 109t87.5 80t133 30q131 0 210 -90zM469 939l51 -61l-145 -128h-90l-112 132l60 57l107 -84z" />
    <glyph glyph-name="Scedilla" unicode="&#x15e;" horiz-adv-x="511" 
d="M445.5 342.5q37.5 -43.5 37.5 -116.5q0 -59 -26 -110t-76.5 -85.5t-121.5 -44.5l-6 -37q40 -5 61 -27.5t21 -58.5q0 -29 -15 -57.5t-48.5 -47t-85.5 -18.5q-60 0 -100 32l42 66q14 -8 26.5 -11.5t28.5 -3.5q20 0 32.5 9t13.5 26q0 17 -17.5 24t-60.5 7l23 95
q-120 12 -195 99l87 84q31 -33 65.5 -49.5t78.5 -16.5q52 0 83 27t31 74q0 36 -22.5 58t-82.5 48q-82 34 -117.5 75.5t-35.5 107.5q0 59 30.5 109t87.5 80t133 30q131 0 210 -90l-80 -81q-29 28 -59 41.5t-66 13.5q-45 0 -71.5 -23t-26.5 -59q0 -30 22 -49.5t85 -45.5
q77 -31 114.5 -74.5z" />
    <glyph glyph-name="Scircumflex" unicode="&#x15c;" horiz-adv-x="511" 
d="M527 620l-80 -81q-29 28 -59 41.5t-66 13.5q-45 0 -71.5 -23t-26.5 -59q0 -30 22 -49.5t85 -45.5q77 -31 114.5 -74.5t37.5 -116.5q0 -66 -32 -121t-94 -88.5t-149 -33.5q-143 0 -229 100l87 84q31 -33 65.5 -49.5t78.5 -16.5q52 0 83 27t31 74q0 36 -22.5 58t-82.5 48
q-82 34 -117.5 75.5t-35.5 107.5q0 59 30.5 109t87.5 80t133 30q131 0 210 -90zM211 756l-51 61l145 128h90l111 -132l-58 -57l-108 85z" />
    <glyph glyph-name="Scommaaccent" unicode="&#x218;" horiz-adv-x="511" 
d="M527 620l-80 -81q-29 28 -59 41.5t-66 13.5q-45 0 -71.5 -23t-26.5 -59q0 -30 22 -49.5t85 -45.5q77 -31 114.5 -74.5t37.5 -116.5q0 -66 -32 -121t-94 -88.5t-149 -33.5q-143 0 -229 100l87 84q31 -33 65.5 -49.5t78.5 -16.5q52 0 83 27t31 74q0 36 -22.5 58t-82.5 48
q-82 34 -117.5 75.5t-35.5 107.5q0 59 30.5 109t87.5 80t133 30q131 0 210 -90zM258 -88q19 -19 19 -47q0 -22 -8 -40.5t-29 -55.5l-55 -91h-73l43 118q-26 18 -26 51q0 37 22.5 60.5t56.5 23.5q31 0 50 -19z" />
    <glyph glyph-name="uni1E60" unicode="&#x1e60;" horiz-adv-x="511" 
d="M527 620l-80 -81q-29 28 -59 41.5t-66 13.5q-45 0 -71.5 -23t-26.5 -59q0 -30 22 -49.5t85 -45.5q77 -31 114.5 -74.5t37.5 -116.5q0 -66 -32 -121t-94 -88.5t-149 -33.5q-143 0 -229 100l87 84q31 -33 65.5 -49.5t78.5 -16.5q52 0 83 27t31 74q0 36 -22.5 58t-82.5 48
q-82 34 -117.5 75.5t-35.5 107.5q0 59 30.5 109t87.5 80t133 30q131 0 210 -90zM279.5 781q-21.5 21 -21.5 55q0 42 28 69.5t70 27.5q36 0 57 -21t21 -55q0 -42 -28 -69.5t-69 -27.5q-36 0 -57.5 21z" />
    <glyph glyph-name="uni1E62" unicode="&#x1e62;" horiz-adv-x="511" 
d="M527 620l-80 -81q-29 28 -59 41.5t-66 13.5q-45 0 -71.5 -23t-26.5 -59q0 -30 22 -49.5t85 -45.5q77 -31 114.5 -74.5t37.5 -116.5q0 -66 -32 -121t-94 -88.5t-149 -33.5q-143 0 -229 100l87 84q31 -33 65.5 -49.5t78.5 -16.5q52 0 83 27t31 74q0 36 -22.5 58t-82.5 48
q-82 34 -117.5 75.5t-35.5 107.5q0 59 30.5 109t87.5 80t133 30q131 0 210 -90zM261.5 -83q21.5 -21 21.5 -55q0 -42 -28 -69.5t-70 -27.5q-36 0 -57 21t-21 55q0 42 28 69.5t69 27.5q36 0 57.5 -21z" />
    <glyph glyph-name="uni1E9E" unicode="&#x1e9e;" horiz-adv-x="599" 
d="M592 633l-10 -71l-158 -176q66 -12 106 -51t40 -109q0 -73 -31.5 -128t-87.5 -84.5t-127 -29.5t-115 27l58 100q20 -9 49 -9q43 0 68 32.5t25 85.5q0 46 -29.5 69t-95.5 27l11 84l153 174q-57 20 -113 20q-40 0 -62.5 -23t-29.5 -72l-70 -499h-154l69 495
q15 104 77.5 159t171.5 55q124 0 255 -76z" />
    <glyph glyph-name="uni018F" unicode="&#x18f;" horiz-adv-x="577" 
d="M504 645.5q60 -64.5 60 -188.5q0 -132 -36 -239.5t-108.5 -170.5t-177.5 -63q-107 0 -163 65.5t-56 182.5q0 90 24 172l361 -1q4 32 4 63q0 68 -24.5 98t-72.5 30q-41 0 -75.5 -15.5t-69.5 -42.5l-60 87q53 44 108 65.5t120 21.5q106 0 166 -64.5zM336.5 142.5
q35.5 44.5 55.5 150.5l-221 -1q-6 -50 -6 -73q0 -63 21 -92t62 -29q53 0 88.5 44.5z" />
    <glyph glyph-name="T" unicode="T" horiz-adv-x="482" 
d="M543 693l-33 -121h-149l-80 -572h-154l80 572h-158l17 121h477z" />
    <glyph glyph-name="Tbar" unicode="&#x166;" horiz-adv-x="482" 
d="M510 572h-149l-25 -182h100l-13 -90h-100l-42 -300h-154l42 300h-101l13 90h101l25 182h-158l17 121h477z" />
    <glyph glyph-name="Tcaron" unicode="&#x164;" horiz-adv-x="482" 
d="M543 693l-33 -121h-149l-80 -572h-154l80 572h-158l17 121h477zM448 939l51 -61l-145 -128h-90l-112 132l60 57l107 -84z" />
    <glyph glyph-name="uni0162" unicode="&#x162;" horiz-adv-x="482" 
d="M543 693l-33 -121h-149l-80 -572l-7 -49q40 -5 60.5 -27.5t20.5 -58.5q0 -30 -15 -58.5t-48.5 -47.5t-86.5 -19q-31 0 -56.5 9t-42.5 23l43 68q25 -17 52 -17q21 0 34.5 9.5t13.5 26.5q0 16 -17.5 23t-59.5 7l26 111h-71l80 572h-158l17 121h477z" />
    <glyph glyph-name="uni1E70" unicode="&#x1e70;" horiz-adv-x="482" 
d="M543 693l-33 -121h-149l-80 -572h-154l80 572h-158l17 121h477zM52 -259l-50 61l146 134h90l111 -138l-62 -57l-105 91z" />
    <glyph glyph-name="uni021A" unicode="&#x21a;" horiz-adv-x="482" 
d="M543 693l-33 -121h-149l-80 -572h-154l80 572h-158l17 121h477zM246 -88q19 -19 19 -47q0 -22 -8 -40.5t-29 -55.5l-55 -91h-73l43 118q-26 18 -26 51q0 37 22.5 60.5t56.5 23.5q31 0 50 -19z" />
    <glyph glyph-name="uni023E" unicode="&#x23e;" horiz-adv-x="483" 
d="M511 577h-74l-115 -218l-50 -359h-134l2 13l-46 -87l-42 21l107 202l59 428h-168l17 116h378l33 62l42 -21l-22 -41h46zM342 496l42 81h-31z" />
    <glyph glyph-name="uni1E6A" unicode="&#x1e6a;" horiz-adv-x="482" 
d="M543 693l-33 -121h-149l-80 -572h-154l80 572h-158l17 121h477zM258.5 781q-21.5 21 -21.5 55q0 42 28 69.5t70 27.5q36 0 57 -21t21 -55q0 -42 -28 -69.5t-69 -27.5q-36 0 -57.5 21z" />
    <glyph glyph-name="uni1E6C" unicode="&#x1e6c;" horiz-adv-x="482" 
d="M543 693l-33 -121h-149l-80 -572h-154l80 572h-158l17 121h477zM249.5 -83q21.5 -21 21.5 -55q0 -42 -28 -69.5t-70 -27.5q-36 0 -57 21t-21 55q0 42 28 69.5t69 27.5q36 0 57.5 -21z" />
    <glyph glyph-name="uni01AC" unicode="&#x1ac;" horiz-adv-x="535" 
d="M562 572h-148l-81 -572h-154l81 572h-52q-47 0 -47 -51q0 -17 8 -53l-103 -39q-11 26 -17 48.5t-6 49.5q0 76 48 121t127 45h377z" />
    <glyph glyph-name="uni1E6E" unicode="&#x1e6e;" horiz-adv-x="482" 
d="M543 693l-33 -121h-149l-80 -572h-154l80 572h-158l17 121h477zM63 -83h274l-16 -106h-274z" />
    <glyph glyph-name="uni01BC" unicode="&#x1bc;" horiz-adv-x="487" 
d="M-15 85l91 72q43 -60 108 -60q64 0 93.5 52.5t29.5 119.5q0 79 -65 79q-20 0 -39 -6t-43 -19l-101 1l52 369h378l-32 -109h-222l-22 -157q47 25 98 25q67 0 107 -45.5t40 -129.5q0 -77 -30.5 -144t-93.5 -108.5t-156 -41.5q-124 0 -193 102z" />
    <glyph glyph-name="uni0184" unicode="&#x184;" horiz-adv-x="547" 
d="M473 405q60 -49 60 -143q0 -68 -28.5 -127.5t-91 -97t-159.5 -37.5h-220l69 495l-61 50q65 60 115 148h128l-34 -239h55q107 0 167 -49zM344.5 155q27.5 41 27.5 100q0 46 -21 68t-65 22h-50l-33 -231h51q63 0 90.5 41z" />
    <glyph glyph-name="uni01A7" unicode="&#x1a7;" horiz-adv-x="499" 
d="M469 664.5q53 -44.5 53 -121.5q0 -93 -55 -146t-170 -93q-72 -23 -100.5 -54t-28.5 -79q0 -33 19.5 -51t56.5 -18q76 0 158 65l66 -87q-103 -96 -248 -96q-98 0 -154.5 50t-56.5 131q0 98 54 156.5t161 94.5q55 18 84.5 33.5t42.5 35.5t13 51q0 29 -17 43.5t-48 14.5
q-39 0 -74 -14t-72 -43l-59 85q52 44 109 65.5t125 21.5q88 0 141 -44.5z" />
    <glyph glyph-name="uni01AE" unicode="&#x1ae;" horiz-adv-x="482" 
d="M274 -52l-1 -12q0 -42 38 -42q18 0 31 4t34 14l38 -92q-57 -41 -133 -41t-118.5 38t-42.5 111q0 10 2 34l5 38l80 572h-158l17 121h477l-33 -121h-149l-80 -572z" />
    <glyph glyph-name="U" unicode="U" horiz-adv-x="579" 
d="M525 210q-9 -65 -43.5 -116t-92.5 -80.5t-135 -29.5q-107 0 -162.5 52.5t-55.5 138.5q0 19 3 40l67 478h154l-68 -487q-2 -20 -2 -28q0 -77 74 -77q90 0 107 109l67 483h155z" />
    <glyph glyph-name="Uacute" unicode="&#xda;" horiz-adv-x="579" 
d="M525 210q-9 -65 -43.5 -116t-92.5 -80.5t-135 -29.5q-107 0 -162.5 52.5t-55.5 138.5q0 19 3 40l67 478h154l-68 -487q-2 -20 -2 -28q0 -77 74 -77q90 0 107 109l67 483h155zM456 942l49 -111l-224 -83l-34 72z" />
    <glyph glyph-name="uni0244" unicode="&#x244;" horiz-adv-x="611" 
d="M630 501h-49l-41 -291q-9 -65 -43.5 -116t-92.5 -80.5t-135 -29.5q-107 0 -162.5 52.5t-55.5 138.5q0 19 3 40l40 286h-48l13 89h48l14 103h154l-14 -103h178l14 103h155l-15 -103h50zM426 501h-178l-41 -295q-2 -20 -2 -28q0 -77 74 -77q90 0 107 109z" />
    <glyph glyph-name="Ubreve" unicode="&#x16c;" horiz-adv-x="579" 
d="M525 210q-9 -65 -43.5 -116t-92.5 -80.5t-135 -29.5q-107 0 -162.5 52.5t-55.5 138.5q0 19 3 40l67 478h154l-68 -487q-2 -20 -2 -28q0 -77 74 -77q90 0 107 109l67 483h155zM253 797.5q-35 46.5 -30 113.5l79 12q3 -30 18.5 -48t44.5 -18q30 0 52 19t34 50l81 -19
q-14 -68 -59.5 -112t-114.5 -44q-70 0 -105 46.5z" />
    <glyph glyph-name="uni01D3" unicode="&#x1d3;" horiz-adv-x="579" 
d="M525 210q-9 -65 -43.5 -116t-92.5 -80.5t-135 -29.5q-107 0 -162.5 52.5t-55.5 138.5q0 19 3 40l67 478h154l-68 -487q-2 -20 -2 -28q0 -77 74 -77q90 0 107 109l67 483h155zM496 939l51 -61l-145 -128h-90l-112 132l60 57l107 -84z" />
    <glyph glyph-name="Ucircumflex" unicode="&#xdb;" horiz-adv-x="579" 
d="M525 210q-9 -65 -43.5 -116t-92.5 -80.5t-135 -29.5q-107 0 -162.5 52.5t-55.5 138.5q0 19 3 40l67 478h154l-68 -487q-2 -20 -2 -28q0 -77 74 -77q90 0 107 109l67 483h155zM238 756l-51 61l145 128h90l111 -132l-58 -57l-108 85z" />
    <glyph glyph-name="uni0214" unicode="&#x214;" horiz-adv-x="579" 
d="M525 210q-9 -65 -43.5 -116t-92.5 -80.5t-135 -29.5q-107 0 -162.5 52.5t-55.5 138.5q0 19 3 40l67 478h154l-68 -487q-2 -20 -2 -28q0 -77 74 -77q90 0 107 109l67 483h155zM270 983l62 -196l-83 -35l-88 183zM428 983l54 -196l-82 -30l-81 181z" />
    <glyph glyph-name="Udieresis" unicode="&#xdc;" horiz-adv-x="579" 
d="M525 210q-9 -65 -43.5 -116t-92.5 -80.5t-135 -29.5q-107 0 -162.5 52.5t-55.5 138.5q0 19 3 40l67 478h154l-68 -487q-2 -20 -2 -28q0 -77 74 -77q90 0 107 109l67 483h155zM204.5 787.5q-18.5 18.5 -18.5 47.5q0 37 24.5 61.5t60.5 24.5q32 0 50.5 -18.5t18.5 -47.5
q0 -37 -24.5 -61.5t-60.5 -24.5q-32 0 -50.5 18.5zM415 787.5q-19 18.5 -19 47.5q0 37 24.5 61.5t60.5 24.5q31 0 50 -18.5t19 -47.5q0 -37 -24.5 -61.5t-60.5 -24.5q-31 0 -50 18.5z" />
    <glyph glyph-name="uni01D7" unicode="&#x1d7;" horiz-adv-x="579" 
d="M525 210q-9 -65 -43.5 -116t-92.5 -80.5t-135 -29.5q-107 0 -162.5 52.5t-55.5 138.5q0 19 3 40l67 478h154l-68 -487q-2 -20 -2 -28q0 -77 74 -77q90 0 107 109l67 483h155zM464 1088l73 -78l-164 -142l-52 49zM197.5 767q-18.5 18 -18.5 48q0 37 25 61.5t61 24.5
q31 0 49.5 -18.5t18.5 -48.5q0 -36 -25 -60.5t-61 -24.5q-31 0 -49.5 18zM418.5 767q-18.5 18 -18.5 48q0 37 25 61.5t60 24.5q31 0 49.5 -18.5t18.5 -48.5q0 -36 -24.5 -60.5t-60.5 -24.5q-31 0 -49.5 18z" />
    <glyph glyph-name="uni01D9" unicode="&#x1d9;" horiz-adv-x="579" 
d="M525 210q-9 -65 -43.5 -116t-92.5 -80.5t-135 -29.5q-107 0 -162.5 52.5t-55.5 138.5q0 19 3 40l67 478h154l-68 -487q-2 -20 -2 -28q0 -77 74 -77q90 0 107 109l67 483h155zM512 1089l51 -61l-145 -128h-90l-112 132l60 57l107 -84zM197 767.5q-19 18.5 -19 47.5
q0 36 25 61t61 25q31 0 49.5 -18.5t18.5 -48.5q0 -36 -24.5 -60.5t-60.5 -24.5q-31 0 -50 18.5zM417.5 767q-18.5 18 -18.5 48q0 37 25 61.5t61 24.5q31 0 49.5 -18.5t18.5 -48.5q0 -36 -25 -60.5t-61 -24.5q-31 0 -49.5 18z" />
    <glyph glyph-name="uni01DB" unicode="&#x1db;" horiz-adv-x="579" 
d="M525 210q-9 -65 -43.5 -116t-92.5 -80.5t-135 -29.5q-107 0 -162.5 52.5t-55.5 138.5q0 19 3 40l67 478h154l-68 -487q-2 -20 -2 -28q0 -77 74 -77q90 0 107 109l67 483h155zM332 1085l96 -173l-61 -44l-125 148zM195.5 767q-18.5 18 -18.5 48q0 37 25 61.5t61 24.5
q31 0 49.5 -18.5t18.5 -48.5q0 -36 -25 -60.5t-61 -24.5q-31 0 -49.5 18zM416.5 767q-18.5 18 -18.5 48q0 37 25 61.5t60 24.5q31 0 49.5 -18.5t18.5 -48.5q0 -36 -24.5 -60.5t-60.5 -24.5q-31 0 -49.5 18z" />
    <glyph glyph-name="uni01D5" unicode="&#x1d5;" horiz-adv-x="579" 
d="M525 210q-9 -65 -43.5 -116t-92.5 -80.5t-135 -29.5q-107 0 -162.5 52.5t-55.5 138.5q0 19 3 40l67 478h154l-68 -487q-2 -20 -2 -28q0 -77 74 -77q90 0 107 109l67 483h155zM199.5 764.5q-18.5 18.5 -18.5 47.5q0 37 24.5 61.5t60.5 24.5q32 0 50.5 -18.5t18.5 -47.5
q0 -37 -24.5 -61.5t-60.5 -24.5q-32 0 -50.5 18.5zM410 764.5q-19 18.5 -19 47.5q0 37 24.5 61.5t60.5 24.5q31 0 50 -18.5t19 -47.5q0 -37 -24.5 -61.5t-60.5 -24.5q-31 0 -50 18.5zM512 938h-274l16 106h274z" />
    <glyph glyph-name="uni1EE4" unicode="&#x1ee4;" horiz-adv-x="579" 
d="M525 210q-9 -65 -43.5 -116t-92.5 -80.5t-135 -29.5q-107 0 -162.5 52.5t-55.5 138.5q0 19 3 40l67 478h154l-68 -487q-2 -20 -2 -28q0 -77 74 -77q90 0 107 109l67 483h155zM297.5 -83q21.5 -21 21.5 -55q0 -42 -28 -69.5t-70 -27.5q-36 0 -57 21t-21 55q0 42 28 69.5
t69 27.5q36 0 57.5 -21z" />
    <glyph glyph-name="Ugrave" unicode="&#xd9;" horiz-adv-x="579" 
d="M525 210q-9 -65 -43.5 -116t-92.5 -80.5t-135 -29.5q-107 0 -162.5 52.5t-55.5 138.5q0 19 3 40l67 478h154l-68 -487q-2 -20 -2 -28q0 -77 74 -77q90 0 107 109l67 483h155zM317 940l182 -122l-42 -69l-204 81z" />
    <glyph glyph-name="uni1EE6" unicode="&#x1ee6;" horiz-adv-x="579" 
d="M525 210q-9 -65 -43.5 -116t-92.5 -80.5t-135 -29.5q-107 0 -162.5 52.5t-55.5 138.5q0 19 3 40l67 478h154l-68 -487q-2 -20 -2 -28q0 -77 74 -77q90 0 107 109l67 483h155zM326 853q35 2 52.5 12t17.5 32q0 26 -31 26q-25 0 -53 -14l-17 66q41 24 96 24q50 0 78 -25.5
t28 -67.5q0 -81 -90 -99l-5 -43h-86z" />
    <glyph glyph-name="Uhorn" unicode="&#x1af;" horiz-adv-x="651" 
d="M686.5 602q-39.5 -39 -112.5 -41l-49 -351q-9 -65 -43.5 -116t-92.5 -80.5t-135 -29.5q-107 0 -162.5 52.5t-55.5 138.5q0 19 3 40l67 478h154l-68 -487q-2 -20 -2 -28q0 -77 74 -77q90 0 107 109l67 483h155l-8 -55q22 6 31.5 24.5t9.5 50.5q0 29 -4 46l97 13
q7 -26 7 -58q0 -73 -39.5 -112z" />
    <glyph glyph-name="uni1EE8" unicode="&#x1ee8;" horiz-adv-x="651" 
d="M505 831l-224 -83l-34 72l209 122zM686.5 602q-39.5 -39 -112.5 -41l-49 -351q-9 -65 -43.5 -116t-92.5 -80.5t-135 -29.5q-107 0 -162.5 52.5t-55.5 138.5q0 19 3 40l67 478h154l-68 -487q-2 -20 -2 -28q0 -77 74 -77q90 0 107 109l67 483h155l-8 -55q22 6 31.5 24.5
t9.5 50.5q0 29 -4 46l97 13q7 -26 7 -58q0 -73 -39.5 -112z" />
    <glyph glyph-name="uni1EF0" unicode="&#x1ef0;" horiz-adv-x="651" 
d="M686.5 602q-39.5 -39 -112.5 -41l-49 -351q-9 -65 -43.5 -116t-92.5 -80.5t-135 -29.5q-107 0 -162.5 52.5t-55.5 138.5q0 19 3 40l67 478h154l-68 -487q-2 -20 -2 -28q0 -77 74 -77q90 0 107 109l67 483h155l-8 -55q22 6 31.5 24.5t9.5 50.5q0 29 -4 46l97 13
q7 -26 7 -58q0 -73 -39.5 -112zM297.5 -83q21.5 -21 21.5 -55q0 -42 -28 -69.5t-70 -27.5q-36 0 -57 21t-21 55q0 42 28 69.5t69 27.5q36 0 57.5 -21z" />
    <glyph glyph-name="uni1EEA" unicode="&#x1eea;" horiz-adv-x="651" 
d="M499 818l-42 -69l-204 81l64 110zM686.5 602q-39.5 -39 -112.5 -41l-49 -351q-9 -65 -43.5 -116t-92.5 -80.5t-135 -29.5q-107 0 -162.5 52.5t-55.5 138.5q0 19 3 40l67 478h154l-68 -487q-2 -20 -2 -28q0 -77 74 -77q90 0 107 109l67 483h155l-8 -55q22 6 31.5 24.5
t9.5 50.5q0 29 -4 46l97 13q7 -26 7 -58q0 -73 -39.5 -112z" />
    <glyph glyph-name="uni1EEC" unicode="&#x1eec;" horiz-adv-x="651" 
d="M312 909l-17 66q40 24 96 24q50 0 78 -25.5t28 -67.5q0 -81 -90 -99l-5 -43h-86l10 89q35 2 52.5 12t17.5 32q0 26 -31 26q-25 0 -53 -14zM686.5 602q-39.5 -39 -112.5 -41l-49 -351q-9 -65 -43.5 -116t-92.5 -80.5t-135 -29.5q-107 0 -162.5 52.5t-55.5 138.5q0 19 3 40
l67 478h154l-68 -487q-2 -20 -2 -28q0 -77 74 -77q90 0 107 109l67 483h155l-8 -55q22 6 31.5 24.5t9.5 50.5q0 29 -4 46l97 13q7 -26 7 -58q0 -73 -39.5 -112z" />
    <glyph glyph-name="uni1EEE" unicode="&#x1eee;" horiz-adv-x="651" 
d="M289.5 797.5q-11.5 -10.5 -27.5 -34.5l-67 40q25 50 58.5 81.5t70.5 31.5q20 0 34 -7t31 -20q22 -18 36 -18q13 0 25 10t27 33l68 -38q-26 -51 -59.5 -82t-68.5 -31q-18 0 -31.5 7t-32.5 20q-9 7 -19 12.5t-18 5.5q-15 0 -26.5 -10.5zM686.5 602q-39.5 -39 -112.5 -41
l-49 -351q-9 -65 -43.5 -116t-92.5 -80.5t-135 -29.5q-107 0 -162.5 52.5t-55.5 138.5q0 19 3 40l67 478h154l-68 -487q-2 -20 -2 -28q0 -77 74 -77q90 0 107 109l67 483h155l-8 -55q22 6 31.5 24.5t9.5 50.5q0 29 -4 46l97 13q7 -26 7 -58q0 -73 -39.5 -112z" />
    <glyph glyph-name="Uhungarumlaut" unicode="&#x170;" horiz-adv-x="579" 
d="M525 210q-9 -65 -43.5 -116t-92.5 -80.5t-135 -29.5q-107 0 -162.5 52.5t-55.5 138.5q0 19 3 40l67 478h154l-68 -487q-2 -20 -2 -28q0 -77 74 -77q90 0 107 109l67 483h155zM341 983l91 -49l-127 -177l-72 32zM498 983l91 -52l-134 -179l-71 37z" />
    <glyph glyph-name="uni0216" unicode="&#x216;" horiz-adv-x="579" 
d="M525 210q-9 -65 -43.5 -116t-92.5 -80.5t-135 -29.5q-107 0 -162.5 52.5t-55.5 138.5q0 19 3 40l67 478h154l-68 -487q-2 -20 -2 -28q0 -77 74 -77q90 0 107 109l67 483h155zM204 782q17 74 63.5 120t115.5 46q70 0 105 -48t31 -122l-83 -11q-6 76 -63 76q-61 0 -89 -80z
" />
    <glyph glyph-name="Umacron" unicode="&#x16a;" horiz-adv-x="579" 
d="M525 210q-9 -65 -43.5 -116t-92.5 -80.5t-135 -29.5q-107 0 -162.5 52.5t-55.5 138.5q0 19 3 40l67 478h154l-68 -487q-2 -20 -2 -28q0 -77 74 -77q90 0 107 109l67 483h155zM496 782h-274l16 106h274z" />
    <glyph glyph-name="Uogonek" unicode="&#x172;" horiz-adv-x="579" 
d="M593 693l-68 -483q-11 -75 -55 -131.5t-117 -79.5q-66 -27 -90 -55t-24 -57q0 -36 42 -36q28 0 56 7l-21 -94q-30 -8 -63 -8q-56 0 -90.5 27.5t-34.5 74.5q0 42 25.5 74t69.5 53q-92 8 -139.5 59t-47.5 131q0 19 3 40l67 478h154l-68 -487q-2 -20 -2 -28q0 -77 74 -77
q90 0 107 109l67 483h155z" />
    <glyph glyph-name="uni01B1" unicode="&#x1b1;" horiz-adv-x="624" 
d="M144 16.5q-54 32.5 -82 91t-28 135.5q0 233 169 338h-106l15 112h222l-15 -108q-65 -46 -96 -146t-31 -208q0 -68 22.5 -100t68.5 -32q59 0 97 50t55 126t17 156q0 57 -13 92t-42 64l15 106h221l-16 -114h-105q45 -33 68.5 -80.5t23.5 -115.5q0 -108 -40 -199
t-115 -145.5t-176 -54.5q-75 0 -129 32.5z" />
    <glyph glyph-name="Uring" unicode="&#x16e;" horiz-adv-x="579" 
d="M525 210q-9 -65 -43.5 -116t-92.5 -80.5t-135 -29.5q-107 0 -162.5 52.5t-55.5 138.5q0 19 3 40l67 478h154l-68 -487q-2 -20 -2 -28q0 -77 74 -77q90 0 107 109l67 483h155zM471 957q30 -32 30 -82q0 -39 -18 -71t-50.5 -51t-74.5 -19q-52 0 -82 31.5t-30 81.5
q0 38 18 70.5t50.5 52t73.5 19.5q53 0 83 -32zM344.5 894.5q-13.5 -18.5 -13.5 -43.5q0 -21 9 -31.5t25 -10.5q23 0 36.5 18.5t13.5 43.5q0 42 -34 42q-23 0 -36.5 -18.5z" />
    <glyph glyph-name="Utilde" unicode="&#x168;" horiz-adv-x="579" 
d="M525 210q-9 -65 -43.5 -116t-92.5 -80.5t-135 -29.5q-107 0 -162.5 52.5t-55.5 138.5q0 19 3 40l67 478h154l-68 -487q-2 -20 -2 -28q0 -77 74 -77q90 0 107 109l67 483h155zM385.5 770q-13.5 7 -32.5 20q-9 7 -19 12.5t-18 5.5q-15 0 -26.5 -10.5t-27.5 -34.5l-67 40
q25 50 58.5 81.5t70.5 31.5q20 0 33.5 -7t31.5 -20q22 -18 36 -18q13 0 25 10t27 33l68 -38q-26 -51 -59.5 -82t-68.5 -31q-18 0 -31.5 7z" />
    <glyph glyph-name="uni1E78" unicode="&#x1e78;" horiz-adv-x="579" 
d="M525 210q-9 -65 -43.5 -116t-92.5 -80.5t-135 -29.5q-107 0 -162.5 52.5t-55.5 138.5q0 19 3 40l67 478h154l-68 -487q-2 -20 -2 -28q0 -77 74 -77q90 0 107 109l67 483h155zM381.5 763q-13.5 7 -32.5 20q-9 7 -19 12.5t-18 5.5q-15 0 -26.5 -10.5t-27.5 -34.5l-67 40
q25 50 58.5 81.5t70.5 31.5q20 0 33.5 -7t31.5 -20q22 -18 36 -18q13 0 25 10t27 33l68 -38q-26 -51 -59.5 -82t-68.5 -31q-18 0 -31.5 7zM460 1120l49 -111l-224 -83l-34 72z" />
    <glyph glyph-name="V" unicode="V" horiz-adv-x="515" 
d="M585 693l-263 -693h-195l-77 693h158l34 -569l184 569h159z" />
    <glyph glyph-name="uni01B2" unicode="&#x1b2;" horiz-adv-x="574" 
d="M543.5 679q31.5 -31 31.5 -93q0 -19 -3 -40l-38 -272q-19 -138 -97.5 -214t-199.5 -76q-95 0 -148.5 51.5t-53.5 134.5q0 18 3 36l69 487h154l-69 -493q-2 -20 -2 -28q0 -71 61 -71q49 0 83 43t46 132l39 289l1 10q0 22 -20 22q-9 0 -23 -4l-11 100q40 17 86 17
q60 0 91.5 -31z" />
    <glyph glyph-name="uni0245" unicode="&#x245;" horiz-adv-x="533" 
d="M420 693l86 -693h-157l-38 580l-196 -580h-163l281 693h187z" />
    <glyph glyph-name="W" unicode="W" horiz-adv-x="760" 
d="M810 693l-197 -693h-200l3 537l-148 -537h-197l-1 693h151l-22 -573l161 573h160l-5 -573l147 573h148z" />
    <glyph glyph-name="Wacute" unicode="&#x1e82;" horiz-adv-x="760" 
d="M810 693l-197 -693h-200l3 537l-148 -537h-197l-1 693h151l-22 -573l161 573h160l-5 -573l147 573h148zM549 942l49 -111l-224 -83l-34 72z" />
    <glyph glyph-name="Wcircumflex" unicode="&#x174;" horiz-adv-x="760" 
d="M810 693l-197 -693h-200l3 537l-148 -537h-197l-1 693h151l-22 -573l161 573h160l-5 -573l147 573h148zM331 756l-51 61l145 128h90l111 -132l-58 -57l-108 85z" />
    <glyph glyph-name="Wdieresis" unicode="&#x1e84;" horiz-adv-x="760" 
d="M810 693l-197 -693h-200l3 537l-148 -537h-197l-1 693h151l-22 -573l161 573h160l-5 -573l147 573h148zM297.5 787.5q-18.5 18.5 -18.5 47.5q0 37 24.5 61.5t60.5 24.5q32 0 50.5 -18.5t18.5 -47.5q0 -37 -24.5 -61.5t-60.5 -24.5q-32 0 -50.5 18.5zM508 787.5
q-19 18.5 -19 47.5q0 37 24.5 61.5t60.5 24.5q31 0 50 -18.5t19 -47.5q0 -37 -24.5 -61.5t-60.5 -24.5q-31 0 -50 18.5z" />
    <glyph glyph-name="Wgrave" unicode="&#x1e80;" horiz-adv-x="760" 
d="M810 693l-197 -693h-200l3 537l-148 -537h-197l-1 693h151l-22 -573l161 573h160l-5 -573l147 573h148zM410 940l182 -122l-42 -69l-204 81z" />
    <glyph glyph-name="uni2C72" unicode="&#x2c72;" horiz-adv-x="803" 
d="M268 0l148 537l-3 -537h198l141 551q7 25 19 36t30 11q20 0 41 -14l55 86q-48 39 -111 39q-66 0 -106.5 -33.5t-58.5 -113.5l-106 -443l5 574h-160l-161 -573l22 573h-151l1 -693h197z" />
    <glyph glyph-name="uni01F7" unicode="&#x1f7;" horiz-adv-x="535" 
d="M515 665.5q42 -44.5 42 -122.5q0 -82 -36.5 -140t-97.5 -97.5t-151 -75.5l-71 -27l-28 -203h-154l97 693h154l-5 -38q60 55 141 55q67 0 109 -44.5zM396 529q0 68 -56 68q-46 0 -89 -40l-34 -241l36 17q143 72 143 196z" />
    <glyph glyph-name="X" unicode="X" horiz-adv-x="519" 
d="M569 693l-206 -320l124 -373h-164l-64 275l-135 -275h-167l222 368l-112 325h163l51 -235l122 235h166z" />
    <glyph glyph-name="Y" unicode="Y" horiz-adv-x="530" 
d="M599 693l-257 -433l-37 -260h-154l36 260l-135 433h162l68 -312l152 312h165z" />
    <glyph glyph-name="Yacute" unicode="&#xdd;" horiz-adv-x="530" 
d="M599 693l-257 -433l-37 -260h-154l36 260l-135 433h162l68 -312l152 312h165zM431 942l49 -111l-224 -83l-34 72z" />
    <glyph glyph-name="Ycircumflex" unicode="&#x176;" horiz-adv-x="530" 
d="M599 693l-257 -433l-37 -260h-154l36 260l-135 433h162l68 -312l152 312h165zM213 756l-51 61l145 128h90l111 -132l-58 -57l-108 85z" />
    <glyph glyph-name="Ydieresis" unicode="&#x178;" horiz-adv-x="530" 
d="M599 693l-257 -433l-37 -260h-154l36 260l-135 433h162l68 -312l152 312h165zM179.5 787.5q-18.5 18.5 -18.5 47.5q0 37 24.5 61.5t60.5 24.5q32 0 50.5 -18.5t18.5 -47.5q0 -37 -24.5 -61.5t-60.5 -24.5q-32 0 -50.5 18.5zM390 787.5q-19 18.5 -19 47.5q0 37 24.5 61.5
t60.5 24.5q31 0 50 -18.5t19 -47.5q0 -37 -24.5 -61.5t-60.5 -24.5q-31 0 -50 18.5z" />
    <glyph glyph-name="uni1EF4" unicode="&#x1ef4;" horiz-adv-x="530" 
d="M599 693l-257 -433l-37 -260h-154l36 260l-135 433h162l68 -312l152 312h165zM273.5 -83q21.5 -21 21.5 -55q0 -42 -28 -69.5t-70 -27.5q-36 0 -57 21t-21 55q0 42 28 69.5t69 27.5q36 0 57.5 -21z" />
    <glyph glyph-name="Ygrave" unicode="&#x1ef2;" horiz-adv-x="530" 
d="M599 693l-257 -433l-37 -260h-154l36 260l-135 433h162l68 -312l152 312h165zM292 940l182 -122l-42 -69l-204 81z" />
    <glyph glyph-name="uni01B3" unicode="&#x1b3;" horiz-adv-x="557" 
d="M187 260l-135 433h163l66 -312l92 201q30 69 67.5 98.5t99.5 29.5t111 -40l-55 -86q-12 7 -20.5 10.5t-20.5 3.5q-17 0 -29 -9.5t-26 -34.5l-158 -293l-37 -261h-154z" />
    <glyph glyph-name="uni1EF6" unicode="&#x1ef6;" horiz-adv-x="530" 
d="M599 693l-257 -433l-37 -260h-154l36 260l-135 433h162l68 -312l152 312h165zM301 853q35 2 52.5 12t17.5 32q0 26 -31 26q-25 0 -53 -14l-17 66q41 24 96 24q50 0 78 -25.5t28 -67.5q0 -81 -90 -99l-5 -43h-86z" />
    <glyph glyph-name="uni0232" unicode="&#x232;" horiz-adv-x="530" 
d="M599 693l-257 -433l-37 -260h-154l36 260l-135 433h162l68 -312l152 312h165zM471 782h-274l16 106h274z" />
    <glyph glyph-name="uni01A6" unicode="&#x1a6;" horiz-adv-x="554" 
d="M502 270.5q-34 -55.5 -109 -90.5l113 -295h-163l-91 266l-58 1l-21 -152h-154l97 693h154l-16 -115h43q120 0 179.5 -45.5t59.5 -132.5q0 -74 -34 -129.5zM210 261h51q62 0 89.5 38.5t27.5 92.5q0 39 -22.5 57t-68.5 18h-49z" />
    <glyph glyph-name="uni024E" unicode="&#x24e;" horiz-adv-x="531" 
d="M553 613h35l-13 -89h-75l-157 -264l-37 -260h-154l37 260l-83 264h-77l13 89h36l-25 80h150l20 -80h184l41 80h152zM282 369l79 155h-117z" />
    <glyph glyph-name="uni1EF8" unicode="&#x1ef8;" horiz-adv-x="530" 
d="M599 693l-257 -433l-37 -260h-154l36 260l-135 433h162l68 -312l152 312h165zM360.5 770q-13.5 7 -32.5 20q-9 7 -19 12.5t-18 5.5q-15 0 -26.5 -10.5t-27.5 -34.5l-67 40q25 50 58.5 81.5t70.5 31.5q20 0 33.5 -7t31.5 -20q22 -18 36 -18q13 0 25 10t27 33l68 -38
q-26 -51 -59.5 -82t-68.5 -31q-18 0 -31.5 7z" />
    <glyph glyph-name="Z" unicode="Z" horiz-adv-x="484" 
d="M-24 0l17 117l334 454h-245l18 122h417l-18 -119l-333 -449h278l-34 -125h-434z" />
    <glyph glyph-name="Zacute" unicode="&#x179;" horiz-adv-x="484" 
d="M-24 0l17 117l334 454h-245l18 122h417l-18 -119l-333 -449h278l-34 -125h-434zM412 942l49 -111l-224 -83l-34 72z" />
    <glyph glyph-name="Zcaron" unicode="&#x17d;" horiz-adv-x="484" 
d="M-24 0l17 117l334 454h-245l18 122h417l-18 -119l-333 -449h278l-34 -125h-434zM452 939l51 -61l-145 -128h-90l-112 132l60 57l107 -84z" />
    <glyph glyph-name="Zdotaccent" unicode="&#x17b;" horiz-adv-x="484" 
d="M-24 0l17 117l334 454h-245l18 122h417l-18 -119l-333 -449h278l-34 -125h-434zM262.5 781q-21.5 21 -21.5 55q0 42 28 69.5t70 27.5q36 0 57 -21t21 -55q0 -42 -28 -69.5t-69 -27.5q-36 0 -57.5 21z" />
    <glyph glyph-name="uni1E92" unicode="&#x1e92;" horiz-adv-x="484" 
d="M-24 0l17 117l334 454h-245l18 122h417l-18 -119l-333 -449h278l-34 -125h-434zM238.5 -83q21.5 -21 21.5 -55q0 -42 -28 -69.5t-70 -27.5q-36 0 -57 21t-21 55q0 42 28 69.5t69 27.5q36 0 57.5 -21z" />
    <glyph glyph-name="uni0224" unicode="&#x224;" horiz-adv-x="476" 
d="M499 574l-331 -449h266l-18 -125l-7 -47q-14 -85 -66.5 -129.5t-130.5 -44.5q-77 0 -126 43l60 87q17 -10 29.5 -14.5t29.5 -4.5q24 0 39 16t19 46l6 48h-293l17 117l334 454h-245l18 122h417z" />
    <glyph glyph-name="uni01B5" unicode="&#x1b5;" horiz-adv-x="484" 
d="M517 693l-18 -119l-136 -179h69l-14 -99h-131l-130 -171h287l-34 -125h-434l17 117l136 179h-74l14 99h135l134 176h-256l18 122h417z" />
    <glyph glyph-name="Cacute.loclPLK" horiz-adv-x="517" 
d="M557 630l-81 -80q-49 43 -103 43q-62 0 -102 -53.5t-57.5 -132t-17.5 -156.5q0 -146 102 -146q33 0 61 13.5t66 41.5l58 -90q-95 -87 -212 -87q-107 0 -170.5 70.5t-63.5 203.5q0 114 36 218t112 169.5t188 65.5q114 0 184 -80zM418 960l100 -63l-149 -156l-61 39z" />
    <glyph glyph-name="Nacute.loclPLK" horiz-adv-x="591" 
d="M498 0h-190l-104 563q1 -23 1 -69q0 -119 -16 -240l-34 -254h-136l97 693h189l104 -563q-1 30 -1 84q0 96 13 196l38 283h136zM399 960l100 -63l-149 -156l-61 39z" />
    <glyph glyph-name="Oacute.loclPLK" horiz-adv-x="624" 
d="M549 640q62 -70 62 -201q0 -114 -35 -218t-110.5 -171t-191.5 -67q-114 0 -176 69.5t-62 200.5q0 113 35 217.5t110.5 172t191.5 67.5q114 0 176 -70zM264 534.5q-38 -59.5 -54 -143t-16 -158.5q0 -71 22.5 -102.5t67.5 -31.5q62 0 100 59t53.5 142t15.5 160
q0 70 -22.5 102t-67.5 32q-61 0 -99 -59.5zM414 960l100 -63l-149 -156l-61 39z" />
    <glyph glyph-name="Sacute.loclPLK" horiz-adv-x="511" 
d="M527 620l-80 -81q-29 28 -59 41.5t-66 13.5q-45 0 -71.5 -23t-26.5 -59q0 -30 22 -49.5t85 -45.5q77 -31 114.5 -74.5t37.5 -116.5q0 -66 -32 -121t-94 -88.5t-149 -33.5q-143 0 -229 100l87 84q31 -33 65.5 -49.5t78.5 -16.5q52 0 83 27t31 74q0 36 -22.5 58t-82.5 48
q-82 34 -117.5 75.5t-35.5 107.5q0 59 30.5 109t87.5 80t133 30q131 0 210 -90zM363 960l100 -63l-149 -156l-61 39z" />
    <glyph glyph-name="Zacute.loclPLK" horiz-adv-x="484" 
d="M-24 0l17 117l334 454h-245l18 122h417l-18 -119l-333 -449h278l-34 -125h-434zM346 960l100 -63l-149 -156l-61 39z" />
    <glyph glyph-name="Eng.ss01" horiz-adv-x="583" 
d="M535 669.5q36 -40.5 36 -105.5q0 -17 -3 -35l-73 -529l-6 -42q-13 -88 -67.5 -133.5t-137.5 -45.5q-77 0 -126 43l62 90q17 -10 28.5 -14t27.5 -4q24 0 39.5 15t19.5 43l6 48l71 513q2 18 2 25q0 54 -49 54q-29 0 -56 -15.5t-62 -46.5l-75 -530h-153l97 693h134l2 -60
q42 38 84.5 57.5t91.5 19.5q71 0 107 -40.5z" />
    <glyph glyph-name="uni019D.ss01" horiz-adv-x="583" 
d="M534.5 669q36.5 -41 36.5 -106q0 -17 -3 -35l-73 -528h-154l72 513q2 16 2 23q0 56 -50 56q-29 0 -56.5 -15t-60.5 -46l-75 -531l-6 -42q-13 -88 -67.5 -133.5t-137.5 -45.5q-77 0 -126 43l62 90q17 -10 28.5 -14t27.5 -4q24 0 39.5 15t19.5 43l6 48l97 693h135l2 -60
q41 39 83.5 58t91.5 19q70 0 106.5 -41z" />
    <glyph glyph-name="uni2C64.ss01" horiz-adv-x="392" 
d="M458 698l-44 -149q-22 8 -50 8q-51 0 -81 -33.5t-52 -100.5l-58 -423l-7 -52l-1 -12q0 -42 38 -42q18 0 31 4t34 14l38 -92q-57 -41 -133 -41t-118.5 38t-42.5 111q0 10 2 34l5 38l97 693h134l-1 -90q53 105 152 105q34 0 57 -10z" />
    <glyph glyph-name="uni0181.ss02" horiz-adv-x="535" 
d="M458 397q60 -48 60 -139q0 -65 -28 -124t-90.5 -96.5t-160.5 -37.5h-220l97 693h391l-34 -119h-220l-18 -129h56q107 0 167 -48zM328 153.5q28 39.5 28 98.5q0 42 -21 62.5t-64 20.5h-51l-31 -221h50q61 0 89 39.5z" />
    <glyph glyph-name="uniA78D.ss02" horiz-adv-x="537" 
d="M444 0h-154l35 247h-304l63 446h154l-45 -323h149l45 323h154z" />
    <glyph glyph-name="uni0299" unicode="&#x299;" horiz-adv-x="486" 
d="M437.5 335.5q-30.5 -32.5 -91.5 -44.5q109 -13 109 -106q0 -91 -65.5 -138t-175.5 -47h-198l73 525q101 22 189 22q89 0 139.5 -33.5t50.5 -93.5q0 -52 -30.5 -84.5zM301.5 343.5q19.5 21.5 19.5 60.5q0 24 -13 35t-41 11q-16 0 -44 -4l-17 -124h41q35 0 54.5 21.5z
M281 123q26 23 26 70q0 26 -15.5 37t-47.5 11h-49l-20 -141h40q40 0 66 23z" />
    <glyph glyph-name="uni0262" unicode="&#x262;" horiz-adv-x="506" 
d="M415 528.5q43 -19.5 76 -53.5l-80 -78q-24 22 -47 32t-53 10q-68 0 -101 -72.5t-33 -174.5q0 -54 17 -76.5t51 -22.5q31 0 64 14l14 103h-59l1 100h208l-36 -263q-42 -29 -94.5 -45.5t-111.5 -16.5q-103 0 -155 53t-52 157q0 103 36.5 183.5t102 125t149.5 44.5
q60 0 103 -19.5z" />
    <glyph glyph-name="uni029B" unicode="&#x29b;" horiz-adv-x="505" 
d="M669 719l-54 -90q-28 17 -56 17q-23 0 -35.5 -15t-16.5 -45l-16 -111l-72 -69q-29 17 -54 25t-54 8q-68 0 -101 -72.5t-33 -174.5q0 -54 17 -76.5t51 -22.5q30 0 64 14l13 103h-58l1 100h208l-36 -263q-42 -29 -94.5 -45.5t-111.5 -16.5q-103 0 -155 53t-52 157
q0 103 36.5 183.5t99.5 125t141 44.5q38 0 70 -12l10 68q11 75 53.5 114.5t114.5 39.5q69 0 120 -39z" />
    <glyph glyph-name="uni029C" unicode="&#x29c;" horiz-adv-x="521" 
d="M284 0l30 214h-120l-30 -214h-148l74 531h148l-29 -206h120l29 206h148l-74 -531h-148z" />
    <glyph glyph-name="uni026A" unicode="&#x26a;" horiz-adv-x="297" 
d="M308 425h-63l-45 -319h63l-14 -106h-274l14 106h63l44 319h-62l15 106h274z" />
    <glyph glyph-name="uni029F" unicode="&#x29f;" horiz-adv-x="401" 
d="M238 531l-57 -414h195l-33 -117h-327l74 531h148z" />
    <glyph glyph-name="uni0274" unicode="&#x274;" horiz-adv-x="523" 
d="M433 0h-175l-80 398v-43q0 -104 -13 -199l-22 -156h-127l74 531h174l81 -398l-1 55q0 79 10 153l27 190h126z" />
    <glyph glyph-name="uni0276" unicode="&#x276;" horiz-adv-x="682" 
d="M471 426q25 -48 25 -106h142l-14 -102h-141q-16 -63 -57 -113h216l-15 -105h-316q-39 -17 -88 -17q-93 0 -145.5 56.5t-52.5 159.5q0 88 29 167.5t91 130.5t156 51q51 0 85 -17h318l-30 -105h-203zM304 136.5q26 41.5 36.5 99.5t10.5 112q0 46 -15 67t-45 21
q-42 0 -68 -41.5t-36.5 -99.5t-10.5 -112q0 -46 15 -67t45 -21q42 0 68 41.5z" />
    <glyph glyph-name="uni0280" unicode="&#x280;" horiz-adv-x="483" 
d="M347 211l88 -211h-148l-66 185h-38l-26 -185h-141l74 531h166q195 0 195 -153q0 -117 -104 -167zM196 285h33q39 0 58.5 23.5t19.5 64.5q0 29 -14.5 41.5t-45.5 12.5h-31z" />
    <glyph glyph-name="uni0281" unicode="&#x281;" horiz-adv-x="483" 
d="M426 197q0 -98 -62.5 -147.5t-171.5 -49.5h-176l74 531h141l-26 -186h41l115 186h148l-146 -215q63 -37 63 -119zM260 125.5q22 21.5 22 65.5q0 28 -15 40.5t-45 12.5h-31l-19 -140h26q40 0 62 21.5z" />
    <glyph glyph-name="uni028F" unicode="&#x28f;" horiz-adv-x="459" 
d="M502 531l-208 -338l-28 -193h-148l28 192l-113 339h155l45 -234l112 234h157z" />
    <glyph glyph-name="a" unicode="a" horiz-adv-x="522" 
d="M505 496l-50 -347q-2 -20 -2 -26q0 -15 5 -24t19 -15l-45 -98q-43 4 -73 24t-40 57q-29 -40 -64 -62t-80 -22q-72 0 -112 53.5t-40 144.5t29.5 175t94.5 138t165 54q98 0 193 -52zM231 401q-29 -39 -43 -99t-14 -123q0 -46 12.5 -65t37.5 -19q23 0 43.5 18t43.5 51
l38 268q-24 8 -45 8q-44 0 -73 -39z" />
    <glyph glyph-name="aacute" unicode="&#xe1;" horiz-adv-x="522" 
d="M505 496l-50 -347q-2 -20 -2 -26q0 -15 5 -24t19 -15l-45 -98q-43 4 -73 24t-40 57q-29 -40 -64 -62t-80 -22q-72 0 -112 53.5t-40 144.5t29.5 175t94.5 138t165 54q98 0 193 -52zM231 401q-29 -39 -43 -99t-14 -123q0 -46 12.5 -65t37.5 -19q23 0 43.5 18t43.5 51
l38 268q-24 8 -45 8q-44 0 -73 -39zM425 828l49 -111l-225 -93l-36 74z" />
    <glyph glyph-name="abreve" unicode="&#x103;" horiz-adv-x="522" 
d="M505 496l-50 -347q-2 -20 -2 -26q0 -15 5 -24t19 -15l-45 -98q-43 4 -73 24t-40 57q-29 -40 -64 -62t-80 -22q-72 0 -112 53.5t-40 144.5t29.5 175t94.5 138t165 54q98 0 193 -52zM231 401q-29 -39 -43 -99t-14 -123q0 -46 12.5 -65t37.5 -19q23 0 43.5 18t43.5 51
l38 268q-24 8 -45 8q-44 0 -73 -39zM227 682q-35 48 -30 121l81 12q5 -76 62 -76q30 0 52.5 21t35.5 58l78 -18q-15 -74 -60 -120t-113 -46q-71 0 -106 48z" />
    <glyph glyph-name="uni1EAF" unicode="&#x1eaf;" horiz-adv-x="522" 
d="M442 979l73 -78l-164 -142l-52 49zM229 646.5q-35 46.5 -30 113.5l79 12q3 -30 18.5 -48t44.5 -18q30 0 52 19t34 50l81 -19q-14 -68 -59.5 -112t-114.5 -44q-70 0 -105 46.5zM505 496l-50 -347q-2 -20 -2 -26q0 -15 5 -24t19 -15l-45 -98q-43 4 -73 24t-40 57
q-29 -40 -64 -62t-80 -22q-72 0 -112 53.5t-40 144.5t29.5 175t94.5 138t165 54q98 0 193 -52zM231 401q-29 -39 -43 -99t-14 -123q0 -46 12.5 -65t37.5 -19q23 0 43.5 18t43.5 51l38 268q-24 8 -45 8q-44 0 -73 -39z" />
    <glyph glyph-name="uni1EB7" unicode="&#x1eb7;" horiz-adv-x="522" 
d="M505 496l-50 -347q-2 -20 -2 -26q0 -15 5 -24t19 -15l-45 -98q-43 4 -73 24t-40 57q-29 -40 -64 -62t-80 -22q-72 0 -112 53.5t-40 144.5t29.5 175t94.5 138t165 54q98 0 193 -52zM231 401q-29 -39 -43 -99t-14 -123q0 -46 12.5 -65t37.5 -19q23 0 43.5 18t43.5 51
l38 268q-24 8 -45 8q-44 0 -73 -39zM227 682q-35 48 -30 121l81 12q5 -76 62 -76q30 0 52.5 21t35.5 58l78 -18q-15 -74 -60 -120t-113 -46q-71 0 -106 48zM291.5 -83q21.5 -21 21.5 -55q0 -42 -28 -69.5t-70 -27.5q-36 0 -57 21t-21 55q0 42 28 69.5t69 27.5q36 0 57.5 -21
z" />
    <glyph glyph-name="uni1EB1" unicode="&#x1eb1;" horiz-adv-x="522" 
d="M307 976l96 -173l-61 -44l-125 148zM229 646.5q-35 46.5 -30 113.5l79 12q3 -30 18.5 -48t44.5 -18q30 0 52 19t34 50l81 -19q-14 -68 -59.5 -112t-114.5 -44q-70 0 -105 46.5zM505 496l-50 -347q-2 -20 -2 -26q0 -15 5 -24t19 -15l-45 -98q-43 4 -73 24t-40 57
q-29 -40 -64 -62t-80 -22q-72 0 -112 53.5t-40 144.5t29.5 175t94.5 138t165 54q98 0 193 -52zM231 401q-29 -39 -43 -99t-14 -123q0 -46 12.5 -65t37.5 -19q23 0 43.5 18t43.5 51l38 268q-24 8 -45 8q-44 0 -73 -39z" />
    <glyph glyph-name="uni1EB3" unicode="&#x1eb3;" horiz-adv-x="522" 
d="M505 496l-50 -347q-2 -20 -2 -26q0 -15 5 -24t19 -15l-45 -98q-43 4 -73 24t-40 57q-29 -40 -64 -62t-80 -22q-72 0 -112 53.5t-40 144.5t29.5 175t94.5 138t165 54q98 0 193 -52zM231 401q-29 -39 -43 -99t-14 -123q0 -46 12.5 -65t37.5 -19q23 0 43.5 18t43.5 51
l38 268q-24 8 -45 8q-44 0 -73 -39zM230 646.5q-35 46.5 -30 113.5l79 12q3 -30 18.5 -48t44.5 -18q30 0 52 19t34 50l81 -19q-14 -68 -59.5 -112t-114.5 -44q-70 0 -105 46.5zM320 857q36 3 52.5 13t16.5 32q0 26 -30 26q-23 0 -54 -14l-17 66q45 24 96 24q50 0 78 -25.5
t28 -67.5t-23.5 -66.5t-65.5 -32.5l-8 -53h-86z" />
    <glyph glyph-name="uni1EB5" unicode="&#x1eb5;" horiz-adv-x="522" 
d="M380.5 804.5q-14.5 6.5 -31.5 18.5q-9 7 -18.5 12t-17.5 5q-15 0 -26.5 -10t-27.5 -32l-66 37q25 48 58 77.5t69 29.5q20 0 34 -7t31 -19q11 -9 19 -13t16 -4q14 0 25.5 9.5t26.5 31.5l67 -36q-26 -48 -59 -77t-68 -29q-17 0 -31.5 6.5zM229 646.5q-35 46.5 -30 113.5
l79 12q3 -30 18.5 -48t44.5 -18q30 0 52 19t34 50l81 -19q-14 -68 -59.5 -112t-114.5 -44q-70 0 -105 46.5zM505 496l-50 -347q-2 -20 -2 -26q0 -15 5 -24t19 -15l-45 -98q-43 4 -73 24t-40 57q-29 -40 -64 -62t-80 -22q-72 0 -112 53.5t-40 144.5t29.5 175t94.5 138t165 54
q98 0 193 -52zM231 401q-29 -39 -43 -99t-14 -123q0 -46 12.5 -65t37.5 -19q23 0 43.5 18t43.5 51l38 268q-24 8 -45 8q-44 0 -73 -39z" />
    <glyph glyph-name="uni01CE" unicode="&#x1ce;" horiz-adv-x="522" 
d="M505 496l-50 -347q-2 -20 -2 -26q0 -15 5 -24t19 -15l-45 -98q-43 4 -73 24t-40 57q-29 -40 -64 -62t-80 -22q-72 0 -112 53.5t-40 144.5t29.5 175t94.5 138t165 54q98 0 193 -52zM231 401q-29 -39 -43 -99t-14 -123q0 -46 12.5 -65t37.5 -19q23 0 43.5 18t43.5 51
l38 268q-24 8 -45 8q-44 0 -73 -39zM472 808l49 -61l-145 -134h-90l-108 134l56 61l105 -90z" />
    <glyph glyph-name="acircumflex" unicode="&#xe2;" horiz-adv-x="522" 
d="M505 496l-50 -347q-2 -20 -2 -26q0 -15 5 -24t19 -15l-45 -98q-43 4 -73 24t-40 57q-29 -40 -64 -62t-80 -22q-72 0 -112 53.5t-40 144.5t29.5 175t94.5 138t165 54q98 0 193 -52zM231 401q-29 -39 -43 -99t-14 -123q0 -46 12.5 -65t37.5 -19q23 0 43.5 18t43.5 51
l38 268q-24 8 -45 8q-44 0 -73 -39zM217 623l-49 61l145 135h90l111 -139l-62 -57l-105 91z" />
    <glyph glyph-name="uni1EA5" unicode="&#x1ea5;" horiz-adv-x="522" 
d="M574 950l73 -78l-164 -142l-52 49zM208 586l-51 61l145 128h90l111 -132l-58 -57l-108 85zM505 496l-50 -347q-2 -20 -2 -26q0 -15 5 -24t19 -15l-45 -98q-43 4 -73 24t-40 57q-29 -40 -64 -62t-80 -22q-72 0 -112 53.5t-40 144.5t29.5 175t94.5 138t165 54q98 0 193 -52
zM231 401q-29 -39 -43 -99t-14 -123q0 -46 12.5 -65t37.5 -19q23 0 43.5 18t43.5 51l38 268q-24 8 -45 8q-44 0 -73 -39z" />
    <glyph glyph-name="uni1EAD" unicode="&#x1ead;" horiz-adv-x="522" 
d="M505 496l-50 -347q-2 -20 -2 -26q0 -15 5 -24t19 -15l-45 -98q-43 4 -73 24t-40 57q-29 -40 -64 -62t-80 -22q-72 0 -112 53.5t-40 144.5t29.5 175t94.5 138t165 54q98 0 193 -52zM231 401q-29 -39 -43 -99t-14 -123q0 -46 12.5 -65t37.5 -19q23 0 43.5 18t43.5 51
l38 268q-24 8 -45 8q-44 0 -73 -39zM217 623l-49 61l145 135h90l111 -139l-62 -57l-105 91zM291.5 -83q21.5 -21 21.5 -55q0 -42 -28 -69.5t-70 -27.5q-36 0 -57 21t-21 55q0 42 28 69.5t69 27.5q36 0 57.5 -21z" />
    <glyph glyph-name="uni1EA7" unicode="&#x1ea7;" horiz-adv-x="522" 
d="M162 947l96 -173l-61 -44l-125 148zM207 586l-51 61l145 128h90l111 -132l-58 -57l-108 85zM505 496l-50 -347q-2 -20 -2 -26q0 -15 5 -24t19 -15l-45 -98q-43 4 -73 24t-40 57q-29 -40 -64 -62t-80 -22q-72 0 -112 53.5t-40 144.5t29.5 175t94.5 138t165 54
q98 0 193 -52zM231 401q-29 -39 -43 -99t-14 -123q0 -46 12.5 -65t37.5 -19q23 0 43.5 18t43.5 51l38 268q-24 8 -45 8q-44 0 -73 -39z" />
    <glyph glyph-name="uni1EA9" unicode="&#x1ea9;" horiz-adv-x="522" 
d="M505 496l-50 -347q-2 -20 -2 -26q0 -15 5 -24t19 -15l-45 -98q-43 4 -73 24t-40 57q-29 -40 -64 -62t-80 -22q-72 0 -112 53.5t-40 144.5t29.5 175t94.5 138t165 54q98 0 193 -52zM231 401q-29 -39 -43 -99t-14 -123q0 -46 12.5 -65t37.5 -19q23 0 43.5 18t43.5 51
l38 268q-24 8 -45 8q-44 0 -73 -39zM206 586l-51 61l145 128h90l111 -132l-58 -57l-108 85zM457 848q36 3 52.5 13t16.5 32q0 26 -30 26q-23 0 -54 -14l-17 66q45 24 96 24q50 0 78 -25.5t28 -67.5t-23.5 -66.5t-65.5 -32.5l-8 -53h-86z" />
    <glyph glyph-name="uni1EAB" unicode="&#x1eab;" horiz-adv-x="522" 
d="M380.5 804.5q-14.5 6.5 -31.5 18.5q-9 7 -18.5 12t-17.5 5q-15 0 -26.5 -10t-27.5 -32l-66 37q25 48 58 77.5t69 29.5q20 0 34 -7t31 -19q11 -9 19 -13t16 -4q14 0 25.5 9.5t26.5 31.5l67 -36q-26 -48 -59 -77t-68 -29q-17 0 -31.5 6.5zM208 581l-51 61l145 128h90
l111 -132l-58 -57l-108 85zM505 496l-50 -347q-2 -20 -2 -26q0 -15 5 -24t19 -15l-45 -98q-43 4 -73 24t-40 57q-29 -40 -64 -62t-80 -22q-72 0 -112 53.5t-40 144.5t29.5 175t94.5 138t165 54q98 0 193 -52zM231 401q-29 -39 -43 -99t-14 -123q0 -46 12.5 -65t37.5 -19
q23 0 43.5 18t43.5 51l38 268q-24 8 -45 8q-44 0 -73 -39z" />
    <glyph glyph-name="uni0201" unicode="&#x201;" horiz-adv-x="522" 
d="M505 496l-50 -347q-2 -20 -2 -26q0 -15 5 -24t19 -15l-45 -98q-43 4 -73 24t-40 57q-29 -40 -64 -62t-80 -22q-72 0 -112 53.5t-40 144.5t29.5 175t94.5 138t165 54q98 0 193 -52zM231 401q-29 -39 -43 -99t-14 -123q0 -46 12.5 -65t37.5 -19q23 0 43.5 18t43.5 51
l38 268q-24 8 -45 8q-44 0 -73 -39zM249 857l62 -196l-83 -35l-88 183zM407 857l54 -196l-82 -30l-81 181z" />
    <glyph glyph-name="adieresis" unicode="&#xe4;" horiz-adv-x="522" 
d="M505 496l-50 -347q-2 -20 -2 -26q0 -15 5 -24t19 -15l-45 -98q-43 4 -73 24t-40 57q-29 -40 -64 -62t-80 -22q-72 0 -112 53.5t-40 144.5t29.5 175t94.5 138t165 54q98 0 193 -52zM231 401q-29 -39 -43 -99t-14 -123q0 -46 12.5 -65t37.5 -19q23 0 43.5 18t43.5 51
l38 268q-24 8 -45 8q-44 0 -73 -39zM182.5 661.5q-18.5 18.5 -18.5 47.5q0 37 24.5 61.5t60.5 24.5q32 0 50.5 -18.5t18.5 -47.5q0 -37 -24.5 -61.5t-60.5 -24.5q-32 0 -50.5 18.5zM393 661.5q-19 18.5 -19 47.5q0 37 24.5 61.5t60.5 24.5q31 0 50 -18.5t19 -47.5
q0 -37 -24.5 -61.5t-60.5 -24.5q-31 0 -50 18.5z" />
    <glyph glyph-name="uni01DF" unicode="&#x1df;" horiz-adv-x="522" 
d="M505 496l-50 -347q-2 -20 -2 -26q0 -15 5 -24t19 -15l-45 -98q-43 4 -73 24t-40 57q-29 -40 -64 -62t-80 -22q-72 0 -112 53.5t-40 144.5t29.5 175t94.5 138t165 54q98 0 193 -52zM231 401q-29 -39 -43 -99t-14 -123q0 -46 12.5 -65t37.5 -19q23 0 43.5 18t43.5 51
l38 268q-24 8 -45 8q-44 0 -73 -39zM175.5 623.5q-18.5 18.5 -18.5 47.5q0 37 24.5 61.5t60.5 24.5q32 0 50.5 -18.5t18.5 -47.5q0 -37 -24.5 -61.5t-60.5 -24.5q-32 0 -50.5 18.5zM386 623.5q-19 18.5 -19 47.5q0 37 24.5 61.5t60.5 24.5q31 0 50 -18.5t19 -47.5
q0 -37 -24.5 -61.5t-60.5 -24.5q-31 0 -50 18.5zM489 801h-274l16 106h274z" />
    <glyph glyph-name="uni0227" unicode="&#x227;" horiz-adv-x="522" 
d="M505 496l-50 -347q-2 -20 -2 -26q0 -15 5 -24t19 -15l-45 -98q-43 4 -73 24t-40 57q-29 -40 -64 -62t-80 -22q-72 0 -112 53.5t-40 144.5t29.5 175t94.5 138t165 54q98 0 193 -52zM231 401q-29 -39 -43 -99t-14 -123q0 -46 12.5 -65t37.5 -19q23 0 43.5 18t43.5 51
l38 268q-24 8 -45 8q-44 0 -73 -39zM279.5 655q-21.5 21 -21.5 55q0 42 28 69.5t70 27.5q36 0 57 -21t21 -55q0 -42 -28 -69.5t-69 -27.5q-36 0 -57.5 21z" />
    <glyph glyph-name="uni1EA1" unicode="&#x1ea1;" horiz-adv-x="522" 
d="M505 496l-50 -347q-2 -20 -2 -26q0 -15 5 -24t19 -15l-45 -98q-43 4 -73 24t-40 57q-29 -40 -64 -62t-80 -22q-72 0 -112 53.5t-40 144.5t29.5 175t94.5 138t165 54q98 0 193 -52zM231 401q-29 -39 -43 -99t-14 -123q0 -46 12.5 -65t37.5 -19q23 0 43.5 18t43.5 51
l38 268q-24 8 -45 8q-44 0 -73 -39zM291.5 -83q21.5 -21 21.5 -55q0 -42 -28 -69.5t-70 -27.5q-36 0 -57 21t-21 55q0 42 28 69.5t69 27.5q36 0 57.5 -21z" />
    <glyph glyph-name="uni01E1" unicode="&#x1e1;" horiz-adv-x="522" 
d="M505 496l-50 -347q-2 -20 -2 -26q0 -15 5 -24t19 -15l-45 -98q-43 4 -73 24t-40 57q-29 -40 -64 -62t-80 -22q-72 0 -112 53.5t-40 144.5t29.5 175t94.5 138t165 54q98 0 193 -52zM231 401q-29 -39 -43 -99t-14 -123q0 -46 12.5 -65t37.5 -19q23 0 43.5 18t43.5 51
l38 268q-24 8 -45 8q-44 0 -73 -39zM272.5 616q-21.5 21 -21.5 55q0 42 28 69.5t70 27.5q36 0 57 -21t21 -55q0 -42 -28 -69.5t-69 -27.5q-36 0 -57.5 21zM491 802h-274l16 106h274z" />
    <glyph glyph-name="agrave" unicode="&#xe0;" horiz-adv-x="522" 
d="M505 496l-50 -347q-2 -20 -2 -26q0 -15 5 -24t19 -15l-45 -98q-43 4 -73 24t-40 57q-29 -40 -64 -62t-80 -22q-72 0 -112 53.5t-40 144.5t29.5 175t94.5 138t165 54q98 0 193 -52zM231 401q-29 -39 -43 -99t-14 -123q0 -46 12.5 -65t37.5 -19q23 0 43.5 18t43.5 51
l38 268q-24 8 -45 8q-44 0 -73 -39zM297 827l182 -131l-44 -70l-203 91z" />
    <glyph glyph-name="uni1EA3" unicode="&#x1ea3;" horiz-adv-x="522" 
d="M505 496l-50 -347q-2 -20 -2 -26q0 -15 5 -24t19 -15l-45 -98q-43 4 -73 24t-40 57q-29 -40 -64 -62t-80 -22q-72 0 -112 53.5t-40 144.5t29.5 175t94.5 138t165 54q98 0 193 -52zM231 401q-29 -39 -43 -99t-14 -123q0 -46 12.5 -65t37.5 -19q23 0 43.5 18t43.5 51
l38 268q-24 8 -45 8q-44 0 -73 -39zM300 704q36 3 52.5 13t16.5 32q0 26 -30 26q-23 0 -54 -14l-17 66q45 24 96 24q50 0 78 -25.5t28 -67.5t-23.5 -66.5t-65.5 -32.5l-8 -53h-86z" />
    <glyph glyph-name="uni0203" unicode="&#x203;" horiz-adv-x="522" 
d="M505 496l-50 -347q-2 -20 -2 -26q0 -15 5 -24t19 -15l-45 -98q-43 4 -73 24t-40 57q-29 -40 -64 -62t-80 -22q-72 0 -112 53.5t-40 144.5t29.5 175t94.5 138t165 54q98 0 193 -52zM231 401q-29 -39 -43 -99t-14 -123q0 -46 12.5 -65t37.5 -19q23 0 43.5 18t43.5 51
l38 268q-24 8 -45 8q-44 0 -73 -39zM175 620q17 74 63.5 120t115.5 46q70 0 105 -48t31 -122l-83 -11q-6 76 -63 76q-61 0 -89 -80z" />
    <glyph glyph-name="uni0251" unicode="&#x251;" horiz-adv-x="522" 
d="M453 123q0 -15 5 -24t19 -15l-45 -98q-42 4 -72 24t-41 57q-29 -41 -63.5 -62.5t-79.5 -21.5q-74 0 -113.5 53t-39.5 145q0 93 29 177.5t84 136.5t129 52q41 0 69 -15.5t46 -50.5l24 50h106l-55 -382q-2 -20 -2 -26zM342 388q-18 52 -61 52q-33 0 -57.5 -38t-37 -98
t-12.5 -124q0 -46 13 -65.5t38 -19.5q23 0 43.5 18t42.5 51z" />
    <glyph glyph-name="uni0252" unicode="&#x252;" horiz-adv-x="522" 
d="M459.5 495q39.5 -53 39.5 -145q0 -93 -29 -177.5t-84 -136.5t-129 -52q-41 0 -69 15.5t-46 50.5l-24 -50h-106l55 382q2 20 2 26q0 15 -5 24t-19 15l45 98q42 -4 72 -24t41 -57q29 41 63.5 62.5t79.5 21.5q74 0 113.5 -53zM298.5 129q24.5 38 37 98t12.5 124
q0 46 -13 65.5t-38 19.5q-23 0 -43.5 -18t-42.5 -51l-31 -224q18 -52 61 -52q33 0 57.5 38z" />
    <glyph glyph-name="amacron" unicode="&#x101;" horiz-adv-x="522" 
d="M505 496l-50 -347q-2 -20 -2 -26q0 -15 5 -24t19 -15l-45 -98q-43 4 -73 24t-40 57q-29 -40 -64 -62t-80 -22q-72 0 -112 53.5t-40 144.5t29.5 175t94.5 138t165 54q98 0 193 -52zM231 401q-29 -39 -43 -99t-14 -123q0 -46 12.5 -65t37.5 -19q23 0 43.5 18t43.5 51
l38 268q-24 8 -45 8q-44 0 -73 -39zM474 656h-274l16 106h274z" />
    <glyph glyph-name="aogonek" unicode="&#x105;" horiz-adv-x="522" 
d="M453 123q0 -15 5 -24t19 -15l-44 -97v-1q-121 -50 -121 -115q0 -34 41 -34q24 0 54 6l-21 -93q-27 -7 -63 -7q-53 0 -86.5 28.5t-33.5 76.5q0 52 36 93.5t114 72.5q-26 21 -34 53q-29 -40 -64 -62t-80 -22q-72 0 -112 53.5t-40 144.5t29.5 175t94.5 138t165 54
q98 0 193 -52l-50 -347q-2 -20 -2 -26zM349 432q-24 8 -45 8q-44 0 -73 -39t-43 -99t-14 -123q0 -46 12.5 -65t37.5 -19q23 0 43.5 18t43.5 51z" />
    <glyph glyph-name="aring" unicode="&#xe5;" horiz-adv-x="522" 
d="M505 496l-50 -347q-2 -20 -2 -26q0 -15 5 -24t19 -15l-45 -98q-43 4 -73 24t-40 57q-29 -40 -64 -62t-80 -22q-72 0 -112 53.5t-40 144.5t29.5 175t94.5 138t165 54q98 0 193 -52zM231 401q-29 -39 -43 -99t-14 -123q0 -46 12.5 -65t37.5 -19q23 0 43.5 18t43.5 51
l38 268q-24 8 -45 8q-44 0 -73 -39zM446 831q30 -32 30 -82q0 -39 -18 -71t-50.5 -51t-74.5 -19q-52 0 -82 31.5t-30 81.5q0 38 18 70.5t50.5 52t73.5 19.5q53 0 83 -32zM319.5 768.5q-13.5 -18.5 -13.5 -43.5q0 -21 9 -31.5t25 -10.5q23 0 36.5 18.5t13.5 43.5q0 42 -34 42
q-23 0 -36.5 -18.5z" />
    <glyph glyph-name="aringacute" unicode="&#x1fb;" horiz-adv-x="522" 
d="M505 496l-50 -347q-2 -20 -2 -26q0 -15 5 -24t19 -15l-45 -98q-43 4 -73 24t-40 57q-29 -40 -64 -62t-80 -22q-72 0 -112 53.5t-40 144.5t29.5 175t94.5 138t165 54q98 0 193 -52zM231 401q-29 -39 -43 -99t-14 -123q0 -46 12.5 -65t37.5 -19q23 0 43.5 18t43.5 51
l38 268q-24 8 -45 8q-44 0 -73 -39zM441 802q30 -32 30 -82q0 -39 -18 -71t-50.5 -51t-74.5 -19q-52 0 -82 31.5t-30 81.5q0 38 18 70.5t50.5 52t73.5 19.5q53 0 83 -32zM314.5 739.5q-13.5 -18.5 -13.5 -43.5q0 -21 9 -31.5t25 -10.5q23 0 36.5 18.5t13.5 43.5q0 42 -34 42
q-23 0 -36.5 -18.5zM442 1032l49 -111l-224 -83l-34 72z" />
    <glyph glyph-name="uni2C65" unicode="&#x2c65;" horiz-adv-x="522" 
d="M453 123q0 -15 5 -24t19 -15l-45 -98q-43 4 -73 24t-40 57q-29 -40 -63.5 -62t-79.5 -22l-22 -57l-48 14l19 51q-50 16 -76 66t-26 124q0 91 29.5 175t94.5 138t165 54q17 0 25 -1l20 53l48 -13l-18 -47q62 -12 118 -44l-50 -347q-2 -20 -2 -26zM176 123l122 323
q-65 -5 -97 -86.5t-32 -183.5q0 -35 7 -53zM356 436l-7 3l-133 -350h6q25 0 49.5 19.5t44.5 53.5z" />
    <glyph glyph-name="atilde" unicode="&#xe3;" horiz-adv-x="522" 
d="M505 496l-50 -347q-2 -20 -2 -26q0 -15 5 -24t19 -15l-45 -98q-43 4 -73 24t-40 57q-29 -40 -64 -62t-80 -22q-72 0 -112 53.5t-40 144.5t29.5 175t94.5 138t165 54q98 0 193 -52zM231 401q-29 -39 -43 -99t-14 -123q0 -46 12.5 -65t37.5 -19q23 0 43.5 18t43.5 51
l38 268q-24 8 -45 8q-44 0 -73 -39zM361.5 644q-13.5 7 -32.5 20q-9 7 -19 12.5t-18 5.5q-15 0 -26.5 -10.5t-27.5 -34.5l-67 40q25 50 58.5 81.5t70.5 31.5q20 0 33.5 -7t31.5 -20q22 -18 36 -18q13 0 25 10t27 33l68 -38q-26 -51 -59.5 -82t-68.5 -31q-18 0 -31.5 7z" />
    <glyph glyph-name="uni0250" unicode="&#x250;" horiz-adv-x="488" 
d="M184 168q-2 -18 -2 -23q0 -28 14.5 -39t50.5 -11q53 0 120 24l29 -97q-43 -19 -91 -28.5t-93 -9.5q-89 0 -134 36t-45 107q0 17 3 36l30 219q2 20 2 27q0 14 -5 23t-18 15l44 98q41 -5 68.5 -21.5t39.5 -48.5q57 72 148 72q63 0 100 -38.5t37 -102.5q0 -100 -68.5 -151.5
t-179.5 -51.5h-45zM214 390l-14 -103h30q49 0 76 26t27 76t-42 50q-44 0 -77 -49z" />
    <glyph glyph-name="ae" unicode="&#xe6;" horiz-adv-x="760" 
d="M352 530.5q33 -16.5 55 -49.5q31 31 75 49t96 18q82 0 129 -40.5t47 -101.5q0 -102 -86.5 -149.5t-225.5 -62.5q1 -53 20.5 -76t59.5 -23q30 0 58 11.5t64 36.5l52 -89q-90 -71 -195 -71q-124 0 -174 84q-39 -45 -81 -64t-91 -19q-69 0 -109 38.5t-40 102.5
q0 84 58 139.5t196 55.5h50q7 29 18 56q-4 28 -27.5 43.5t-58.5 15.5q-55 0 -127 -25l-21 100q91 37 173 37q52 0 85 -16.5zM489 400.5q-28 -45.5 -39 -113.5q81 8 119.5 38.5t38.5 74.5q0 46 -45 46q-46 0 -74 -45.5zM261 233q-47 0 -72.5 -22.5t-25.5 -67.5q0 -52 44 -52
q24 0 45 16t46 48q-2 22 -2 40l1 38h-36z" />
    <glyph glyph-name="aeacute" unicode="&#x1fd;" horiz-adv-x="760" 
d="M352 530.5q33 -16.5 55 -49.5q31 31 75 49t96 18q82 0 129 -40.5t47 -101.5q0 -102 -86.5 -149.5t-225.5 -62.5q1 -53 20.5 -76t59.5 -23q30 0 58 11.5t64 36.5l52 -89q-90 -71 -195 -71q-124 0 -174 84q-39 -45 -81 -64t-91 -19q-69 0 -109 38.5t-40 102.5
q0 84 58 139.5t196 55.5h50q7 29 18 56q-4 28 -27.5 43.5t-58.5 15.5q-55 0 -127 -25l-21 100q91 37 173 37q52 0 85 -16.5zM489 400.5q-28 -45.5 -39 -113.5q81 8 119.5 38.5t38.5 74.5q0 46 -45 46q-46 0 -74 -45.5zM261 233q-47 0 -72.5 -22.5t-25.5 -67.5q0 -52 44 -52
q24 0 45 16t46 48q-2 22 -2 40l1 38h-36zM524 828l49 -111l-225 -93l-36 74z" />
    <glyph glyph-name="uni01E3" unicode="&#x1e3;" horiz-adv-x="760" 
d="M352 530.5q33 -16.5 55 -49.5q31 31 75 49t96 18q82 0 129 -40.5t47 -101.5q0 -102 -86.5 -149.5t-225.5 -62.5q1 -53 20.5 -76t59.5 -23q30 0 58 11.5t64 36.5l52 -89q-90 -71 -195 -71q-124 0 -174 84q-39 -45 -81 -64t-91 -19q-69 0 -109 38.5t-40 102.5
q0 84 58 139.5t196 55.5h50q7 29 18 56q-4 28 -27.5 43.5t-58.5 15.5q-55 0 -127 -25l-21 100q91 37 173 37q52 0 85 -16.5zM489 400.5q-28 -45.5 -39 -113.5q81 8 119.5 38.5t38.5 74.5q0 46 -45 46q-46 0 -74 -45.5zM261 233q-47 0 -72.5 -22.5t-25.5 -67.5q0 -52 44 -52
q24 0 45 16t46 48q-2 22 -2 40l1 38h-36zM573 656h-274l16 106h274z" />
    <glyph glyph-name="b" unicode="b" horiz-adv-x="531" 
d="M470 498q38 -50 38 -142q0 -158 -68.5 -265.5t-223.5 -107.5q-96 0 -197 43l100 716l150 16l-38 -272q27 29 61.5 45.5t71.5 16.5q68 0 106 -50zM216 378l-38 -274q30 -10 56 -10q42 0 69.5 39.5t40 99t12.5 118.5q0 47 -13.5 66t-38.5 19q-43 0 -88 -58z" />
    <glyph glyph-name="uni1E03" unicode="&#x1e03;" horiz-adv-x="531" 
d="M470 498q38 -50 38 -142q0 -158 -68.5 -265.5t-223.5 -107.5q-96 0 -197 43l100 716l150 16l-38 -272q27 29 61.5 45.5t71.5 16.5q68 0 106 -50zM216 378l-38 -274q30 -10 56 -10q42 0 69.5 39.5t40 99t12.5 118.5q0 47 -13.5 66t-38.5 19q-43 0 -88 -58zM314.5 830
q-21.5 21 -21.5 55q0 42 28 69.5t70 27.5q36 0 57 -21t21 -55q0 -42 -28 -69.5t-69 -27.5q-36 0 -57.5 21z" />
    <glyph glyph-name="uni1E05" unicode="&#x1e05;" horiz-adv-x="531" 
d="M470 498q38 -50 38 -142q0 -158 -68.5 -265.5t-223.5 -107.5q-96 0 -197 43l100 716l150 16l-38 -272q27 29 61.5 45.5t71.5 16.5q68 0 106 -50zM216 378l-38 -274q30 -10 56 -10q42 0 69.5 39.5t40 99t12.5 118.5q0 47 -13.5 66t-38.5 19q-43 0 -88 -58zM269.5 -83
q21.5 -21 21.5 -55q0 -42 -28 -69.5t-70 -27.5q-36 0 -57 21t-21 55q0 42 28 69.5t69 27.5q36 0 57.5 -21z" />
    <glyph glyph-name="uniA7B5" unicode="&#xa7b5;" horiz-adv-x="542" 
d="M92 551q14 98 77.5 152.5t158.5 54.5q86 0 136.5 -47t50.5 -121q0 -65 -36 -117.5t-116 -69.5q62 -5 105.5 -43.5t43.5 -116.5q0 -59 -24.5 -118.5t-77 -100t-130.5 -40.5q-72 0 -119 42l-31 -230l-146 -18zM336.5 144.5q27.5 45.5 27.5 102.5q0 99 -93 99h-31l24 103h20
q42 0 63.5 41.5t21.5 92.5q0 68 -52 68q-67 0 -82 -103l-59 -422q30 -27 76 -27q57 0 84.5 45.5z" />
    <glyph glyph-name="uni0253" unicode="&#x253;" horiz-adv-x="531" 
d="M470.5 498q37.5 -50 37.5 -142q0 -158 -68.5 -265.5t-223.5 -107.5q-96 0 -197 43l70 504l9 61q11 75 63.5 121t139.5 46q70 0 131 -34l-53 -95q-34 17 -70 17q-29 0 -44.5 -16t-20.5 -52l-6 -48l-6 -44q26 29 60.5 45.5t71.5 16.5q69 0 106.5 -50zM303.5 133.5
q27.5 39.5 40 99t12.5 118.5q0 47 -13.5 66t-38.5 19q-43 0 -88 -58l-38 -274q30 -10 56 -10q42 0 69.5 39.5z" />
    <glyph glyph-name="uni02AD" unicode="&#x2ad;" horiz-adv-x="336" 
d="M323 399h-88l11 88h-95l-13 -88h-88l23 163h273zM267 -1h-88l11 88h-95l-13 -88h-88l23 163h273z" />
    <glyph glyph-name="uni0298" unicode="&#x298;" horiz-adv-x="719" 
d="M572 675q64 -35 98.5 -100t34.5 -154q0 -128 -48.5 -227.5t-135.5 -154.5t-200 -55q-86 0 -150 35t-98.5 100t-34.5 155q0 128 49 227t136 154t199 55q86 0 150 -35zM286 560q-52 -44 -77.5 -120t-25.5 -172q0 -91 38.5 -135t109.5 -44q75 0 126.5 43.5t77 119
t25.5 171.5q0 91 -39 136t-108 45q-75 0 -127 -44zM315 284.5q-19 18.5 -19 48.5q0 37 25 61.5t62 24.5q32 0 50 -18.5t18 -48.5q0 -36 -24.5 -61t-60.5 -25q-32 0 -51 18.5z" />
    <glyph glyph-name="uni02AC" unicode="&#x2ac;" horiz-adv-x="424" 
d="M449 667l-91 -267h-94l-3 195l-60 -195h-93l-20 267h69l7 -206l65 206h86l4 -207l63 207h67zM393 267l-91 -267h-94l-3 195l-60 -195h-93l-20 267h69l7 -206l65 206h86l4 -207l63 207h67z" />
    <glyph glyph-name="uni0180" unicode="&#x180;" horiz-adv-x="541" 
d="M479 498q38 -50 38 -142q0 -158 -68.5 -265.5t-223.5 -107.5q-96 0 -197 43l80 572h-53l14 90h51l8 54l150 16l-10 -70h123l-25 -90h-110l-16 -112q27 29 61.5 45.5t71.5 16.5q68 0 106 -50zM312.5 133.5q27.5 39.5 40 99t12.5 118.5q0 47 -13.5 66t-38.5 19
q-43 0 -88 -58l-38 -274q30 -10 56 -10q42 0 69.5 39.5z" />
    <glyph glyph-name="uni0183" unicode="&#x183;" horiz-adv-x="532" 
d="M470 486q37 -50 37 -143q0 -94 -27.5 -175t-92.5 -133t-171 -52q-96 0 -197 43l100 716h343l-33 -109h-178l-22 -158q28 29 63 45t72 16q69 0 106 -50zM302.5 133q27.5 39 40.5 95t13 109q0 49 -13.5 68.5t-38.5 19.5q-22 0 -45.5 -16t-44.5 -43l-36 -262q30 -10 56 -10
q41 0 68.5 39z" />
    <glyph glyph-name="c" unicode="c" horiz-adv-x="430" 
d="M459 481l-73 -83q-21 18 -40 26t-41 8q-66 0 -95.5 -71.5t-29.5 -162.5q0 -53 18 -74.5t52 -21.5q23 0 43.5 8t48.5 26l54 -92q-77 -61 -168 -61q-95 0 -149 58.5t-54 160.5q0 87 31 166.5t93.5 129.5t152.5 50q95 0 157 -67z" />
    <glyph glyph-name="cacute" unicode="&#x107;" horiz-adv-x="430" 
d="M459 481l-73 -83q-21 18 -40 26t-41 8q-66 0 -95.5 -71.5t-29.5 -162.5q0 -53 18 -74.5t52 -21.5q23 0 43.5 8t48.5 26l54 -92q-77 -61 -168 -61q-95 0 -149 58.5t-54 160.5q0 87 31 166.5t93.5 129.5t152.5 50q95 0 157 -67zM403 828l49 -111l-225 -93l-36 74z" />
    <glyph glyph-name="ccaron" unicode="&#x10d;" horiz-adv-x="430" 
d="M459 481l-73 -83q-21 18 -40 26t-41 8q-66 0 -95.5 -71.5t-29.5 -162.5q0 -53 18 -74.5t52 -21.5q23 0 43.5 8t48.5 26l54 -92q-77 -61 -168 -61q-95 0 -149 58.5t-54 160.5q0 87 31 166.5t93.5 129.5t152.5 50q95 0 157 -67zM450 808l49 -61l-145 -134h-90l-108 134
l56 61l105 -90z" />
    <glyph glyph-name="ccedilla" unicode="&#xe7;" horiz-adv-x="430" 
d="M252 -16l-5 -35q40 -5 61 -27.5t21 -58.5q0 -29 -15 -57.5t-48.5 -47t-85.5 -18.5q-60 0 -100 32l42 66q14 -8 26.5 -11.5t28.5 -3.5q20 0 32.5 9t13.5 26q0 17 -17.5 24t-60.5 7l25 101q-69 17 -107 72t-38 140q0 87 31 166.5t93.5 129.5t152.5 50q95 0 157 -67l-73 -83
q-21 18 -40 26t-41 8q-66 0 -95.5 -71.5t-29.5 -162.5q0 -53 18 -74.5t52 -21.5q23 0 43.5 8t48.5 26l54 -92q-67 -53 -144 -60z" />
    <glyph glyph-name="ccircumflex" unicode="&#x109;" horiz-adv-x="430" 
d="M459 481l-73 -83q-21 18 -40 26t-41 8q-66 0 -95.5 -71.5t-29.5 -162.5q0 -53 18 -74.5t52 -21.5q23 0 43.5 8t48.5 26l54 -92q-77 -61 -168 -61q-95 0 -149 58.5t-54 160.5q0 87 31 166.5t93.5 129.5t152.5 50q95 0 157 -67zM195 623l-49 61l145 135h90l111 -139
l-62 -57l-105 91z" />
    <glyph glyph-name="uni0255" unicode="&#x255;" horiz-adv-x="456" 
d="M401 223.5q29 -27.5 29 -77.5q0 -77 -54 -119.5t-136 -42.5q-36 0 -64 7l-40 -74l-65 30l40 73q-42 26 -64 73.5t-22 111.5q0 86 31 164.5t93.5 128.5t152.5 50q95 0 157 -67l-73 -83q-21 18 -40 26t-41 8q-66 0 -95.5 -71.5t-29.5 -162.5q0 -36 4 -53q29 56 63 81t78 25
q47 0 76 -27.5zM312 106.5q16 13.5 17 38.5q0 25 -23 25q-18 0 -35 -17t-37 -56q15 -4 35 -4q27 0 43 13.5z" />
    <glyph glyph-name="cdotaccent" unicode="&#x10b;" horiz-adv-x="430" 
d="M459 481l-73 -83q-21 18 -40 26t-41 8q-66 0 -95.5 -71.5t-29.5 -162.5q0 -53 18 -74.5t52 -21.5q23 0 43.5 8t48.5 26l54 -92q-77 -61 -168 -61q-95 0 -149 58.5t-54 160.5q0 87 31 166.5t93.5 129.5t152.5 50q95 0 157 -67zM257.5 655q-21.5 21 -21.5 55q0 42 28 69.5
t70 27.5q36 0 57 -21t21 -55q0 -42 -28 -69.5t-69 -27.5q-36 0 -57.5 21z" />
    <glyph glyph-name="uni0188" unicode="&#x188;" horiz-adv-x="430" 
d="M636 719l-54 -90q-29 17 -56 17q-23 0 -35.5 -15.5t-17.5 -48.5l-14 -101l-66 -76q-44 27 -88 27q-66 0 -95.5 -71.5t-29.5 -162.5q0 -53 18 -74.5t52 -21.5q23 0 43.5 8t48.5 26l54 -92q-77 -61 -168 -61q-95 0 -149 58.5t-54 160.5q0 86 30.5 165.5t89.5 130t139 50.5
q28 0 54 -9l9 65q11 75 54 114.5t115 39.5q69 0 120 -39z" />
    <glyph glyph-name="uni0297" unicode="&#x297;" horiz-adv-x="445" 
d="M406 531.5q37 -16.5 68 -49.5l-72 -83q-20 17 -38.5 25t-40.5 8q-51 0 -85.5 -59.5t-51 -149t-16.5 -182.5q0 -81 17.5 -112t51.5 -31q23 0 43 8t47 26l54 -92q-77 -61 -166 -61q-96 0 -148 67t-53 196q0 139 36 254.5t105 183.5t164 68q48 0 85 -16.5z" />
    <glyph glyph-name="uni023C" unicode="&#x23c;" horiz-adv-x="430" 
d="M293.5 110q20.5 8 48.5 26l54 -92q-77 -61 -168 -61q-20 0 -38 3l-23 -60l-48 14l22 59q-56 23 -86 75.5t-30 127.5q0 87 31 166.5t93.5 129.5t152.5 50q27 0 47 -4l21 56l48 -13l-22 -59q34 -16 63 -47l-73 -83q-16 13 -31 22l-121 -317q5 -1 16 -1q23 0 43.5 8z
M192 133l114 299h-1q-66 0 -95.5 -71.5t-29.5 -162.5q0 -42 12 -65z" />
    <glyph glyph-name="d" unicode="d" horiz-adv-x="534" 
d="M548 742l-104 -742h-131l2 71q-27 -42 -62 -65t-81 -23q-72 0 -110.5 52.5t-38.5 147.5q0 87 26 171t79.5 139t130.5 55q68 0 107 -52l36 261zM225 396q-26 -41 -37.5 -100t-11.5 -114q0 -48 13 -68t36 -20q26 0 49.5 23t47.5 64l30 217q-13 20 -27.5 29.5t-34.5 9.5
q-39 0 -65 -41z" />
    <glyph glyph-name="eth" unicode="&#xf0;" horiz-adv-x="528" 
d="M470.5 544.5q28.5 -68.5 28.5 -159.5q0 -111 -32 -202t-95 -145t-152 -54q-90 0 -144 54t-54 150q0 69 27 136.5t77.5 111t116.5 43.5q69 0 113 -49q-5 52 -19.5 87.5t-46.5 67.5l-58 -56l-84 45l64 62q-36 13 -79 23l40 98q60 -12 124 -40l80 78l66 -64l-64 -64
q63 -54 91.5 -122.5zM311.5 154.5q24.5 60.5 36.5 174.5q-25 43 -73 43q-55 0 -79.5 -59.5t-24.5 -131.5q0 -87 61 -87q55 0 79.5 60.5z" />
    <glyph glyph-name="uni0238" unicode="&#x238;" horiz-adv-x="778" 
d="M720.5 495.5q34.5 -51.5 34.5 -146.5q0 -94 -27.5 -178t-78.5 -135.5t-118 -51.5q-68 0 -103 76l-17 -60h-115v64q-52 -80 -128 -80q-69 0 -106.5 54t-37.5 149q0 92 28 175t79.5 134t117.5 51q32 0 57.5 -16.5t39.5 -46.5l36 258l151 16l-38 -277q25 31 57 48.5t70 17.5
q64 0 98.5 -51.5zM301 161l32 229q-21 47 -56 47q-32 0 -54.5 -37.5t-34 -94t-11.5 -113.5q0 -53 12 -75t34 -22q41 0 78 66zM557.5 133q22.5 39 33.5 97t11 114q0 51 -11.5 71.5t-33.5 20.5q-38 0 -76 -54l-32 -231q11 -30 23.5 -43.5t31.5 -13.5q31 0 53.5 39z" />
    <glyph glyph-name="dcaron" unicode="&#x10f;" horiz-adv-x="613" 
d="M548 742l-104 -742h-131l2 71q-27 -42 -62 -65t-81 -23q-72 0 -110.5 52.5t-38.5 147.5q0 87 26 171t79.5 139t130.5 55q68 0 107 -52l36 261zM225 396q-26 -41 -37.5 -100t-11.5 -114q0 -48 13 -68t36 -20q26 0 49.5 23t47.5 64l30 217q-13 20 -27.5 29.5t-34.5 9.5
q-39 0 -65 -41zM596 755l108 -14l-73 -211l-75 8z" />
    <glyph glyph-name="uni1E13" unicode="&#x1e13;" horiz-adv-x="534" 
d="M548 742l-104 -742h-131l2 71q-27 -42 -62 -65t-81 -23q-72 0 -110.5 52.5t-38.5 147.5q0 87 26 171t79.5 139t130.5 55q68 0 107 -52l36 261zM225 396q-26 -41 -37.5 -100t-11.5 -114q0 -48 13 -68t36 -20q26 0 49.5 23t47.5 64l30 217q-13 20 -27.5 29.5t-34.5 9.5
q-39 0 -65 -41zM84 -259l-50 61l146 134h90l111 -138l-62 -57l-105 91z" />
    <glyph glyph-name="dcroat" unicode="&#x111;" horiz-adv-x="544" 
d="M594 687l-13 -90h-53l-84 -597h-131l2 71q-27 -42 -62 -65t-81 -23q-72 0 -110.5 52.5t-38.5 147.5q0 87 26 171t79.5 139t130.5 55q68 0 107 -52l14 101h-112l2 90h122l10 70l146 -15l-8 -55h54zM352 398q-13 20 -27.5 29.5t-34.5 9.5q-39 0 -65 -41t-37.5 -100
t-11.5 -114q0 -48 13 -68t36 -20q26 0 49.5 23t47.5 64z" />
    <glyph glyph-name="uni0221" unicode="&#x221;" horiz-adv-x="711" 
d="M670.5 215q27.5 -27 27.5 -73q0 -76 -53.5 -117t-135.5 -41q-25 0 -47 3l-37 -70l-65 30l34 60q-48 25 -67 77q-64 -101 -155 -101q-72 0 -110.5 52.5t-38.5 147.5q0 87 26 171t79.5 139t132.5 55q66 0 105 -52l36 261l146 -15l-82 -584q-2 -17 -1 -24q27 57 58.5 82.5
t76.5 25.5q43 0 70.5 -27zM352 398q-13 20 -27.5 29.5t-34.5 9.5q-39 0 -65 -41t-37.5 -100t-11.5 -114q0 -48 13 -68t37 -20q25 0 48 23t48 65zM582 105.5q16 12.5 16 33.5q0 22 -19 22q-15 0 -28 -14t-32 -53q6 -1 20 -1q27 0 43 12.5z" />
    <glyph glyph-name="uni1E0B" unicode="&#x1e0b;" horiz-adv-x="534" 
d="M548 742l-104 -742h-131l2 71q-27 -42 -62 -65t-81 -23q-72 0 -110.5 52.5t-38.5 147.5q0 87 26 171t79.5 139t130.5 55q68 0 107 -52l36 261zM225 396q-26 -41 -37.5 -100t-11.5 -114q0 -48 13 -68t36 -20q26 0 49.5 23t47.5 64l30 217q-13 20 -27.5 29.5t-34.5 9.5
q-39 0 -65 -41zM282.5 830q-21.5 21 -21.5 55q0 42 28 69.5t70 27.5q36 0 57 -21t21 -55q0 -42 -28 -69.5t-69 -27.5q-36 0 -57.5 21z" />
    <glyph glyph-name="uni1E0D" unicode="&#x1e0d;" horiz-adv-x="534" 
d="M548 742l-104 -742h-131l2 71q-27 -42 -62 -65t-81 -23q-72 0 -110.5 52.5t-38.5 147.5q0 87 26 171t79.5 139t130.5 55q68 0 107 -52l36 261zM225 396q-26 -41 -37.5 -100t-11.5 -114q0 -48 13 -68t36 -20q26 0 49.5 23t47.5 64l30 217q-13 20 -27.5 29.5t-34.5 9.5
q-39 0 -65 -41zM281.5 -83q21.5 -21 21.5 -55q0 -42 -28 -69.5t-70 -27.5q-36 0 -57 21t-21 55q0 42 28 69.5t69 27.5q36 0 57.5 -21z" />
    <glyph glyph-name="uni018D" unicode="&#x18d;" horiz-adv-x="523" 
d="M13 -150l76 72q21 -21 43.5 -30.5t51.5 -9.5q34 0 50.5 16.5t16.5 42.5q0 21 -15 36.5t-59 36.5q-78 39 -114 87.5t-36 124.5q0 70 28 144t89 125.5t155 51.5q62 0 107.5 -27t69 -74t23.5 -106q0 -97 -40 -166.5t-137 -113.5q70 -49 70 -118q0 -42 -23 -79.5t-69.5 -61
t-112.5 -23.5q-113 0 -174 72zM327 206.5q20 57.5 20 137.5q0 45 -15 68.5t-45 23.5q-55 0 -81.5 -65t-26.5 -150q0 -42 15.5 -68.5t55.5 -50.5q57 47 77 104.5z" />
    <glyph glyph-name="uni02A4" unicode="&#x2a4;" horiz-adv-x="913" 
d="M891 427l-194 -218q83 -6 126 -48.5t43 -117.5q0 -79 -35.5 -139t-98 -92.5t-140.5 -32.5q-133 0 -200 103l88 72q28 -32 53.5 -45.5t60.5 -13.5q55 0 87.5 39t32.5 106q0 45 -23.5 63.5t-71.5 18.5h-85l1 1l12 88l182 207h-226l-59 -418h-131l2 71q-27 -42 -62 -65
t-81 -23q-72 0 -110.5 52.5t-38.5 147.5q0 87 26 171t79.5 139t130.5 55q68 0 107 -52l36 261l146 -15l-30 -211h387zM352 398q-13 20 -27.5 29.5t-34.5 9.5q-39 0 -65 -41t-37.5 -100t-11.5 -114q0 -48 13 -68t36 -20q26 0 49.5 23t47.5 64z" />
    <glyph glyph-name="uni0257" unicode="&#x257;" horiz-adv-x="533" 
d="M690 719l-56 -90q-28 17 -55 17q-22 0 -34.5 -14.5t-17.5 -44.5l-8 -56h-1l-74 -531h-131l2 71q-27 -42 -62 -65t-81 -23q-72 0 -110.5 52.5t-38.5 147.5q0 87 26 171t79.5 139t132.5 55q66 0 105 -52l4 35h1l7 54q11 79 60.5 126t131.5 47q67 0 120 -39zM352 398
q-12 20 -26.5 29.5t-35.5 9.5q-39 0 -65 -41t-37.5 -100t-11.5 -114q0 -48 13 -68t37 -20q25 0 48.5 23t46.5 64z" />
    <glyph glyph-name="uni1E0F" unicode="&#x1e0f;" horiz-adv-x="534" 
d="M548 742l-104 -742h-131l2 71q-27 -42 -62 -65t-81 -23q-72 0 -110.5 52.5t-38.5 147.5q0 87 26 171t79.5 139t130.5 55q68 0 107 -52l36 261zM225 396q-26 -41 -37.5 -100t-11.5 -114q0 -48 13 -68t36 -20q26 0 49.5 23t47.5 64l30 217q-13 20 -27.5 29.5t-34.5 9.5
q-39 0 -65 -41zM95 -83h274l-16 -106h-274z" />
    <glyph glyph-name="uni0256" unicode="&#x256;" horiz-adv-x="537" 
d="M580 -180q-56 -41 -134 -41q-74 0 -115.5 38.5t-41.5 110.5q0 10 2 34l5 38l9 61q-22 -35 -55.5 -56.5t-77.5 -21.5q-72 0 -110.5 52.5t-38.5 147.5q0 87 26 171t79.5 139t132.5 55q66 0 105 -52l36 261l146 -15l-104 -742l-7 -55q-1 -5 -1 -13q0 -42 41 -42
q18 0 31.5 4.5t31.5 13.5zM274.5 117q23.5 23 46.5 64l31 217q-12 20 -26.5 29.5t-35.5 9.5q-39 0 -65 -41t-37.5 -100t-11.5 -114q0 -48 13 -68t37 -20q25 0 48.5 23z" />
    <glyph glyph-name="uni018C" unicode="&#x18c;" horiz-adv-x="534" 
d="M444 0h-131l2 71q-58 -88 -143 -88q-73 0 -111 52t-38 148q0 84 26 165t79 134.5t130 53.5q67 0 106 -52l20 149h-187l15 109h336zM350 386q-12 20 -26.5 29.5t-35.5 9.5q-38 0 -63.5 -39.5t-37.5 -96t-12 -107.5q0 -48 13 -68t37 -20q25 0 48.5 23t47.5 64z" />
    <glyph glyph-name="uni01F3" unicode="&#x1f3;" horiz-adv-x="944" 
d="M548 742l-104 -742h-131l2 71q-27 -42 -62 -65t-81 -23q-72 0 -110.5 52.5t-38.5 147.5q0 87 26 171t79.5 139t130.5 55q68 0 107 -52l36 261zM225 396q-26 -41 -37.5 -100t-11.5 -114q0 -48 13 -68t36 -20q26 0 49.5 23t47.5 64l30 217q-13 20 -27.5 29.5t-34.5 9.5
q-39 0 -65 -41zM961 531l-15 -107l-245 -309h209l-31 -115h-372l15 107l246 310h-185l17 114h361z" />
    <glyph glyph-name="uni02A3" unicode="&#x2a3;" horiz-adv-x="880" 
d="M882 424l-248 -309h211l-30 -115h-502l2 71q-27 -42 -62 -65t-81 -23q-72 0 -110.5 52.5t-38.5 147.5q0 87 26 171t79.5 139t130.5 55q68 0 107 -52l36 261l146 -15l-30 -211h379zM352 398q-13 20 -27.5 29.5t-34.5 9.5q-39 0 -65 -41t-37.5 -100t-11.5 -114
q0 -48 13 -68t36 -20q26 0 49.5 23t47.5 64zM459 106l246 311h-203z" />
    <glyph glyph-name="uni01C6" unicode="&#x1c6;" horiz-adv-x="944" 
d="M548 742l-104 -742h-131l2 71q-27 -42 -62 -65t-81 -23q-72 0 -110.5 52.5t-38.5 147.5q0 87 26 171t79.5 139t130.5 55q68 0 107 -52l36 261zM225 396q-26 -41 -37.5 -100t-11.5 -114q0 -48 13 -68t36 -20q26 0 49.5 23t47.5 64l30 217q-13 20 -27.5 29.5t-34.5 9.5
q-39 0 -65 -41zM961 531l-15 -107l-245 -309h209l-31 -115h-372l15 107l246 310h-185l17 114h361zM933 808l49 -61l-145 -134h-90l-108 134l56 61l105 -90z" />
    <glyph glyph-name="uni02A5" unicode="&#x2a5;" horiz-adv-x="962" 
d="M936.5 233q28.5 -27 28.5 -75q0 -81 -55.5 -120t-147.5 -38l4 12l-7 -12h-4q-9 -34 -15.5 -78t-7.5 -51l-83 3q9 66 23 126h-359l2 71q-27 -42 -62 -65t-81 -23q-72 0 -110.5 52.5t-38.5 147.5q0 87 26 171t79.5 139t130.5 55q68 0 107 -52l36 261l146 -15l-30 -211h378
l-14 -99l-256 -317h78q29 78 67 111.5t89 33.5q48 0 76.5 -27zM352 398q-13 20 -27.5 29.5t-34.5 9.5q-39 0 -65 -41t-37.5 -100t-11.5 -114q0 -48 13 -68t36 -20q26 0 49.5 23t47.5 64zM502 417l-43 -307l248 307h-205zM848 125q18 10 18 33q0 22 -21 22q-36 0 -58 -65h8
q35 0 53 10z" />
    <glyph glyph-name="e" unicode="e" horiz-adv-x="490" 
d="M437 507.5q47 -40.5 47 -101.5q0 -102 -86.5 -150t-224.5 -63v-2q0 -51 20.5 -73.5t58.5 -22.5q30 0 58 11.5t64 36.5l52 -89q-90 -71 -195 -71q-99 0 -153 55.5t-54 156.5q0 89 30 169.5t94 132t160 51.5q82 0 129 -40.5zM300 324.5q38 31.5 38 76.5q0 20 -10.5 32.5
t-33.5 12.5q-46 0 -73.5 -45.5t-39.5 -114.5q81 7 119 38.5z" />
    <glyph glyph-name="eacute" unicode="&#xe9;" horiz-adv-x="490" 
d="M437 507.5q47 -40.5 47 -101.5q0 -102 -86.5 -150t-224.5 -63v-2q0 -51 20.5 -73.5t58.5 -22.5q30 0 58 11.5t64 36.5l52 -89q-90 -71 -195 -71q-99 0 -153 55.5t-54 156.5q0 89 30 169.5t94 132t160 51.5q82 0 129 -40.5zM300 324.5q38 31.5 38 76.5q0 20 -10.5 32.5
t-33.5 12.5q-46 0 -73.5 -45.5t-39.5 -114.5q81 7 119 38.5zM403 828l49 -111l-225 -93l-36 74z" />
    <glyph glyph-name="ebreve" unicode="&#x115;" horiz-adv-x="490" 
d="M437 507.5q47 -40.5 47 -101.5q0 -102 -86.5 -150t-224.5 -63v-2q0 -51 20.5 -73.5t58.5 -22.5q30 0 58 11.5t64 36.5l52 -89q-90 -71 -195 -71q-99 0 -153 55.5t-54 156.5q0 89 30 169.5t94 132t160 51.5q82 0 129 -40.5zM300 324.5q38 31.5 38 76.5q0 20 -10.5 32.5
t-33.5 12.5q-46 0 -73.5 -45.5t-39.5 -114.5q81 7 119 38.5zM205 682q-35 48 -30 121l81 12q5 -76 62 -76q30 0 52.5 21t35.5 58l78 -18q-15 -74 -60 -120t-113 -46q-71 0 -106 48z" />
    <glyph glyph-name="ecaron" unicode="&#x11b;" horiz-adv-x="490" 
d="M437 507.5q47 -40.5 47 -101.5q0 -102 -86.5 -150t-224.5 -63v-2q0 -51 20.5 -73.5t58.5 -22.5q30 0 58 11.5t64 36.5l52 -89q-90 -71 -195 -71q-99 0 -153 55.5t-54 156.5q0 89 30 169.5t94 132t160 51.5q82 0 129 -40.5zM300 324.5q38 31.5 38 76.5q0 20 -10.5 32.5
t-33.5 12.5q-46 0 -73.5 -45.5t-39.5 -114.5q81 7 119 38.5zM450 808l49 -61l-145 -134h-90l-108 134l56 61l105 -90z" />
    <glyph glyph-name="uni0229" unicode="&#x229;" horiz-adv-x="490" 
d="M437 507.5q47 -40.5 47 -101.5q0 -102 -86.5 -150t-224.5 -63v-2q0 -51 20.5 -73.5t58.5 -22.5q30 0 58 11.5t64 36.5l52 -89q-77 -60 -160 -69l-5 -36q40 -5 61 -27.5t21 -58.5q0 -29 -15 -57.5t-48.5 -47t-85.5 -18.5q-60 0 -100 32l42 66q14 -8 26.5 -11.5t28.5 -3.5
q20 0 32.5 9t13.5 26q0 17 -17.5 24t-60.5 7l24 98q-77 13 -118 66.5t-41 141.5q0 89 30 169.5t94 132t160 51.5q82 0 129 -40.5zM300 324.5q38 31.5 38 76.5q0 20 -10.5 32.5t-33.5 12.5q-46 0 -73.5 -45.5t-39.5 -114.5q81 7 119 38.5z" />
    <glyph glyph-name="ecircumflex" unicode="&#xea;" horiz-adv-x="490" 
d="M437 507.5q47 -40.5 47 -101.5q0 -102 -86.5 -150t-224.5 -63v-2q0 -51 20.5 -73.5t58.5 -22.5q30 0 58 11.5t64 36.5l52 -89q-90 -71 -195 -71q-99 0 -153 55.5t-54 156.5q0 89 30 169.5t94 132t160 51.5q82 0 129 -40.5zM300 324.5q38 31.5 38 76.5q0 20 -10.5 32.5
t-33.5 12.5q-46 0 -73.5 -45.5t-39.5 -114.5q81 7 119 38.5zM195 623l-49 61l145 135h90l111 -139l-62 -57l-105 91z" />
    <glyph glyph-name="uni1EBF" unicode="&#x1ebf;" horiz-adv-x="490" 
d="M625 872l-164 -142l-52 49l143 171zM315 671l-129 -85l-51 61l145 128h90l111 -132l-58 -57zM437 507.5q47 -40.5 47 -101.5q0 -102 -86.5 -150t-224.5 -63v-2q0 -51 20.5 -73.5t58.5 -22.5q30 0 58 11.5t64 36.5l52 -89q-90 -71 -195 -71q-99 0 -153 55.5t-54 156.5
q0 89 30 169.5t94 132t160 51.5q82 0 129 -40.5zM300 324.5q38 31.5 38 76.5q0 20 -10.5 32.5t-33.5 12.5q-46 0 -73.5 -45.5t-39.5 -114.5q81 7 119 38.5z" />
    <glyph glyph-name="uni1EC7" unicode="&#x1ec7;" horiz-adv-x="490" 
d="M437 507.5q47 -40.5 47 -101.5q0 -102 -86.5 -150t-224.5 -63v-2q0 -51 20.5 -73.5t58.5 -22.5q30 0 58 11.5t64 36.5l52 -89q-90 -71 -195 -71q-99 0 -153 55.5t-54 156.5q0 89 30 169.5t94 132t160 51.5q82 0 129 -40.5zM300 324.5q38 31.5 38 76.5q0 20 -10.5 32.5
t-33.5 12.5q-46 0 -73.5 -45.5t-39.5 -114.5q81 7 119 38.5zM195 623l-49 61l145 135h90l111 -139l-62 -57l-105 91zM273.5 -83q21.5 -21 21.5 -55q0 -42 -28 -69.5t-70 -27.5q-36 0 -57 21t-21 55q0 42 28 69.5t69 27.5q36 0 57.5 -21z" />
    <glyph glyph-name="uni1EC1" unicode="&#x1ec1;" horiz-adv-x="490" 
d="M236 774l-61 -44l-125 148l90 69zM185 586l-51 61l145 128h90l111 -132l-58 -57l-108 85zM437 507.5q47 -40.5 47 -101.5q0 -102 -86.5 -150t-224.5 -63v-2q0 -51 20.5 -73.5t58.5 -22.5q30 0 58 11.5t64 36.5l52 -89q-90 -71 -195 -71q-99 0 -153 55.5t-54 156.5
q0 89 30 169.5t94 132t160 51.5q82 0 129 -40.5zM300 324.5q38 31.5 38 76.5q0 20 -10.5 32.5t-33.5 12.5q-46 0 -73.5 -45.5t-39.5 -114.5q81 7 119 38.5z" />
    <glyph glyph-name="uni1EC3" unicode="&#x1ec3;" horiz-adv-x="490" 
d="M437 507.5q47 -40.5 47 -101.5q0 -102 -86.5 -150t-224.5 -63v-2q0 -51 20.5 -73.5t58.5 -22.5q30 0 58 11.5t64 36.5l52 -89q-90 -71 -195 -71q-99 0 -153 55.5t-54 156.5q0 89 30 169.5t94 132t160 51.5q82 0 129 -40.5zM300 324.5q38 31.5 38 76.5q0 20 -10.5 32.5
t-33.5 12.5q-46 0 -73.5 -45.5t-39.5 -114.5q81 7 119 38.5zM184 586l-51 61l145 128h90l111 -132l-58 -57l-108 85zM435 848q36 3 52.5 13t16.5 32q0 26 -30 26q-23 0 -54 -14l-17 66q45 24 96 24q50 0 78 -25.5t28 -67.5t-23.5 -66.5t-65.5 -32.5l-8 -53h-86z" />
    <glyph glyph-name="uni1EC5" unicode="&#x1ec5;" horiz-adv-x="490" 
d="M264.5 830q-11.5 -10 -27.5 -32l-66 37q25 48 58 77.5t69 29.5q20 0 34 -7t31 -19q11 -9 19 -13t16 -4q14 0 25.5 9.5t26.5 31.5l67 -36q-26 -48 -59 -77t-68 -29q-17 0 -31.5 6.5t-31.5 18.5q-9 7 -18.5 12t-17.5 5q-15 0 -26.5 -10zM315 666l-129 -85l-51 61l145 128
h90l111 -132l-58 -57zM437 507.5q47 -40.5 47 -101.5q0 -102 -86.5 -150t-224.5 -63v-2q0 -51 20.5 -73.5t58.5 -22.5q30 0 58 11.5t64 36.5l52 -89q-90 -71 -195 -71q-99 0 -153 55.5t-54 156.5q0 89 30 169.5t94 132t160 51.5q82 0 129 -40.5zM300 324.5q38 31.5 38 76.5
q0 20 -10.5 32.5t-33.5 12.5q-46 0 -73.5 -45.5t-39.5 -114.5q81 7 119 38.5z" />
    <glyph glyph-name="uni0205" unicode="&#x205;" horiz-adv-x="490" 
d="M437 507.5q47 -40.5 47 -101.5q0 -102 -86.5 -150t-224.5 -63v-2q0 -51 20.5 -73.5t58.5 -22.5q30 0 58 11.5t64 36.5l52 -89q-90 -71 -195 -71q-99 0 -153 55.5t-54 156.5q0 89 30 169.5t94 132t160 51.5q82 0 129 -40.5zM300 324.5q38 31.5 38 76.5q0 20 -10.5 32.5
t-33.5 12.5q-46 0 -73.5 -45.5t-39.5 -114.5q81 7 119 38.5zM227 857l62 -196l-83 -35l-88 183zM385 857l54 -196l-82 -30l-81 181z" />
    <glyph glyph-name="edieresis" unicode="&#xeb;" horiz-adv-x="490" 
d="M437 507.5q47 -40.5 47 -101.5q0 -102 -86.5 -150t-224.5 -63v-2q0 -51 20.5 -73.5t58.5 -22.5q30 0 58 11.5t64 36.5l52 -89q-90 -71 -195 -71q-99 0 -153 55.5t-54 156.5q0 89 30 169.5t94 132t160 51.5q82 0 129 -40.5zM300 324.5q38 31.5 38 76.5q0 20 -10.5 32.5
t-33.5 12.5q-46 0 -73.5 -45.5t-39.5 -114.5q81 7 119 38.5zM160.5 661.5q-18.5 18.5 -18.5 47.5q0 37 24.5 61.5t60.5 24.5q32 0 50.5 -18.5t18.5 -47.5q0 -37 -24.5 -61.5t-60.5 -24.5q-32 0 -50.5 18.5zM371 661.5q-19 18.5 -19 47.5q0 37 24.5 61.5t60.5 24.5
q31 0 50 -18.5t19 -47.5q0 -37 -24.5 -61.5t-60.5 -24.5q-31 0 -50 18.5z" />
    <glyph glyph-name="edotaccent" unicode="&#x117;" horiz-adv-x="490" 
d="M437 507.5q47 -40.5 47 -101.5q0 -102 -86.5 -150t-224.5 -63v-2q0 -51 20.5 -73.5t58.5 -22.5q30 0 58 11.5t64 36.5l52 -89q-90 -71 -195 -71q-99 0 -153 55.5t-54 156.5q0 89 30 169.5t94 132t160 51.5q82 0 129 -40.5zM300 324.5q38 31.5 38 76.5q0 20 -10.5 32.5
t-33.5 12.5q-46 0 -73.5 -45.5t-39.5 -114.5q81 7 119 38.5zM257.5 655q-21.5 21 -21.5 55q0 42 28 69.5t70 27.5q36 0 57 -21t21 -55q0 -42 -28 -69.5t-69 -27.5q-36 0 -57.5 21z" />
    <glyph glyph-name="uni1EB9" unicode="&#x1eb9;" horiz-adv-x="490" 
d="M437 507.5q47 -40.5 47 -101.5q0 -102 -86.5 -150t-224.5 -63v-2q0 -51 20.5 -73.5t58.5 -22.5q30 0 58 11.5t64 36.5l52 -89q-90 -71 -195 -71q-99 0 -153 55.5t-54 156.5q0 89 30 169.5t94 132t160 51.5q82 0 129 -40.5zM300 324.5q38 31.5 38 76.5q0 20 -10.5 32.5
t-33.5 12.5q-46 0 -73.5 -45.5t-39.5 -114.5q81 7 119 38.5zM273.5 -83q21.5 -21 21.5 -55q0 -42 -28 -69.5t-70 -27.5q-36 0 -57 21t-21 55q0 42 28 69.5t69 27.5q36 0 57.5 -21z" />
    <glyph glyph-name="egrave" unicode="&#xe8;" horiz-adv-x="490" 
d="M437 507.5q47 -40.5 47 -101.5q0 -102 -86.5 -150t-224.5 -63v-2q0 -51 20.5 -73.5t58.5 -22.5q30 0 58 11.5t64 36.5l52 -89q-90 -71 -195 -71q-99 0 -153 55.5t-54 156.5q0 89 30 169.5t94 132t160 51.5q82 0 129 -40.5zM300 324.5q38 31.5 38 76.5q0 20 -10.5 32.5
t-33.5 12.5q-46 0 -73.5 -45.5t-39.5 -114.5q81 7 119 38.5zM275 827l182 -131l-44 -70l-203 91z" />
    <glyph glyph-name="uni1EBB" unicode="&#x1ebb;" horiz-adv-x="490" 
d="M437 507.5q47 -40.5 47 -101.5q0 -102 -86.5 -150t-224.5 -63v-2q0 -51 20.5 -73.5t58.5 -22.5q30 0 58 11.5t64 36.5l52 -89q-90 -71 -195 -71q-99 0 -153 55.5t-54 156.5q0 89 30 169.5t94 132t160 51.5q82 0 129 -40.5zM300 324.5q38 31.5 38 76.5q0 20 -10.5 32.5
t-33.5 12.5q-46 0 -73.5 -45.5t-39.5 -114.5q81 7 119 38.5zM278 704q36 3 52.5 13t16.5 32q0 26 -30 26q-23 0 -54 -14l-17 66q45 24 96 24q50 0 78 -25.5t28 -67.5t-23.5 -66.5t-65.5 -32.5l-8 -53h-86z" />
    <glyph glyph-name="uni0207" unicode="&#x207;" horiz-adv-x="490" 
d="M437 507.5q47 -40.5 47 -101.5q0 -102 -86.5 -150t-224.5 -63v-2q0 -51 20.5 -73.5t58.5 -22.5q30 0 58 11.5t64 36.5l52 -89q-90 -71 -195 -71q-99 0 -153 55.5t-54 156.5q0 89 30 169.5t94 132t160 51.5q82 0 129 -40.5zM300 324.5q38 31.5 38 76.5q0 20 -10.5 32.5
t-33.5 12.5q-46 0 -73.5 -45.5t-39.5 -114.5q81 7 119 38.5zM153 620q17 74 63.5 120t115.5 46q70 0 105 -48t31 -122l-83 -11q-6 76 -63 76q-61 0 -89 -80z" />
    <glyph glyph-name="emacron" unicode="&#x113;" horiz-adv-x="490" 
d="M437 507.5q47 -40.5 47 -101.5q0 -102 -86.5 -150t-224.5 -63v-2q0 -51 20.5 -73.5t58.5 -22.5q30 0 58 11.5t64 36.5l52 -89q-90 -71 -195 -71q-99 0 -153 55.5t-54 156.5q0 89 30 169.5t94 132t160 51.5q82 0 129 -40.5zM300 324.5q38 31.5 38 76.5q0 20 -10.5 32.5
t-33.5 12.5q-46 0 -73.5 -45.5t-39.5 -114.5q81 7 119 38.5zM452 656h-274l16 106h274z" />
    <glyph glyph-name="eogonek" unicode="&#x119;" horiz-adv-x="490" 
d="M437 507.5q47 -40.5 47 -101.5q0 -102 -86.5 -150t-224.5 -63v-2q0 -51 20.5 -73.5t58.5 -22.5q30 0 58 11.5t64 36.5l52 -89q-50 -39 -103 -57q-91 -43 -91 -101q0 -36 42 -36q28 0 56 7l-21 -94q-30 -8 -63 -8q-56 0 -90.5 27.5t-34.5 74.5q0 73 77 118
q-83 9 -128.5 63.5t-45.5 146.5q0 89 30 169.5t94 132t160 51.5q82 0 129 -40.5zM300 324.5q38 31.5 38 76.5q0 20 -10.5 32.5t-33.5 12.5q-46 0 -73.5 -45.5t-39.5 -114.5q81 7 119 38.5z" />
    <glyph glyph-name="uni025B" unicode="&#x25b;" horiz-adv-x="446" 
d="M66.5 25.5q-53.5 41.5 -53.5 113.5q0 59 39.5 98t113.5 46q-98 24 -98 108q0 45 24.5 80.5t70.5 56t108 20.5q109 0 175 -67l-69 -72q-22 17 -44 25t-49 8q-34 0 -52.5 -17.5t-18.5 -46.5q0 -26 16 -41t48 -15h52l-29 -98h-46q-46 0 -67.5 -20t-21.5 -54q0 -28 17.5 -43
t52.5 -15q29 0 55.5 10t60.5 32l51 -84q-37 -32 -87.5 -49t-108.5 -17q-86 0 -139.5 41.5z" />
    <glyph glyph-name="uni029A" unicode="&#x29a;" horiz-adv-x="520" 
d="M67 24.5q-54 40.5 -54 112.5q0 60 39 99.5t114 46.5q-94 25 -94 103q0 44 26 81t74 59t113 22q100 0 154.5 -59t54.5 -161q0 -159 -74 -251.5t-211 -92.5q-88 0 -142 40.5zM320 162.5q30 70.5 30 166.5q0 60 -17.5 86.5t-52.5 26.5q-31 0 -47.5 -18t-16.5 -48
q0 -54 56 -54h22l-29 -98h-16q-44 0 -64.5 -21t-20.5 -55q0 -27 15.5 -41.5t45.5 -14.5q65 0 95 70.5z" />
    <glyph glyph-name="uni025C" unicode="&#x25c;" horiz-adv-x="447" 
d="M372 512q48 -36 48 -96q0 -51 -34 -86.5t-100 -47.5q59 -7 88.5 -37t29.5 -80q0 -47 -25 -88t-77.5 -67t-131.5 -26q-114 0 -187 65l73 84q54 -41 110 -41q43 0 64.5 22t21.5 57q0 28 -18 40.5t-54 12.5h-70l25 98h47q42 0 64 20t22 52q0 48 -52 48q-28 0 -52 -8.5
t-55 -26.5l-55 80q88 61 195 61q75 0 123 -36z" />
    <glyph glyph-name="uni025E" unicode="&#x25e;" horiz-adv-x="515" 
d="M78 39q-53 55 -53 158q0 104 35 183.5t99.5 123.5t150.5 44q78 0 128 -36.5t50 -97.5q0 -50 -33 -84.5t-96 -47.5q56 -7 84.5 -37t28.5 -78t-24.5 -89.5t-78 -67.5t-135.5 -26q-103 0 -156 55zM303.5 114.5q20.5 22.5 20.5 58.5q0 27 -17.5 39t-52.5 12h-27l27 98h8
q36 0 56.5 20t20.5 53q0 47 -48 47q-60 0 -91 -75.5t-31 -175.5q0 -53 16.5 -76t54.5 -23q43 0 63.5 22.5z" />
    <glyph glyph-name="uni025D" unicode="&#x25d;" horiz-adv-x="684" 
d="M709 343q-53 -35 -116 -35q-62 0 -93 31t-33 83l-1 13l-46 -27q-3 -48 -37 -81t-97 -45q59 -7 88.5 -37t29.5 -80q0 -47 -25 -88t-77.5 -67t-131.5 -26q-114 0 -187 65l73 84q54 -41 110 -41q43 0 64.5 22t21.5 57q0 28 -18 40.5t-54 12.5h-70l25 98h47q42 0 64 20t22 52
q0 48 -52 48q-28 0 -52 -8.5t-55 -26.5l-55 80q88 61 195 61q49 0 87 -15.5t60 -44.5l77 43h122l-10 -70q-6 -49 37 -49q16 0 28 3.5t28 10.5z" />
    <glyph glyph-name="uni0258" unicode="&#x258;" horiz-adv-x="494" 
d="M417 486q50 -62 50 -162q0 -101 -33.5 -178t-97 -119.5t-150.5 -42.5q-112 0 -180 73l71 80q27 -22 51.5 -32t57.5 -10q83 0 116 98q-124 8 -192.5 47t-68.5 122q0 52 27 94.5t76.5 67t114.5 24.5q108 0 158 -62zM221 309q29 -20 98 -24q2 34 2 53q0 53 -16 80.5
t-51 27.5q-29 0 -45.5 -21.5t-16.5 -58.5t29 -57z" />
    <glyph glyph-name="uni0283" unicode="&#x283;" horiz-adv-x="254" 
d="M409 719l-56 -90q-28 17 -55 17q-22 0 -34.5 -14.5t-17.5 -44.5l-8 -56l-74 -531h-1l-6 -44q-13 -88 -66.5 -132.5t-135.5 -44.5q-73 0 -125 44l61 86q17 -10 29.5 -14.5t29.5 -4.5q24 0 39 14.5t19 41.5l7 54h1l74 531l7 54q11 79 60.5 126t131.5 47q67 0 120 -39z" />
    <glyph glyph-name="uni0286" unicode="&#x286;" horiz-adv-x="313" 
d="M468 719l-56 -90q-28 17 -55 17q-22 0 -34.5 -14.5t-17.5 -44.5l-8 -56l-75 -534l-1 -6q42 -13 81 -36l-33 -62q-32 16 -65 26q-46 -139 -196 -139q-59 0 -91.5 30t-32.5 81q0 60 40.5 95t103.5 35q33 0 50 -3l71 513l7 54q11 79 60.5 126t131.5 47q67 0 120 -39z
M45 -119.5q15 20.5 23 65.5q-18 3 -40 3q-27 0 -42.5 -15t-15.5 -39q0 -17 9 -26t25 -9q26 0 41 20.5z" />
    <glyph glyph-name="uni01AA" unicode="&#x1aa;" horiz-adv-x="377" 
d="M421 -180q-56 -41 -134 -41q-74 0 -115.5 38.5t-41.5 110.5q0 10 2 34l5 38l61 437q-29 -13 -61 -13q-51 0 -85 39.5t-34 102.5q0 56 24.5 100t68 68t99.5 24q73 0 115 -41t42 -116q0 -18 -3 -39l-79 -562l-7 -55q-1 -5 -1 -13q0 -42 41 -42q18 0 31.5 4.5t31.5 13.5z
M212 534l9 65q2 14 2 20q0 33 -28 33q-25 0 -37 -24.5t-12 -60.5q0 -38 34 -38q14 0 32 5z" />
    <glyph glyph-name="uni0285" unicode="&#x285;" horiz-adv-x="452" 
d="M427 25q-56 -41 -134 -41q-74 0 -115.5 38.5t-41.5 110.5q0 10 2 34l5 38l17 122l7 55q1 5 1 13q0 42 -41 42q-18 0 -31.5 -4.5t-31.5 -13.5l-40 88q56 41 134 41q74 0 115.5 -38.5t41.5 -110.5q0 -10 -2 -34l-5 -38l-17 -123l-7 -54q-1 -5 -1 -13q0 -42 41 -42
q18 0 31.5 4.5t31.5 13.5z" />
    <glyph glyph-name="uni0247" unicode="&#x247;" horiz-adv-x="490" 
d="M453.5 491.5q30.5 -36.5 30.5 -85.5q0 -160 -244 -203l-37 -98q19 -10 49 -10t58 11.5t64 36.5l52 -89q-90 -71 -195 -71q-39 0 -71 9l-25 -66l-48 14l27 71q-44 25 -67 71.5t-23 111.5q0 90 30 170.5t94 132t160 51.5h10l20 52l47 -13l-17 -46q55 -13 85.5 -49.5z
M208.5 396q-27.5 -48 -38.5 -117q32 4 48 7l64 166q-46 -8 -73.5 -56zM350 402q0 30 -19 42l-54 -142q73 30 73 100zM184 195q-7 0 -21 -2v-2q0 -24 4 -40z" />
    <glyph glyph-name="uni1EBD" unicode="&#x1ebd;" horiz-adv-x="490" 
d="M437 507.5q47 -40.5 47 -101.5q0 -102 -86.5 -150t-224.5 -63v-2q0 -51 20.5 -73.5t58.5 -22.5q30 0 58 11.5t64 36.5l52 -89q-90 -71 -195 -71q-99 0 -153 55.5t-54 156.5q0 89 30 169.5t94 132t160 51.5q82 0 129 -40.5zM300 324.5q38 31.5 38 76.5q0 20 -10.5 32.5
t-33.5 12.5q-46 0 -73.5 -45.5t-39.5 -114.5q81 7 119 38.5zM339.5 644q-13.5 7 -32.5 20q-9 7 -19 12.5t-18 5.5q-15 0 -26.5 -10.5t-27.5 -34.5l-67 40q25 50 58.5 81.5t70.5 31.5q20 0 33.5 -7t31.5 -20q22 -18 36 -18q13 0 25 10t27 33l68 -38q-26 -51 -59.5 -82
t-68.5 -31q-18 0 -31.5 7z" />
    <glyph glyph-name="uni01DD" unicode="&#x1dd;" horiz-adv-x="490" 
d="M412 492.5q54 -55.5 54 -156.5q0 -89 -30 -169.5t-94 -132t-160 -51.5q-82 0 -129 40.5t-47 101.5q0 102 86.5 150t224.5 63v2q0 51 -20.5 73.5t-58.5 22.5q-30 0 -58 -11.5t-64 -36.5l-52 89q90 71 195 71q99 0 153 -55.5zM269.5 130.5q27.5 45.5 39.5 114.5
q-81 -7 -119 -38.5t-38 -76.5q0 -20 10.5 -32.5t33.5 -12.5q46 0 73.5 45.5z" />
    <glyph glyph-name="uni0259" unicode="&#x259;" horiz-adv-x="490" 
d="M412 492.5q54 -55.5 54 -156.5q0 -89 -30 -169.5t-94 -132t-160 -51.5q-82 0 -129 40.5t-47 101.5q0 102 86.5 150t224.5 63v2q0 51 -20.5 73.5t-58.5 22.5q-30 0 -58 -11.5t-64 -36.5l-52 89q90 71 195 71q99 0 153 -55.5zM269.5 130.5q27.5 45.5 39.5 114.5
q-81 -7 -119 -38.5t-38 -76.5q0 -20 10.5 -32.5t33.5 -12.5q46 0 73.5 45.5z" />
    <glyph glyph-name="uni025A" unicode="&#x25a;" horiz-adv-x="735" 
d="M761 343q-53 -35 -116 -35q-62 0 -93 31t-33 83l-1 13l-59 -35q7 -28 7 -67q-1 -89 -31.5 -169t-94 -130.5t-158.5 -50.5q-82 0 -129 40.5t-47 101.5q0 102 86.5 150t224.5 63v2q0 51 -20.5 73.5t-58.5 22.5q-30 0 -58 -11.5t-64 -36.5l-52 89q90 71 195 71
q113 0 167 -72l99 55h122l-10 -70q-6 -49 37 -49q16 0 28 3.5t28 10.5zM269.5 130.5q27.5 45.5 39.5 114.5q-81 -7 -119 -38.5t-38 -76.5q0 -20 10.5 -32.5t33.5 -12.5q46 0 73.5 45.5z" />
    <glyph glyph-name="uni0292" unicode="&#x292;" horiz-adv-x="455" 
d="M433 427l-194 -218q83 -6 126 -48.5t43 -117.5q0 -79 -35.5 -139t-98 -92.5t-140.5 -32.5q-133 0 -200 103l88 72q28 -32 53.5 -45.5t60.5 -13.5q55 0 87.5 39t32.5 106q0 45 -23.5 63.5t-71.5 18.5h-85l1 1l12 88l182 207h-227l16 113h387z" />
    <glyph glyph-name="uni01EF" unicode="&#x1ef;" horiz-adv-x="455" 
d="M433 427l-194 -218q83 -6 126 -48.5t43 -117.5q0 -79 -35.5 -139t-98 -92.5t-140.5 -32.5q-133 0 -200 103l88 72q28 -32 53.5 -45.5t60.5 -13.5q55 0 87.5 39t32.5 106q0 45 -23.5 63.5t-71.5 18.5h-85l1 1l12 88l182 207h-227l16 113h387zM406 808l49 -61l-145 -134
h-90l-108 134l56 61l105 -90z" />
    <glyph glyph-name="uni0293" unicode="&#x293;" horiz-adv-x="455" 
d="M434 427l-193 -212q81 -5 124 -48t43 -120q0 -92 -49 -157.5t-135 -92.5l17 -59l-78 -27l-17 70q-28 -2 -43 -2q-79 0 -125 35.5t-46 99.5q0 63 37.5 100t91.5 37q51 0 79.5 -31t48.5 -107q67 35 67 132q0 45 -23.5 64t-74.5 19h-81l12 85l184 205h-229l16 113h388z
M50 -95.5q16 -9.5 54 -9.5h12q-11 44 -21.5 60t-29.5 16q-14 0 -22.5 -10.5t-8.5 -26.5q0 -20 16 -29.5z" />
    <glyph glyph-name="uni01B9" unicode="&#x1b9;" horiz-adv-x="458" 
d="M452 418h-235l133 -210l-12 -86l-2 1l1 -1h-82q-59 0 -92 -35t-33 -99q0 -46 21.5 -69.5t61.5 -23.5q36 0 66.5 14.5t68.5 46.5l67 -78q-89 -99 -224 -99q-100 0 -157.5 55t-57.5 146q0 101 63 163.5t172 68.5l-144 215l15 104h387z" />
    <glyph glyph-name="uni01BA" unicode="&#x1ba;" horiz-adv-x="452" 
d="M8.5 -162.5q-33.5 34.5 -33.5 77.5q0 61 43 93.5t129 53.5q66 16 92.5 33.5t26.5 52.5q0 23 -14.5 32.5t-48.5 9.5h-117l13 84l159 149h-219l15 108h387l-14 -99l-172 -154h19q67 0 105.5 -33t38.5 -93q0 -80 -53 -123.5t-147 -65.5q-46 -11 -69.5 -19.5t-31.5 -17
t-8 -20.5t8.5 -22.5t26.5 -22.5l-44 -82q-58 24 -91.5 58.5z" />
    <glyph glyph-name="f" unicode="f" horiz-adv-x="319" 
d="M285.5 629q-16.5 -18 -22.5 -56l-6 -42h113l-32 -106h-95l-51 -372q-12 -84 -43.5 -136t-76.5 -82t-113 -56l-36 109q37 16 60.5 34t38 48.5t21.5 79.5l52 375h-69l15 106h69l7 51q11 79 63.5 127.5t139.5 48.5q77 0 136 -43l-53 -89q-34 21 -70 21q-31 0 -47.5 -18z" />
    <glyph glyph-name="uni1E1F" unicode="&#x1e1f;" horiz-adv-x="319" 
d="M285.5 629q-16.5 -18 -22.5 -56l-6 -42h113l-32 -106h-95l-51 -372q-12 -84 -43.5 -136t-76.5 -82t-113 -56l-36 109q37 16 60.5 34t38 48.5t21.5 79.5l52 375h-69l15 106h69l7 51q11 79 63.5 127.5t139.5 48.5q77 0 136 -43l-53 -89q-34 21 -70 21q-31 0 -47.5 -18z
M261.5 830q-21.5 21 -21.5 55q0 42 28 69.5t70 27.5q36 0 57 -21t21 -55q0 -42 -28 -69.5t-69 -27.5q-36 0 -57.5 21z" />
    <glyph glyph-name="uni02A9" unicode="&#x2a9;" horiz-adv-x="788" 
d="M730.5 514.5q29.5 -33.5 29.5 -91.5q0 -18 -3 -36l-55 -387l-6 -44q-13 -88 -66.5 -132.5t-135.5 -44.5q-73 0 -125 44l61 86q17 -10 29.5 -14.5t29.5 -4.5q24 0 39 14.5t19 41.5l7 54l51 361q1 7 1 19q0 39 -27 39q-23 0 -47 -30.5t-52 -87.5l-42 -301h-148l59 425h-106
l-51 -372q-12 -84 -43.5 -136t-76.5 -82t-113 -56l-36 109q37 16 60.5 34t38 48.5t21.5 79.5l52 375h-69l15 106h69l7 51q11 79 63.5 127.5t139.5 48.5q77 0 136 -43l-53 -89q-34 21 -70 21q-31 0 -47.5 -18t-22.5 -56l-6 -42h235l-3 -89q70 106 160 106q52 0 81.5 -33.5z
" />
    <glyph glyph-name="g" unicode="g" horiz-adv-x="525" 
d="M509 496l-67 -467q-19 -131 -81 -191t-176 -60q-48 0 -95.5 15t-87.5 41l52 98q67 -38 127 -38q46 0 75.5 24t38.5 90l9 60q-54 -68 -128 -68q-72 0 -112 52.5t-40 141.5t29.5 170t95 132.5t166.5 51.5q99 0 194 -52zM233.5 403.5q-29.5 -36.5 -43.5 -92.5t-14 -117
q0 -44 13 -63.5t38 -19.5q42 0 89 70l36 251q-24 8 -45 8q-44 0 -73.5 -36.5z" />
    <glyph glyph-name="uni01F5" unicode="&#x1f5;" horiz-adv-x="525" 
d="M509 496l-67 -467q-19 -131 -81 -191t-176 -60q-48 0 -95.5 15t-87.5 41l52 98q67 -38 127 -38q46 0 75.5 24t38.5 90l9 60q-54 -68 -128 -68q-72 0 -112 52.5t-40 141.5t29.5 170t95 132.5t166.5 51.5q99 0 194 -52zM233.5 403.5q-29.5 -36.5 -43.5 -92.5t-14 -117
q0 -44 13 -63.5t38 -19.5q42 0 89 70l36 251q-24 8 -45 8q-44 0 -73.5 -36.5zM415 828l49 -111l-225 -93l-36 74z" />
    <glyph glyph-name="uni0263" unicode="&#x263;" horiz-adv-x="461" 
d="M280 78q20 -48 30 -83.5t10 -71.5q0 -69 -39.5 -106.5t-111.5 -37.5q-57 0 -88.5 28.5t-31.5 75.5q0 43 22.5 89t67.5 109l-106 450h157l33 -354l125 354h155l-222 -452zM198 -3q-40 -65 -40 -100q0 -23 21 -23q16 0 24 12t8 33q0 32 -13 78z" />
    <glyph glyph-name="gbreve" unicode="&#x11f;" horiz-adv-x="525" 
d="M509 496l-67 -467q-19 -131 -81 -191t-176 -60q-48 0 -95.5 15t-87.5 41l52 98q67 -38 127 -38q46 0 75.5 24t38.5 90l9 60q-54 -68 -128 -68q-72 0 -112 52.5t-40 141.5t29.5 170t95 132.5t166.5 51.5q99 0 194 -52zM233.5 403.5q-29.5 -36.5 -43.5 -92.5t-14 -117
q0 -44 13 -63.5t38 -19.5q42 0 89 70l36 251q-24 8 -45 8q-44 0 -73.5 -36.5zM217 682q-35 48 -30 121l81 12q5 -76 62 -76q30 0 52.5 21t35.5 58l78 -18q-15 -74 -60 -120t-113 -46q-71 0 -106 48z" />
    <glyph glyph-name="gcaron" unicode="&#x1e7;" horiz-adv-x="525" 
d="M509 496l-67 -467q-19 -131 -81 -191t-176 -60q-48 0 -95.5 15t-87.5 41l52 98q67 -38 127 -38q46 0 75.5 24t38.5 90l9 60q-54 -68 -128 -68q-72 0 -112 52.5t-40 141.5t29.5 170t95 132.5t166.5 51.5q99 0 194 -52zM233.5 403.5q-29.5 -36.5 -43.5 -92.5t-14 -117
q0 -44 13 -63.5t38 -19.5q42 0 89 70l36 251q-24 8 -45 8q-44 0 -73.5 -36.5zM462 808l49 -61l-145 -134h-90l-108 134l56 61l105 -90z" />
    <glyph glyph-name="gcircumflex" unicode="&#x11d;" horiz-adv-x="525" 
d="M509 496l-67 -467q-19 -131 -81 -191t-176 -60q-48 0 -95.5 15t-87.5 41l52 98q67 -38 127 -38q46 0 75.5 24t38.5 90l9 60q-54 -68 -128 -68q-72 0 -112 52.5t-40 141.5t29.5 170t95 132.5t166.5 51.5q99 0 194 -52zM233.5 403.5q-29.5 -36.5 -43.5 -92.5t-14 -117
q0 -44 13 -63.5t38 -19.5q42 0 89 70l36 251q-24 8 -45 8q-44 0 -73.5 -36.5zM207 623l-49 61l145 135h90l111 -139l-62 -57l-105 91z" />
    <glyph glyph-name="gcommaaccent" unicode="&#x123;" horiz-adv-x="525" 
d="M509 496l-67 -467q-19 -131 -81 -191t-176 -60q-48 0 -95.5 15t-87.5 41l52 98q67 -38 127 -38q46 0 75.5 24t38.5 90l9 60q-54 -68 -128 -68q-72 0 -112 52.5t-40 141.5t29.5 170t95 132.5t166.5 51.5q99 0 194 -52zM233.5 403.5q-29.5 -36.5 -43.5 -92.5t-14 -117
q0 -44 13 -63.5t38 -19.5q42 0 89 70l36 251q-24 8 -45 8q-44 0 -73.5 -36.5zM272 605q-19 19 -19 47q0 22 8 40.5t29 55.5l55 91h73l-43 -118q26 -18 26 -51q0 -37 -22.5 -60.5t-56.5 -23.5q-31 0 -50 19z" />
    <glyph glyph-name="gdotaccent" unicode="&#x121;" horiz-adv-x="525" 
d="M509 496l-67 -467q-19 -131 -81 -191t-176 -60q-48 0 -95.5 15t-87.5 41l52 98q67 -38 127 -38q46 0 75.5 24t38.5 90l9 60q-54 -68 -128 -68q-72 0 -112 52.5t-40 141.5t29.5 170t95 132.5t166.5 51.5q99 0 194 -52zM233.5 403.5q-29.5 -36.5 -43.5 -92.5t-14 -117
q0 -44 13 -63.5t38 -19.5q42 0 89 70l36 251q-24 8 -45 8q-44 0 -73.5 -36.5zM269.5 655q-21.5 21 -21.5 55q0 42 28 69.5t70 27.5q36 0 57 -21t21 -55q0 -42 -28 -69.5t-69 -27.5q-36 0 -57.5 21z" />
    <glyph glyph-name="uni0260" unicode="&#x260;" horiz-adv-x="529" 
d="M685 719l-56 -90q-28 17 -55 17q-22 0 -34.5 -14.5t-17.5 -44.5l-8 -56l-72 -502q-19 -131 -81 -191t-176 -60q-48 0 -95.5 15t-87.5 41l52 98q67 -38 127 -38q46 0 75.5 24t38.5 90l9 60q-54 -68 -127 -68t-113 52.5t-40 141.5q0 88 29.5 169t93 133t157.5 52
q33 0 63 -9l6 46q11 79 60.5 126t131.5 47q67 0 120 -39zM316 181l36 252q-21 7 -45 7q-44 0 -73.5 -36.5t-43.5 -92.5t-14 -117q0 -44 13 -63.5t38 -19.5q42 0 89 70z" />
    <glyph glyph-name="uni01BE" unicode="&#x1be;" horiz-adv-x="459" 
d="M425 260q0 -80 -33 -143t-91.5 -98t-132.5 -35q-62 0 -109 23.5t-85 69.5l82 72q25 -28 49.5 -40.5t53.5 -12.5q54 0 84 44t30 117q0 50 -21 78.5t-66 41.5l-47 12l20 142h-60l13 90h60l17 121l148 15l-19 -136h93l-13 -90h-93l-13 -94l25 -10q108 -40 108 -167z" />
    <glyph glyph-name="uni0294" unicode="&#x294;" horiz-adv-x="437" 
d="M130 353l37 13q69 26 100 71t31 117q0 92 -75 92q-29 0 -56.5 -13.5t-59.5 -41.5l-64 77q49 46 98 68t111 22q93 0 148.5 -54.5t55.5 -145.5q0 -97 -40.5 -155t-123.5 -90l-21 -9l-42 -304h-148z" />
    <glyph glyph-name="uni0296" unicode="&#x296;" horiz-adv-x="459" 
d="M337 757l-45 -320l25 -10q108 -40 108 -167q0 -80 -33 -143t-91.5 -98t-132.5 -35q-62 0 -109 23.5t-85 69.5l82 72q25 -28 49.5 -40.5t53.5 -12.5q54 0 84 44t30 117q0 50 -21 78.5t-66 41.5l-47 12l50 353z" />
    <glyph glyph-name="uni0295" unicode="&#x295;" horiz-adv-x="432" 
d="M130 0l43 305l-17 9q-51 27 -78 63.5t-27 103.5q0 79 33.5 142t93.5 99t134 36q61 0 106 -23.5t83 -69.5l-81 -72q-24 27 -48 40t-54 13q-52 0 -83.5 -44.5t-31.5 -118.5q0 -47 21.5 -75t67.5 -44l35 -12l-49 -352h-148z" />
    <glyph glyph-name="uni0242" unicode="&#x242;" horiz-adv-x="416" 
d="M93 202l45 14q57 19 85.5 52.5t28.5 89.5q0 36 -16 56t-45 20q-28 0 -51 -12t-52 -36l-61 79q43 41 89 61.5t102 20.5q84 0 135 -49.5t51 -130.5q0 -156 -141 -205l-29 -10l-21 -152h-148z" />
    <glyph glyph-name="uni02A1" unicode="&#x2a1;" horiz-adv-x="437" 
d="M271 304l-11 -83h88l-12 -90h-89l-18 -131h-148l18 131h-60l13 90h60l18 132l37 13q69 26 100 71t31 117q0 92 -75 92q-29 0 -56.5 -13.5t-59.5 -41.5l-64 77q49 46 98 68t111 22q93 0 148.5 -54.5t55.5 -145.5q0 -97 -40.5 -155t-123.5 -90z" />
    <glyph glyph-name="uni02A2" unicode="&#x2a2;" horiz-adv-x="432" 
d="M418 734.5q45 -23.5 83 -69.5l-81 -72q-24 27 -48 40t-54 13q-52 0 -83.5 -44.5t-31.5 -118.5q0 -47 21.5 -75t67.5 -44l35 -12l-18 -131h61l-13 -90h-61l-18 -131h-148l18 131h-88l13 90h88l12 84l-17 9q-51 27 -78 63.5t-27 103.5q0 79 33.5 142t93.5 99t134 36
q61 0 106 -23.5z" />
    <glyph glyph-name="uni0261" unicode="&#x261;" horiz-adv-x="525" 
d="M509 496l-67 -467q-19 -131 -81 -191t-176 -60q-48 0 -95.5 15t-87.5 41l52 98q67 -38 127 -38q46 0 75.5 24t38.5 90l9 60q-54 -68 -128 -68q-72 0 -112 52.5t-40 141.5t29.5 170t95 132.5t166.5 51.5q99 0 194 -52zM233.5 403.5q-29.5 -36.5 -43.5 -92.5t-14 -117
q0 -44 13 -63.5t38 -19.5q42 0 89 70l36 251q-24 8 -45 8q-44 0 -73.5 -36.5z" />
    <glyph glyph-name="uni01E5" unicode="&#x1e5;" horiz-adv-x="512" 
d="M436 -5h51l-8 -63h-60q-29 -79 -86.5 -116.5t-146.5 -37.5q-49 0 -96.5 15t-87.5 41l50 92q68 -39 130 -39q67 0 93 45h-100l8 63h110l14 95q-53 -69 -128 -69q-73 0 -113 53t-40 141q0 81 29.5 157t94.5 126t165 50q99 0 194 -52l-67 -467zM319 203l33 229q-24 8 -45 8
q-44 0 -73 -34.5t-42.5 -86t-13.5 -103.5q0 -83 51 -83q45 0 90 70z" />
    <glyph glyph-name="uni021D" unicode="&#x21d;" horiz-adv-x="441" 
d="M362.5 510.5q47.5 -37.5 47.5 -102.5q0 -102 -128 -135q57 -1 87.5 -26.5t30.5 -70.5q0 -104 -101.5 -175.5t-284.5 -108.5v102q119 38 176 80t57 99q0 22 -13.5 31.5t-41.5 9.5h-80l23 98h41q38 0 60.5 20.5t22.5 59.5q0 50 -53 50q-28 0 -52 -8.5t-54 -26.5l-55 80
q45 31 91 46t100 15q79 0 126.5 -37.5z" />
    <glyph glyph-name="h" unicode="h" horiz-adv-x="513" 
d="M455.5 514.5q29.5 -33.5 29.5 -91.5q0 -18 -3 -36l-54 -387h-148l50 361q2 16 2 21q0 37 -27 37q-23 0 -47.5 -30.5t-52.5 -87.5l-42 -301h-148l104 742l150 15l-43 -309q26 44 64 72t84 28q52 0 81.5 -33.5z" />
    <glyph glyph-name="hbar" unicode="&#x127;" horiz-adv-x="522" 
d="M464.5 514.5q29.5 -33.5 29.5 -91.5q0 -18 -3 -36l-54 -387h-148l50 361q2 16 2 21q0 37 -27 37q-23 0 -47.5 -30.5t-52.5 -87.5l-42 -301h-148l84 597h-53l13 90h52l8 55l150 15l-10 -70h122l-24 -90h-110l-21 -149q26 44 64 72t84 28q52 0 81.5 -33.5z" />
    <glyph glyph-name="uni021F" unicode="&#x21f;" horiz-adv-x="513" 
d="M455.5 514.5q29.5 -33.5 29.5 -91.5q0 -18 -3 -36l-54 -387h-148l50 361q2 16 2 21q0 37 -27 37q-23 0 -47.5 -30.5t-52.5 -87.5l-42 -301h-148l104 742l150 15l-43 -309q26 44 64 72t84 28q52 0 81.5 -33.5zM470 988l51 -61l-145 -128h-90l-112 132l60 57l107 -84z" />
    <glyph glyph-name="hcircumflex" unicode="&#x125;" horiz-adv-x="513" 
d="M455.5 514.5q29.5 -33.5 29.5 -91.5q0 -18 -3 -36l-54 -387h-148l50 361q2 16 2 21q0 37 -27 37q-23 0 -47.5 -30.5t-52.5 -87.5l-42 -301h-148l104 742l150 15l-43 -309q26 44 64 72t84 28q52 0 81.5 -33.5zM212 805l-51 61l145 128h90l111 -132l-58 -57l-108 85z" />
    <glyph glyph-name="uni1E25" unicode="&#x1e25;" horiz-adv-x="513" 
d="M455.5 514.5q29.5 -33.5 29.5 -91.5q0 -18 -3 -36l-54 -387h-148l50 361q2 16 2 21q0 37 -27 37q-23 0 -47.5 -30.5t-52.5 -87.5l-42 -301h-148l104 742l150 15l-43 -309q26 44 64 72t84 28q52 0 81.5 -33.5zM267.5 -83q21.5 -21 21.5 -55q0 -42 -28 -69.5t-70 -27.5
q-36 0 -57 21t-21 55q0 42 28 69.5t69 27.5q36 0 57.5 -21z" />
    <glyph glyph-name="uni0267" unicode="&#x267;" horiz-adv-x="513" 
d="M455.5 514.5q29.5 -33.5 29.5 -92.5q0 -17 -3 -35l-54 -387h-1l-6 -44q-13 -88 -66.5 -132.5t-135.5 -44.5q-73 0 -125 44l61 86q17 -10 29.5 -14.5t29.5 -4.5q24 0 39 14.5t19 41.5l7 54h1l51 361q2 16 2 21q0 37 -27 37q-44 0 -101 -118l-42 -301h-148l74 530l9 61
q11 75 63.5 121t139.5 46q70 0 131 -34l-53 -95q-34 17 -70 17q-29 0 -44.5 -16t-20.5 -52l-6 -48l-11 -82q25 44 63 72t83 28q53 0 82.5 -33.5z" />
    <glyph glyph-name="uni0266" unicode="&#x266;" horiz-adv-x="513" 
d="M455.5 514.5q29.5 -33.5 29.5 -92.5q0 -17 -3 -35l-54 -387h-148l51 361q2 16 2 21q0 37 -27 37q-44 0 -101 -118l-42 -301h-148l74 530l9 61q11 75 63.5 121t139.5 46q70 0 131 -34l-53 -95q-34 17 -70 17q-29 0 -44.5 -16t-20.5 -52l-6 -48l-11 -82q25 44 63 72t83 28
q53 0 82.5 -33.5z" />
    <glyph glyph-name="uni0265" unicode="&#x265;" horiz-adv-x="509" 
d="M288 74q-63 -91 -146 -91q-53 0 -83.5 33.5t-30.5 91.5q0 16 3 34l55 389h148l-52 -365q-2 -16 -2 -20q0 -36 27 -36q44 0 98 95l45 326h148l-103 -737l-149 -16z" />
    <glyph glyph-name="uni02AE" unicode="&#x2ae;" horiz-adv-x="621" 
d="M610 531l-104 -737l-148 -16l41 296q-63 -91 -146 -91q-53 0 -83 34t-30 94q0 9 2 31l24 185l7 55q1 5 1 13q0 42 -41 42q-18 0 -31.5 -4.5t-31.5 -13.5l-40 88q56 41 134 41q74 0 115.5 -38.5t41.5 -110.5q0 -10 -2 -34l-5 -38l-21 -161q-1 -7 -1 -19q0 -37 27 -37
q44 0 98 95l45 326h148z" />
    <glyph glyph-name="uni02AF" unicode="&#x2af;" horiz-adv-x="621" 
d="M672 -180q-56 -41 -134 -41q-74 0 -115.5 38.5t-41.5 110.5q0 10 2 34l5 38l10 71q-29 -40 -64 -64t-81 -24q-53 0 -83 34t-30 94q0 9 2 31l24 185l7 55q1 5 1 13q0 42 -41 42q-18 0 -31.5 -4.5t-31.5 -13.5l-40 88q56 41 134 41q74 0 115.5 -38.5t41.5 -110.5
q0 -10 -2 -34l-5 -38l-21 -161q-1 -7 -1 -19q0 -37 27 -37q44 0 98 95l45 326h148l-74 -531l-7 -55q-1 -5 -1 -13q0 -42 41 -42q18 0 31.5 4.5t31.5 13.5z" />
    <glyph glyph-name="uni0195" unicode="&#x195;" horiz-adv-x="774" 
d="M344 28.5q-43 44.5 -43 111.5q0 9 2 27l27 194q2 16 2 21q0 37 -27 37q-23 0 -47.5 -30.5t-52.5 -87.5l-42 -301h-148l104 742l150 15l-43 -309q26 44 64 72t84 28q52 0 81.5 -33.5t29.5 -91.5q0 -18 -3 -36l-31 -222q-1 -7 -1 -20q0 -50 40 -50q65 0 90 106.5t25 235.5
q0 55 -4 94h140q7 -59 7 -104q0 -207 -59 -325t-215 -118q-87 0 -130 44.5z" />
    <glyph glyph-name="i" unicode="i" horiz-adv-x="253" 
d="M238 531l-74 -531h-148l74 531h148zM122.5 655q-21.5 21 -21.5 55q0 42 28 69.5t70 27.5q36 0 57 -21t21 -55q0 -42 -28 -69.5t-69 -27.5q-36 0 -57.5 21z" />
    <glyph glyph-name="dotlessi" unicode="&#x131;" horiz-adv-x="253" 
d="M238 531l-74 -531h-148l74 531h148z" />
    <glyph glyph-name="iacute" unicode="&#xed;" horiz-adv-x="253" 
d="M238 531l-74 -531h-148l74 531h148zM268 828l49 -111l-225 -93l-36 74z" />
    <glyph glyph-name="ibreve" unicode="&#x12d;" horiz-adv-x="253" 
d="M238 531l-74 -531h-148l74 531h148zM70 682q-35 48 -30 121l81 12q5 -76 62 -76q30 0 52.5 21t35.5 58l78 -18q-15 -74 -60 -120t-113 -46q-71 0 -106 48z" />
    <glyph glyph-name="uni01D0" unicode="&#x1d0;" horiz-adv-x="253" 
d="M238 531l-74 -531h-148l74 531h148zM315 808l49 -61l-145 -134h-90l-108 134l56 61l105 -90z" />
    <glyph glyph-name="icircumflex" unicode="&#xee;" horiz-adv-x="253" 
d="M238 531l-74 -531h-148l74 531h148zM60 623l-49 61l145 135h90l111 -139l-62 -57l-105 91z" />
    <glyph glyph-name="uni0209" unicode="&#x209;" horiz-adv-x="253" 
d="M238 531l-74 -531h-148l74 531h148zM92 857l62 -196l-83 -35l-88 183zM250 857l54 -196l-82 -30l-81 181z" />
    <glyph glyph-name="idieresis" unicode="&#xef;" horiz-adv-x="253" 
d="M238 531l-74 -531h-148l74 531h148zM25.5 661.5q-18.5 18.5 -18.5 47.5q0 37 24.5 61.5t60.5 24.5q32 0 50.5 -18.5t18.5 -47.5q0 -37 -24.5 -61.5t-60.5 -24.5q-32 0 -50.5 18.5zM236 661.5q-19 18.5 -19 47.5q0 37 24.5 61.5t60.5 24.5q31 0 50 -18.5t19 -47.5
q0 -37 -24.5 -61.5t-60.5 -24.5q-31 0 -50 18.5z" />
    <glyph glyph-name="uni1E2F" unicode="&#x1e2f;" horiz-adv-x="253" 
d="M238 531l-74 -531h-148l74 531h148zM273 943l73 -78l-164 -142l-52 49zM6.5 622.5q-18.5 18.5 -18.5 48.5q0 36 24.5 60.5t60.5 24.5q31 0 49.5 -18t18.5 -48q0 -37 -24.5 -61.5t-60.5 -24.5q-31 0 -49.5 18.5zM227.5 622.5q-18.5 18.5 -18.5 48.5q0 36 24.5 60.5
t60.5 24.5q31 0 49.5 -18t18.5 -48q0 -36 -24.5 -61t-60.5 -25q-31 0 -49.5 18.5z" />
    <glyph glyph-name="i.loclTRK" horiz-adv-x="253" 
d="M238 531l-74 -531h-148l74 531h148zM122.5 655q-21.5 21 -21.5 55q0 42 28 69.5t70 27.5q36 0 57 -21t21 -55q0 -42 -28 -69.5t-69 -27.5q-36 0 -57.5 21z" />
    <glyph glyph-name="uni1ECB" unicode="&#x1ecb;" horiz-adv-x="253" 
d="M238 531l-74 -531h-148l74 531h148zM122.5 655q-21.5 21 -21.5 55q0 42 28 69.5t70 27.5q36 0 57 -21t21 -55q0 -42 -28 -69.5t-69 -27.5q-36 0 -57.5 21zM134.5 -83q21.5 -21 21.5 -55q0 -42 -28 -69.5t-70 -27.5q-36 0 -57 21t-21 55q0 42 28 69.5t69 27.5
q36 0 57.5 -21z" />
    <glyph glyph-name="igrave" unicode="&#xec;" horiz-adv-x="253" 
d="M238 531l-74 -531h-148l74 531h148zM140 827l182 -131l-44 -70l-203 91z" />
    <glyph glyph-name="uni1EC9" unicode="&#x1ec9;" horiz-adv-x="253" 
d="M238 531l-74 -531h-148l74 531h148zM143 704q36 3 52.5 13t16.5 32q0 26 -30 26q-23 0 -54 -14l-17 66q45 24 96 24q50 0 78 -25.5t28 -67.5t-23.5 -66.5t-65.5 -32.5l-8 -53h-86z" />
    <glyph glyph-name="uni020B" unicode="&#x20b;" horiz-adv-x="253" 
d="M238 531l-74 -531h-148l74 531h148zM18 620q17 74 63.5 120t115.5 46q70 0 105 -48t31 -122l-83 -11q-6 76 -63 76q-61 0 -89 -80z" />
    <glyph glyph-name="ij" unicode="&#x133;" horiz-adv-x="506" 
d="M238 531l-74 -531h-148l74 531h148zM122.5 655q-21.5 21 -21.5 55q0 42 28 69.5t70 27.5q36 0 57 -21t21 -55q0 -42 -28 -69.5t-69 -27.5q-36 0 -57.5 21zM156 -112q37 16 60.5 34t38 48.5t21.5 79.5l67 481h148l-67 -478q-12 -84 -43.5 -136t-76.5 -82t-113 -56z
M377.5 655q-21.5 21 -21.5 55q0 42 28 69.5t70 27.5q36 0 57 -21t21 -55q0 -42 -28 -69.5t-69 -27.5q-36 0 -57.5 21z" />
    <glyph glyph-name="imacron" unicode="&#x12b;" horiz-adv-x="253" 
d="M238 531l-74 -531h-148l74 531h148zM317 656h-274l16 106h274z" />
    <glyph glyph-name="iogonek" unicode="&#x12f;" horiz-adv-x="253" 
d="M256 786q21 -21 21 -55q0 -42 -28 -69.5t-69 -27.5q-36 0 -57.5 21t-21.5 55q0 42 28 69.5t70 27.5q36 0 57 -21zM90 531h148l-74 -531h-35q-121 -50 -121 -115q0 -34 41 -34q24 0 54 6l-21 -93q-27 -7 -63 -7q-53 0 -86.5 28.5t-33.5 76.5q0 94 119 152z" />
    <glyph glyph-name="uni0269" unicode="&#x269;" horiz-adv-x="266" 
d="M85 531h147l-54 -395q-1 -4 -1 -12q0 -21 19 -21q7 0 23 4l15 -104q-43 -19 -92 -19q-55 0 -85 30t-30 86q0 8 2 30z" />
    <glyph glyph-name="uni0268" unicode="&#x268;" horiz-adv-x="300" 
d="M145.5 655q-21.5 21 -21.5 55q0 42 28 69.5t70 27.5q36 0 57 -21t21 -55q0 -42 -28 -69.5t-69 -27.5q-36 0 -57.5 21zM303 335l-15 -106h-69l-32 -229h-148l32 229h-70l15 106h70l27 196h148l-27 -196h69z" />
    <glyph glyph-name="itilde" unicode="&#x129;" horiz-adv-x="253" 
d="M238 531l-74 -531h-148l74 531h148zM204.5 644q-13.5 7 -32.5 20q-9 7 -19 12.5t-18 5.5q-15 0 -26.5 -10.5t-27.5 -34.5l-67 40q25 50 58.5 81.5t70.5 31.5q20 0 33.5 -7t31.5 -20q22 -18 36 -18q13 0 25 10t27 33l68 -38q-26 -51 -59.5 -82t-68.5 -31q-18 0 -31.5 7z
" />
    <glyph glyph-name="j" unicode="j" horiz-adv-x="253" 
d="M-97 -112q37 16 60.5 34t38 48.5t21.5 79.5l67 481h148l-67 -478q-12 -84 -43.5 -136t-76.5 -82t-113 -56zM124.5 655q-21.5 21 -21.5 55q0 42 28 69.5t70 27.5q36 0 57 -21t21 -55q0 -42 -28 -69.5t-69 -27.5q-36 0 -57.5 21z" />
    <glyph glyph-name="uni0237" unicode="&#x237;" horiz-adv-x="253" 
d="M-97 -112q37 16 60.5 34t38 48.5t21.5 79.5l67 481h148l-67 -478q-12 -84 -43.5 -136t-76.5 -82t-113 -56z" />
    <glyph glyph-name="uni01F0" unicode="&#x1f0;" horiz-adv-x="253" 
d="M-97 -112q37 16 60.5 34t38 48.5t21.5 79.5l67 481h148l-67 -478q-12 -84 -43.5 -136t-76.5 -82t-113 -56zM317 808l49 -61l-145 -134h-90l-108 134l56 61l105 -90z" />
    <glyph glyph-name="jcircumflex" unicode="&#x135;" horiz-adv-x="253" 
d="M-97 -112q37 16 60.5 34t38 48.5t21.5 79.5l67 481h148l-67 -478q-12 -84 -43.5 -136t-76.5 -82t-113 -56zM62 623l-49 61l145 135h90l111 -139l-62 -57l-105 91z" />
    <glyph glyph-name="uni029D" unicode="&#x29d;" horiz-adv-x="333" 
d="M316 786q21 -21 21 -55q0 -42 -28 -69.5t-69 -27.5q-36 0 -57.5 21t-21.5 55q0 42 28 69.5t70 27.5q36 0 57 -21zM221 -9q42 -13 81 -36l-33 -62q-32 16 -65 26q-46 -139 -196 -139q-59 0 -91.5 30t-32.5 81q0 60 40.5 95t103.5 35q33 0 50 -3l71 513h148l-75 -534z
M45 -119.5q15 20.5 23 65.5q-18 3 -40 3q-27 0 -42.5 -15t-15.5 -39q0 -17 9 -26t25 -9q26 0 41 20.5z" />
    <glyph glyph-name="uni025F" unicode="&#x25f;" horiz-adv-x="304" 
d="M289 198h-69l-20 -145q-12 -84 -43.5 -136t-76.5 -82t-113 -56l-35 109q37 16 60.5 34t38 48.5t21.5 79.5l21 148h-71l15 107h71l31 226h148l-32 -226h69z" />
    <glyph glyph-name="uni0284" unicode="&#x284;" horiz-adv-x="333" 
d="M442 719l-56 -90q-28 17 -55 17q-22 0 -34.5 -14.5t-17.5 -44.5l-8 -56l-60 -425h68l-15 -106h-70q-16 -64 -47.5 -105.5t-73.5 -67t-102 -48.5l-34 107q47 21 72 44.5t38 69.5h-70l15 106h72l59 425l7 54q11 79 60.5 126t131.5 47q67 0 120 -39z" />
    <glyph glyph-name="uni0249" unicode="&#x249;" horiz-adv-x="304" 
d="M289 198h-69l-20 -145q-12 -84 -43.5 -136t-76.5 -82t-113 -56l-35 109q37 16 60.5 34t38 48.5t21.5 79.5l21 148h-71l15 107h71l31 226h148l-32 -226h69zM153.5 655q-21.5 21 -21.5 55q0 42 28 69.5t70 27.5q36 0 57 -21t21 -55q0 -42 -28 -69.5t-69 -27.5
q-36 0 -57.5 21z" />
    <glyph glyph-name="k" unicode="k" horiz-adv-x="519" 
d="M228 461q35 44 74.5 65t86.5 21q59 0 94.5 -34t35.5 -88q0 -61 -33 -106.5t-102 -79.5l84 -239h-158l-80 256q76 27 107 61.5t31 80.5q0 43 -39 43q-28 0 -59 -27.5t-61 -82.5l-45 -331h-149l104 742l150 16z" />
    <glyph glyph-name="uni01E9" unicode="&#x1e9;" horiz-adv-x="519" 
d="M228 461q35 44 74.5 65t86.5 21q59 0 94.5 -34t35.5 -88q0 -61 -33 -106.5t-102 -79.5l84 -239h-158l-80 256q76 27 107 61.5t31 80.5q0 43 -39 43q-28 0 -59 -27.5t-61 -82.5l-45 -331h-149l104 742l150 16zM498 988l51 -61l-145 -128h-90l-112 132l60 57l107 -84z" />
    <glyph glyph-name="kcommaaccent" unicode="&#x137;" horiz-adv-x="519" 
d="M228 461q35 44 74.5 65t86.5 21q59 0 94.5 -34t35.5 -88q0 -61 -33 -106.5t-102 -79.5l84 -239h-158l-80 256q76 27 107 61.5t31 80.5q0 43 -39 43q-28 0 -59 -27.5t-61 -82.5l-45 -331h-149l104 742l150 16zM270 -88q19 -19 19 -47q0 -22 -8 -40.5t-29 -55.5l-55 -91
h-73l43 118q-26 18 -26 51q0 37 22.5 60.5t56.5 23.5q31 0 50 -19z" />
    <glyph glyph-name="kgreenlandic" unicode="&#x138;" horiz-adv-x="495" 
d="M238 531l-74 -531h-148l74 531h148zM531 531l-173 -249l109 -282h-159l-102 280l169 251h156z" />
    <glyph glyph-name="uni0199" unicode="&#x199;" horiz-adv-x="519" 
d="M486 318.5q-33 -45.5 -102 -79.5l84 -239h-158l-80 256q76 27 107 61.5t31 80.5q0 21 -10.5 32t-28.5 11q-28 0 -59 -27.5t-61 -82.5l-45 -331h-149l74 530l9 61q11 75 63.5 121t139.5 46q70 0 131 -34l-53 -95q-34 17 -70 17q-29 0 -44.5 -16t-20.5 -52l-6 -48l-10 -69
q35 44 74.5 65t85.5 21q60 0 95.5 -33.5t35.5 -88.5q0 -61 -33 -106.5z" />
    <glyph glyph-name="uni029E" unicode="&#x29e;" horiz-adv-x="489" 
d="M-39 0l178 247l-111 284h160l97 -290l-166 -241h-158zM225 -222l105 753h148l-104 -738z" />
    <glyph glyph-name="l" unicode="l" horiz-adv-x="266" 
d="M177 136l-1 -10q0 -23 20 -23q10 0 22 5l15 -105q-41 -19 -92 -19q-55 0 -85 29t-30 84q0 15 3 33l85 612l149 16z" />
    <glyph glyph-name="lacute" unicode="&#x13a;" horiz-adv-x="266" 
d="M177 136l-1 -10q0 -23 20 -23q10 0 22 5l15 -105q-41 -19 -92 -19q-55 0 -85 29t-30 84q0 15 3 33l85 612l149 16zM295 991l49 -111l-224 -83l-34 72z" />
    <glyph glyph-name="uni019B" unicode="&#x19b;" horiz-adv-x="471" 
d="M404 185q17 -84 53 -154l-143 -46q-33 78 -47 162t-15 228l-132 -391l-148 35l217 474l60 -11q-1 51 -11 88l-55 -49l-71 51l75 68q-26 15 -75 23l28 96q47 -10 79.5 -22t57.5 -31l78 65l48 -72l-71 -62q34 -71 44 -210q11 -158 28 -242z" />
    <glyph glyph-name="uni019A" unicode="&#x19a;" horiz-adv-x="304" 
d="M205 136l-1 -10q0 -23 20 -23q10 0 22 5l15 -105q-41 -19 -92 -19q-55 0 -85 29t-30 84q0 15 3 33l26 189h-69l15 106h69l44 317l149 16l-46 -333h71l-15 -106h-71z" />
    <glyph glyph-name="uni026C" unicode="&#x26c;" horiz-adv-x="396" 
d="M315 108l15 -105q-41 -19 -92 -19q-55 0 -85 29t-30 84q0 15 3 33l16 113q-65 2 -99 31.5t-34 79.5q0 56 37 90t95 34q15 0 33 -4l37 268l149 16l-60 -431h3q25 2 63 9l3 -77q-42 -11 -77 -14h-3l-15 -109l-1 -10q0 -23 20 -23q10 0 22 5zM153 325l10 74q-9 3 -19 3
q-17 0 -27 -11t-10 -30q0 -36 46 -36z" />
    <glyph glyph-name="lcaron" unicode="&#x13e;" horiz-adv-x="326" 
d="M177 136l-1 -10q0 -23 20 -23q10 0 22 5l15 -105q-41 -19 -92 -19q-55 0 -85 29t-30 84q0 15 3 33l85 612l149 16zM309 755l108 -14l-73 -211l-75 8z" />
    <glyph glyph-name="uni1E3D" unicode="&#x1e3d;" horiz-adv-x="266" 
d="M177 136l-1 -10q0 -23 20 -23q10 0 22 5l15 -105q-41 -19 -92 -19q-55 0 -85 29t-30 84q0 15 3 33l85 612l149 16zM-19 -259l-50 61l146 134h90l111 -138l-62 -57l-105 91z" />
    <glyph glyph-name="lcommaaccent" unicode="&#x13c;" horiz-adv-x="266" 
d="M177 136l-1 -10q0 -23 20 -23q10 0 22 5l15 -105q-41 -19 -92 -19q-55 0 -85 29t-30 84q0 15 3 33l85 612l149 16zM168 -88q19 -19 19 -47q0 -22 -8 -40.5t-29 -55.5l-55 -91h-73l43 118q-26 18 -26 51q0 37 22.5 60.5t56.5 23.5q31 0 50 -19z" />
    <glyph glyph-name="uni0234" unicode="&#x234;" horiz-adv-x="424" 
d="M384 215q28 -27 28 -73q0 -76 -53.5 -117t-136.5 -41q-24 0 -47 3l-37 -70l-65 30l35 60q-38 19 -57 53.5t-19 80.5q0 10 2 32l80 569l150 16l-85 -608q-1 -5 -1 -15q28 57 59.5 82t75.5 25q43 0 71 -27zM295.5 105.5q16.5 12.5 16.5 33.5q0 22 -20 22q-15 0 -28 -14
t-32 -53q6 -1 20 -1q27 0 43.5 12.5z" />
    <glyph glyph-name="ldot" unicode="&#x140;" horiz-adv-x="402" 
d="M177 136l-1 -10q0 -23 20 -23q10 0 22 5l15 -105q-41 -19 -92 -19q-55 0 -85 29t-30 84q0 15 3 33l85 612l149 16zM269.5 309q-21.5 21 -21.5 55q0 42 28 69.5t70 27.5q36 0 57 -21t21 -55q0 -42 -28 -69.5t-69 -27.5q-36 0 -57.5 21z" />
    <glyph glyph-name="uni1E37" unicode="&#x1e37;" horiz-adv-x="266" 
d="M177 136l-1 -10q0 -23 20 -23q10 0 22 5l15 -105q-41 -19 -92 -19q-55 0 -85 29t-30 84q0 15 3 33l85 612l149 16zM178.5 -83q21.5 -21 21.5 -55q0 -42 -28 -69.5t-70 -27.5q-36 0 -57 21t-21 55q0 42 28 69.5t69 27.5q36 0 57.5 -21z" />
    <glyph glyph-name="uni026E" unicode="&#x26e;" horiz-adv-x="638" 
d="M616 427l-194 -218q83 -6 126 -48.5t43 -117.5q0 -79 -35.5 -139t-98 -92.5t-140.5 -32.5q-125 0 -191 92l85 78q26 -29 50.5 -41.5t57.5 -12.5q55 0 87.5 39t32.5 106q0 45 -23.5 63.5t-71.5 18.5h-85l1 1l12 88l182 207h-238l-39 -282l-1 -10q0 -23 20 -23q10 0 22 5
l15 -105q-41 -19 -92 -19q-55 0 -85 29t-30 84q0 15 3 33l85 612l149 16l-31 -227h398z" />
    <glyph glyph-name="uni026D" unicode="&#x26d;" horiz-adv-x="253" 
d="M299 -180q-56 -41 -134 -41q-74 0 -115.5 38.5t-41.5 110.5q0 10 2 34l5 38l104 742l150 16l-106 -758l-7 -55q-1 -5 -1 -13q0 -42 41 -42q18 0 31.5 4.5t31.5 13.5z" />
    <glyph glyph-name="uni01C9" unicode="&#x1c9;" horiz-adv-x="519" 
d="M177 136l-1 -10q0 -23 20 -23q10 0 22 5l15 -105q-41 -19 -92 -19q-55 0 -85 29t-30 84q0 15 3 33l85 612l149 16zM169 -112q37 16 60.5 34t38 48.5t21.5 79.5l67 481h148l-67 -478q-12 -84 -43.5 -136t-76.5 -82t-113 -56zM390.5 655q-21.5 21 -21.5 55q0 42 28 69.5
t70 27.5q36 0 57 -21t21 -55q0 -42 -28 -69.5t-69 -27.5q-36 0 -57.5 21z" />
    <glyph glyph-name="uni026B" unicode="&#x26b;" horiz-adv-x="415" 
d="M256 136l-1 -10q0 -23 20 -23q10 0 22 5l15 -105q-41 -19 -92 -19q-55 0 -85 29t-30 84q0 15 3 33l29 209h-4q-22 0 -37 -13.5t-34 -40.5l-71 44q33 55 71.5 88.5t88.5 33.5h2l40 291l149 16l-51 -367h1q22 0 38 13t33 37l72 -43q-34 -55 -71.5 -87.5t-87.5 -32.5z" />
    <glyph glyph-name="uni02AA" unicode="&#x2aa;" horiz-adv-x="620" 
d="M98 27.5q-63 43.5 -63 136.5q0 14 4 46l75 532l150 16l-78 -554q-2 -20 -2 -28q0 -46 28.5 -64.5t90.5 -18.5q142 0 142 71q0 21 -16 35.5t-62 33.5q-59 25 -85 56.5t-26 85.5q0 48 26 87.5t71 62.5t101 23q96 0 165 -66l-64 -80q-26 19 -48.5 28t-47.5 9
q-29 0 -45.5 -14t-16.5 -37q0 -22 15 -35.5t61 -32.5q59 -23 87 -56t28 -87q0 -97 -80.5 -145t-223.5 -48q-123 0 -186 43.5z" />
    <glyph glyph-name="lslash" unicode="&#x142;" horiz-adv-x="310" 
d="M243 108l15 -105q-41 -19 -92 -19q-55 0 -85 29t-30 84q0 15 3 33l20 144l-42 -25l-26 88l84 51l49 354l149 16l-38 -273l60 36l24 -90l-100 -60l-32 -235l-1 -10q0 -23 20 -23q10 0 22 5z" />
    <glyph glyph-name="uni02AB" unicode="&#x2ab;" horiz-adv-x="640" 
d="M642 424l-248 -309h211l-30 -115h-350q-40 -16 -82 -16q-57 0 -87 30t-30 85q0 20 2 31l86 612l149 16l-86 -622q-1 -4 -1 -11q0 -22 20 -22q9 0 21 4l248 310h-186l16 114h362z" />
    <glyph glyph-name="m" unicode="m" horiz-adv-x="751" 
d="M694 515q29 -33 29 -91q0 -18 -3 -36l-55 -388h-148l51 361q2 18 2 22q0 37 -25 37q-39 0 -87 -113l-44 -307h-148l50 361q2 18 2 24q0 35 -25 35q-39 0 -87 -117l-42 -303h-148l74 531h128l-3 -84q66 101 149 101q43 0 70.5 -25t34.5 -71q29 45 66.5 70.5t79.5 25.5
q50 0 79 -33z" />
    <glyph glyph-name="uni1E3F" unicode="&#x1e3f;" horiz-adv-x="751" 
d="M694 515q29 -33 29 -91q0 -18 -3 -36l-55 -388h-148l51 361q2 18 2 22q0 37 -25 37q-39 0 -87 -113l-44 -307h-148l50 361q2 18 2 24q0 35 -25 35q-39 0 -87 -117l-42 -303h-148l74 531h128l-3 -84q66 101 149 101q43 0 70.5 -25t34.5 -71q29 45 66.5 70.5t79.5 25.5
q50 0 79 -33zM525 828l49 -111l-225 -93l-36 74z" />
    <glyph glyph-name="uni1E41" unicode="&#x1e41;" horiz-adv-x="751" 
d="M694 515q29 -33 29 -91q0 -18 -3 -36l-55 -388h-148l51 361q2 18 2 22q0 37 -25 37q-39 0 -87 -113l-44 -307h-148l50 361q2 18 2 24q0 35 -25 35q-39 0 -87 -117l-42 -303h-148l74 531h128l-3 -84q66 101 149 101q43 0 70.5 -25t34.5 -71q29 45 66.5 70.5t79.5 25.5
q50 0 79 -33zM379.5 655q-21.5 21 -21.5 55q0 42 28 69.5t70 27.5q36 0 57 -21t21 -55q0 -42 -28 -69.5t-69 -27.5q-36 0 -57.5 21z" />
    <glyph glyph-name="uni0271" unicode="&#x271;" horiz-adv-x="751" 
d="M694 515q29 -33 29 -91q0 -18 -3 -36l-55 -388l-6 -44q-13 -88 -66.5 -132.5t-135.5 -44.5q-73 0 -125 44l61 86q17 -10 29.5 -14.5t29.5 -4.5q24 0 39 14.5t19 41.5l7 54l51 361q2 18 2 22q0 37 -25 37q-39 0 -87 -113l-44 -307h-148l50 361q2 18 2 24q0 35 -25 35
q-39 0 -87 -117l-42 -303h-148l74 531h128l-3 -84q66 101 149 101q43 0 70.5 -25t34.5 -71q29 45 66.5 70.5t79.5 25.5q50 0 79 -33z" />
    <glyph glyph-name="uni0270" unicode="&#x270;" horiz-adv-x="747" 
d="M736 531l-104 -737l-150 -16l41 292q-57 -87 -135 -87q-41 0 -70 25t-36 70q-66 -95 -145 -95q-50 0 -79.5 33t-29.5 91q0 18 3 36l55 388h148l-51 -360q-2 -18 -2 -24q0 -36 25 -36q20 0 42.5 28t43.5 77l45 315h148l-51 -360q-2 -18 -2 -24q0 -36 26 -36q20 0 43 29
t44 79l43 312h148z" />
    <glyph glyph-name="uni026F" unicode="&#x26f;" horiz-adv-x="751" 
d="M735 531l-74 -531h-128l3 84q-66 -101 -149 -101q-43 0 -70.5 25t-34.5 71q-29 -45 -66.5 -70.5t-79.5 -25.5q-50 0 -79 33t-29 91q0 18 3 36l55 388h148l-51 -361q-2 -18 -2 -22q0 -37 25 -37q39 0 87 113l44 307h148l-50 -361q-2 -18 -2 -24q0 -35 25 -35q39 0 87 117
l42 303h148z" />
    <glyph glyph-name="n" unicode="n" horiz-adv-x="514" 
d="M456.5 514.5q29.5 -33.5 29.5 -91.5q0 -18 -3 -36l-55 -387h-148l51 361q1 7 1 19q0 39 -27 39q-23 0 -47 -30.5t-52 -87.5l-42 -301h-148l74 531h128l-3 -89q70 106 160 106q52 0 81.5 -33.5z" />
    <glyph glyph-name="nacute" unicode="&#x144;" horiz-adv-x="514" 
d="M456.5 514.5q29.5 -33.5 29.5 -91.5q0 -18 -3 -36l-55 -387h-148l51 361q1 7 1 19q0 39 -27 39q-23 0 -47 -30.5t-52 -87.5l-42 -301h-148l74 531h128l-3 -89q70 106 160 106q52 0 81.5 -33.5zM402 828l49 -111l-225 -93l-36 74z" />
    <glyph glyph-name="napostrophe" unicode="&#x149;" horiz-adv-x="629" 
d="M206.5 740.5q16.5 -18.5 14.5 -44.5q-1 -17 -8 -34t-24 -46l-49 -81h-64l37 104q-24 22 -21 51q2 29 22 49t48 20t44.5 -18.5zM571.5 514.5q29.5 -33.5 29.5 -91.5q0 -18 -3 -36l-55 -387h-148l51 361q1 7 1 19q0 39 -27 39q-23 0 -47 -30.5t-52 -87.5l-42 -301h-148
l74 531h128l-3 -89q70 106 160 106q52 0 81.5 -33.5z" />
    <glyph glyph-name="ncaron" unicode="&#x148;" horiz-adv-x="514" 
d="M456.5 514.5q29.5 -33.5 29.5 -91.5q0 -18 -3 -36l-55 -387h-148l51 361q1 7 1 19q0 39 -27 39q-23 0 -47 -30.5t-52 -87.5l-42 -301h-148l74 531h128l-3 -89q70 106 160 106q52 0 81.5 -33.5zM449 808l49 -61l-145 -134h-90l-108 134l56 61l105 -90z" />
    <glyph glyph-name="uni1E4B" unicode="&#x1e4b;" horiz-adv-x="514" 
d="M456.5 514.5q29.5 -33.5 29.5 -91.5q0 -18 -3 -36l-55 -387h-148l51 361q1 7 1 19q0 39 -27 39q-23 0 -47 -30.5t-52 -87.5l-42 -301h-148l74 531h128l-3 -89q70 106 160 106q52 0 81.5 -33.5zM71 -259l-50 61l146 134h90l111 -138l-62 -57l-105 91z" />
    <glyph glyph-name="ncommaaccent" unicode="&#x146;" horiz-adv-x="514" 
d="M456.5 514.5q29.5 -33.5 29.5 -91.5q0 -18 -3 -36l-55 -387h-148l51 361q1 7 1 19q0 39 -27 39q-23 0 -47 -30.5t-52 -87.5l-42 -301h-148l74 531h128l-3 -89q70 106 160 106q52 0 81.5 -33.5zM258 -88q19 -19 19 -47q0 -22 -8 -40.5t-29 -55.5l-55 -91h-73l43 118
q-26 18 -26 51q0 37 22.5 60.5t56.5 23.5q31 0 50 -19z" />
    <glyph glyph-name="uni0235" unicode="&#x235;" horiz-adv-x="695" 
d="M655.5 215.5q27.5 -26.5 27.5 -72.5q0 -76 -53.5 -117.5t-136.5 -41.5q-24 0 -47 3l-37 -70l-65 30l35 61q-37 19 -56 53t-19 79q0 17 3 35l24 183q2 18 2 24q0 37 -27 37q-23 0 -48 -31t-53 -89l-41 -299h-148l74 531h128l-3 -91q33 50 74 79t88 29q51 0 80 -33.5
t29 -93.5q0 -17 -3 -37l-32 -225q-2 -18 -1 -25q28 57 59.5 82.5t75.5 25.5q43 0 70.5 -26.5zM567 105.5q16 12.5 16 33.5q0 22 -19 22q-16 0 -28.5 -14.5t-31.5 -52.5q6 -1 20 -1q27 0 43 12.5z" />
    <glyph glyph-name="uni1E45" unicode="&#x1e45;" horiz-adv-x="514" 
d="M456.5 514.5q29.5 -33.5 29.5 -91.5q0 -18 -3 -36l-55 -387h-148l51 361q1 7 1 19q0 39 -27 39q-23 0 -47 -30.5t-52 -87.5l-42 -301h-148l74 531h128l-3 -89q70 106 160 106q52 0 81.5 -33.5zM256.5 655q-21.5 21 -21.5 55q0 42 28 69.5t70 27.5q36 0 57 -21t21 -55
q0 -42 -28 -69.5t-69 -27.5q-36 0 -57.5 21z" />
    <glyph glyph-name="uni1E47" unicode="&#x1e47;" horiz-adv-x="514" 
d="M456.5 514.5q29.5 -33.5 29.5 -91.5q0 -18 -3 -36l-55 -387h-148l51 361q1 7 1 19q0 39 -27 39q-23 0 -47 -30.5t-52 -87.5l-42 -301h-148l74 531h128l-3 -89q70 106 160 106q52 0 81.5 -33.5zM268.5 -83q21.5 -21 21.5 -55q0 -42 -28 -69.5t-70 -27.5q-36 0 -57 21
t-21 55q0 42 28 69.5t69 27.5q36 0 57.5 -21z" />
    <glyph glyph-name="uni01F9" unicode="&#x1f9;" horiz-adv-x="514" 
d="M456.5 514.5q29.5 -33.5 29.5 -91.5q0 -18 -3 -36l-55 -387h-148l51 361q1 7 1 19q0 39 -27 39q-23 0 -47 -30.5t-52 -87.5l-42 -301h-148l74 531h128l-3 -89q70 106 160 106q52 0 81.5 -33.5zM274 827l182 -131l-44 -70l-203 91z" />
    <glyph glyph-name="eng" unicode="&#x14b;" horiz-adv-x="514" 
d="M456.5 514.5q29.5 -33.5 29.5 -91.5q0 -18 -3 -36l-55 -387l-6 -44q-13 -88 -66.5 -132.5t-135.5 -44.5q-73 0 -125 44l61 86q17 -10 29.5 -14.5t29.5 -4.5q24 0 39 14.5t19 41.5l7 54l51 361q1 7 1 19q0 39 -27 39q-23 0 -47 -30.5t-52 -87.5l-42 -301h-148l74 531h128
l-3 -89q70 106 160 106q52 0 81.5 -33.5z" />
    <glyph glyph-name="uni0272" unicode="&#x272;" horiz-adv-x="514" 
d="M456.5 514.5q29.5 -33.5 29.5 -91.5q0 -18 -3 -36l-55 -387h-148l51 361q1 7 1 19q0 39 -27 39q-23 0 -47 -30.5t-52 -87.5l-42 -301h-1l-6 -44q-13 -88 -66.5 -132.5t-135.5 -44.5q-73 0 -125 44l61 86q17 -10 29.5 -14.5t29.5 -4.5q24 0 39 14.5t19 41.5l7 54h1l74 531
h128l-3 -89q70 106 160 106q52 0 81.5 -33.5z" />
    <glyph glyph-name="uni0273" unicode="&#x273;" horiz-adv-x="514" 
d="M564 -180q-56 -41 -134 -41q-74 0 -115.5 38.5t-41.5 110.5q0 10 2 34l5 38l51 361q1 7 1 19q0 39 -27 39q-23 0 -47 -30.5t-52 -87.5l-42 -301h-148l74 531h128l-3 -89q70 106 160 106q52 0 81.5 -33.5t29.5 -91.5q0 -18 -3 -36l-55 -387l-7 -55q-1 -5 -1 -13
q0 -42 41 -42q18 0 31.5 4.5t31.5 13.5z" />
    <glyph glyph-name="uni01CC" unicode="&#x1cc;" horiz-adv-x="767" 
d="M456.5 514.5q29.5 -33.5 29.5 -91.5q0 -18 -3 -36l-55 -387h-148l51 361q1 7 1 19q0 39 -27 39q-23 0 -47 -30.5t-52 -87.5l-42 -301h-148l74 531h128l-3 -89q70 106 160 106q52 0 81.5 -33.5zM417 -112q37 16 60.5 34t38 48.5t21.5 79.5l67 481h148l-67 -478
q-12 -84 -43.5 -136t-76.5 -82t-113 -56zM638.5 655q-21.5 21 -21.5 55q0 42 28 69.5t70 27.5q36 0 57 -21t21 -55q0 -42 -28 -69.5t-69 -27.5q-36 0 -57.5 21z" />
    <glyph glyph-name="uni019E" unicode="&#x19e;" horiz-adv-x="514" 
d="M456.5 514.5q29.5 -33.5 29.5 -91.5q0 -18 -3 -36l-85 -593l-151 -17l85 584q2 16 2 20q0 38 -28 38q-43 0 -100 -118l-42 -301h-148l74 531h128l-3 -89q33 49 73 77.5t87 28.5q52 0 81.5 -33.5z" />
    <glyph glyph-name="ntilde" unicode="&#xf1;" horiz-adv-x="514" 
d="M456.5 514.5q29.5 -33.5 29.5 -91.5q0 -18 -3 -36l-55 -387h-148l51 361q1 7 1 19q0 39 -27 39q-23 0 -47 -30.5t-52 -87.5l-42 -301h-148l74 531h128l-3 -89q70 106 160 106q52 0 81.5 -33.5zM338.5 644q-13.5 7 -32.5 20q-9 7 -19 12.5t-18 5.5q-15 0 -26.5 -10.5
t-27.5 -34.5l-67 40q25 50 58.5 81.5t70.5 31.5q20 0 33.5 -7t31.5 -20q22 -18 36 -18q13 0 25 10t27 33l68 -38q-26 -51 -59.5 -82t-68.5 -31q-18 0 -31.5 7z" />
    <glyph glyph-name="o" unicode="o" horiz-adv-x="527" 
d="M78 39.5q-53 56.5 -53 159.5q0 88 29 167.5t91 130.5t156 51q95 0 148 -57t53 -159q0 -87 -29 -166.5t-91 -131t-156 -51.5q-95 0 -148 56.5zM304 136.5q26 41.5 36.5 99.5t10.5 112q0 46 -15 67t-45 21q-42 0 -68 -41.5t-36.5 -99.5t-10.5 -112q0 -46 15 -67t45 -21
q42 0 68 41.5z" />
    <glyph glyph-name="oacute" unicode="&#xf3;" horiz-adv-x="527" 
d="M78 39.5q-53 56.5 -53 159.5q0 88 29 167.5t91 130.5t156 51q95 0 148 -57t53 -159q0 -87 -29 -166.5t-91 -131t-156 -51.5q-95 0 -148 56.5zM304 136.5q26 41.5 36.5 99.5t10.5 112q0 46 -15 67t-45 21q-42 0 -68 -41.5t-36.5 -99.5t-10.5 -112q0 -46 15 -67t45 -21
q42 0 68 41.5zM403 828l49 -111l-225 -93l-36 74z" />
    <glyph glyph-name="uni0275" unicode="&#x275;" horiz-adv-x="527" 
d="M449 491q53 -57 53 -159q0 -87 -29 -166.5t-91 -131t-156 -51.5q-95 0 -148 56.5t-53 159.5q0 88 29 167.5t91 130.5t156 51q95 0 148 -57zM183 313h174q1 12 1 33q0 49 -16 71t-49 22q-78 0 -110 -126zM345 226h-175q-1 -14 -1 -41q0 -49 16 -71t49 -22q80 0 111 134z
" />
    <glyph glyph-name="obreve" unicode="&#x14f;" horiz-adv-x="527" 
d="M78 39.5q-53 56.5 -53 159.5q0 88 29 167.5t91 130.5t156 51q95 0 148 -57t53 -159q0 -87 -29 -166.5t-91 -131t-156 -51.5q-95 0 -148 56.5zM304 136.5q26 41.5 36.5 99.5t10.5 112q0 46 -15 67t-45 21q-42 0 -68 -41.5t-36.5 -99.5t-10.5 -112q0 -46 15 -67t45 -21
q42 0 68 41.5zM205 682q-35 48 -30 121l81 12q5 -76 62 -76q30 0 52.5 21t35.5 58l78 -18q-15 -74 -60 -120t-113 -46q-71 0 -106 48z" />
    <glyph glyph-name="uni01D2" unicode="&#x1d2;" horiz-adv-x="527" 
d="M78 39.5q-53 56.5 -53 159.5q0 88 29 167.5t91 130.5t156 51q95 0 148 -57t53 -159q0 -87 -29 -166.5t-91 -131t-156 -51.5q-95 0 -148 56.5zM304 136.5q26 41.5 36.5 99.5t10.5 112q0 46 -15 67t-45 21q-42 0 -68 -41.5t-36.5 -99.5t-10.5 -112q0 -46 15 -67t45 -21
q42 0 68 41.5zM450 808l49 -61l-145 -134h-90l-108 134l56 61l105 -90z" />
    <glyph glyph-name="ocircumflex" unicode="&#xf4;" horiz-adv-x="527" 
d="M78 39.5q-53 56.5 -53 159.5q0 88 29 167.5t91 130.5t156 51q95 0 148 -57t53 -159q0 -87 -29 -166.5t-91 -131t-156 -51.5q-95 0 -148 56.5zM304 136.5q26 41.5 36.5 99.5t10.5 112q0 46 -15 67t-45 21q-42 0 -68 -41.5t-36.5 -99.5t-10.5 -112q0 -46 15 -67t45 -21
q42 0 68 41.5zM195 623l-49 61l145 135h90l111 -139l-62 -57l-105 91z" />
    <glyph glyph-name="uni1ED1" unicode="&#x1ed1;" horiz-adv-x="527" 
d="M552 950l73 -78l-164 -142l-52 49zM186 586l-51 61l145 128h90l111 -132l-58 -57l-108 85zM78 39.5q-53 56.5 -53 159.5q0 88 29 167.5t91 130.5t156 51q95 0 148 -57t53 -159q0 -87 -29 -166.5t-91 -131t-156 -51.5q-95 0 -148 56.5zM304 136.5q26 41.5 36.5 99.5
t10.5 112q0 46 -15 67t-45 21q-42 0 -68 -41.5t-36.5 -99.5t-10.5 -112q0 -46 15 -67t45 -21q42 0 68 41.5z" />
    <glyph glyph-name="uni1ED9" unicode="&#x1ed9;" horiz-adv-x="527" 
d="M78 39.5q-53 56.5 -53 159.5q0 88 29 167.5t91 130.5t156 51q95 0 148 -57t53 -159q0 -87 -29 -166.5t-91 -131t-156 -51.5q-95 0 -148 56.5zM304 136.5q26 41.5 36.5 99.5t10.5 112q0 46 -15 67t-45 21q-42 0 -68 -41.5t-36.5 -99.5t-10.5 -112q0 -46 15 -67t45 -21
q42 0 68 41.5zM195 623l-49 61l145 135h90l111 -139l-62 -57l-105 91zM272.5 -83q21.5 -21 21.5 -55q0 -42 -28 -69.5t-70 -27.5q-36 0 -57 21t-21 55q0 42 28 69.5t69 27.5q36 0 57.5 -21z" />
    <glyph glyph-name="uni1ED3" unicode="&#x1ed3;" horiz-adv-x="527" 
d="M140 947l96 -173l-61 -44l-125 148zM185 586l-51 61l145 128h90l111 -132l-58 -57l-108 85zM78 39.5q-53 56.5 -53 159.5q0 88 29 167.5t91 130.5t156 51q95 0 148 -57t53 -159q0 -87 -29 -166.5t-91 -131t-156 -51.5q-95 0 -148 56.5zM304 136.5q26 41.5 36.5 99.5
t10.5 112q0 46 -15 67t-45 21q-42 0 -68 -41.5t-36.5 -99.5t-10.5 -112q0 -46 15 -67t45 -21q42 0 68 41.5z" />
    <glyph glyph-name="uni1ED5" unicode="&#x1ed5;" horiz-adv-x="527" 
d="M78 39.5q-53 56.5 -53 159.5q0 88 29 167.5t91 130.5t156 51q95 0 148 -57t53 -159q0 -87 -29 -166.5t-91 -131t-156 -51.5q-95 0 -148 56.5zM304 136.5q26 41.5 36.5 99.5t10.5 112q0 46 -15 67t-45 21q-42 0 -68 -41.5t-36.5 -99.5t-10.5 -112q0 -46 15 -67t45 -21
q42 0 68 41.5zM184 586l-51 61l145 128h90l111 -132l-58 -57l-108 85zM435 848q36 3 52.5 13t16.5 32q0 26 -30 26q-23 0 -54 -14l-17 66q45 24 96 24q50 0 78 -25.5t28 -67.5t-23.5 -66.5t-65.5 -32.5l-8 -53h-86z" />
    <glyph glyph-name="uni1ED7" unicode="&#x1ed7;" horiz-adv-x="527" 
d="M358.5 804.5q-14.5 6.5 -31.5 18.5q-9 7 -18.5 12t-17.5 5q-15 0 -26.5 -10t-27.5 -32l-66 37q25 48 58 77.5t69 29.5q20 0 34 -7t31 -19q11 -9 19 -13t16 -4q14 0 25.5 9.5t26.5 31.5l67 -36q-26 -48 -59 -77t-68 -29q-17 0 -31.5 6.5zM186 581l-51 61l145 128h90
l111 -132l-58 -57l-108 85zM78 39.5q-53 56.5 -53 159.5q0 88 29 167.5t91 130.5t156 51q95 0 148 -57t53 -159q0 -87 -29 -166.5t-91 -131t-156 -51.5q-95 0 -148 56.5zM304 136.5q26 41.5 36.5 99.5t10.5 112q0 46 -15 67t-45 21q-42 0 -68 -41.5t-36.5 -99.5t-10.5 -112
q0 -46 15 -67t45 -21q42 0 68 41.5z" />
    <glyph glyph-name="uni020D" unicode="&#x20d;" horiz-adv-x="527" 
d="M78 39.5q-53 56.5 -53 159.5q0 88 29 167.5t91 130.5t156 51q95 0 148 -57t53 -159q0 -87 -29 -166.5t-91 -131t-156 -51.5q-95 0 -148 56.5zM304 136.5q26 41.5 36.5 99.5t10.5 112q0 46 -15 67t-45 21q-42 0 -68 -41.5t-36.5 -99.5t-10.5 -112q0 -46 15 -67t45 -21
q42 0 68 41.5zM227 857l62 -196l-83 -35l-88 183zM385 857l54 -196l-82 -30l-81 181z" />
    </font>
</defs>
</svg>
