<?xml version="1.0" standalone="no"?>
<!DOCTYPE svg PUBLIC "-//W3C//DTD SVG 1.1//EN" "http://www.w3.org/Graphics/SVG/1.1/DTD/svg11.dtd" >
<svg>
<metadata>
Created by FontForge 20120731 at Fri May  5 09:30:46 2017
 By www-data
Digitized data copyright 2012-2016, The Mozilla Foundation and Telefonica S.A.
</metadata>
<defs>
<font id="FiraSansCondensed-BlackItalic" horiz-adv-x="504" >
  <font-face 
    font-family="Fira Sans Condensed Black"
    font-weight="900"
    font-style="italic"
    font-stretch="condensed"
    units-per-em="1000"
    panose-1="2 11 10 3 5 0 0 2 0 4"
    ascent="800"
    descent="-200"
    x-height="534"
    cap-height="696"
    bbox="-718 -356 1416 1233"
    underline-thickness="50"
    underline-position="-50"
    slope="-8"
    unicode-range="U+000D-FEFF"
  />
<missing-glyph horiz-adv-x="654" 
d="M643 1050l-197 -1400h-412l197 1400h412zM584 998h-305l-183 -1296h305zM416 426q23 -25 23 -66q0 -9 -2 -27q-7 -52 -32.5 -80t-75.5 -35l-7 -46q-1 -11 -9 -17t-17 -6q-10 0 -17.5 7t-5.5 18l11 83q52 3 73.5 20.5t26.5 59.5q2 14 2 21q0 45 -50 45q-26 0 -53 -12
q-6 -2 -12 -2q-12 0 -18 7t-5 19q3 17 32.5 26.5t61.5 9.5q51 0 74 -25zM313 109.5q9 -10.5 7 -27.5q-2 -14 -13.5 -24t-25.5 -10q-13 0 -21.5 9.5t-8.5 24.5q0 16 11 27t26 11q16 0 25 -10.5z" />
    <glyph glyph-name="fi" unicode="fi" horiz-adv-x="539" 
d="M468 0h-186l56 405h-73l-46 -332q-12 -92 -49.5 -150t-89 -91t-124.5 -58l-43 136q56 21 83 54t36 99l47 342h-61l18 129h60l5 35q8 55 39 99t82.5 69.5t118.5 25.5q51 0 92.5 -10t85.5 -33l-64 -117q-54 23 -96 23q-34 0 -51 -15.5t-22 -52.5l-3 -24h259z" />
    <glyph glyph-name="fl" unicode="fl" horiz-adv-x="574" 
d="M539 133l14 -132q-20 -9 -49 -14.5t-57 -5.5q-64 0 -98 33t-34 94q0 17 3 36l68 486q-20 3 -35 3q-32 0 -45.5 -17.5t-19.5 -57.5l-3 -24h66l-37 -129h-47l-46 -332q-12 -92 -49.5 -150t-89 -91t-124.5 -58l-43 136q56 21 83 54t36 99l47 342h-61l18 129h60l5 35
q12 86 70.5 140t155.5 54q62 0 112 -16l151 15l-84 -602l-1 -10q0 -20 18 -20q9 0 16 3z" />
    <glyph glyph-name=".notdef" horiz-adv-x="654" 
d="M643 1050l-197 -1400h-412l197 1400h412zM584 998h-305l-183 -1296h305zM416 426q23 -25 23 -66q0 -9 -2 -27q-7 -52 -32.5 -80t-75.5 -35l-7 -46q-1 -11 -9 -17t-17 -6q-10 0 -17.5 7t-5.5 18l11 83q52 3 73.5 20.5t26.5 59.5q2 14 2 21q0 45 -50 45q-26 0 -53 -12
q-6 -2 -12 -2q-12 0 -18 7t-5 19q3 17 32.5 26.5t61.5 9.5q51 0 74 -25zM313 109.5q9 -10.5 7 -27.5q-2 -14 -13.5 -24t-25.5 -10q-13 0 -21.5 9.5t-8.5 24.5q0 16 11 27t26 11q16 0 25 -10.5z" />
    <glyph glyph-name="nonmarkingreturn" unicode="&#xd;" horiz-adv-x="181" 
 />
    <glyph glyph-name="space" unicode=" " horiz-adv-x="181" 
 />
    <glyph glyph-name="A" unicode="A" horiz-adv-x="542" 
d="M324 0l-4 138h-138l-40 -138h-201l274 696h231l79 -696h-201zM222 276h94l-8 294z" />
    <glyph glyph-name="Aacute" unicode="&#xc1;" horiz-adv-x="542" 
d="M324 0l-4 138h-138l-40 -138h-201l274 696h231l79 -696h-201zM222 276h94l-8 294zM445 965l59 -134l-240 -88l-42 89z" />
    <glyph glyph-name="Abreve" unicode="&#x102;" horiz-adv-x="542" 
d="M324 0l-4 138h-138l-40 -138h-201l274 696h231l79 -696h-201zM222 276h94l-8 294zM231.5 793.5q-36.5 46.5 -36.5 115.5q0 13 1 20l95 15q2 -30 17 -49t43 -19q55 0 81 70l97 -19q-15 -77 -63 -128.5t-125 -51.5q-73 0 -109.5 46.5z" />
    <glyph glyph-name="uni1EAE" unicode="&#x1eae;" horiz-adv-x="542" 
d="M541 1059l-179 -151l-63 60l155 186zM432 934l97 -19q-15 -77 -63 -128.5t-125 -51.5q-73 0 -109.5 46.5t-36.5 115.5q0 13 1 20l95 15q2 -30 17 -49t43 -19q55 0 81 70zM215 696h231l79 -696h-201l-4 138h-138l-40 -138h-201zM222 276h94l-8 294z" />
    <glyph glyph-name="uni1EB6" unicode="&#x1eb6;" horiz-adv-x="542" 
d="M324 0l-4 138h-138l-40 -138h-201l274 696h231l79 -696h-201zM222 276h94l-8 294zM231.5 793.5q-36.5 46.5 -36.5 115.5q0 13 1 20l95 15q2 -30 17 -49t43 -19q55 0 81 70l97 -19q-15 -77 -63 -128.5t-125 -51.5q-73 0 -109.5 46.5zM288 -78.5q25 -24.5 25 -64.5
q0 -50 -34 -83t-83 -33q-43 0 -68 24.5t-25 64.5q0 50 33.5 83t83.5 33q43 0 68 -24.5z" />
    <glyph glyph-name="uni1EB0" unicode="&#x1eb0;" horiz-adv-x="542" 
d="M426 963l-77 -55l-136 158l111 85zM232.5 781.5q-36.5 46.5 -36.5 115.5q0 13 1 20l95 15q2 -30 17 -49t43 -19q55 0 81 70l97 -19q-15 -77 -63 -128.5t-125 -51.5q-73 0 -109.5 46.5zM215 696h231l79 -696h-201l-4 138h-138l-40 -138h-201zM222 276h94l-8 294z" />
    <glyph glyph-name="uni1EB2" unicode="&#x1eb2;" horiz-adv-x="542" 
d="M324 0l-4 138h-138l-40 -138h-201l274 696h231l79 -696h-201zM222 276h94l-8 294zM234.5 781.5q-36.5 46.5 -36.5 115.5q0 13 1 20l95 15q2 -30 17 -49t43 -19q55 0 81 70l97 -19q-15 -77 -63 -128.5t-125 -51.5q-73 0 -109.5 46.5zM323 1017q36 2 52 11.5t16 29.5
q0 12 -6.5 17.5t-22.5 5.5q-24 0 -55 -13l-17 74q46 26 104 26q56 0 86 -27t30 -71q0 -42 -25 -69t-68 -36l-4 -40h-101z" />
    <glyph glyph-name="uni1EB4" unicode="&#x1eb4;" horiz-adv-x="542" 
d="M295.5 990.5q-11.5 -9.5 -25.5 -30.5l-78 41q27 52 64 85.5t77 33.5q20 0 34 -6.5t31 -17.5q21 -16 35 -16q13 0 24 9t25 30l78 -40q-25 -52 -63 -85t-78 -33q-16 0 -29.5 6t-30.5 17q-3 2 -15 9t-22 7q-15 0 -26.5 -9.5zM431 934l97 -19q-15 -77 -63 -128.5t-125 -51.5
q-73 0 -109.5 46.5t-36.5 115.5q0 13 1 20l95 15q2 -30 17 -49t43 -19q55 0 81 70zM215 696h231l79 -696h-201l-4 138h-138l-40 -138h-201zM222 276h94l-8 294z" />
    <glyph glyph-name="uni01CD" unicode="&#x1cd;" horiz-adv-x="542" 
d="M324 0l-4 138h-138l-40 -138h-201l274 696h231l79 -696h-201zM222 276h94l-8 294zM482 959l61 -73l-150 -138h-110l-116 144l72 67l111 -87z" />
    <glyph glyph-name="Acircumflex" unicode="&#xc2;" horiz-adv-x="542" 
d="M324 0l-4 138h-138l-40 -138h-201l274 696h231l79 -696h-201zM222 276h94l-8 294zM215 754l-61 74l150 138h111l115 -144l-72 -68l-111 87z" />
    <glyph glyph-name="uni1EA4" unicode="&#x1ea4;" horiz-adv-x="542" 
d="M685 1034l-179 -151l-63 60l155 186zM302 937h111l115 -144l-72 -68l-111 87l-132 -87l-61 74zM215 696h231l79 -696h-201l-4 138h-138l-40 -138h-201zM222 276h94l-8 294z" />
    <glyph glyph-name="uni1EAC" unicode="&#x1eac;" horiz-adv-x="542" 
d="M324 0l-4 138h-138l-40 -138h-201l274 696h231l79 -696h-201zM222 276h94l-8 294zM215 754l-61 74l150 138h111l115 -144l-72 -68l-111 87zM288 -78.5q25 -24.5 25 -64.5q0 -50 -34 -83t-83 -33q-43 0 -68 24.5t-25 64.5q0 50 33.5 83t83.5 33q43 0 68 -24.5z" />
    <glyph glyph-name="uni1EA6" unicode="&#x1ea6;" horiz-adv-x="542" 
d="M268 938l-77 -55l-136 158l111 85zM214 725l-61 74l150 138h111l115 -144l-72 -68l-111 87zM215 696h231l79 -696h-201l-4 138h-138l-40 -138h-201zM222 276h94l-8 294z" />
    <glyph glyph-name="uni1EA8" unicode="&#x1ea8;" horiz-adv-x="542" 
d="M324 0l-4 138h-138l-40 -138h-201l274 696h231l79 -696h-201zM222 276h94l-8 294zM210 725l-61 74l150 138h111l115 -144l-72 -68l-111 87zM473 967q36 2 52 11.5t16 29.5q0 12 -6.5 17.5t-22.5 5.5q-24 0 -55 -13l-17 74q46 26 104 26q56 0 86 -27t30 -71q0 -42 -25 -69
t-68 -36l-4 -40h-101z" />
    <glyph glyph-name="uni1EAA" unicode="&#x1eaa;" horiz-adv-x="542" 
d="M294.5 993.5q-11.5 -9.5 -25.5 -30.5l-78 41q27 52 64 85.5t77 33.5q20 0 34 -6.5t31 -17.5q21 -16 35 -16q13 0 24 9t25 30l78 -40q-25 -52 -63 -85t-78 -33q-16 0 -29.5 6t-30.5 17q-3 2 -15 9t-22 7q-15 0 -26.5 -9.5zM301 937h111l115 -144l-72 -68l-111 87l-132 -87
l-61 74zM215 696h231l79 -696h-201l-4 138h-138l-40 -138h-201zM222 276h94l-8 294z" />
    <glyph glyph-name="uni0200" unicode="&#x200;" horiz-adv-x="542" 
d="M324 0l-4 138h-138l-40 -138h-201l274 696h231l79 -696h-201zM222 276h94l-8 294zM250 1000l66 -211l-98 -42l-95 197zM421 1000l59 -213l-98 -36l-88 198z" />
    <glyph glyph-name="Adieresis" unicode="&#xc4;" horiz-adv-x="542" 
d="M324 0l-4 138h-138l-40 -138h-201l274 696h231l79 -696h-201zM222 276h94l-8 294zM168.5 782.5q-21.5 21.5 -21.5 56.5q0 43 29.5 72t71.5 29q38 0 59.5 -21.5t21.5 -56.5q0 -43 -29.5 -72t-72.5 -29q-37 0 -58.5 21.5zM391.5 782.5q-21.5 21.5 -21.5 56.5q0 43 29 72
t72 29q37 0 58.5 -21.5t21.5 -56.5q0 -43 -29 -72t-72 -29q-37 0 -58.5 21.5z" />
    <glyph glyph-name="uni01DE" unicode="&#x1de;" horiz-adv-x="542" 
d="M324 0l-4 138h-138l-40 -138h-201l274 696h231l79 -696h-201zM222 276h94l-8 294zM167.5 766.5q-21.5 21.5 -21.5 56.5q0 43 29.5 72t71.5 29q38 0 59.5 -21.5t21.5 -56.5q0 -43 -29.5 -72t-72.5 -29q-37 0 -58.5 21.5zM390.5 766.5q-21.5 21.5 -21.5 56.5q0 43 29 72
t72 29q37 0 58.5 -21.5t21.5 -56.5q0 -43 -29 -72t-72 -29q-37 0 -58.5 21.5zM507 961h-292l19 130h293z" />
    <glyph glyph-name="uni0226" unicode="&#x226;" horiz-adv-x="542" 
d="M324 0l-4 138h-138l-40 -138h-201l274 696h231l79 -696h-201zM222 276h94l-8 294zM276 770.5q-25 24.5 -25 64.5q0 50 34 83t83 33q43 0 68 -24.5t25 -64.5q0 -50 -33.5 -83t-83.5 -33q-43 0 -68 24.5z" />
    <glyph glyph-name="uni1EA0" unicode="&#x1ea0;" horiz-adv-x="542" 
d="M324 0l-4 138h-138l-40 -138h-201l274 696h231l79 -696h-201zM222 276h94l-8 294zM288 -78.5q25 -24.5 25 -64.5q0 -50 -34 -83t-83 -33q-43 0 -68 24.5t-25 64.5q0 50 33.5 83t83.5 33q43 0 68 -24.5z" />
    <glyph glyph-name="uni01E0" unicode="&#x1e0;" horiz-adv-x="542" 
d="M324 0l-4 138h-138l-40 -138h-201l274 696h231l79 -696h-201zM222 276h94l-8 294zM269 758.5q-25 24.5 -25 64.5q0 50 34 83t83 33q43 0 68 -24.5t25 -64.5q0 -50 -33.5 -83t-83.5 -33q-43 0 -68 24.5zM516 961h-292l19 130h293z" />
    <glyph glyph-name="Agrave" unicode="&#xc0;" horiz-adv-x="542" 
d="M324 0l-4 138h-138l-40 -138h-201l274 696h231l79 -696h-201zM222 276h94l-8 294zM303 963l192 -133l-51 -86l-218 85z" />
    <glyph glyph-name="uni1EA2" unicode="&#x1ea2;" horiz-adv-x="542" 
d="M324 0l-4 138h-138l-40 -138h-201l274 696h231l79 -696h-201zM222 276h94l-8 294zM302 856q36 2 52 11.5t16 29.5q0 12 -6.5 17.5t-22.5 5.5q-24 0 -55 -13l-17 74q46 26 104 26q56 0 86 -27t30 -71q0 -42 -25 -69t-68 -36l-4 -40h-101z" />
    <glyph glyph-name="uni0202" unicode="&#x202;" horiz-adv-x="542" 
d="M324 0l-4 138h-138l-40 -138h-201l274 696h231l79 -696h-201zM222 276h94l-8 294zM173 775q17 83 66.5 136.5t127.5 53.5q75 0 111 -47.5t36 -122.5q0 -14 -1 -22l-99 -14q-5 77 -60 77q-30 0 -52 -21.5t-34 -58.5z" />
    <glyph glyph-name="uni2C6D" unicode="&#x2c6d;" horiz-adv-x="619" 
d="M561 140q0 -13 4.5 -21t16.5 -13l-55 -122q-94 7 -136 74q-31 -37 -69 -57t-88 -20q-102 0 -156 69.5t-54 192.5q0 125 37.5 233t107 173.5t159.5 65.5q45 0 75.5 -19t52.5 -53l18 53h163l-74 -534q-2 -16 -2 -22zM239.5 144.5q16.5 -27.5 50.5 -27.5q43 0 77 36l55 383
q-26 39 -63 39q-45 0 -75.5 -50t-45.5 -127.5t-15 -159.5q0 -66 16.5 -93.5z" />
    <glyph glyph-name="Amacron" unicode="&#x100;" horiz-adv-x="542" 
d="M324 0l-4 138h-138l-40 -138h-201l274 696h231l79 -696h-201zM222 276h94l-8 294zM485 775h-292l19 130h293z" />
    <glyph glyph-name="Aogonek" unicode="&#x104;" horiz-adv-x="542" 
d="M340 -54q-25 -29 -25 -54q0 -33 40 -33q15 0 53 6l-26 -109q-30 -8 -67 -8q-57 0 -93.5 30t-36.5 83q0 105 138 167l-3 110h-138l-40 -138h-201l274 696h231l79 -696h-94q-66 -25 -91 -54zM222 276h94l-8 294z" />
    <glyph glyph-name="Aring" unicode="&#xc5;" horiz-adv-x="542" 
d="M324 0l-4 138h-138l-40 -138h-201l274 696h231l79 -696h-201zM222 276h94l-8 294zM464.5 973q32.5 -35 32.5 -92q0 -42 -19.5 -78.5t-56 -58t-84.5 -21.5q-59 0 -91.5 35t-32.5 92q0 41 20 77.5t56.5 58.5t83.5 22q59 0 91.5 -35zM329 897q-13 -18 -13 -42q0 -38 31 -38
q21 0 34 18t13 41q0 39 -30 39q-22 0 -35 -18z" />
    <glyph glyph-name="Aringacute" unicode="&#x1fa;" horiz-adv-x="542" 
d="M324 0l-4 138h-138l-40 -138h-201l274 696h231l79 -696h-201zM222 276h94l-8 294zM459.5 975q32.5 -35 32.5 -92q0 -42 -19.5 -78.5t-56 -58t-84.5 -21.5q-59 0 -91.5 35t-32.5 92q0 41 20 77.5t56.5 58.5t83.5 22q59 0 91.5 -35zM324 899q-13 -18 -13 -42q0 -38 31 -38
q21 0 34 18t13 41q0 39 -30 39q-22 0 -35 -18zM450 1233l59 -134l-240 -88l-42 89z" />
    <glyph glyph-name="uni023A" unicode="&#x23a;" horiz-adv-x="542" 
d="M349 0l-9 138h-87l-81 -214l-57 14l75 200h-23l-44 -138h-182l274 696h186l23 62l57 -14l-31 -82l75 -662h-176zM208 267h31l79 210l-7 113zM301 267h31l-5 69z" />
    <glyph glyph-name="Atilde" unicode="&#xc3;" horiz-adv-x="542" 
d="M324 0l-4 138h-138l-40 -138h-201l274 696h231l79 -696h-201zM222 276h94l-8 294zM365 757.5q-14 6.5 -31 18.5q-13 9 -21.5 13.5t-16.5 4.5q-15 0 -26.5 -10.5t-26.5 -33.5l-79 46q27 57 64.5 94t78.5 37q20 0 34 -7t33 -20q11 -9 19 -13t16 -4q14 0 25 10t25 33l80 -44
q-26 -57 -64.5 -94t-79.5 -37q-16 0 -30 6.5z" />
    <glyph glyph-name="AE" unicode="&#xc6;" horiz-adv-x="771" 
d="M747 558h-211v-140h205l-19 -134h-186v-145h205l-21 -139h-361l2 138h-156l-54 -138h-210l325 696h521zM260 277h104l5 278z" />
    <glyph glyph-name="AEacute" unicode="&#x1fc;" horiz-adv-x="771" 
d="M747 558h-211v-140h205l-19 -134h-186v-145h205l-21 -139h-361l2 138h-156l-54 -138h-210l325 696h521zM260 277h104l5 278zM612 965l59 -134l-240 -88l-42 89z" />
    <glyph glyph-name="uni01E2" unicode="&#x1e2;" horiz-adv-x="771" 
d="M747 558h-211v-140h205l-19 -134h-186v-145h205l-21 -139h-361l2 138h-156l-54 -138h-210l325 696h521zM260 277h104l5 278zM652 775h-292l19 130h293z" />
    <glyph glyph-name="B" unicode="B" horiz-adv-x="555" 
d="M503.5 322.5q34.5 -32.5 34.5 -96.5q0 -108 -81 -167t-236 -59h-222l98 696h196q125 0 194 -39t69 -120q0 -69 -41.5 -111t-104.5 -58q59 -13 93.5 -45.5zM358 513q0 24 -15 35.5t-49 11.5h-24l-19 -135h24q83 0 83 88zM341 240q0 59 -71 59h-36l-22 -159h29
q100 0 100 100z" />
    <glyph glyph-name="uni1E02" unicode="&#x1e02;" horiz-adv-x="555" 
d="M503.5 322.5q34.5 -32.5 34.5 -96.5q0 -108 -81 -167t-236 -59h-222l98 696h196q125 0 194 -39t69 -120q0 -69 -41.5 -111t-104.5 -58q59 -13 93.5 -45.5zM358 513q0 24 -15 35.5t-49 11.5h-24l-19 -135h24q83 0 83 88zM341 240q0 59 -71 59h-36l-22 -159h29
q100 0 100 100zM259 770.5q-25 24.5 -25 64.5q0 50 34 83t83 33q43 0 68 -24.5t25 -64.5q0 -50 -33.5 -83t-83.5 -33q-43 0 -68 24.5z" />
    <glyph glyph-name="uni1E04" unicode="&#x1e04;" horiz-adv-x="555" 
d="M503.5 322.5q34.5 -32.5 34.5 -96.5q0 -108 -81 -167t-236 -59h-222l98 696h196q125 0 194 -39t69 -120q0 -69 -41.5 -111t-104.5 -58q59 -13 93.5 -45.5zM358 513q0 24 -15 35.5t-49 11.5h-24l-19 -135h24q83 0 83 88zM341 240q0 59 -71 59h-36l-22 -159h29
q100 0 100 100zM292 -78.5q25 -24.5 25 -64.5q0 -50 -34 -83t-83 -33q-43 0 -68 24.5t-25 64.5q0 50 33.5 83t83.5 33q43 0 68 -24.5z" />
    <glyph glyph-name="uniA7B4" unicode="&#xa7b4;" horiz-adv-x="555" 
d="M503.5 325q35.5 -33 35.5 -94q0 -75 -37 -127t-98 -78t-133 -26q-33 0 -77 7l-31 -222h-194l128 911h192q125 0 194 -39.5t69 -122.5q0 -69 -41 -110.5t-100 -55.5q57 -10 92.5 -43zM263 299l27 126h4q27 0 43 22.5t16 61.5q0 27 -14 39t-45 12h-23l-58 -418q24 -2 36 -2
q44 0 68.5 27t24.5 74q0 58 -59 58h-20z" />
    <glyph glyph-name="uni0181" unicode="&#x181;" horiz-adv-x="724" 
d="M672.5 322.5q34.5 -32.5 34.5 -96.5q0 -108 -81 -167t-236 -59h-222l79 558h-26q-20 0 -30.5 -14t-10.5 -39q0 -15 6 -51l-126 -46q-11 27 -16.5 50t-5.5 52q0 86 54.5 136t142.5 50h227q125 0 194 -39t69 -120q0 -69 -41.5 -111t-104.5 -58q59 -13 93.5 -45.5zM527 513
q0 24 -15 35.5t-49 11.5h-24l-19 -135h24q83 0 83 88zM510 240q0 59 -71 59h-36l-22 -159h29q100 0 100 100z" />
    <glyph glyph-name="uni0243" unicode="&#x243;" horiz-adv-x="563" 
d="M511.5 322.5q34.5 -32.5 34.5 -96.5q0 -108 -81 -167t-236 -59h-222l25 179h-39l12 85h39l61 432h196q125 0 194 -39t69 -120q0 -69 -41.5 -111t-104.5 -58q59 -13 93.5 -45.5zM366 513q0 24 -15 35.5t-49 11.5h-24l-19 -135h24q83 0 83 88zM349 240q0 59 -71 59h-36
l-5 -35h73l-12 -85h-73l-5 -39h29q100 0 100 100z" />
    <glyph glyph-name="uni0182" unicode="&#x182;" horiz-adv-x="546" 
d="M474.5 406.5q61.5 -48.5 61.5 -140.5q0 -66 -29.5 -126.5t-93.5 -100t-162 -39.5h-251l97 696h422l-40 -147h-209l-13 -94h46q110 0 171.5 -48.5zM310 173q23 33 23 83q0 32 -15 48.5t-48 16.5h-32l-25 -181h30q44 0 67 33z" />
    <glyph glyph-name="C" unicode="C" horiz-adv-x="524" 
d="M570 631l-101 -100q-45 42 -95 42q-53 0 -86.5 -50.5t-48 -123.5t-14.5 -144q0 -65 21.5 -95.5t63.5 -30.5q29 0 55.5 13.5t63.5 40.5l71 -109q-102 -94 -228 -94q-114 0 -180.5 71.5t-66.5 208.5q0 119 37.5 222.5t116 168t195.5 64.5q123 0 196 -84z" />
    <glyph glyph-name="Cacute" unicode="&#x106;" horiz-adv-x="524" 
d="M570 631l-101 -100q-45 42 -95 42q-53 0 -86.5 -50.5t-48 -123.5t-14.5 -144q0 -65 21.5 -95.5t63.5 -30.5q29 0 55.5 13.5t63.5 40.5l71 -109q-102 -94 -228 -94q-114 0 -180.5 71.5t-66.5 208.5q0 119 37.5 222.5t116 168t195.5 64.5q123 0 196 -84zM492 965l59 -134
l-240 -88l-42 89z" />
    <glyph glyph-name="Ccaron" unicode="&#x10c;" horiz-adv-x="524" 
d="M570 631l-101 -100q-45 42 -95 42q-53 0 -86.5 -50.5t-48 -123.5t-14.5 -144q0 -65 21.5 -95.5t63.5 -30.5q29 0 55.5 13.5t63.5 40.5l71 -109q-102 -94 -228 -94q-114 0 -180.5 71.5t-66.5 208.5q0 119 37.5 222.5t116 168t195.5 64.5q123 0 196 -84zM529 959l61 -73
l-150 -138h-110l-116 144l72 67l111 -87z" />
    <glyph glyph-name="Ccedilla" unicode="&#xc7;" horiz-adv-x="524" 
d="M314 -17l-5 -30q42 -6 64.5 -28.5t22.5 -61.5q0 -31 -16 -62t-53.5 -52t-97.5 -21q-34 0 -62 9.5t-48 24.5l51 79q27 -15 55 -15q42 0 43 29q0 15 -18.5 21t-61.5 6l26 103q-89 17 -139 87t-50 188q0 119 37.5 222.5t116 168t195.5 64.5q123 0 196 -84l-101 -100
q-45 42 -95 42q-53 0 -86.5 -50.5t-48 -123.5t-14.5 -144q0 -65 21.5 -95.5t63.5 -30.5q29 0 55.5 13.5t63.5 40.5l71 -109q-83 -78 -186 -91z" />
    <glyph glyph-name="Ccircumflex" unicode="&#x108;" horiz-adv-x="524" 
d="M570 631l-101 -100q-45 42 -95 42q-53 0 -86.5 -50.5t-48 -123.5t-14.5 -144q0 -65 21.5 -95.5t63.5 -30.5q29 0 55.5 13.5t63.5 40.5l71 -109q-102 -94 -228 -94q-114 0 -180.5 71.5t-66.5 208.5q0 119 37.5 222.5t116 168t195.5 64.5q123 0 196 -84zM262 754l-61 74
l150 138h111l115 -144l-72 -68l-111 87z" />
    <glyph glyph-name="Cdotaccent" unicode="&#x10a;" horiz-adv-x="524" 
d="M570 631l-101 -100q-45 42 -95 42q-53 0 -86.5 -50.5t-48 -123.5t-14.5 -144q0 -65 21.5 -95.5t63.5 -30.5q29 0 55.5 13.5t63.5 40.5l71 -109q-102 -94 -228 -94q-114 0 -180.5 71.5t-66.5 208.5q0 119 37.5 222.5t116 168t195.5 64.5q123 0 196 -84zM323 770.5
q-25 24.5 -25 64.5q0 50 34 83t83 33q43 0 68 -24.5t25 -64.5q0 -50 -33.5 -83t-83.5 -33q-43 0 -68 24.5z" />
    <glyph glyph-name="uniA7B3" unicode="&#xa7b3;" horiz-adv-x="532" 
d="M593 696l-215 -413l102 -459h-202l-34 328l-107 -328h-210l221 457l-86 415h202l20 -293l104 293h205z" />
    <glyph glyph-name="uni0187" unicode="&#x187;" horiz-adv-x="531" 
d="M735 823l-64 -115q-26 16 -51 16q-20 0 -31 -14t-15 -43l-5 -36l-90 -94q-28 18 -52.5 27t-51.5 9q-53 0 -87 -50.5t-48.5 -123.5t-14.5 -144q0 -65 21.5 -95.5t63.5 -30.5q29 0 56 13.5t63 41.5l70 -110q-44 -42 -101.5 -68t-122.5 -26q-117 0 -183.5 71.5t-66.5 208.5
q0 116 39 220.5t112 169.5t170 65q42 0 76 -14q10 73 56.5 116.5t128.5 43.5q72 0 128 -38z" />
    <glyph glyph-name="uni023B" unicode="&#x23b;" horiz-adv-x="524" 
d="M365.5 142.5q26.5 13.5 63.5 40.5l71 -109q-102 -94 -228 -94q-26 0 -54 5l-23 -61l-61 15l24 64q-63 29 -98 94.5t-35 162.5q0 119 37.5 222.5t116 168t195.5 64.5q20 0 54 -4l18 47l60 -15l-19 -50q48 -21 83 -62l-101 -100q-20 18 -34 25l-160 -421q15 -6 35 -6
q29 0 55.5 13.5zM231 194l145 379h-2q-53 0 -86.5 -50.5t-48 -123.5t-14.5 -144q0 -35 6 -61z" />
    <glyph glyph-name="D" unicode="D" horiz-adv-x="592" 
d="M510.5 640q78.5 -56 78.5 -201q0 -201 -89 -320t-285 -119h-216l98 696h203q132 0 210.5 -56zM271 556l-58 -416h31q80 0 113.5 92.5t33.5 209.5q0 63 -21 88.5t-65 25.5h-34z" />
    <glyph glyph-name="uni01F1" unicode="&#x1f1;" horiz-adv-x="1062" 
d="M510.5 640q78.5 -56 78.5 -201q0 -201 -89 -320t-285 -119h-216l98 696h203q132 0 210.5 -56zM271 556l-58 -416h31q80 0 113.5 92.5t33.5 209.5q0 63 -21 88.5t-65 25.5h-34zM536 0l20 145l306 401h-227l22 150h444l-21 -147l-304 -394h261l-42 -155h-459z" />
    <glyph glyph-name="uni01C4" unicode="&#x1c4;" horiz-adv-x="1062" 
d="M510.5 640q78.5 -56 78.5 -201q0 -201 -89 -320t-285 -119h-216l98 696h203q132 0 210.5 -56zM271 556l-58 -416h31q80 0 113.5 92.5t33.5 209.5q0 63 -21 88.5t-65 25.5h-34zM536 0l20 145l306 401h-227l22 150h444l-21 -147l-304 -394h261l-42 -155h-459zM1024 959
l61 -73l-150 -138h-110l-116 144l72 67l111 -87z" />
    <glyph glyph-name="uni0189" unicode="&#x189;" horiz-adv-x="600" 
d="M518.5 640q78.5 -56 78.5 -201q0 -201 -89 -320t-285 -119h-216l42 297h-40l17 112h39l40 287h203q132 0 210.5 -56zM365.5 232.5q33.5 92.5 33.5 209.5q0 63 -21 88.5t-65 25.5h-34l-20 -147h101l-16 -112h-101l-22 -157h31q80 0 113.5 92.5z" />
    <glyph glyph-name="Eth" unicode="&#xd0;" horiz-adv-x="600" 
d="M518.5 640q78.5 -56 78.5 -201q0 -201 -89 -320t-285 -119h-216l42 297h-40l17 112h39l40 287h203q132 0 210.5 -56zM365.5 232.5q33.5 92.5 33.5 209.5q0 63 -21 88.5t-65 25.5h-34l-20 -147h101l-16 -112h-101l-22 -157h31q80 0 113.5 92.5z" />
    <glyph glyph-name="Dcaron" unicode="&#x10e;" horiz-adv-x="592" 
d="M510.5 640q78.5 -56 78.5 -201q0 -201 -89 -320t-285 -119h-216l98 696h203q132 0 210.5 -56zM271 556l-58 -416h31q80 0 113.5 92.5t33.5 209.5q0 63 -21 88.5t-65 25.5h-34zM471 959l61 -73l-150 -138h-110l-116 144l72 67l111 -87z" />
    <glyph glyph-name="uni1E12" unicode="&#x1e12;" horiz-adv-x="592" 
d="M510.5 640q78.5 -56 78.5 -201q0 -201 -89 -320t-285 -119h-216l98 696h203q132 0 210.5 -56zM271 556l-58 -416h31q80 0 113.5 92.5t33.5 209.5q0 63 -21 88.5t-65 25.5h-34zM69 -282l-59 73l151 148h111l113 -153l-74 -68l-108 96z" />
    <glyph glyph-name="Dcroat" unicode="&#x110;" horiz-adv-x="600" 
d="M518.5 640q78.5 -56 78.5 -201q0 -201 -89 -320t-285 -119h-216l42 297h-40l17 112h39l40 287h203q132 0 210.5 -56zM365.5 232.5q33.5 92.5 33.5 209.5q0 63 -21 88.5t-65 25.5h-34l-20 -147h101l-16 -112h-101l-22 -157h31q80 0 113.5 92.5z" />
    <glyph glyph-name="uni1E0A" unicode="&#x1e0a;" horiz-adv-x="592" 
d="M510.5 640q78.5 -56 78.5 -201q0 -201 -89 -320t-285 -119h-216l98 696h203q132 0 210.5 -56zM271 556l-58 -416h31q80 0 113.5 92.5t33.5 209.5q0 63 -21 88.5t-65 25.5h-34zM265 770.5q-25 24.5 -25 64.5q0 50 34 83t83 33q43 0 68 -24.5t25 -64.5q0 -50 -33.5 -83
t-83.5 -33q-43 0 -68 24.5z" />
    <glyph glyph-name="uni1E0C" unicode="&#x1e0c;" horiz-adv-x="592" 
d="M510.5 640q78.5 -56 78.5 -201q0 -201 -89 -320t-285 -119h-216l98 696h203q132 0 210.5 -56zM271 556l-58 -416h31q80 0 113.5 92.5t33.5 209.5q0 63 -21 88.5t-65 25.5h-34zM286 -78.5q25 -24.5 25 -64.5q0 -50 -34 -83t-83 -33q-43 0 -68 24.5t-25 64.5q0 50 33.5 83
t83.5 33q43 0 68 -24.5z" />
    <glyph glyph-name="uni018A" unicode="&#x18a;" horiz-adv-x="760" 
d="M678.5 640q78.5 -56 78.5 -201q0 -201 -89 -320t-285 -119h-216l79 558h-25q-20 0 -30.5 -14t-10.5 -39q0 -15 6 -51l-126 -46q-11 27 -16.5 50t-5.5 52q0 86 54.5 136t142.5 50h233q132 0 210.5 -56zM525.5 232.5q33.5 92.5 33.5 209.5q0 63 -21 88.5t-65 25.5h-34
l-58 -416h31q80 0 113.5 92.5z" />
    <glyph glyph-name="uni1E0E" unicode="&#x1e0e;" horiz-adv-x="592" 
d="M510.5 640q78.5 -56 78.5 -201q0 -201 -89 -320t-285 -119h-216l98 696h203q132 0 210.5 -56zM271 556l-58 -416h31q80 0 113.5 92.5t33.5 209.5q0 63 -21 88.5t-65 25.5h-34zM82 -70h292l-19 -130h-293z" />
    <glyph glyph-name="uni018B" unicode="&#x18b;" horiz-adv-x="546" 
d="M568 695l-97 -695h-240q-109 0 -169.5 52.5t-60.5 149.5q0 121 78.5 186.5t207.5 65.5h53l14 95h-223l21 147h417zM297 140l25 181h-32q-43 0 -64.5 -30t-21.5 -80q0 -37 16 -54t49 -17h28z" />
    <glyph glyph-name="uni01F2" unicode="&#x1f2;" horiz-adv-x="1004" 
d="M510.5 640q78.5 -56 78.5 -201q0 -201 -89 -320t-285 -119h-216l98 696h203q132 0 210.5 -56zM271 556l-58 -416h31q80 0 113.5 92.5t33.5 209.5q0 63 -21 88.5t-65 25.5h-34zM1027 534l-18 -132l-216 -261h188l-37 -141h-396l18 133l217 262h-164l20 139h388z" />
    <glyph glyph-name="uni01C5" unicode="&#x1c5;" horiz-adv-x="1004" 
d="M510.5 640q78.5 -56 78.5 -201q0 -201 -89 -320t-285 -119h-216l98 696h203q132 0 210.5 -56zM271 556l-58 -416h31q80 0 113.5 92.5t33.5 209.5q0 63 -21 88.5t-65 25.5h-34zM1027 534l-18 -132l-216 -261h188l-37 -141h-396l18 133l217 262h-164l20 139h388zM991 825
l59 -73l-150 -148h-111l-109 148l68 73l108 -96z" />
    <glyph glyph-name="E" unicode="E" horiz-adv-x="461" 
d="M509 696l-41 -138h-197l-19 -138h174l-19 -134h-174l-20 -147h213l-20 -139h-407l98 696h412z" />
    <glyph glyph-name="Eacute" unicode="&#xc9;" horiz-adv-x="461" 
d="M509 696l-41 -138h-197l-19 -138h174l-19 -134h-174l-20 -147h213l-20 -139h-407l98 696h412zM417 965l59 -134l-240 -88l-42 89z" />
    <glyph glyph-name="Ebreve" unicode="&#x114;" horiz-adv-x="461" 
d="M509 696l-41 -138h-197l-19 -138h174l-19 -134h-174l-20 -147h213l-20 -139h-407l98 696h412zM203.5 793.5q-36.5 46.5 -36.5 115.5q0 13 1 20l95 15q2 -30 17 -49t43 -19q55 0 81 70l97 -19q-15 -77 -63 -128.5t-125 -51.5q-73 0 -109.5 46.5z" />
    <glyph glyph-name="Ecaron" unicode="&#x11a;" horiz-adv-x="461" 
d="M509 696l-41 -138h-197l-19 -138h174l-19 -134h-174l-20 -147h213l-20 -139h-407l98 696h412zM454 959l61 -73l-150 -138h-110l-116 144l72 67l111 -87z" />
    <glyph glyph-name="uni0228" unicode="&#x228;" horiz-adv-x="461" 
d="M271 558l-19 -138h174l-19 -134h-174l-20 -147h213l-20 -139h-154l-7 -47q42 -6 64.5 -28.5t22.5 -61.5q0 -31 -16 -62t-53.5 -52t-97.5 -21q-34 0 -62 9.5t-48 24.5l51 79q27 -15 56 -15q42 0 42 29q0 15 -18.5 21t-61.5 6l30 118h-155l98 696h412l-41 -138h-197z" />
    <glyph glyph-name="Ecircumflex" unicode="&#xca;" horiz-adv-x="461" 
d="M509 696l-41 -138h-197l-19 -138h174l-19 -134h-174l-20 -147h213l-20 -139h-407l98 696h412zM187 754l-61 74l150 138h111l115 -144l-72 -68l-111 87z" />
    <glyph glyph-name="uni1EBE" unicode="&#x1ebe;" horiz-adv-x="461" 
d="M570 1129l87 -95l-179 -151l-63 60zM185 725l-61 74l150 138h111l115 -144l-72 -68l-111 87zM509 696l-41 -138h-197l-19 -138h174l-19 -134h-174l-20 -147h213l-20 -139h-407l98 696h412z" />
    <glyph glyph-name="uni1EC6" unicode="&#x1ec6;" horiz-adv-x="461" 
d="M509 696l-41 -138h-197l-19 -138h174l-19 -134h-174l-20 -147h213l-20 -139h-407l98 696h412zM187 754l-61 74l150 138h111l115 -144l-72 -68l-111 87zM260 -78.5q25 -24.5 25 -64.5q0 -50 -34 -83t-83 -33q-43 0 -68 24.5t-25 64.5q0 50 33.5 83t83.5 33q43 0 68 -24.5z
" />
    <glyph glyph-name="uni1EC0" unicode="&#x1ec0;" horiz-adv-x="461" 
d="M138 1126l102 -188l-77 -55l-136 158zM186 725l-61 74l150 138h111l115 -144l-72 -68l-111 87zM509 696l-41 -138h-197l-19 -138h174l-19 -134h-174l-20 -147h213l-20 -139h-407l98 696h412z" />
    <glyph glyph-name="uni1EC2" unicode="&#x1ec2;" horiz-adv-x="461" 
d="M509 696l-41 -138h-197l-19 -138h174l-19 -134h-174l-20 -147h213l-20 -139h-407l98 696h412zM182 725l-61 74l150 138h111l115 -144l-72 -68l-111 87zM445 967q36 2 52 11.5t16 29.5q0 12 -6.5 17.5t-22.5 5.5q-24 0 -55 -13l-17 74q46 26 104 26q56 0 86 -27t30 -71
q0 -42 -25 -69t-68 -36l-4 -40h-101z" />
    <glyph glyph-name="uni1EC4" unicode="&#x1ec4;" horiz-adv-x="461" 
d="M360.5 970q-13.5 6 -30.5 17q-3 2 -15 9t-22 7q-15 0 -26.5 -9.5t-25.5 -30.5l-78 41q27 52 64 85.5t77 33.5q20 0 34 -6.5t31 -17.5q21 -16 35 -16q13 0 24 9t25 30l78 -40q-25 -52 -63 -85t-78 -33q-16 0 -29.5 6zM184 725l-61 74l150 138h111l115 -144l-72 -68
l-111 87zM509 696l-41 -138h-197l-19 -138h174l-19 -134h-174l-20 -147h213l-20 -139h-407l98 696h412z" />
    <glyph glyph-name="uni0204" unicode="&#x204;" horiz-adv-x="461" 
d="M509 696l-41 -138h-197l-19 -138h174l-19 -134h-174l-20 -147h213l-20 -139h-407l98 696h412zM222 1000l66 -211l-98 -42l-95 197zM393 1000l59 -213l-98 -36l-88 198z" />
    <glyph glyph-name="Edieresis" unicode="&#xcb;" horiz-adv-x="461" 
d="M509 696l-41 -138h-197l-19 -138h174l-19 -134h-174l-20 -147h213l-20 -139h-407l98 696h412zM140.5 782.5q-21.5 21.5 -21.5 56.5q0 43 29.5 72t71.5 29q38 0 59.5 -21.5t21.5 -56.5q0 -43 -29.5 -72t-72.5 -29q-37 0 -58.5 21.5zM363.5 782.5q-21.5 21.5 -21.5 56.5
q0 43 29 72t72 29q37 0 58.5 -21.5t21.5 -56.5q0 -43 -29 -72t-72 -29q-37 0 -58.5 21.5z" />
    <glyph glyph-name="Edotaccent" unicode="&#x116;" horiz-adv-x="461" 
d="M509 696l-41 -138h-197l-19 -138h174l-19 -134h-174l-20 -147h213l-20 -139h-407l98 696h412zM248 770.5q-25 24.5 -25 64.5q0 50 34 83t83 33q43 0 68 -24.5t25 -64.5q0 -50 -33.5 -83t-83.5 -33q-43 0 -68 24.5z" />
    <glyph glyph-name="uni1EB8" unicode="&#x1eb8;" horiz-adv-x="461" 
d="M509 696l-41 -138h-197l-19 -138h174l-19 -134h-174l-20 -147h213l-20 -139h-407l98 696h412zM260 -78.5q25 -24.5 25 -64.5q0 -50 -34 -83t-83 -33q-43 0 -68 24.5t-25 64.5q0 50 33.5 83t83.5 33q43 0 68 -24.5z" />
    <glyph glyph-name="Egrave" unicode="&#xc8;" horiz-adv-x="461" 
d="M509 696l-41 -138h-197l-19 -138h174l-19 -134h-174l-20 -147h213l-20 -139h-407l98 696h412zM275 963l192 -133l-51 -86l-218 85z" />
    <glyph glyph-name="uni1EBA" unicode="&#x1eba;" horiz-adv-x="461" 
d="M509 696l-41 -138h-197l-19 -138h174l-19 -134h-174l-20 -147h213l-20 -139h-407l98 696h412zM274 856q36 2 52 11.5t16 29.5q0 12 -6.5 17.5t-22.5 5.5q-24 0 -55 -13l-17 74q46 26 104 26q56 0 86 -27t30 -71q0 -42 -25 -69t-68 -36l-4 -40h-101z" />
    <glyph glyph-name="uni0206" unicode="&#x206;" horiz-adv-x="461" 
d="M509 696l-41 -138h-197l-19 -138h174l-19 -134h-174l-20 -147h213l-20 -139h-407l98 696h412zM145 775q17 83 66.5 136.5t127.5 53.5q75 0 111 -47.5t36 -122.5q0 -14 -1 -22l-99 -14q-5 77 -60 77q-30 0 -52 -21.5t-34 -58.5z" />
    <glyph glyph-name="Emacron" unicode="&#x112;" horiz-adv-x="461" 
d="M509 696l-41 -138h-197l-19 -138h174l-19 -134h-174l-20 -147h213l-20 -139h-407l98 696h412zM457 775h-292l19 130h293z" />
    <glyph glyph-name="Eogonek" unicode="&#x118;" horiz-adv-x="461" 
d="M271 558l-19 -138h174l-19 -134h-174l-20 -147h213l-20 -139h-35q-66 -25 -91 -54t-25 -54q0 -33 40 -33q15 0 53 6l-26 -109q-30 -8 -67 -8q-57 0 -93.5 30t-36.5 83q0 83 86 139h-212l98 696h412l-41 -138h-197z" />
    <glyph glyph-name="uni0190" unicode="&#x190;" horiz-adv-x="492" 
d="M445 691.5q50 -23.5 90 -72.5l-101 -93q-46 50 -98 50q-36 0 -56 -23t-20 -61q0 -58 69 -58h65l-41 -137h-41q-55 0 -85 -27t-30 -76q0 -38 17.5 -55t52.5 -17q31 0 59.5 13.5t63.5 42.5l85 -99q-96 -98 -243 -98q-107 0 -170.5 51t-63.5 138q0 176 201 197
q-133 29 -133 140q0 62 36 109.5t95 73t125 25.5q73 0 123 -23.5z" />
    <glyph glyph-name="uni018E" unicode="&#x18e;" horiz-adv-x="456" 
d="M75 696h404l-97 -696h-408l20 139h213l21 147h-175l19 134h174l20 138h-211z" />
    <glyph glyph-name="uni01A9" unicode="&#x1a9;" horiz-adv-x="450" 
d="M500 696l-20 -140h-231l108 -184l-9 -68l-148 -161h225l-21 -143h-431l20 139l182 208l-126 210l19 139h432z" />
    <glyph glyph-name="uni0246" unicode="&#x246;" horiz-adv-x="461" 
d="M468 558h-36l-53 -138h47l-19 -134h-79l-55 -147h153l-20 -139h-186l-29 -76l-60 15l23 61h-155l98 696h321l24 62l60 -15l-18 -47h25zM314 420l52 138h-95l-19 -138h62zM216 164l47 122h-30z" />
    <glyph glyph-name="uni1EBC" unicode="&#x1ebc;" horiz-adv-x="461" 
d="M509 696l-41 -138h-197l-19 -138h174l-19 -134h-174l-20 -147h213l-20 -139h-407l98 696h412zM337 757.5q-14 6.5 -31 18.5q-13 9 -21.5 13.5t-16.5 4.5q-15 0 -26.5 -10.5t-26.5 -33.5l-79 46q27 57 64.5 94t78.5 37q20 0 34 -7t33 -20q11 -9 19 -13t16 -4q14 0 25 10
t25 33l80 -44q-26 -57 -64.5 -94t-79.5 -37q-16 0 -30 6.5z" />
    <glyph glyph-name="uni01B7" unicode="&#x1b7;" horiz-adv-x="508" 
d="M499 562l-161 -157q73 -6 114 -48.5t41 -115.5q0 -81 -39.5 -140t-106 -89.5t-146.5 -30.5q-82 0 -134 28t-88 81l109 91q28 -31 52.5 -44.5t59.5 -13.5q39 0 66.5 30t27.5 78q0 67 -78 67h-96l16 104l153 155h-206l21 139h414z" />
    <glyph glyph-name="uni01EE" unicode="&#x1ee;" horiz-adv-x="508" 
d="M499 562l-161 -157q73 -6 114 -48.5t41 -115.5q0 -81 -39.5 -140t-106 -89.5t-146.5 -30.5q-82 0 -134 28t-88 81l109 91q28 -31 52.5 -44.5t59.5 -13.5q39 0 66.5 30t27.5 78q0 67 -78 67h-96l16 104l153 155h-206l21 139h414zM462 959l61 -73l-150 -138h-110l-116 144
l72 67l111 -87z" />
    <glyph glyph-name="uni01B8" unicode="&#x1b8;" horiz-adv-x="511" 
d="M502 557h-215l124 -157l-16 -102h-89q-51 0 -77.5 -28t-26.5 -79q0 -32 16 -50t46 -18q33 0 63.5 15t68.5 47l85 -97q-47 -52 -106.5 -79.5t-139.5 -27.5q-112 0 -173.5 54.5t-61.5 148.5q0 62 28 110.5t77.5 77t111.5 33.5l-127 157l20 134h413z" />
    <glyph glyph-name="F" unicode="F" horiz-adv-x="432" 
d="M495 696l-42 -138h-182l-22 -159h163l-21 -138h-161l-37 -261h-194l98 696h398z" />
    <glyph glyph-name="uni1E1E" unicode="&#x1e1e;" horiz-adv-x="432" 
d="M495 696l-42 -138h-182l-22 -159h163l-21 -138h-161l-37 -261h-194l98 696h398zM240 770.5q-25 24.5 -25 64.5q0 50 34 83t83 33q43 0 68 -24.5t25 -64.5q0 -50 -33.5 -83t-83.5 -33q-43 0 -68 24.5z" />
    <glyph glyph-name="uni0191" unicode="&#x191;" horiz-adv-x="432" 
d="M271 558l-22 -159h163l-21 -138h-161l-37 -261l-4 -27q-15 -98 -78.5 -149t-158.5 -51q-87 0 -140 46l76 112q16 -9 27.5 -13t27.5 -4q21 0 34 13t17 37l5 36l98 696h398l-42 -138h-182z" />
    <glyph glyph-name="G" unicode="G" horiz-adv-x="588" 
d="M517.5 690q53.5 -25 89.5 -66l-103 -94q-30 25 -54.5 36t-56.5 11q-92 0 -132 -106t-40 -245q0 -57 17 -81t52 -24q34 0 66 19l19 133h-59l1 134h260l-48 -349q-55 -37 -121.5 -57t-127.5 -20q-256 0 -256 270q0 123 41 228.5t125 170.5t207 65q67 0 120.5 -25z" />
    <glyph glyph-name="uni01F4" unicode="&#x1f4;" horiz-adv-x="588" 
d="M517.5 690q53.5 -25 89.5 -66l-103 -94q-30 25 -54.5 36t-56.5 11q-92 0 -132 -106t-40 -245q0 -57 17 -81t52 -24q34 0 66 19l19 133h-59l1 134h260l-48 -349q-55 -37 -121.5 -57t-127.5 -20q-256 0 -256 270q0 123 41 228.5t125 170.5t207 65q67 0 120.5 -25zM495 965
l59 -134l-240 -88l-42 89z" />
    <glyph glyph-name="uni0194" unicode="&#x194;" horiz-adv-x="523" 
d="M331 95q22 -52 32.5 -85.5t10.5 -70.5q0 -80 -46 -122.5t-130 -42.5q-70 0 -104.5 33.5t-34.5 91.5q0 50 22 98t66 106l-108 593h199l22 -467l146 467h198zM228 7q-36 -59 -36 -93q0 -23 19 -23q30 0 30 44q0 32 -13 72z" />
    <glyph glyph-name="Gbreve" unicode="&#x11e;" horiz-adv-x="588" 
d="M517.5 690q53.5 -25 89.5 -66l-103 -94q-30 25 -54.5 36t-56.5 11q-92 0 -132 -106t-40 -245q0 -57 17 -81t52 -24q34 0 66 19l19 133h-59l1 134h260l-48 -349q-55 -37 -121.5 -57t-127.5 -20q-256 0 -256 270q0 123 41 228.5t125 170.5t207 65q67 0 120.5 -25z
M281.5 793.5q-36.5 46.5 -36.5 115.5q0 13 1 20l95 15q2 -30 17 -49t43 -19q55 0 81 70l97 -19q-15 -77 -63 -128.5t-125 -51.5q-73 0 -109.5 46.5z" />
    <glyph glyph-name="Gcaron" unicode="&#x1e6;" horiz-adv-x="588" 
d="M517.5 690q53.5 -25 89.5 -66l-103 -94q-30 25 -54.5 36t-56.5 11q-92 0 -132 -106t-40 -245q0 -57 17 -81t52 -24q34 0 66 19l19 133h-59l1 134h260l-48 -349q-55 -37 -121.5 -57t-127.5 -20q-256 0 -256 270q0 123 41 228.5t125 170.5t207 65q67 0 120.5 -25zM532 959
l61 -73l-150 -138h-110l-116 144l72 67l111 -87z" />
    <glyph glyph-name="Gcircumflex" unicode="&#x11c;" horiz-adv-x="588" 
d="M517.5 690q53.5 -25 89.5 -66l-103 -94q-30 25 -54.5 36t-56.5 11q-92 0 -132 -106t-40 -245q0 -57 17 -81t52 -24q34 0 66 19l19 133h-59l1 134h260l-48 -349q-55 -37 -121.5 -57t-127.5 -20q-256 0 -256 270q0 123 41 228.5t125 170.5t207 65q67 0 120.5 -25zM265 754
l-61 74l150 138h111l115 -144l-72 -68l-111 87z" />
    <glyph glyph-name="Gcommaaccent" unicode="&#x122;" horiz-adv-x="588" 
d="M517.5 690q53.5 -25 89.5 -66l-103 -94q-30 25 -54.5 36t-56.5 11q-92 0 -132 -106t-40 -245q0 -57 17 -81t52 -24q34 0 66 19l19 133h-59l1 134h260l-48 -349q-55 -37 -121.5 -57t-127.5 -20q-256 0 -256 270q0 123 41 228.5t125 170.5t207 65q67 0 120.5 -25z
M330.5 -84.5q22.5 -21.5 22.5 -55.5q0 -25 -8.5 -46.5t-29.5 -55.5l-59 -97h-87l41 117q-31 21 -31 58q0 44 27 72.5t67 28.5q35 0 57.5 -21.5z" />
    <glyph glyph-name="Gdotaccent" unicode="&#x120;" horiz-adv-x="588" 
d="M517.5 690q53.5 -25 89.5 -66l-103 -94q-30 25 -54.5 36t-56.5 11q-92 0 -132 -106t-40 -245q0 -57 17 -81t52 -24q34 0 66 19l19 133h-59l1 134h260l-48 -349q-55 -37 -121.5 -57t-127.5 -20q-256 0 -256 270q0 123 41 228.5t125 170.5t207 65q67 0 120.5 -25z
M326 770.5q-25 24.5 -25 64.5q0 50 34 83t83 33q43 0 68 -24.5t25 -64.5q0 -50 -33.5 -83t-83.5 -33q-43 0 -68 24.5z" />
    <glyph glyph-name="uni0193" unicode="&#x193;" horiz-adv-x="569" 
d="M774 823l-64 -115q-28 16 -52 16q-20 0 -31 -14t-15 -43l-6 -43l-93 -88q-56 41 -120 41q-93 0 -133 -106t-40 -245q0 -57 17 -81t53 -24q33 0 65 19l19 133h-59l2 134h259l-48 -349q-54 -37 -120.5 -57t-127.5 -20q-257 0 -257 270q0 120 42 226.5t121.5 172t187.5 65.5
q47 0 87 -16v2q10 74 56 117t128 43q71 0 129 -38z" />
    <glyph glyph-name="uni0241" unicode="&#x241;" horiz-adv-x="490" 
d="M145 336l40 13q60 20 90.5 56.5t30.5 97.5q0 73 -61 73q-28 0 -54 -13t-58 -39l-77 97q53 49 106.5 71.5t124.5 22.5q100 0 159 -53t59 -146q0 -84 -36 -138t-109 -83l-28 -11l-40 -284h-193z" />
    <glyph glyph-name="uni01E4" unicode="&#x1e4;" horiz-adv-x="620" 
d="M603 176h-58l-16 -118q-55 -37 -121.5 -57t-127.5 -20q-256 0 -256 270q0 123 41 228.5t125 170.5t207 65q67 0 120.5 -25t89.5 -66l-105 -96q-27 26 -51.5 37.5t-57.5 11.5q-92 0 -132 -106t-40 -245q0 -57 17 -81t52 -24q39 0 75 19l5 36h-70l13 101h70l6 42h-69
l-2 110h260l-20 -152h59z" />
    <glyph glyph-name="uni021C" unicode="&#x21c;" horiz-adv-x="470" 
d="M426 667.5q55 -47.5 55 -125.5q0 -144 -180 -185q76 -1 114 -35.5t38 -99.5q0 -131 -127 -217t-322 -124l8 139q81 26 131 51t79 61.5t29 90.5q0 35 -19 49.5t-64 14.5h-64l39 137h48q47 0 68.5 26t21.5 71q0 56 -50 56q-51 0 -116 -52l-74 96q101 94 235 94
q95 0 150 -47.5z" />
    <glyph glyph-name="H" unicode="H" horiz-adv-x="585" 
d="M192 0h-193l98 696h193l-36 -260h124l36 260h194l-97 -696h-194l39 284h-123z" />
    <glyph glyph-name="Hbar" unicode="&#x126;" horiz-adv-x="604" 
d="M647 599l-15 -103h-42l-69 -496h-194l39 284h-123l-41 -284h-193l70 496h-44l15 103h43l14 97h193l-13 -97h124l13 97h194l-14 -97h43zM388 436l8 60h-124l-8 -60h124z" />
    <glyph glyph-name="uni021E" unicode="&#x21e;" horiz-adv-x="585" 
d="M192 0h-193l98 696h193l-36 -260h124l36 260h194l-97 -696h-194l39 284h-123zM504 959l61 -73l-150 -138h-110l-116 144l72 67l111 -87z" />
    <glyph glyph-name="Hcircumflex" unicode="&#x124;" horiz-adv-x="585" 
d="M192 0h-193l98 696h193l-36 -260h124l36 260h194l-97 -696h-194l39 284h-123zM237 754l-61 74l150 138h111l115 -144l-72 -68l-111 87z" />
    <glyph glyph-name="uni1E24" unicode="&#x1e24;" horiz-adv-x="585" 
d="M192 0h-193l98 696h193l-36 -260h124l36 260h194l-97 -696h-194l39 284h-123zM310 -78.5q25 -24.5 25 -64.5q0 -50 -34 -83t-83 -33q-43 0 -68 24.5t-25 64.5q0 50 33.5 83t83.5 33q43 0 68 -24.5z" />
    <glyph glyph-name="uniA7AA" unicode="&#xa7aa;" horiz-adv-x="754" 
d="M776 696l-97 -696h-194l39 284h-123l-41 -284h-193l79 558h-25q-20 0 -30.5 -14t-10.5 -39q0 -15 6 -51l-126 -46q-11 27 -16.5 50t-5.5 52q0 86 54.5 136t142.5 50h223l-36 -260h124l36 260h194z" />
    <glyph glyph-name="uniA78D" unicode="&#xa78d;" horiz-adv-x="559" 
d="M581 696l-97 -696h-193l34 241q-57 -44 -130 -44q-81 0 -123.5 49.5t-42.5 134.5q0 16 4 52l36 263h190l-36 -267q-2 -12 -2 -32q0 -30 11.5 -44.5t39.5 -14.5q40 0 70 28l46 330h193z" />
    <glyph glyph-name="uni01F6" unicode="&#x1f6;" horiz-adv-x="835" 
d="M390 29q-50 48 -50 119q0 8 2 26l15 110h-124l-40 -284h-194l98 696h193l-36 -260h124l36 260h194l-73 -525q-2 -16 -2 -22q0 -32 25 -32q48 0 68 106.5t20 226.5q0 42 -3 84h175q7 -56 7 -98q0 -143 -22.5 -241t-86 -156t-180.5 -58q-96 0 -146 48z" />
    <glyph glyph-name="I" unicode="I" horiz-adv-x="267" 
d="M290 696l-97 -696h-194l98 696h193z" />
    <glyph glyph-name="IJ" unicode="&#x132;" horiz-adv-x="562" 
d="M290 696l-97 -696h-194l98 696h193zM504 106q-13 -91 -52.5 -148.5t-92 -88t-124.5 -54.5l-34 137q57 24 79 61t31 105l81 578h194z" />
    <glyph glyph-name="Iacute" unicode="&#xcd;" horiz-adv-x="267" 
d="M290 696l-97 -696h-194l98 696h193zM308 965l59 -134l-240 -88l-42 89z" />
    <glyph glyph-name="Ibreve" unicode="&#x12c;" horiz-adv-x="267" 
d="M290 696l-97 -696h-194l98 696h193zM94.5 793.5q-36.5 46.5 -36.5 115.5q0 13 1 20l95 15q2 -30 17 -49t43 -19q55 0 81 70l97 -19q-15 -77 -63 -128.5t-125 -51.5q-73 0 -109.5 46.5z" />
    <glyph glyph-name="uni01CF" unicode="&#x1cf;" horiz-adv-x="267" 
d="M290 696l-97 -696h-194l98 696h193zM345 959l61 -73l-150 -138h-110l-116 144l72 67l111 -87z" />
    <glyph glyph-name="Icircumflex" unicode="&#xce;" horiz-adv-x="267" 
d="M290 696l-97 -696h-194l98 696h193zM78 754l-61 74l150 138h111l115 -144l-72 -68l-111 87z" />
    <glyph glyph-name="uni0208" unicode="&#x208;" horiz-adv-x="267" 
d="M290 696l-97 -696h-194l98 696h193zM113 1000l66 -211l-98 -42l-95 197zM284 1000l59 -213l-98 -36l-88 198z" />
    <glyph glyph-name="Idieresis" unicode="&#xcf;" horiz-adv-x="267" 
d="M290 696l-97 -696h-194l98 696h193zM31.5 782.5q-21.5 21.5 -21.5 56.5q0 43 29.5 72t71.5 29q38 0 59.5 -21.5t21.5 -56.5q0 -43 -29.5 -72t-72.5 -29q-37 0 -58.5 21.5zM254.5 782.5q-21.5 21.5 -21.5 56.5q0 43 29 72t72 29q37 0 58.5 -21.5t21.5 -56.5q0 -43 -29 -72
t-72 -29q-37 0 -58.5 21.5z" />
    <glyph glyph-name="uni1E2E" unicode="&#x1e2e;" horiz-adv-x="267" 
d="M290 696l-97 -696h-194l98 696h193zM313 1136l87 -95l-179 -151l-63 60zM24.5 770.5q-21.5 21.5 -21.5 56.5q0 43 29.5 72t71.5 29q38 0 59 -21.5t21 -56.5q0 -43 -29.5 -72t-71.5 -29q-37 0 -58.5 21.5zM265.5 770.5q-21.5 21.5 -21.5 56.5q0 43 29.5 72t71.5 29
q38 0 59 -21.5t21 -56.5q0 -43 -29.5 -72t-71.5 -29q-37 0 -58.5 21.5z" />
    <glyph glyph-name="Idotaccent" unicode="&#x130;" horiz-adv-x="267" 
d="M290 696l-97 -696h-194l98 696h193zM139 770.5q-25 24.5 -25 64.5q0 50 34 83t83 33q43 0 68 -24.5t25 -64.5q0 -50 -33.5 -83t-83.5 -33q-43 0 -68 24.5z" />
    <glyph glyph-name="uni1ECA" unicode="&#x1eca;" horiz-adv-x="267" 
d="M290 696l-97 -696h-194l98 696h193zM153 -78.5q25 -24.5 25 -64.5q0 -50 -34 -83t-83 -33q-43 0 -68 24.5t-25 64.5q0 50 33.5 83t83.5 33q43 0 68 -24.5z" />
    <glyph glyph-name="Igrave" unicode="&#xcc;" horiz-adv-x="267" 
d="M290 696l-97 -696h-194l98 696h193zM166 963l192 -133l-51 -86l-218 85z" />
    <glyph glyph-name="uni1EC8" unicode="&#x1ec8;" horiz-adv-x="267" 
d="M290 696l-97 -696h-194l98 696h193zM165 856q36 2 52 11.5t16 29.5q0 12 -6.5 17.5t-22.5 5.5q-24 0 -55 -13l-17 74q46 26 104 26q56 0 86 -27t30 -71q0 -42 -25 -69t-68 -36l-4 -40h-101z" />
    <glyph glyph-name="uni020A" unicode="&#x20a;" horiz-adv-x="267" 
d="M290 696l-97 -696h-194l98 696h193zM36 775q17 83 66.5 136.5t127.5 53.5q75 0 111 -47.5t36 -122.5q0 -14 -1 -22l-99 -14q-5 77 -60 77q-30 0 -52 -21.5t-34 -58.5z" />
    <glyph glyph-name="Imacron" unicode="&#x12a;" horiz-adv-x="267" 
d="M290 696l-97 -696h-194l98 696h193zM348 775h-292l19 130h293z" />
    <glyph glyph-name="Iogonek" unicode="&#x12e;" horiz-adv-x="267" 
d="M290 696l-97 -696h-46q-66 -25 -91 -54t-25 -54q0 -33 40 -33q15 0 53 6l-26 -109q-30 -8 -67 -8q-57 0 -93.5 30t-36.5 83q0 89 99 147l97 688h193z" />
    <glyph glyph-name="uni0196" unicode="&#x196;" horiz-adv-x="367" 
d="M348 24q-64 -43 -148 -43q-88 0 -137 42.5t-49 124.5q0 11 2 35l3 24l69 489h193l-69 -489h1l-5 -38q-1 -4 -1 -11q0 -37 35 -37q17 0 30.5 4t32.5 13z" />
    <glyph glyph-name="uni0197" unicode="&#x197;" horiz-adv-x="310" 
d="M331 432l-19 -143h-56l-40 -289h-194l41 289h-58l20 143h58l37 264h193l-37 -264h55z" />
    <glyph glyph-name="Itilde" unicode="&#x128;" horiz-adv-x="267" 
d="M290 696l-97 -696h-194l98 696h193zM228 757.5q-14 6.5 -31 18.5q-13 9 -21.5 13.5t-16.5 4.5q-15 0 -26.5 -10.5t-26.5 -33.5l-79 46q27 57 64.5 94t78.5 37q20 0 34 -7t33 -20q11 -9 19 -13t16 -4q14 0 25 10t25 33l80 -44q-26 -57 -64.5 -94t-79.5 -37q-16 0 -30 6.5z
" />
    <glyph glyph-name="J" unicode="J" horiz-adv-x="295" 
d="M237 106q-13 -91 -52.5 -148.5t-92 -88t-124.5 -54.5l-34 137q57 24 79 61t31 105l81 578h194z" />
    <glyph glyph-name="Jcircumflex" unicode="&#x134;" horiz-adv-x="295" 
d="M237 106q-13 -91 -52.5 -148.5t-92 -88t-124.5 -54.5l-34 137q57 24 79 61t31 105l81 578h194zM106 754l-61 74l150 138h111l115 -144l-72 -68l-111 87z" />
    <glyph glyph-name="uniA7B2" unicode="&#xa7b2;" horiz-adv-x="353" 
d="M277 -8q40 -14 74 -38l-41 -70q-19 10 -56 25q-27 -69 -81.5 -102t-143.5 -33q-72 0 -111 31t-39 88q0 64 44.5 99t112.5 35q28 0 52 -2l94 671h193l-94 -677zM55 -117q13 17 20 57q-20 2 -40 2q-23 0 -35.5 -11.5t-12.5 -31.5q0 -16 8 -24.5t23 -8.5q24 0 37 17z" />
    <glyph glyph-name="uni0248" unicode="&#x248;" horiz-adv-x="311" 
d="M313 271h-55l-23 -165q-13 -91 -52.5 -148.5t-92 -88t-124.5 -54.5l-34 137q57 24 79 61t31 105l21 153h-57l20 144h58l39 281h194l-39 -281h54z" />
    <glyph glyph-name="K" unicode="K" horiz-adv-x="600" 
d="M-1 0l98 696h193l-97 -696h-194zM363 0l-113 371l210 325h197l-211 -320l130 -376h-213z" />
    <glyph glyph-name="uni01E8" unicode="&#x1e8;" horiz-adv-x="600" 
d="M-1 0l98 696h193l-97 -696h-194zM363 0l-113 371l210 325h197l-211 -320l130 -376h-213zM507 959l61 -73l-150 -138h-110l-116 144l72 67l111 -87z" />
    <glyph glyph-name="Kcommaaccent" unicode="&#x136;" horiz-adv-x="600" 
d="M-1 0l98 696h193l-97 -696h-194zM363 0l-113 371l210 325h197l-211 -320l130 -376h-213zM312.5 -84.5q22.5 -21.5 22.5 -55.5q0 -25 -8.5 -46.5t-29.5 -55.5l-59 -97h-87l41 117q-31 21 -31 58q0 44 27 72.5t67 28.5q35 0 57.5 -21.5z" />
    <glyph glyph-name="uni0198" unicode="&#x198;" horiz-adv-x="610" 
d="M250 371l138 224q41 66 81.5 93t102.5 27q37 0 63 -10t47 -28l-58 -107q-1 1 -9.5 4.5t-21.5 3.5q-15 0 -26.5 -8t-24.5 -29l-95 -164l129 -377h-214zM-1 0l98 696h193l-97 -696h-194z" />
    <glyph glyph-name="L" unicode="L" horiz-adv-x="465" 
d="M290 696l-75 -544h230l-42 -152h-404l98 696h193z" />
    <glyph glyph-name="uni01C7" unicode="&#x1c7;" horiz-adv-x="735" 
d="M290 696l-75 -544h230l-42 -152h-404l98 696h193zM677 106q-13 -91 -52.5 -148.5t-92 -88t-124.5 -54.5l-34 137q57 24 79 61t31 105l81 578h194z" />
    <glyph glyph-name="Lacute" unicode="&#x139;" horiz-adv-x="465" 
d="M290 696l-75 -544h230l-42 -152h-404l98 696h193zM308 965l59 -134l-240 -88l-42 89z" />
    <glyph glyph-name="uni023D" unicode="&#x23d;" horiz-adv-x="485" 
d="M235 152h230l-42 -152h-404l41 291h-54l20 144h54l37 261h193l-36 -261h58l-19 -144h-59z" />
    <glyph glyph-name="uniA7AD" unicode="&#xa7ad;" horiz-adv-x="590" 
d="M570 152l-42 -152h-404l35 249q-73 3 -110 36t-37 88q0 63 40 100t105 37q23 0 38 -5l27 191h193l-47 -341q43 2 91 9l2 -98q-56 -11 -107 -13l-14 -101h230zM173 351l9 63q-9 3 -20 3q-14 0 -22 -9.5t-8 -24.5q0 -32 41 -32z" />
    <glyph glyph-name="Lcaron" unicode="&#x13d;" horiz-adv-x="465" 
d="M290 696l-75 -544h230l-42 -152h-404l98 696h193zM333 711l129 -16l-76 -231l-92 8z" />
    <glyph glyph-name="uni1E3C" unicode="&#x1e3c;" horiz-adv-x="465" 
d="M290 696l-75 -544h230l-42 -152h-404l98 696h193zM42 -282l-59 73l151 148h111l113 -153l-74 -68l-108 96z" />
    <glyph glyph-name="Lcommaaccent" unicode="&#x13b;" horiz-adv-x="465" 
d="M290 696l-75 -544h230l-42 -152h-404l98 696h193zM254.5 -84.5q22.5 -21.5 22.5 -55.5q0 -25 -8.5 -46.5t-29.5 -55.5l-59 -97h-87l41 117q-31 21 -31 58q0 44 27 72.5t67 28.5q35 0 57.5 -21.5z" />
    <glyph glyph-name="Ldot" unicode="&#x13f;" horiz-adv-x="465" 
d="M290 696l-75 -544h230l-42 -152h-404l98 696h193zM302 324.5q-25 24.5 -25 64.5q0 50 34 83t83 33q43 0 68 -24.5t25 -64.5q0 -50 -33.5 -83t-83.5 -33q-43 0 -68 24.5z" />
    <glyph glyph-name="uni1E36" unicode="&#x1e36;" horiz-adv-x="465" 
d="M290 696l-75 -544h230l-42 -152h-404l98 696h193zM259 -78.5q25 -24.5 25 -64.5q0 -50 -34 -83t-83 -33q-43 0 -68 24.5t-25 64.5q0 50 33.5 83t83.5 33q43 0 68 -24.5z" />
    <glyph glyph-name="uni01C8" unicode="&#x1c8;" horiz-adv-x="703" 
d="M290 696l-75 -544h230l-42 -152h-404l98 696h193zM336 -91q56 22 83 55t36 99l66 471h186l-65 -461q-13 -92 -50 -150.5t-89 -91t-124 -57.5zM561 644.5q-25 24.5 -25 64.5q0 50 34 83t83 33q43 0 68 -24.5t25 -64.5q0 -50 -33.5 -83t-83.5 -33q-43 0 -68 24.5z" />
    <glyph glyph-name="Lslash" unicode="&#x141;" horiz-adv-x="512" 
d="M262 152h230l-42 -152h-404l29 209l-31 -19l-45 93l95 59l50 354h193l-31 -224l97 60l47 -93l-162 -99z" />
    <glyph glyph-name="M" unicode="M" horiz-adv-x="713" 
d="M660 0h-189l31 253q13 107 49 302l-131 -484h-185l-8 482q-4 -99 -9.5 -165.5t-15.5 -136.5l-36 -251h-189l140 696h232l-1 -473l120 473h246z" />
    <glyph glyph-name="uni1E3E" unicode="&#x1e3e;" horiz-adv-x="713" 
d="M660 0h-189l31 253q13 107 49 302l-131 -484h-185l-8 482q-4 -99 -9.5 -165.5t-15.5 -136.5l-36 -251h-189l140 696h232l-1 -473l120 473h246zM523 965l59 -134l-240 -88l-42 89z" />
    <glyph glyph-name="uni1E40" unicode="&#x1e40;" horiz-adv-x="713" 
d="M660 0h-189l31 253q13 107 49 302l-131 -484h-185l-8 482q-4 -99 -9.5 -165.5t-15.5 -136.5l-36 -251h-189l140 696h232l-1 -473l120 473h246zM354 770.5q-25 24.5 -25 64.5q0 50 34 83t83 33q43 0 68 -24.5t25 -64.5q0 -50 -33.5 -83t-83.5 -33q-43 0 -68 24.5z" />
    <glyph glyph-name="uni019C" unicode="&#x19c;" horiz-adv-x="804" 
d="M826 696l-97 -696h-171l-5 58q-37 -42 -69.5 -59.5t-73.5 -17.5q-44 0 -74 21.5t-44 59.5q-34 -42 -71.5 -61.5t-82.5 -19.5q-61 0 -95 40.5t-34 105.5q0 17 3 35l75 534h194l-74 -527q-4 -45 22 -45t58 50l73 522h193l-73 -527q-1 -5 -1 -13q0 -15 6 -23.5t17 -8.5
q28 0 57 50l73 522h194z" />
    <glyph glyph-name="N" unicode="N" horiz-adv-x="580" 
d="M506 0h-235l-67 533q4 -82 4 -127q0 -97 -13 -193l-27 -213h-168l97 696h233l67 -534q-4 92 -4 129q0 86 12 181l30 224h168z" />
    <glyph glyph-name="uni01CA" unicode="&#x1ca;" horiz-adv-x="875" 
d="M506 0h-235l-67 533q4 -82 4 -127q0 -97 -13 -193l-27 -213h-168l97 696h233l67 -534q-4 92 -4 129q0 86 12 181l30 224h168zM817 106q-13 -91 -52.5 -148.5t-92 -88t-124.5 -54.5l-34 137q57 24 79 61t31 105l81 578h194z" />
    <glyph glyph-name="Nacute" unicode="&#x143;" horiz-adv-x="580" 
d="M506 0h-235l-67 533q4 -82 4 -127q0 -97 -13 -193l-27 -213h-168l97 696h233l67 -534q-4 92 -4 129q0 86 12 181l30 224h168zM463 965l59 -134l-240 -88l-42 89z" />
    <glyph glyph-name="Ncaron" unicode="&#x147;" horiz-adv-x="580" 
d="M506 0h-235l-67 533q4 -82 4 -127q0 -97 -13 -193l-27 -213h-168l97 696h233l67 -534q-4 92 -4 129q0 86 12 181l30 224h168zM500 959l61 -73l-150 -138h-110l-116 144l72 67l111 -87z" />
    <glyph glyph-name="uni1E4A" unicode="&#x1e4a;" horiz-adv-x="580" 
d="M506 0h-235l-67 533q4 -82 4 -127q0 -97 -13 -193l-27 -213h-168l97 696h233l67 -534q-4 92 -4 129q0 86 12 181l30 224h168zM93 -282l-59 73l151 148h111l113 -153l-74 -68l-108 96z" />
    <glyph glyph-name="Ncommaaccent" unicode="&#x145;" horiz-adv-x="580" 
d="M506 0h-235l-67 533q4 -82 4 -127q0 -97 -13 -193l-27 -213h-168l97 696h233l67 -534q-4 92 -4 129q0 86 12 181l30 224h168zM305.5 -84.5q22.5 -21.5 22.5 -55.5q0 -25 -8.5 -46.5t-29.5 -55.5l-59 -97h-87l41 117q-31 21 -31 58q0 44 27 72.5t67 28.5q35 0 57.5 -21.5z
" />
    <glyph glyph-name="uni1E44" unicode="&#x1e44;" horiz-adv-x="580" 
d="M506 0h-235l-67 533q4 -82 4 -127q0 -97 -13 -193l-27 -213h-168l97 696h233l67 -534q-4 92 -4 129q0 86 12 181l30 224h168zM294 770.5q-25 24.5 -25 64.5q0 50 34 83t83 33q43 0 68 -24.5t25 -64.5q0 -50 -33.5 -83t-83.5 -33q-43 0 -68 24.5z" />
    <glyph glyph-name="uni1E46" unicode="&#x1e46;" horiz-adv-x="580" 
d="M506 0h-235l-67 533q4 -82 4 -127q0 -97 -13 -193l-27 -213h-168l97 696h233l67 -534q-4 92 -4 129q0 86 12 181l30 224h168zM310 -78.5q25 -24.5 25 -64.5q0 -50 -34 -83t-83 -33q-43 0 -68 24.5t-25 64.5q0 50 33.5 83t83.5 33q43 0 68 -24.5z" />
    <glyph glyph-name="uni01F8" unicode="&#x1f8;" horiz-adv-x="580" 
d="M506 0h-235l-67 533q4 -82 4 -127q0 -97 -13 -193l-27 -213h-168l97 696h233l67 -534q-4 92 -4 129q0 86 12 181l30 224h168zM321 963l192 -133l-51 -86l-218 85z" />
    <glyph glyph-name="Eng" unicode="&#x14a;" horiz-adv-x="580" 
d="M603 696l-97 -696l-4 -27q-15 -98 -78.5 -149t-158.5 -51q-87 0 -140 46l76 112q16 -9 27.5 -13t27.5 -4q21 0 34 13t17 37l5 36h-41l-67 533q4 -82 4 -127q0 -97 -13 -193l-27 -213h-168l97 696h233l67 -534q-4 92 -4 129q0 86 12 181l30 224h168z" />
    <glyph glyph-name="uni019D" unicode="&#x19d;" horiz-adv-x="580" 
d="M603 696l-97 -696h-235l-67 533q4 -82 4 -127q0 -97 -13 -193l-27 -213l-5 -33q-14 -95 -68 -144t-144 -49q-46 0 -79 12.5t-60 33.5l77 104q16 -9 27.5 -13t27.5 -4q43 0 51 57l5 36l97 696h233l67 -534q-4 92 -4 129q0 86 12 181l30 224h168z" />
    <glyph glyph-name="uni01CB" unicode="&#x1cb;" horiz-adv-x="833" 
d="M506 0h-235l-67 533q4 -82 4 -127q0 -97 -13 -193l-27 -213h-168l97 696h233l67 -534q-4 92 -4 129q0 86 12 181l30 224h168zM466 -91q56 22 83 55t36 99l66 471h186l-65 -461q-13 -92 -50 -150.5t-89 -91t-124 -57.5zM691 644.5q-25 24.5 -25 64.5q0 50 34 83t83 33
q43 0 68 -24.5t25 -64.5q0 -50 -33.5 -83t-83.5 -33q-43 0 -68 24.5z" />
    <glyph glyph-name="uni0220" unicode="&#x220;" horiz-adv-x="574" 
d="M542.5 675q35.5 -40 35.5 -105q0 -23 -2 -35l-102 -750h-194l100 732q2 14 2 18q0 37 -32 37q-34 0 -83 -44l-75 -528h-193l98 696h169l5 -51q39 36 80 53t88 17q68 0 103.5 -40z" />
    <glyph glyph-name="Ntilde" unicode="&#xd1;" horiz-adv-x="580" 
d="M506 0h-235l-67 533q4 -82 4 -127q0 -97 -13 -193l-27 -213h-168l97 696h233l67 -534q-4 92 -4 129q0 86 12 181l30 224h168zM383 757.5q-14 6.5 -31 18.5q-13 9 -21.5 13.5t-16.5 4.5q-15 0 -26.5 -10.5t-26.5 -33.5l-79 46q27 57 64.5 94t78.5 37q20 0 34 -7t33 -20
q11 -9 19 -13t16 -4q14 0 25 10t25 33l80 -44q-26 -57 -64.5 -94t-79.5 -37q-16 0 -30 6.5z" />
    <glyph glyph-name="O" unicode="O" horiz-adv-x="624" 
d="M558.5 645q63.5 -70 63.5 -204q0 -119 -36 -224t-114 -171t-197 -66q-123 0 -186.5 70.5t-63.5 205.5q0 119 36 223.5t114 170t197 65.5q123 0 186.5 -70zM278.5 516q-30.5 -59 -43 -140t-12.5 -152q0 -55 15.5 -79t49.5 -24q50 0 80.5 57.5t43 137.5t12.5 154
q0 56 -16 80.5t-50 24.5q-49 0 -79.5 -59z" />
    <glyph glyph-name="uni0222" unicode="&#x222;" horiz-adv-x="585" 
d="M464 400q97 -42 97 -147q0 -82 -39.5 -143.5t-108.5 -95t-155 -33.5q-77 0 -133 27.5t-85 75t-29 106.5q0 76 39 128t108 80q-69 35 -69 117q0 16 1 25l20 156h194l-24 -171q-1 -8 -1 -22q0 -23 9 -33.5t31 -10.5q28 0 41 17t17 51l24 169h194l-22 -158
q-13 -95 -109 -138zM335 156q24 35 24 92q0 37 -14.5 57t-43.5 20q-38 0 -62.5 -35.5t-24.5 -92.5q0 -36 15 -56t44 -20q38 0 62 35z" />
    <glyph glyph-name="Oacute" unicode="&#xd3;" horiz-adv-x="624" 
d="M558.5 645q63.5 -70 63.5 -204q0 -119 -36 -224t-114 -171t-197 -66q-123 0 -186.5 70.5t-63.5 205.5q0 119 36 223.5t114 170t197 65.5q123 0 186.5 -70zM278.5 516q-30.5 -59 -43 -140t-12.5 -152q0 -55 15.5 -79t49.5 -24q50 0 80.5 57.5t43 137.5t12.5 154
q0 56 -16 80.5t-50 24.5q-49 0 -79.5 -59zM484 965l59 -134l-240 -88l-42 89z" />
    <glyph glyph-name="Obreve" unicode="&#x14e;" horiz-adv-x="624" 
d="M558.5 645q63.5 -70 63.5 -204q0 -119 -36 -224t-114 -171t-197 -66q-123 0 -186.5 70.5t-63.5 205.5q0 119 36 223.5t114 170t197 65.5q123 0 186.5 -70zM278.5 516q-30.5 -59 -43 -140t-12.5 -152q0 -55 15.5 -79t49.5 -24q50 0 80.5 57.5t43 137.5t12.5 154
q0 56 -16 80.5t-50 24.5q-49 0 -79.5 -59zM270.5 793.5q-36.5 46.5 -36.5 115.5q0 13 1 20l95 15q2 -30 17 -49t43 -19q55 0 81 70l97 -19q-15 -77 -63 -128.5t-125 -51.5q-73 0 -109.5 46.5z" />
    <glyph glyph-name="uni01D1" unicode="&#x1d1;" horiz-adv-x="624" 
d="M558.5 645q63.5 -70 63.5 -204q0 -119 -36 -224t-114 -171t-197 -66q-123 0 -186.5 70.5t-63.5 205.5q0 119 36 223.5t114 170t197 65.5q123 0 186.5 -70zM278.5 516q-30.5 -59 -43 -140t-12.5 -152q0 -55 15.5 -79t49.5 -24q50 0 80.5 57.5t43 137.5t12.5 154
q0 56 -16 80.5t-50 24.5q-49 0 -79.5 -59zM521 959l61 -73l-150 -138h-110l-116 144l72 67l111 -87z" />
    <glyph glyph-name="uni019F" unicode="&#x19f;" horiz-adv-x="624" 
d="M558.5 645q63.5 -70 63.5 -204q0 -119 -36 -224t-114 -171t-197 -66q-123 0 -186.5 70.5t-63.5 205.5q0 119 36 223.5t114 170t197 65.5q123 0 186.5 -70zM280.5 530q-32.5 -49 -49.5 -127h201q2 46 2 65q0 60 -16.5 85.5t-54.5 25.5q-50 0 -82.5 -49zM369.5 167
q32.5 51 48.5 132h-202q-3 -40 -3 -73q0 -60 16.5 -85t54.5 -25q53 0 85.5 51z" />
    <glyph glyph-name="Ocircumflex" unicode="&#xd4;" horiz-adv-x="624" 
d="M558.5 645q63.5 -70 63.5 -204q0 -119 -36 -224t-114 -171t-197 -66q-123 0 -186.5 70.5t-63.5 205.5q0 119 36 223.5t114 170t197 65.5q123 0 186.5 -70zM278.5 516q-30.5 -59 -43 -140t-12.5 -152q0 -55 15.5 -79t49.5 -24q50 0 80.5 57.5t43 137.5t12.5 154
q0 56 -16 80.5t-50 24.5q-49 0 -79.5 -59zM254 754l-61 74l150 138h111l115 -144l-72 -68l-111 87z" />
    <glyph glyph-name="uni1ED0" unicode="&#x1ed0;" horiz-adv-x="624" 
d="M637 1129l87 -95l-179 -151l-63 60zM252 725l-61 74l150 138h111l115 -144l-72 -68l-111 87zM558.5 645q63.5 -70 63.5 -204q0 -119 -36 -224t-114 -171t-197 -66q-123 0 -186.5 70.5t-63.5 205.5q0 119 36 223.5t114 170t197 65.5q123 0 186.5 -70zM278.5 516
q-30.5 -59 -43 -140t-12.5 -152q0 -55 15.5 -79t49.5 -24q50 0 80.5 57.5t43 137.5t12.5 154q0 56 -16 80.5t-50 24.5q-49 0 -79.5 -59z" />
    <glyph glyph-name="uni1ED8" unicode="&#x1ed8;" horiz-adv-x="624" 
d="M558.5 645q63.5 -70 63.5 -204q0 -119 -36 -224t-114 -171t-197 -66q-123 0 -186.5 70.5t-63.5 205.5q0 119 36 223.5t114 170t197 65.5q123 0 186.5 -70zM278.5 516q-30.5 -59 -43 -140t-12.5 -152q0 -55 15.5 -79t49.5 -24q50 0 80.5 57.5t43 137.5t12.5 154
q0 56 -16 80.5t-50 24.5q-49 0 -79.5 -59zM254 754l-61 74l150 138h111l115 -144l-72 -68l-111 87zM333 -78.5q25 -24.5 25 -64.5q0 -50 -34 -83t-83 -33q-43 0 -68 24.5t-25 64.5q0 50 33.5 83t83.5 33q43 0 68 -24.5z" />
    <glyph glyph-name="uni1ED2" unicode="&#x1ed2;" horiz-adv-x="624" 
d="M205 1126l102 -188l-77 -55l-136 158zM253 725l-61 74l150 138h111l115 -144l-72 -68l-111 87zM558.5 645q63.5 -70 63.5 -204q0 -119 -36 -224t-114 -171t-197 -66q-123 0 -186.5 70.5t-63.5 205.5q0 119 36 223.5t114 170t197 65.5q123 0 186.5 -70zM278.5 516
q-30.5 -59 -43 -140t-12.5 -152q0 -55 15.5 -79t49.5 -24q50 0 80.5 57.5t43 137.5t12.5 154q0 56 -16 80.5t-50 24.5q-49 0 -79.5 -59z" />
    <glyph glyph-name="uni1ED4" unicode="&#x1ed4;" horiz-adv-x="624" 
d="M558.5 645q63.5 -70 63.5 -204q0 -119 -36 -224t-114 -171t-197 -66q-123 0 -186.5 70.5t-63.5 205.5q0 119 36 223.5t114 170t197 65.5q123 0 186.5 -70zM278.5 516q-30.5 -59 -43 -140t-12.5 -152q0 -55 15.5 -79t49.5 -24q50 0 80.5 57.5t43 137.5t12.5 154
q0 56 -16 80.5t-50 24.5q-49 0 -79.5 -59zM249 725l-61 74l150 138h111l115 -144l-72 -68l-111 87zM512 967q36 2 52 11.5t16 29.5q0 12 -6.5 17.5t-22.5 5.5q-24 0 -55 -13l-17 74q46 26 104 26q56 0 86 -27t30 -71q0 -42 -25 -69t-68 -36l-4 -40h-101z" />
    <glyph glyph-name="uni1ED6" unicode="&#x1ed6;" horiz-adv-x="624" 
d="M427.5 970q-13.5 6 -30.5 17q-3 2 -15 9t-22 7q-15 0 -26.5 -9.5t-25.5 -30.5l-78 41q27 52 64 85.5t77 33.5q20 0 34 -6.5t31 -17.5q21 -16 35 -16q13 0 24 9t25 30l78 -40q-25 -52 -63 -85t-78 -33q-16 0 -29.5 6zM251 725l-61 74l150 138h111l115 -144l-72 -68
l-111 87zM558.5 645q63.5 -70 63.5 -204q0 -119 -36 -224t-114 -171t-197 -66q-123 0 -186.5 70.5t-63.5 205.5q0 119 36 223.5t114 170t197 65.5q123 0 186.5 -70zM278.5 516q-30.5 -59 -43 -140t-12.5 -152q0 -55 15.5 -79t49.5 -24q50 0 80.5 57.5t43 137.5t12.5 154
q0 56 -16 80.5t-50 24.5q-49 0 -79.5 -59z" />
    <glyph glyph-name="uni020C" unicode="&#x20c;" horiz-adv-x="624" 
d="M558.5 645q63.5 -70 63.5 -204q0 -119 -36 -224t-114 -171t-197 -66q-123 0 -186.5 70.5t-63.5 205.5q0 119 36 223.5t114 170t197 65.5q123 0 186.5 -70zM278.5 516q-30.5 -59 -43 -140t-12.5 -152q0 -55 15.5 -79t49.5 -24q50 0 80.5 57.5t43 137.5t12.5 154
q0 56 -16 80.5t-50 24.5q-49 0 -79.5 -59zM289 1000l66 -211l-98 -42l-95 197zM460 1000l59 -213l-98 -36l-88 198z" />
    <glyph glyph-name="Odieresis" unicode="&#xd6;" horiz-adv-x="624" 
d="M558.5 645q63.5 -70 63.5 -204q0 -119 -36 -224t-114 -171t-197 -66q-123 0 -186.5 70.5t-63.5 205.5q0 119 36 223.5t114 170t197 65.5q123 0 186.5 -70zM278.5 516q-30.5 -59 -43 -140t-12.5 -152q0 -55 15.5 -79t49.5 -24q50 0 80.5 57.5t43 137.5t12.5 154
q0 56 -16 80.5t-50 24.5q-49 0 -79.5 -59zM207.5 782.5q-21.5 21.5 -21.5 56.5q0 43 29.5 72t71.5 29q38 0 59.5 -21.5t21.5 -56.5q0 -43 -29.5 -72t-72.5 -29q-37 0 -58.5 21.5zM430.5 782.5q-21.5 21.5 -21.5 56.5q0 43 29 72t72 29q37 0 58.5 -21.5t21.5 -56.5
q0 -43 -29 -72t-72 -29q-37 0 -58.5 21.5z" />
    <glyph glyph-name="uni022A" unicode="&#x22a;" horiz-adv-x="624" 
d="M558.5 645q63.5 -70 63.5 -204q0 -119 -36 -224t-114 -171t-197 -66q-123 0 -186.5 70.5t-63.5 205.5q0 119 36 223.5t114 170t197 65.5q123 0 186.5 -70zM278.5 516q-30.5 -59 -43 -140t-12.5 -152q0 -55 15.5 -79t49.5 -24q50 0 80.5 57.5t43 137.5t12.5 154
q0 56 -16 80.5t-50 24.5q-49 0 -79.5 -59zM206.5 766.5q-21.5 21.5 -21.5 56.5q0 43 29.5 72t71.5 29q38 0 59.5 -21.5t21.5 -56.5q0 -43 -29.5 -72t-72.5 -29q-37 0 -58.5 21.5zM429.5 766.5q-21.5 21.5 -21.5 56.5q0 43 29 72t72 29q37 0 58.5 -21.5t21.5 -56.5
q0 -43 -29 -72t-72 -29q-37 0 -58.5 21.5zM546 961h-292l19 130h293z" />
    <glyph glyph-name="uni022E" unicode="&#x22e;" horiz-adv-x="624" 
d="M558.5 645q63.5 -70 63.5 -204q0 -119 -36 -224t-114 -171t-197 -66q-123 0 -186.5 70.5t-63.5 205.5q0 119 36 223.5t114 170t197 65.5q123 0 186.5 -70zM278.5 516q-30.5 -59 -43 -140t-12.5 -152q0 -55 15.5 -79t49.5 -24q50 0 80.5 57.5t43 137.5t12.5 154
q0 56 -16 80.5t-50 24.5q-49 0 -79.5 -59zM315 770.5q-25 24.5 -25 64.5q0 50 34 83t83 33q43 0 68 -24.5t25 -64.5q0 -50 -33.5 -83t-83.5 -33q-43 0 -68 24.5z" />
    <glyph glyph-name="uni0230" unicode="&#x230;" horiz-adv-x="624" 
d="M558.5 645q63.5 -70 63.5 -204q0 -119 -36 -224t-114 -171t-197 -66q-123 0 -186.5 70.5t-63.5 205.5q0 119 36 223.5t114 170t197 65.5q123 0 186.5 -70zM278.5 516q-30.5 -59 -43 -140t-12.5 -152q0 -55 15.5 -79t49.5 -24q50 0 80.5 57.5t43 137.5t12.5 154
q0 56 -16 80.5t-50 24.5q-49 0 -79.5 -59zM308 758.5q-25 24.5 -25 64.5q0 50 34 83t83 33q43 0 68 -24.5t25 -64.5q0 -50 -33.5 -83t-83.5 -33q-43 0 -68 24.5zM555 961h-292l19 130h293z" />
    <glyph glyph-name="uni1ECC" unicode="&#x1ecc;" horiz-adv-x="624" 
d="M558.5 645q63.5 -70 63.5 -204q0 -119 -36 -224t-114 -171t-197 -66q-123 0 -186.5 70.5t-63.5 205.5q0 119 36 223.5t114 170t197 65.5q123 0 186.5 -70zM278.5 516q-30.5 -59 -43 -140t-12.5 -152q0 -55 15.5 -79t49.5 -24q50 0 80.5 57.5t43 137.5t12.5 154
q0 56 -16 80.5t-50 24.5q-49 0 -79.5 -59zM333 -78.5q25 -24.5 25 -64.5q0 -50 -34 -83t-83 -33q-43 0 -68 24.5t-25 64.5q0 50 33.5 83t83.5 33q43 0 68 -24.5z" />
    <glyph glyph-name="Ograve" unicode="&#xd2;" horiz-adv-x="624" 
d="M558.5 645q63.5 -70 63.5 -204q0 -119 -36 -224t-114 -171t-197 -66q-123 0 -186.5 70.5t-63.5 205.5q0 119 36 223.5t114 170t197 65.5q123 0 186.5 -70zM278.5 516q-30.5 -59 -43 -140t-12.5 -152q0 -55 15.5 -79t49.5 -24q50 0 80.5 57.5t43 137.5t12.5 154
q0 56 -16 80.5t-50 24.5q-49 0 -79.5 -59zM342 963l192 -133l-51 -86l-218 85z" />
    <glyph glyph-name="uni1ECE" unicode="&#x1ece;" horiz-adv-x="624" 
d="M558.5 645q63.5 -70 63.5 -204q0 -119 -36 -224t-114 -171t-197 -66q-123 0 -186.5 70.5t-63.5 205.5q0 119 36 223.5t114 170t197 65.5q123 0 186.5 -70zM278.5 516q-30.5 -59 -43 -140t-12.5 -152q0 -55 15.5 -79t49.5 -24q50 0 80.5 57.5t43 137.5t12.5 154
q0 56 -16 80.5t-50 24.5q-49 0 -79.5 -59zM341 856q36 2 52 11.5t16 29.5q0 12 -6.5 17.5t-22.5 5.5q-24 0 -55 -13l-17 74q46 26 104 26q56 0 86 -27t30 -71q0 -42 -25 -69t-68 -36l-4 -40h-101z" />
    <glyph glyph-name="Ohorn" unicode="&#x1a0;" horiz-adv-x="661" 
d="M701.5 602q-32.5 -41 -92.5 -52q13 -46 13 -109q0 -119 -36 -224t-114 -171t-197 -66q-123 0 -186.5 70.5t-63.5 205.5q0 119 36 223.5t114 170t197 65.5q132 0 196 -81q25 4 36 23t11 54q0 29 -4 48l116 13q7 -26 7 -59q0 -70 -32.5 -111zM368.5 178.5
q30.5 57.5 43 137.5t12.5 154q0 56 -16 80.5t-50 24.5q-49 0 -79.5 -59t-43 -140t-12.5 -152q0 -55 15.5 -79t49.5 -24q50 0 80.5 57.5z" />
    <glyph glyph-name="uni1EDA" unicode="&#x1eda;" horiz-adv-x="661" 
d="M543 831l-240 -88l-42 89l223 133zM701.5 602q-32.5 -41 -92.5 -52q13 -46 13 -109q0 -119 -36 -224t-114 -171t-197 -66q-123 0 -186.5 70.5t-63.5 205.5q0 119 36 223.5t114 170t197 65.5q132 0 196 -81q25 4 36 23t11 54q0 29 -4 48l116 13q7 -26 7 -59
q0 -70 -32.5 -111zM368.5 178.5q30.5 57.5 43 137.5t12.5 154q0 56 -16 80.5t-50 24.5q-49 0 -79.5 -59t-43 -140t-12.5 -152q0 -55 15.5 -79t49.5 -24q50 0 80.5 57.5z" />
    <glyph glyph-name="uni1EE2" unicode="&#x1ee2;" horiz-adv-x="661" 
d="M701.5 602q-32.5 -41 -92.5 -52q13 -46 13 -109q0 -119 -36 -224t-114 -171t-197 -66q-123 0 -186.5 70.5t-63.5 205.5q0 119 36 223.5t114 170t197 65.5q132 0 196 -81q25 4 36 23t11 54q0 29 -4 48l116 13q7 -26 7 -59q0 -70 -32.5 -111zM368.5 178.5
q30.5 57.5 43 137.5t12.5 154q0 56 -16 80.5t-50 24.5q-49 0 -79.5 -59t-43 -140t-12.5 -152q0 -55 15.5 -79t49.5 -24q50 0 80.5 57.5zM333 -78.5q25 -24.5 25 -64.5q0 -50 -34 -83t-83 -33q-43 0 -68 24.5t-25 64.5q0 50 33.5 83t83.5 33q43 0 68 -24.5z" />
    <glyph glyph-name="uni1EDC" unicode="&#x1edc;" horiz-adv-x="661" 
d="M534 830l-51 -86l-218 85l77 134zM701.5 602q-32.5 -41 -92.5 -52q13 -46 13 -109q0 -119 -36 -224t-114 -171t-197 -66q-123 0 -186.5 70.5t-63.5 205.5q0 119 36 223.5t114 170t197 65.5q132 0 196 -81q25 4 36 23t11 54q0 29 -4 48l116 13q7 -26 7 -59
q0 -70 -32.5 -111zM368.5 178.5q30.5 57.5 43 137.5t12.5 154q0 56 -16 80.5t-50 24.5q-49 0 -79.5 -59t-43 -140t-12.5 -152q0 -55 15.5 -79t49.5 -24q50 0 80.5 57.5z" />
    <glyph glyph-name="uni1EDE" unicode="&#x1ede;" horiz-adv-x="661" 
d="M325 907l-17 74q46 26 104 26q56 0 86 -27t30 -71q0 -42 -25 -69t-68 -36l-4 -40h-101l11 92q36 2 52 11.5t16 29.5q0 12 -6.5 17.5t-22.5 5.5q-24 0 -55 -13zM701.5 602q-32.5 -41 -92.5 -52q13 -46 13 -109q0 -119 -36 -224t-114 -171t-197 -66q-123 0 -186.5 70.5
t-63.5 205.5q0 119 36 223.5t114 170t197 65.5q132 0 196 -81q25 4 36 23t11 54q0 29 -4 48l116 13q7 -26 7 -59q0 -70 -32.5 -111zM368.5 178.5q30.5 57.5 43 137.5t12.5 154q0 56 -16 80.5t-50 24.5q-49 0 -79.5 -59t-43 -140t-12.5 -152q0 -55 15.5 -79t49.5 -24
q50 0 80.5 57.5z" />
    <glyph glyph-name="uni1EE0" unicode="&#x1ee0;" horiz-adv-x="661" 
d="M308.5 783.5q-11.5 -10.5 -26.5 -33.5l-79 46q27 57 64.5 94t78.5 37q20 0 34 -7t33 -20q11 -9 19 -13t16 -4q14 0 25 10t25 33l80 -44q-26 -57 -64.5 -94t-79.5 -37q-16 0 -30 6.5t-31 18.5q-13 9 -21.5 13.5t-16.5 4.5q-15 0 -26.5 -10.5zM701.5 602
q-32.5 -41 -92.5 -52q13 -46 13 -109q0 -119 -36 -224t-114 -171t-197 -66q-123 0 -186.5 70.5t-63.5 205.5q0 119 36 223.5t114 170t197 65.5q132 0 196 -81q25 4 36 23t11 54q0 29 -4 48l116 13q7 -26 7 -59q0 -70 -32.5 -111zM368.5 178.5q30.5 57.5 43 137.5t12.5 154
q0 56 -16 80.5t-50 24.5q-49 0 -79.5 -59t-43 -140t-12.5 -152q0 -55 15.5 -79t49.5 -24q50 0 80.5 57.5z" />
    <glyph glyph-name="Ohungarumlaut" unicode="&#x150;" horiz-adv-x="624" 
d="M558.5 645q63.5 -70 63.5 -204q0 -119 -36 -224t-114 -171t-197 -66q-123 0 -186.5 70.5t-63.5 205.5q0 119 36 223.5t114 170t197 65.5q123 0 186.5 -70zM278.5 516q-30.5 -59 -43 -140t-12.5 -152q0 -55 15.5 -79t49.5 -24q50 0 80.5 57.5t43 137.5t12.5 154
q0 56 -16 80.5t-50 24.5q-49 0 -79.5 -59zM355 1000l107 -55l-140 -194l-85 38zM525 1000l106 -60l-146 -193l-83 44z" />
    <glyph glyph-name="uni01A2" unicode="&#x1a2;" horiz-adv-x="883" 
d="M835.5 673.5q48.5 -41.5 48.5 -118.5q0 -17 -3 -37l-102 -733h-194l104 742q1 5 1 14q0 39 -35 39q-15 0 -27 -3.5t-26 -11.5q20 -55 20 -124q0 -119 -36 -224t-114 -171t-197 -66q-123 0 -186.5 70.5t-63.5 205.5q0 119 36 223.5t114 170t197 65.5q98 0 162 -52
q71 52 167 52q86 0 134.5 -41.5zM368.5 178.5q30.5 57.5 43 137.5t12.5 154q0 56 -16 80.5t-50 24.5q-49 0 -79.5 -59t-43 -140t-12.5 -152q0 -55 15.5 -79t49.5 -24q50 0 80.5 57.5z" />
    <glyph glyph-name="uni020E" unicode="&#x20e;" horiz-adv-x="624" 
d="M558.5 645q63.5 -70 63.5 -204q0 -119 -36 -224t-114 -171t-197 -66q-123 0 -186.5 70.5t-63.5 205.5q0 119 36 223.5t114 170t197 65.5q123 0 186.5 -70zM278.5 516q-30.5 -59 -43 -140t-12.5 -152q0 -55 15.5 -79t49.5 -24q50 0 80.5 57.5t43 137.5t12.5 154
q0 56 -16 80.5t-50 24.5q-49 0 -79.5 -59zM212 775q17 83 66.5 136.5t127.5 53.5q75 0 111 -47.5t36 -122.5q0 -14 -1 -22l-99 -14q-5 77 -60 77q-30 0 -52 -21.5t-34 -58.5z" />
    <glyph glyph-name="Omacron" unicode="&#x14c;" horiz-adv-x="624" 
d="M558.5 645q63.5 -70 63.5 -204q0 -119 -36 -224t-114 -171t-197 -66q-123 0 -186.5 70.5t-63.5 205.5q0 119 36 223.5t114 170t197 65.5q123 0 186.5 -70zM278.5 516q-30.5 -59 -43 -140t-12.5 -152q0 -55 15.5 -79t49.5 -24q50 0 80.5 57.5t43 137.5t12.5 154
q0 56 -16 80.5t-50 24.5q-49 0 -79.5 -59zM524 775h-292l19 130h293z" />
    <glyph glyph-name="uni1E52" unicode="&#x1e52;" horiz-adv-x="624" 
d="M558.5 645q63.5 -70 63.5 -204q0 -119 -36 -224t-114 -171t-197 -66q-123 0 -186.5 70.5t-63.5 205.5q0 119 36 223.5t114 170t197 65.5q123 0 186.5 -70zM278.5 516q-30.5 -59 -43 -140t-12.5 -152q0 -55 15.5 -79t49.5 -24q50 0 80.5 57.5t43 137.5t12.5 154
q0 56 -16 80.5t-50 24.5q-49 0 -79.5 -59zM531 761h-292l19 130h293zM492 1131l59 -134l-240 -88l-42 89z" />
    <glyph glyph-name="uni1E50" unicode="&#x1e50;" horiz-adv-x="624" 
d="M558.5 645q63.5 -70 63.5 -204q0 -119 -36 -224t-114 -171t-197 -66q-123 0 -186.5 70.5t-63.5 205.5q0 119 36 223.5t114 170t197 65.5q123 0 186.5 -70zM278.5 516q-30.5 -59 -43 -140t-12.5 -152q0 -55 15.5 -79t49.5 -24q50 0 80.5 57.5t43 137.5t12.5 154
q0 56 -16 80.5t-50 24.5q-49 0 -79.5 -59zM526 761h-292l19 130h293zM356 1129l192 -133l-51 -86l-218 85z" />
    <glyph glyph-name="uniA7B6" unicode="&#xa7b6;" horiz-adv-x="816" 
d="M74.5 34.5q-45.5 53.5 -45.5 165.5q0 122 35.5 249t98.5 247h176q-56 -156 -85.5 -270t-29.5 -228q0 -41 7.5 -59t25.5 -18q37 0 46 68l29 210h191l-29 -213q-3 -18 -3 -31q0 -18 6 -26t19 -8q32 0 52.5 57.5t30 139t9.5 154.5q0 57 -6 105.5t-17 118.5h186
q30 -111 30 -225q0 -215 -63 -352.5t-205 -137.5q-132 0 -147 125q-24 -65 -70.5 -95t-100.5 -30q-95 0 -140.5 53.5z" />
    <glyph glyph-name="uni01EA" unicode="&#x1ea;" horiz-adv-x="624" 
d="M296.5 -57.5q-22.5 -27.5 -22.5 -50.5q0 -33 40 -33q15 0 53 6l-26 -109q-30 -8 -67 -8q-57 0 -93.5 30t-36.5 83q0 72 66 125q-91 17 -138 85.5t-47 184.5q0 119 36 223.5t114 170t197 65.5q123 0 186.5 -70t63.5 -204q0 -100 -25.5 -191t-80.5 -159.5t-138 -95.5
q-59 -25 -81.5 -52.5zM278.5 516q-30.5 -59 -43 -140t-12.5 -152q0 -55 15.5 -79t49.5 -24q50 0 80.5 57.5t43 137.5t12.5 154q0 56 -16 80.5t-50 24.5q-49 0 -79.5 -59z" />
    <glyph glyph-name="uni01EC" unicode="&#x1ec;" horiz-adv-x="624" 
d="M544 905l-20 -130h-292l19 130h293zM296.5 -57.5q-22.5 -27.5 -22.5 -50.5q0 -33 40 -33q15 0 53 6l-26 -109q-30 -8 -67 -8q-57 0 -93.5 30t-36.5 83q0 72 66 125q-91 17 -138 85.5t-47 184.5q0 119 36 223.5t114 170t197 65.5q123 0 186.5 -70t63.5 -204
q0 -100 -25.5 -191t-80.5 -159.5t-138 -95.5q-59 -25 -81.5 -52.5zM278.5 516q-30.5 -59 -43 -140t-12.5 -152q0 -55 15.5 -79t49.5 -24q50 0 80.5 57.5t43 137.5t12.5 154q0 56 -16 80.5t-50 24.5q-49 0 -79.5 -59z" />
    <glyph glyph-name="uni0186" unicode="&#x186;" horiz-adv-x="524" 
d="M455 643.5q66 -71.5 66 -208.5q0 -128 -40 -231t-119 -163t-189 -60q-67 0 -117.5 27t-85.5 69l98 105q29 -26 52.5 -39t54.5 -13q51 0 84.5 48t48.5 120t15 145q0 70 -19 100t-57 30q-30 0 -57 -12t-57 -34l-79 109q48 39 101.5 59t117.5 20q116 0 182 -71.5z" />
    <glyph glyph-name="Oslash" unicode="&#xd8;" horiz-adv-x="624" 
d="M599.5 574q22.5 -57 22.5 -133q0 -119 -36 -224t-114 -171t-197 -66q-11 0 -33 2l-46 -120l-136 38l52 131q-43 35 -65 92t-22 133q0 119 36 223.5t114 170t197 65.5q20 0 30 -1l48 118l134 -39l-51 -127q44 -35 66.5 -92zM274 517q-32 -59 -45.5 -141t-13.5 -154
q0 -17 2 -41l149 395h-8q-52 0 -84 -59zM373 177q32 58 45 139t13 156q0 17 -2 37l-147 -390h6q53 0 85 58z" />
    <glyph glyph-name="Oslashacute" unicode="&#x1fe;" horiz-adv-x="624" 
d="M599.5 574q22.5 -57 22.5 -133q0 -119 -36 -224t-114 -171t-197 -66q-11 0 -33 2l-46 -120l-136 38l52 131q-43 35 -65 92t-22 133q0 119 36 223.5t114 170t197 65.5q20 0 30 -1l48 118l134 -39l-51 -127q44 -35 66.5 -92zM274 517q-32 -59 -45.5 -141t-13.5 -154
q0 -17 2 -41l149 395h-8q-52 0 -84 -59zM373 177q32 58 45 139t13 156q0 17 -2 37l-147 -390h6q53 0 85 58zM476 1007l59 -134l-240 -88l-42 89z" />
    <glyph glyph-name="Otilde" unicode="&#xd5;" horiz-adv-x="624" 
d="M558.5 645q63.5 -70 63.5 -204q0 -119 -36 -224t-114 -171t-197 -66q-123 0 -186.5 70.5t-63.5 205.5q0 119 36 223.5t114 170t197 65.5q123 0 186.5 -70zM278.5 516q-30.5 -59 -43 -140t-12.5 -152q0 -55 15.5 -79t49.5 -24q50 0 80.5 57.5t43 137.5t12.5 154
q0 56 -16 80.5t-50 24.5q-49 0 -79.5 -59zM404 757.5q-14 6.5 -31 18.5q-13 9 -21.5 13.5t-16.5 4.5q-15 0 -26.5 -10.5t-26.5 -33.5l-79 46q27 57 64.5 94t78.5 37q20 0 34 -7t33 -20q11 -9 19 -13t16 -4q14 0 25 10t25 33l80 -44q-26 -57 -64.5 -94t-79.5 -37
q-16 0 -30 6.5z" />
    <glyph glyph-name="uni1E4C" unicode="&#x1e4c;" horiz-adv-x="624" 
d="M558.5 645q63.5 -70 63.5 -204q0 -119 -36 -224t-114 -171t-197 -66q-123 0 -186.5 70.5t-63.5 205.5q0 119 36 223.5t114 170t197 65.5q123 0 186.5 -70zM278.5 516q-30.5 -59 -43 -140t-12.5 -152q0 -55 15.5 -79t49.5 -24q50 0 80.5 57.5t43 137.5t12.5 154
q0 56 -16 80.5t-50 24.5q-49 0 -79.5 -59zM397 761.5q-14 6.5 -31 18.5q-13 9 -21.5 13.5t-16.5 4.5q-15 0 -26.5 -10.5t-26.5 -33.5l-79 46q27 57 64.5 94t78.5 37q20 0 34 -7t33 -20q11 -9 19 -13t16 -4q14 0 25 10t25 33l80 -44q-26 -57 -64.5 -94t-79.5 -37
q-16 0 -30 6.5zM479 1163l59 -134l-240 -88l-42 89z" />
    <glyph glyph-name="uni022C" unicode="&#x22c;" horiz-adv-x="624" 
d="M542 961h-292l19 130h293zM400 761.5q-14 6.5 -31 18.5q-13 9 -21.5 13.5t-16.5 4.5q-15 0 -26.5 -10.5t-26.5 -33.5l-79 46q27 57 64.5 94t78.5 37q20 0 34 -7t33 -20q11 -9 19 -13t16 -4q14 0 25 10t25 33l80 -44q-26 -57 -64.5 -94t-79.5 -37q-16 0 -30 6.5z
M558.5 645q63.5 -70 63.5 -204q0 -119 -36 -224t-114 -171t-197 -66q-123 0 -186.5 70.5t-63.5 205.5q0 119 36 223.5t114 170t197 65.5q123 0 186.5 -70zM278.5 516q-30.5 -59 -43 -140t-12.5 -152q0 -55 15.5 -79t49.5 -24q50 0 80.5 57.5t43 137.5t12.5 154
q0 56 -16 80.5t-50 24.5q-49 0 -79.5 -59z" />
    <glyph glyph-name="OE" unicode="&#x152;" horiz-adv-x="809" 
d="M817 558h-240q23 -55 23 -127v-11h175l-19 -134h-171q-19 -83 -64 -147h255l-22 -139h-394q-48 -20 -103 -20q-111 0 -171.5 71t-60.5 204q0 118 35 223t110 171t188 66q62 0 101 -19h398zM350.5 176q28.5 55 41 136t12.5 161q0 54 -14 78t-42 24q-44 0 -72.5 -56.5
t-41 -138t-12.5 -159.5q0 -53 14 -76.5t42 -23.5q44 0 72.5 55z" />
    <glyph glyph-name="P" unicode="P" horiz-adv-x="546" 
d="M501.5 645.5q65.5 -50.5 65.5 -147.5q0 -77 -33.5 -140t-100 -100.5t-162.5 -37.5h-47l-31 -220h-194l98 696h217q122 0 187.5 -50.5zM346 397.5q23 38.5 23 93.5q0 35 -17 51t-53 16h-28l-28 -199h26q54 0 77 38.5z" />
    <glyph glyph-name="uni1E54" unicode="&#x1e54;" horiz-adv-x="546" 
d="M501.5 645.5q65.5 -50.5 65.5 -147.5q0 -77 -33.5 -140t-100 -100.5t-162.5 -37.5h-47l-31 -220h-194l98 696h217q122 0 187.5 -50.5zM346 397.5q23 38.5 23 93.5q0 35 -17 51t-53 16h-28l-28 -199h26q54 0 77 38.5zM446 965l59 -134l-240 -88l-42 89z" />
    <glyph glyph-name="uni1E56" unicode="&#x1e56;" horiz-adv-x="546" 
d="M501.5 645.5q65.5 -50.5 65.5 -147.5q0 -77 -33.5 -140t-100 -100.5t-162.5 -37.5h-47l-31 -220h-194l98 696h217q122 0 187.5 -50.5zM346 397.5q23 38.5 23 93.5q0 35 -17 51t-53 16h-28l-28 -199h26q54 0 77 38.5zM277 770.5q-25 24.5 -25 64.5q0 50 34 83t83 33
q43 0 68 -24.5t25 -64.5q0 -50 -33.5 -83t-83.5 -33q-43 0 -68 24.5z" />
    <glyph glyph-name="uni01A4" unicode="&#x1a4;" horiz-adv-x="715" 
d="M669.5 645.5q65.5 -50.5 65.5 -147.5q0 -77 -33.5 -140t-100 -100.5t-162.5 -37.5h-47l-31 -220h-194l79 558h-25q-20 0 -30.5 -14t-10.5 -39q0 -15 6 -51l-126 -46q-11 27 -16.5 50t-5.5 52q0 86 54.5 136t142.5 50h247q122 0 187.5 -50.5zM514 397.5q23 38.5 23 93.5
q0 35 -17 51t-53 16h-28l-28 -199h26q54 0 77 38.5z" />
    <glyph glyph-name="Thorn" unicode="&#xde;" horiz-adv-x="547" 
d="M488 540q65 -51 65 -152q0 -76 -32.5 -139.5t-99 -102t-164.5 -38.5h-49l-15 -108h-193l97 696h193l-15 -105h25q123 0 188 -51zM332 286.5q23 39.5 23 97.5q0 36 -17 53t-53 17h-29l-29 -207h28q54 0 77 39.5z" />
    <glyph glyph-name="Q" unicode="Q" horiz-adv-x="623" 
d="M576.5 203q-45.5 -106 -142.5 -157q65 -3 107.5 -19.5t77.5 -50.5l-135 -144q-79 150 -209 150q-123 0 -186.5 70t-63.5 204q0 119 36 223.5t114 170t197 65.5q123 0 186.5 -70t63.5 -204q0 -132 -45.5 -238zM238.5 144.5q15.5 -23.5 49.5 -23.5q50 0 80.5 57.5t43 138
t12.5 155.5q0 54 -16 78.5t-50 24.5q-49 0 -79.5 -59t-43 -140.5t-12.5 -153.5q0 -54 15.5 -77.5z" />
    <glyph glyph-name="uni024A" unicode="&#x24a;" horiz-adv-x="616" 
d="M673 -183q-64 -43 -148 -43q-88 0 -137 42.5t-49 124.5q0 11 2 35l3 24l3 25q-49 -44 -119 -44q-98 0 -151.5 69.5t-52.5 190.5q-1 125 36.5 234t106.5 174.5t159 65.5q44 0 74 -17t52 -49l15 47h168l-97 -696l-5 -38q-1 -4 -1 -11q0 -37 35 -37q17 0 30.5 4t32.5 13z
M365 152l54 387q-26 36 -62 36q-44 0 -74.5 -50.5t-45.5 -128.5t-15 -160q0 -65 16.5 -92t50.5 -27q42 0 76 35z" />
    <glyph glyph-name="R" unicode="R" horiz-adv-x="559" 
d="M539 379q-31 -52 -104 -93l108 -286h-205l-79 251h-31l-35 -251h-194l98 696h219q126 0 190 -49.5t64 -140.5q0 -75 -31 -127zM246 384h35q46 0 68.5 33t22.5 80q0 33 -17.5 48t-53.5 15h-30z" />
    <glyph glyph-name="Racute" unicode="&#x154;" horiz-adv-x="559" 
d="M539 379q-31 -52 -104 -93l108 -286h-205l-79 251h-31l-35 -251h-194l98 696h219q126 0 190 -49.5t64 -140.5q0 -75 -31 -127zM246 384h35q46 0 68.5 33t22.5 80q0 33 -17.5 48t-53.5 15h-30zM447 965l59 -134l-240 -88l-42 89z" />
    <glyph glyph-name="Rcaron" unicode="&#x158;" horiz-adv-x="559" 
d="M539 379q-31 -52 -104 -93l108 -286h-205l-79 251h-31l-35 -251h-194l98 696h219q126 0 190 -49.5t64 -140.5q0 -75 -31 -127zM246 384h35q46 0 68.5 33t22.5 80q0 33 -17.5 48t-53.5 15h-30zM484 959l61 -73l-150 -138h-110l-116 144l72 67l111 -87z" />
    <glyph glyph-name="Rcommaaccent" unicode="&#x156;" horiz-adv-x="559" 
d="M539 379q-31 -52 -104 -93l108 -286h-205l-79 251h-31l-35 -251h-194l98 696h219q126 0 190 -49.5t64 -140.5q0 -75 -31 -127zM246 384h35q46 0 68.5 33t22.5 80q0 33 -17.5 48t-53.5 15h-30zM307.5 -84.5q22.5 -21.5 22.5 -55.5q0 -25 -8.5 -46.5t-29.5 -55.5l-59 -97
h-87l41 117q-31 21 -31 58q0 44 27 72.5t67 28.5q35 0 57.5 -21.5z" />
    <glyph glyph-name="uni0210" unicode="&#x210;" horiz-adv-x="559" 
d="M539 379q-31 -52 -104 -93l108 -286h-205l-79 251h-31l-35 -251h-194l98 696h219q126 0 190 -49.5t64 -140.5q0 -75 -31 -127zM246 384h35q46 0 68.5 33t22.5 80q0 33 -17.5 48t-53.5 15h-30zM252 1000l66 -211l-98 -42l-95 197zM423 1000l59 -213l-98 -36l-88 198z" />
    <glyph glyph-name="uni1E5A" unicode="&#x1e5a;" horiz-adv-x="559" 
d="M539 379q-31 -52 -104 -93l108 -286h-205l-79 251h-31l-35 -251h-194l98 696h219q126 0 190 -49.5t64 -140.5q0 -75 -31 -127zM246 384h35q46 0 68.5 33t22.5 80q0 33 -17.5 48t-53.5 15h-30zM312 -78.5q25 -24.5 25 -64.5q0 -50 -34 -83t-83 -33q-43 0 -68 24.5
t-25 64.5q0 50 33.5 83t83.5 33q43 0 68 -24.5z" />
    <glyph glyph-name="uni0212" unicode="&#x212;" horiz-adv-x="559" 
d="M539 379q-31 -52 -104 -93l108 -286h-205l-79 251h-31l-35 -251h-194l98 696h219q126 0 190 -49.5t64 -140.5q0 -75 -31 -127zM246 384h35q46 0 68.5 33t22.5 80q0 33 -17.5 48t-53.5 15h-30zM175 775q17 83 66.5 136.5t127.5 53.5q75 0 111 -47.5t36 -122.5
q0 -14 -1 -22l-99 -14q-5 77 -60 77q-30 0 -52 -21.5t-34 -58.5z" />
    <glyph glyph-name="uni024C" unicode="&#x24c;" horiz-adv-x="569" 
d="M549 379q-31 -52 -104 -93l108 -286h-205l-79 251h-31l-35 -251h-194l35 251h-41l20 133h40l44 312h219q126 0 190 -49.5t64 -140.5q0 -75 -31 -127zM281 560l-25 -176h35q46 0 68.5 33t22.5 80q0 33 -17.5 48t-53.5 15h-30z" />
    <glyph glyph-name="uni2C64" unicode="&#x2c64;" horiz-adv-x="559" 
d="M539 379q-31 -52 -104 -93l108 -286h-205l-79 251h-31l-35 -251l-5 -38q-1 -4 -1 -11q0 -37 35 -37q17 0 30.5 4t32.5 13l43 -114q-64 -43 -148 -43q-88 0 -137 42.5t-49 124.5q0 11 2 35l3 24l98 696h219q126 0 190 -49.5t64 -140.5q0 -75 -31 -127zM246 384h35
q46 0 68.5 33t22.5 80q0 33 -17.5 48t-53.5 15h-30z" />
    <glyph glyph-name="S" unicode="S" horiz-adv-x="526" 
d="M551 620l-96 -99q-54 54 -122 54q-38 0 -58 -16.5t-20 -42.5q0 -25 20.5 -41.5t82.5 -43.5q77 -33 113.5 -78.5t36.5 -117.5q0 -70 -33.5 -128t-99.5 -92.5t-158 -34.5q-154 0 -246 105l105 104q33 -32 67 -48t76 -16t65 19.5t23 53.5q0 31 -21.5 51.5t-77.5 44.5
q-82 34 -117.5 78t-35.5 111q0 66 32.5 119t93 83t143.5 30q144 0 227 -95z" />
    <glyph glyph-name="Sacute" unicode="&#x15a;" horiz-adv-x="526" 
d="M551 620l-96 -99q-54 54 -122 54q-38 0 -58 -16.5t-20 -42.5q0 -25 20.5 -41.5t82.5 -43.5q77 -33 113.5 -78.5t36.5 -117.5q0 -70 -33.5 -128t-99.5 -92.5t-158 -34.5q-154 0 -246 105l105 104q33 -32 67 -48t76 -16t65 19.5t23 53.5q0 31 -21.5 51.5t-77.5 44.5
q-82 34 -117.5 78t-35.5 111q0 66 32.5 119t93 83t143.5 30q144 0 227 -95zM444 965l59 -134l-240 -88l-42 89z" />
    <glyph glyph-name="uniA78B" unicode="&#xa78b;" horiz-adv-x="242" 
d="M65 328l31 368h170l-74 -368h-127z" />
    <glyph glyph-name="Scaron" unicode="&#x160;" horiz-adv-x="526" 
d="M551 620l-96 -99q-54 54 -122 54q-38 0 -58 -16.5t-20 -42.5q0 -25 20.5 -41.5t82.5 -43.5q77 -33 113.5 -78.5t36.5 -117.5q0 -70 -33.5 -128t-99.5 -92.5t-158 -34.5q-154 0 -246 105l105 104q33 -32 67 -48t76 -16t65 19.5t23 53.5q0 31 -21.5 51.5t-77.5 44.5
q-82 34 -117.5 78t-35.5 111q0 66 32.5 119t93 83t143.5 30q144 0 227 -95zM481 959l61 -73l-150 -138h-110l-116 144l72 67l111 -87z" />
    <glyph glyph-name="Scedilla" unicode="&#x15e;" horiz-adv-x="526" 
d="M471.5 352.5q36.5 -45.5 36.5 -117.5q0 -62 -27 -115.5t-80.5 -89.5t-128.5 -46l-5 -31q42 -6 64.5 -28.5t22.5 -61.5q0 -31 -16 -62t-53.5 -52t-97.5 -21q-34 0 -62 9.5t-48 24.5l51 79q27 -15 55 -15q42 0 43 29q0 15 -18.5 21t-61.5 6l25 100q-122 14 -200 103
l105 104q33 -32 67 -48t76 -16t65 19.5t23 53.5q0 31 -21.5 51.5t-77.5 44.5q-82 34 -117.5 78t-35.5 111q0 66 32.5 119t93 83t143.5 30q144 0 227 -95l-96 -99q-54 54 -122 54q-38 0 -58 -16.5t-20 -42.5q0 -25 20.5 -41.5t82.5 -43.5q77 -33 113.5 -78.5z" />
    <glyph glyph-name="Scircumflex" unicode="&#x15c;" horiz-adv-x="526" 
d="M551 620l-96 -99q-54 54 -122 54q-38 0 -58 -16.5t-20 -42.5q0 -25 20.5 -41.5t82.5 -43.5q77 -33 113.5 -78.5t36.5 -117.5q0 -70 -33.5 -128t-99.5 -92.5t-158 -34.5q-154 0 -246 105l105 104q33 -32 67 -48t76 -16t65 19.5t23 53.5q0 31 -21.5 51.5t-77.5 44.5
q-82 34 -117.5 78t-35.5 111q0 66 32.5 119t93 83t143.5 30q144 0 227 -95zM214 754l-61 74l150 138h111l115 -144l-72 -68l-111 87z" />
    <glyph glyph-name="Scommaaccent" unicode="&#x218;" horiz-adv-x="526" 
d="M551 620l-96 -99q-54 54 -122 54q-38 0 -58 -16.5t-20 -42.5q0 -25 20.5 -41.5t82.5 -43.5q77 -33 113.5 -78.5t36.5 -117.5q0 -70 -33.5 -128t-99.5 -92.5t-158 -34.5q-154 0 -246 105l105 104q33 -32 67 -48t76 -16t65 19.5t23 53.5q0 31 -21.5 51.5t-77.5 44.5
q-82 34 -117.5 78t-35.5 111q0 66 32.5 119t93 83t143.5 30q144 0 227 -95zM272.5 -84.5q22.5 -21.5 22.5 -55.5q0 -25 -8.5 -46.5t-29.5 -55.5l-59 -97h-87l41 117q-31 21 -31 58q0 44 27 72.5t67 28.5q35 0 57.5 -21.5z" />
    <glyph glyph-name="uni1E60" unicode="&#x1e60;" horiz-adv-x="526" 
d="M551 620l-96 -99q-54 54 -122 54q-38 0 -58 -16.5t-20 -42.5q0 -25 20.5 -41.5t82.5 -43.5q77 -33 113.5 -78.5t36.5 -117.5q0 -70 -33.5 -128t-99.5 -92.5t-158 -34.5q-154 0 -246 105l105 104q33 -32 67 -48t76 -16t65 19.5t23 53.5q0 31 -21.5 51.5t-77.5 44.5
q-82 34 -117.5 78t-35.5 111q0 66 32.5 119t93 83t143.5 30q144 0 227 -95zM275 770.5q-25 24.5 -25 64.5q0 50 34 83t83 33q43 0 68 -24.5t25 -64.5q0 -50 -33.5 -83t-83.5 -33q-43 0 -68 24.5z" />
    <glyph glyph-name="uni1E62" unicode="&#x1e62;" horiz-adv-x="526" 
d="M551 620l-96 -99q-54 54 -122 54q-38 0 -58 -16.5t-20 -42.5q0 -25 20.5 -41.5t82.5 -43.5q77 -33 113.5 -78.5t36.5 -117.5q0 -70 -33.5 -128t-99.5 -92.5t-158 -34.5q-154 0 -246 105l105 104q33 -32 67 -48t76 -16t65 19.5t23 53.5q0 31 -21.5 51.5t-77.5 44.5
q-82 34 -117.5 78t-35.5 111q0 66 32.5 119t93 83t143.5 30q144 0 227 -95zM277 -78.5q25 -24.5 25 -64.5q0 -50 -34 -83t-83 -33q-43 0 -68 24.5t-25 64.5q0 50 33.5 83t83.5 33q43 0 68 -24.5z" />
    <glyph glyph-name="uni1E9E" unicode="&#x1e9e;" horiz-adv-x="605" 
d="M478 693q66 -22 132 -59l-12 -78l-141 -169q131 -34 131 -158q0 -75 -33 -131.5t-90.5 -86.5t-131.5 -30t-122 29l72 123q17 -7 38 -7q31 0 47.5 26t16.5 69q0 40 -22.5 61t-77.5 27l14 92l130 159q-56 14 -96 14q-31 0 -47.5 -17.5t-21.5 -56.5l-70 -500h-194l68 489
q15 110 81.5 168t185.5 58q77 0 143 -22z" />
    <glyph glyph-name="uni018F" unicode="&#x18f;" horiz-adv-x="573" 
d="M507.5 647.5q63.5 -67.5 63.5 -194.5q0 -138 -37 -244.5t-111 -167t-181 -60.5q-113 0 -172 67.5t-59 185.5q0 91 28 181l339 -2q3 29 3 52q0 57 -20 83.5t-61 26.5q-38 0 -68.5 -14.5t-60.5 -39.5l-71 105q53 46 108.5 67.5t124.5 21.5q111 0 174.5 -67.5zM317 157
q26 36 41 125h-162q-6 -34 -6 -67q0 -50 15.5 -72t45.5 -22q40 0 66 36z" />
    <glyph glyph-name="T" unicode="T" horiz-adv-x="494" 
d="M560 696l-41 -148h-136l-77 -548h-193l77 548h-149l21 148h498z" />
    <glyph glyph-name="Tbar" unicode="&#x166;" horiz-adv-x="494" 
d="M519 548h-136l-22 -157h96l-15 -103h-96l-40 -288h-193l40 288h-96l15 103h96l22 157h-149l21 148h498z" />
    <glyph glyph-name="Tcaron" unicode="&#x164;" horiz-adv-x="494" 
d="M560 696l-41 -148h-136l-77 -548h-193l77 548h-149l21 148h498zM458 959l61 -73l-150 -138h-110l-116 144l72 67l111 -87z" />
    <glyph glyph-name="uni0162" unicode="&#x162;" horiz-adv-x="494" 
d="M306 0l-5 -44q41 -6 62.5 -30t21.5 -64q0 -30 -16 -60.5t-53.5 -52t-97.5 -21.5q-34 0 -62 9.5t-48 24.5l51 81q28 -17 55 -17q43 0 43 30q0 14 -19 20t-61 6l30 118h-94l77 548h-149l21 148h498l-41 -148h-136z" />
    <glyph glyph-name="uni1E70" unicode="&#x1e70;" horiz-adv-x="494" 
d="M560 696l-41 -148h-136l-77 -548h-193l77 548h-149l21 148h498zM50 -282l-59 73l151 148h111l113 -153l-74 -68l-108 96z" />
    <glyph glyph-name="uni021A" unicode="&#x21a;" horiz-adv-x="494" 
d="M560 696l-41 -148h-136l-77 -548h-193l77 548h-149l21 148h498zM262.5 -84.5q22.5 -21.5 22.5 -55.5q0 -25 -8.5 -46.5t-29.5 -55.5l-59 -97h-87l41 117q-31 21 -31 58q0 44 27 72.5t67 28.5q35 0 57.5 -21.5z" />
    <glyph glyph-name="uni023E" unicode="&#x23e;" horiz-adv-x="495" 
d="M521 556h-67l-111 -197l-50 -359h-152l-43 -76l-46 24l94 166l61 442h-164l21 140h410l35 62l45 -24l-21 -38h28zM362 497l33 59h-25z" />
    <glyph glyph-name="uni1E6A" unicode="&#x1e6a;" horiz-adv-x="494" 
d="M560 696l-41 -148h-136l-77 -548h-193l77 548h-149l21 148h498zM252 770.5q-25 24.5 -25 64.5q0 50 34 83t83 33q43 0 68 -24.5t25 -64.5q0 -50 -33.5 -83t-83.5 -33q-43 0 -68 24.5z" />
    <glyph glyph-name="uni1E6C" unicode="&#x1e6c;" horiz-adv-x="494" 
d="M560 696l-41 -148h-136l-77 -548h-193l77 548h-149l21 148h498zM267 -78.5q25 -24.5 25 -64.5q0 -50 -34 -83t-83 -33q-43 0 -68 24.5t-25 64.5q0 50 33.5 83t83.5 33q43 0 68 -24.5z" />
    <glyph glyph-name="uni01AC" unicode="&#x1ac;" horiz-adv-x="557" 
d="M583 548h-136l-77 -548h-194l77 548h-34q-39 0 -39 -44q0 -14 6 -50l-126 -46q-11 27 -16.5 50t-5.5 52q0 57 25 99t68.5 64.5t98.5 22.5h393z" />
    <glyph glyph-name="uni1E6E" unicode="&#x1e6e;" horiz-adv-x="494" 
d="M560 696l-41 -148h-136l-77 -548h-193l77 548h-149l21 148h498zM63 -70h292l-19 -130h-293z" />
    <glyph glyph-name="uni01BC" unicode="&#x1bc;" horiz-adv-x="502" 
d="M-23 91l111 88q20 -28 44.5 -43.5t57.5 -15.5q53 0 76.5 44.5t23.5 105.5q0 36 -13.5 51t-38.5 15q-16 0 -32 -5.5t-38 -19.5l-120 1l53 384h406l-38 -133h-211l-18 -123q46 23 93 23q66 0 106.5 -47t40.5 -134q0 -83 -33.5 -151.5t-100.5 -109.5t-164 -41
q-133 0 -205 111z" />
    <glyph glyph-name="uni0184" unicode="&#x184;" horiz-adv-x="566" 
d="M497 417q62 -50 62 -146q0 -69 -30 -131t-94 -101t-162 -39h-251l66 475l-64 56q72 66 131 165h157l-32 -229h45q110 0 172 -50zM333.5 176q21.5 36 21.5 86q0 35 -14.5 53t-47.5 18h-31l-27 -193h30q47 0 68.5 36z" />
    <glyph glyph-name="uni01A7" unicode="&#x1a7;" horiz-adv-x="513" 
d="M486.5 667.5q56.5 -47.5 56.5 -128.5q0 -66 -27 -112t-76.5 -77t-127.5 -59q-60 -20 -85.5 -46.5t-25.5 -64.5q0 -54 59 -54q68 0 151 63l79 -106q-48 -46 -115 -74t-150 -28q-105 0 -164.5 52t-59.5 138q0 102 54.5 161.5t161.5 95.5q52 17 79 31t38 30t11 40
q0 22 -14 33.5t-39 11.5q-70 0 -141 -55l-69 103q110 93 253 93q95 0 151.5 -47.5z" />
    <glyph glyph-name="uni01AE" unicode="&#x1ae;" horiz-adv-x="494" 
d="M383 548l-77 -548h1l-5 -38q-1 -4 -1 -11q0 -37 35 -37q17 0 30.5 4t32.5 13l43 -114q-64 -43 -148 -43q-88 0 -137 42.5t-49 124.5q0 11 2 35l3 24l77 548h-149l21 148h498l-41 -148h-136z" />
    <glyph glyph-name="U" unicode="U" horiz-adv-x="573" 
d="M539 217q-9 -68 -45 -121t-97.5 -84t-145.5 -31q-116 0 -175 54t-59 145q0 21 3 42l67 474h193l-67 -487q-2 -20 -2 -28q0 -29 13 -43.5t41 -14.5q35 0 54 22.5t25 65.5l68 485h194z" />
    <glyph glyph-name="Uacute" unicode="&#xda;" horiz-adv-x="573" 
d="M539 217q-9 -68 -45 -121t-97.5 -84t-145.5 -31q-116 0 -175 54t-59 145q0 21 3 42l67 474h193l-67 -487q-2 -20 -2 -28q0 -29 13 -43.5t41 -14.5q35 0 54 22.5t25 65.5l68 485h194zM460 965l59 -134l-240 -88l-42 89z" />
    <glyph glyph-name="uni0244" unicode="&#x244;" horiz-adv-x="611" 
d="M638 496h-42l-39 -279q-9 -68 -45 -121t-97.5 -84t-145.5 -31q-116 0 -175 54t-59 145q0 21 3 42l39 274h-42l15 103h41l14 97h193l-13 -97h131l14 97h194l-14 -97h43zM402 496h-132l-39 -287q-2 -20 -2 -28q0 -29 13 -43.5t41 -14.5q35 0 54 22.5t25 65.5z" />
    <glyph glyph-name="Ubreve" unicode="&#x16c;" horiz-adv-x="573" 
d="M539 217q-9 -68 -45 -121t-97.5 -84t-145.5 -31q-116 0 -175 54t-59 145q0 21 3 42l67 474h193l-67 -487q-2 -20 -2 -28q0 -29 13 -43.5t41 -14.5q35 0 54 22.5t25 65.5l68 485h194zM246.5 793.5q-36.5 46.5 -36.5 115.5q0 13 1 20l95 15q2 -30 17 -49t43 -19q55 0 81 70
l97 -19q-15 -77 -63 -128.5t-125 -51.5q-73 0 -109.5 46.5z" />
    <glyph glyph-name="uni01D3" unicode="&#x1d3;" horiz-adv-x="573" 
d="M539 217q-9 -68 -45 -121t-97.5 -84t-145.5 -31q-116 0 -175 54t-59 145q0 21 3 42l67 474h193l-67 -487q-2 -20 -2 -28q0 -29 13 -43.5t41 -14.5q35 0 54 22.5t25 65.5l68 485h194zM497 959l61 -73l-150 -138h-110l-116 144l72 67l111 -87z" />
    <glyph glyph-name="Ucircumflex" unicode="&#xdb;" horiz-adv-x="573" 
d="M539 217q-9 -68 -45 -121t-97.5 -84t-145.5 -31q-116 0 -175 54t-59 145q0 21 3 42l67 474h193l-67 -487q-2 -20 -2 -28q0 -29 13 -43.5t41 -14.5q35 0 54 22.5t25 65.5l68 485h194zM230 754l-61 74l150 138h111l115 -144l-72 -68l-111 87z" />
    <glyph glyph-name="uni0214" unicode="&#x214;" horiz-adv-x="573" 
d="M539 217q-9 -68 -45 -121t-97.5 -84t-145.5 -31q-116 0 -175 54t-59 145q0 21 3 42l67 474h193l-67 -487q-2 -20 -2 -28q0 -29 13 -43.5t41 -14.5q35 0 54 22.5t25 65.5l68 485h194zM265 1000l66 -211l-98 -42l-95 197zM436 1000l59 -213l-98 -36l-88 198z" />
    <glyph glyph-name="Udieresis" unicode="&#xdc;" horiz-adv-x="573" 
d="M539 217q-9 -68 -45 -121t-97.5 -84t-145.5 -31q-116 0 -175 54t-59 145q0 21 3 42l67 474h193l-67 -487q-2 -20 -2 -28q0 -29 13 -43.5t41 -14.5q35 0 54 22.5t25 65.5l68 485h194zM183.5 782.5q-21.5 21.5 -21.5 56.5q0 43 29.5 72t71.5 29q38 0 59.5 -21.5t21.5 -56.5
q0 -43 -29.5 -72t-72.5 -29q-37 0 -58.5 21.5zM406.5 782.5q-21.5 21.5 -21.5 56.5q0 43 29 72t72 29q37 0 58.5 -21.5t21.5 -56.5q0 -43 -29 -72t-72 -29q-37 0 -58.5 21.5z" />
    <glyph glyph-name="uni01D7" unicode="&#x1d7;" horiz-adv-x="573" 
d="M539 217q-9 -68 -45 -121t-97.5 -84t-145.5 -31q-116 0 -175 54t-59 145q0 21 3 42l67 474h193l-67 -487q-2 -20 -2 -28q0 -29 13 -43.5t41 -14.5q35 0 54 22.5t25 65.5l68 485h194zM465 1136l87 -95l-179 -151l-63 60zM176.5 770.5q-21.5 21.5 -21.5 56.5q0 43 29.5 72
t71.5 29q38 0 59 -21.5t21 -56.5q0 -43 -29.5 -72t-71.5 -29q-37 0 -58.5 21.5zM417.5 770.5q-21.5 21.5 -21.5 56.5q0 43 29.5 72t71.5 29q38 0 59 -21.5t21 -56.5q0 -43 -29.5 -72t-71.5 -29q-37 0 -58.5 21.5z" />
    <glyph glyph-name="uni01D9" unicode="&#x1d9;" horiz-adv-x="573" 
d="M539 217q-9 -68 -45 -121t-97.5 -84t-145.5 -31q-116 0 -175 54t-59 145q0 21 3 42l67 474h193l-67 -487q-2 -20 -2 -28q0 -29 13 -43.5t41 -14.5q35 0 54 22.5t25 65.5l68 485h194zM519 1136l61 -73l-150 -138h-110l-116 144l72 67l111 -87zM174.5 770.5
q-21.5 21.5 -21.5 56.5q0 43 29.5 72t72.5 29q37 0 58.5 -21.5t21.5 -56.5q0 -43 -29.5 -72t-72.5 -29q-37 0 -58.5 21.5zM415.5 770.5q-21.5 21.5 -21.5 56.5q0 43 29.5 72t72.5 29q37 0 58.5 -21.5t21.5 -56.5q0 -42 -30 -71.5t-72 -29.5q-37 0 -58.5 21.5z" />
    <glyph glyph-name="uni01DB" unicode="&#x1db;" horiz-adv-x="573" 
d="M539 217q-9 -68 -45 -121t-97.5 -84t-145.5 -31q-116 0 -175 54t-59 145q0 21 3 42l67 474h193l-67 -487q-2 -20 -2 -28q0 -29 13 -43.5t41 -14.5q35 0 54 22.5t25 65.5l68 485h194zM340 1134l102 -188l-77 -55l-136 158zM173.5 771.5q-21.5 21.5 -21.5 56.5
q0 43 29.5 72t71.5 29q38 0 59 -21.5t21 -56.5q0 -43 -29.5 -72t-71.5 -29q-37 0 -58.5 21.5zM414.5 771.5q-21.5 21.5 -21.5 56.5q0 43 29.5 72t71.5 29q38 0 59 -21.5t21 -56.5q0 -43 -29.5 -72t-71.5 -29q-37 0 -58.5 21.5z" />
    <glyph glyph-name="uni01D5" unicode="&#x1d5;" horiz-adv-x="573" 
d="M539 217q-9 -68 -45 -121t-97.5 -84t-145.5 -31q-116 0 -175 54t-59 145q0 21 3 42l67 474h193l-67 -487q-2 -20 -2 -28q0 -29 13 -43.5t41 -14.5q35 0 54 22.5t25 65.5l68 485h194zM182.5 766.5q-21.5 21.5 -21.5 56.5q0 43 29.5 72t71.5 29q38 0 59.5 -21.5t21.5 -56.5
q0 -43 -29.5 -72t-72.5 -29q-37 0 -58.5 21.5zM405.5 766.5q-21.5 21.5 -21.5 56.5q0 43 29 72t72 29q37 0 58.5 -21.5t21.5 -56.5q0 -43 -29 -72t-72 -29q-37 0 -58.5 21.5zM522 961h-292l19 130h293z" />
    <glyph glyph-name="uni1EE4" unicode="&#x1ee4;" horiz-adv-x="573" 
d="M539 217q-9 -68 -45 -121t-97.5 -84t-145.5 -31q-116 0 -175 54t-59 145q0 21 3 42l67 474h193l-67 -487q-2 -20 -2 -28q0 -29 13 -43.5t41 -14.5q35 0 54 22.5t25 65.5l68 485h194zM306 -78.5q25 -24.5 25 -64.5q0 -50 -34 -83t-83 -33q-43 0 -68 24.5t-25 64.5
q0 50 33.5 83t83.5 33q43 0 68 -24.5z" />
    <glyph glyph-name="Ugrave" unicode="&#xd9;" horiz-adv-x="573" 
d="M539 217q-9 -68 -45 -121t-97.5 -84t-145.5 -31q-116 0 -175 54t-59 145q0 21 3 42l67 474h193l-67 -487q-2 -20 -2 -28q0 -29 13 -43.5t41 -14.5q35 0 54 22.5t25 65.5l68 485h194zM318 963l192 -133l-51 -86l-218 85z" />
    <glyph glyph-name="uni1EE6" unicode="&#x1ee6;" horiz-adv-x="573" 
d="M539 217q-9 -68 -45 -121t-97.5 -84t-145.5 -31q-116 0 -175 54t-59 145q0 21 3 42l67 474h193l-67 -487q-2 -20 -2 -28q0 -29 13 -43.5t41 -14.5q35 0 54 22.5t25 65.5l68 485h194zM317 856q36 2 52 11.5t16 29.5q0 12 -6.5 17.5t-22.5 5.5q-24 0 -55 -13l-17 74
q46 26 104 26q56 0 86 -27t30 -71q0 -42 -25 -69t-68 -36l-4 -40h-101z" />
    <glyph glyph-name="Uhorn" unicode="&#x1af;" horiz-adv-x="679" 
d="M709.5 589q-44.5 -42 -124.5 -43l-46 -329q-9 -68 -45 -121t-97.5 -84t-145.5 -31q-116 0 -175 54t-59 145q0 21 3 42l67 474h193l-67 -487q-2 -20 -2 -28q0 -29 13 -43.5t41 -14.5q35 0 54 22.5t25 65.5l68 485h194l-8 -60q37 13 37 75q0 29 -4 48l116 13q7 -26 7 -59
q0 -82 -44.5 -124z" />
    <glyph glyph-name="uni1EE8" unicode="&#x1ee8;" horiz-adv-x="679" 
d="M519 831l-240 -88l-42 89l223 133zM709.5 589q-44.5 -42 -124.5 -43l-46 -329q-9 -68 -45 -121t-97.5 -84t-145.5 -31q-116 0 -175 54t-59 145q0 21 3 42l67 474h193l-67 -487q-2 -20 -2 -28q0 -29 13 -43.5t41 -14.5q35 0 54 22.5t25 65.5l68 485h194l-8 -60
q37 13 37 75q0 29 -4 48l116 13q7 -26 7 -59q0 -82 -44.5 -124z" />
    <glyph glyph-name="uni1EF0" unicode="&#x1ef0;" horiz-adv-x="679" 
d="M709.5 589q-44.5 -42 -124.5 -43l-46 -329q-9 -68 -45 -121t-97.5 -84t-145.5 -31q-116 0 -175 54t-59 145q0 21 3 42l67 474h193l-67 -487q-2 -20 -2 -28q0 -29 13 -43.5t41 -14.5q35 0 54 22.5t25 65.5l68 485h194l-8 -60q37 13 37 75q0 29 -4 48l116 13q7 -26 7 -59
q0 -82 -44.5 -124zM306 -78.5q25 -24.5 25 -64.5q0 -50 -34 -83t-83 -33q-43 0 -68 24.5t-25 64.5q0 50 33.5 83t83.5 33q43 0 68 -24.5z" />
    <glyph glyph-name="uni1EEA" unicode="&#x1eea;" horiz-adv-x="679" 
d="M510 830l-51 -86l-218 85l77 134zM709.5 589q-44.5 -42 -124.5 -43l-46 -329q-9 -68 -45 -121t-97.5 -84t-145.5 -31q-116 0 -175 54t-59 145q0 21 3 42l67 474h193l-67 -487q-2 -20 -2 -28q0 -29 13 -43.5t41 -14.5q35 0 54 22.5t25 65.5l68 485h194l-8 -60q37 13 37 75
q0 29 -4 48l116 13q7 -26 7 -59q0 -82 -44.5 -124z" />
    <glyph glyph-name="uni1EEC" unicode="&#x1eec;" horiz-adv-x="679" 
d="M301 907l-17 74q46 26 104 26q56 0 86 -27t30 -71q0 -42 -25 -69t-68 -36l-4 -40h-101l11 92q36 2 52 11.5t16 29.5q0 12 -6.5 17.5t-22.5 5.5q-24 0 -55 -13zM709.5 589q-44.5 -42 -124.5 -43l-46 -329q-9 -68 -45 -121t-97.5 -84t-145.5 -31q-116 0 -175 54t-59 145
q0 21 3 42l67 474h193l-67 -487q-2 -20 -2 -28q0 -29 13 -43.5t41 -14.5q35 0 54 22.5t25 65.5l68 485h194l-8 -60q37 13 37 75q0 29 -4 48l116 13q7 -26 7 -59q0 -82 -44.5 -124z" />
    <glyph glyph-name="uni1EEE" unicode="&#x1eee;" horiz-adv-x="679" 
d="M284.5 783.5q-11.5 -10.5 -26.5 -33.5l-79 46q27 57 64.5 94t78.5 37q20 0 34 -7t33 -20q11 -9 19 -13t16 -4q14 0 25 10t25 33l80 -44q-26 -57 -64.5 -94t-79.5 -37q-16 0 -30 6.5t-31 18.5q-13 9 -21.5 13.5t-16.5 4.5q-15 0 -26.5 -10.5zM709.5 589
q-44.5 -42 -124.5 -43l-46 -329q-9 -68 -45 -121t-97.5 -84t-145.5 -31q-116 0 -175 54t-59 145q0 21 3 42l67 474h193l-67 -487q-2 -20 -2 -28q0 -29 13 -43.5t41 -14.5q35 0 54 22.5t25 65.5l68 485h194l-8 -60q37 13 37 75q0 29 -4 48l116 13q7 -26 7 -59
q0 -82 -44.5 -124z" />
    <glyph glyph-name="Uhungarumlaut" unicode="&#x170;" horiz-adv-x="573" 
d="M539 217q-9 -68 -45 -121t-97.5 -84t-145.5 -31q-116 0 -175 54t-59 145q0 21 3 42l67 474h193l-67 -487q-2 -20 -2 -28q0 -29 13 -43.5t41 -14.5q35 0 54 22.5t25 65.5l68 485h194zM331 1000l107 -55l-140 -194l-85 38zM501 1000l106 -60l-146 -193l-83 44z" />
    <glyph glyph-name="uni0216" unicode="&#x216;" horiz-adv-x="573" 
d="M539 217q-9 -68 -45 -121t-97.5 -84t-145.5 -31q-116 0 -175 54t-59 145q0 21 3 42l67 474h193l-67 -487q-2 -20 -2 -28q0 -29 13 -43.5t41 -14.5q35 0 54 22.5t25 65.5l68 485h194zM188 775q17 83 66.5 136.5t127.5 53.5q75 0 111 -47.5t36 -122.5q0 -14 -1 -22l-99 -14
q-5 77 -60 77q-30 0 -52 -21.5t-34 -58.5z" />
    <glyph glyph-name="Umacron" unicode="&#x16a;" horiz-adv-x="573" 
d="M539 217q-9 -68 -45 -121t-97.5 -84t-145.5 -31q-116 0 -175 54t-59 145q0 21 3 42l67 474h193l-67 -487q-2 -20 -2 -28q0 -29 13 -43.5t41 -14.5q35 0 54 22.5t25 65.5l68 485h194zM500 775h-292l19 130h293z" />
    <glyph glyph-name="Uogonek" unicode="&#x172;" horiz-adv-x="573" 
d="M606 696l-67 -479q-11 -79 -57.5 -138t-124.5 -83q-62 -24 -86 -51.5t-24 -52.5q0 -33 38 -33q25 0 57 8l-27 -111q-32 -8 -68 -8q-58 0 -95 28.5t-37 77.5q0 43 25 75.5t68 53.5q-95 10 -143 62.5t-48 134.5q0 21 3 42l67 474h193l-67 -487q-2 -20 -2 -28
q0 -29 13 -43.5t41 -14.5q35 0 54 22.5t25 65.5l68 485h194z" />
    <glyph glyph-name="uni01B1" unicode="&#x1b1;" horiz-adv-x="621" 
d="M134.5 14.5q-56.5 34.5 -85.5 94t-29 135.5q0 216 167 316h-109l20 136h241l-18 -128q-50 -45 -76 -143t-26 -199q0 -55 16 -80t50 -25q48 0 78.5 48.5t44 120.5t13.5 147q0 48 -9.5 78t-29.5 54l19 127h241l-20 -138h-106q95 -69 95 -197q0 -109 -42.5 -195.5
t-119.5 -136t-178 -49.5q-80 0 -136.5 34.5z" />
    <glyph glyph-name="Uring" unicode="&#x16e;" horiz-adv-x="573" 
d="M539 217q-9 -68 -45 -121t-97.5 -84t-145.5 -31q-116 0 -175 54t-59 145q0 21 3 42l67 474h193l-67 -487q-2 -20 -2 -28q0 -29 13 -43.5t41 -14.5q35 0 54 22.5t25 65.5l68 485h194zM479.5 973q32.5 -35 32.5 -92q0 -42 -19.5 -78.5t-56 -58t-84.5 -21.5q-59 0 -91.5 35
t-32.5 92q0 41 20 77.5t56.5 58.5t83.5 22q59 0 91.5 -35zM344 897q-13 -18 -13 -42q0 -38 31 -38q21 0 34 18t13 41q0 39 -30 39q-22 0 -35 -18z" />
    <glyph glyph-name="Utilde" unicode="&#x168;" horiz-adv-x="573" 
d="M539 217q-9 -68 -45 -121t-97.5 -84t-145.5 -31q-116 0 -175 54t-59 145q0 21 3 42l67 474h193l-67 -487q-2 -20 -2 -28q0 -29 13 -43.5t41 -14.5q35 0 54 22.5t25 65.5l68 485h194zM380 757.5q-14 6.5 -31 18.5q-13 9 -21.5 13.5t-16.5 4.5q-15 0 -26.5 -10.5
t-26.5 -33.5l-79 46q27 57 64.5 94t78.5 37q20 0 34 -7t33 -20q11 -9 19 -13t16 -4q14 0 25 10t25 33l80 -44q-26 -57 -64.5 -94t-79.5 -37q-16 0 -30 6.5z" />
    <glyph glyph-name="uni1E78" unicode="&#x1e78;" horiz-adv-x="573" 
d="M539 217q-9 -68 -45 -121t-97.5 -84t-145.5 -31q-116 0 -175 54t-59 145q0 21 3 42l67 474h193l-67 -487q-2 -20 -2 -28q0 -29 13 -43.5t41 -14.5q35 0 54 22.5t25 65.5l68 485h194zM373 761.5q-14 6.5 -31 18.5q-13 9 -21.5 13.5t-16.5 4.5q-15 0 -26.5 -10.5
t-26.5 -33.5l-79 46q27 57 64.5 94t78.5 37q20 0 34 -7t33 -20q11 -9 19 -13t16 -4q14 0 25 10t25 33l80 -44q-26 -57 -64.5 -94t-79.5 -37q-16 0 -30 6.5zM455 1163l59 -134l-240 -88l-42 89z" />
    <glyph glyph-name="V" unicode="V" horiz-adv-x="521" 
d="M603 696l-247 -696h-253l-64 696h199l12 -556l154 556h199z" />
    <glyph glyph-name="uni01B2" unicode="&#x1b2;" horiz-adv-x="571" 
d="M551 681.5q35 -33.5 35 -103.5q0 -14 -4 -50l-35 -259q-19 -140 -101 -214t-212 -74q-103 0 -160.5 53.5t-57.5 139.5q0 23 2 35l70 487h193l-69 -497q-2 -18 -2 -23q0 -53 43 -53q35 0 61.5 34t37.5 109l39 286q1 3 1 9q0 17 -17 17q-7 0 -17 -2l-8 122q46 17 97 17
q69 0 104 -33.5z" />
    <glyph glyph-name="uni0245" unicode="&#x245;" horiz-adv-x="542" 
d="M446 696l79 -696h-197l-16 558l-166 -558h-205l274 696h231z" />
    <glyph glyph-name="W" unicode="W" horiz-adv-x="770" 
d="M828 696l-182 -696h-253l24 509l-121 -509h-250l16 696h190l-42 -552l137 552h198l-27 -552l123 552h187z" />
    <glyph glyph-name="Wacute" unicode="&#x1e82;" horiz-adv-x="770" 
d="M828 696l-182 -696h-253l24 509l-121 -509h-250l16 696h190l-42 -552l137 552h198l-27 -552l123 552h187zM562 965l59 -134l-240 -88l-42 89z" />
    <glyph glyph-name="Wcircumflex" unicode="&#x174;" horiz-adv-x="770" 
d="M828 696l-182 -696h-253l24 509l-121 -509h-250l16 696h190l-42 -552l137 552h198l-27 -552l123 552h187zM332 754l-61 74l150 138h111l115 -144l-72 -68l-111 87z" />
    <glyph glyph-name="Wdieresis" unicode="&#x1e84;" horiz-adv-x="770" 
d="M828 696l-182 -696h-253l24 509l-121 -509h-250l16 696h190l-42 -552l137 552h198l-27 -552l123 552h187zM285.5 782.5q-21.5 21.5 -21.5 56.5q0 43 29.5 72t71.5 29q38 0 59.5 -21.5t21.5 -56.5q0 -43 -29.5 -72t-72.5 -29q-37 0 -58.5 21.5zM508.5 782.5
q-21.5 21.5 -21.5 56.5q0 43 29 72t72 29q37 0 58.5 -21.5t21.5 -56.5q0 -43 -29 -72t-72 -29q-37 0 -58.5 21.5z" />
    <glyph glyph-name="Wgrave" unicode="&#x1e80;" horiz-adv-x="770" 
d="M828 696l-182 -696h-253l24 509l-121 -509h-250l16 696h190l-42 -552l137 552h198l-27 -552l123 552h187zM420 963l192 -133l-51 -86l-218 85z" />
    <glyph glyph-name="uni2C72" unicode="&#x2c72;" horiz-adv-x="820" 
d="M296 0l121 509l-24 -509h251l121 536q5 22 16 32t28 10q18 0 35 -10l63 110q-53 37 -120 37q-76 0 -122 -39t-65 -134l-82 -398l27 552h-198l-137 -552l42 552h-190l-16 -696h250z" />
    <glyph glyph-name="uni01F7" unicode="&#x1f7;" horiz-adv-x="547" 
d="M533 670q41 -45 41 -123q0 -86 -36.5 -145t-98 -98t-155.5 -77l-63 -25l-28 -202h-194l98 696h193l-5 -33q58 52 139 52q68 0 109 -45zM372 525q0 55 -40 55q-32 0 -62 -28l-30 -213l13 7q119 66 119 179z" />
    <glyph glyph-name="X" unicode="X" horiz-adv-x="541" 
d="M599 696l-202 -321l117 -375h-205l-44 254l-105 -254h-209l214 369l-106 327h205l31 -217l97 217h207z" />
    <glyph glyph-name="Y" unicode="Y" horiz-adv-x="554" 
d="M630 696l-257 -439l-36 -257h-194l36 257l-135 439h206l48 -292l125 292h207z" />
    <glyph glyph-name="Yacute" unicode="&#xdd;" horiz-adv-x="554" 
d="M630 696l-257 -439l-36 -257h-194l36 257l-135 439h206l48 -292l125 292h207zM449 965l59 -134l-240 -88l-42 89z" />
    <glyph glyph-name="Ycircumflex" unicode="&#x176;" horiz-adv-x="554" 
d="M630 696l-257 -439l-36 -257h-194l36 257l-135 439h206l48 -292l125 292h207zM219 754l-61 74l150 138h111l115 -144l-72 -68l-111 87z" />
    <glyph glyph-name="Ydieresis" unicode="&#x178;" horiz-adv-x="554" 
d="M630 696l-257 -439l-36 -257h-194l36 257l-135 439h206l48 -292l125 292h207zM172.5 782.5q-21.5 21.5 -21.5 56.5q0 43 29.5 72t71.5 29q38 0 59.5 -21.5t21.5 -56.5q0 -43 -29.5 -72t-72.5 -29q-37 0 -58.5 21.5zM395.5 782.5q-21.5 21.5 -21.5 56.5q0 43 29 72t72 29
q37 0 58.5 -21.5t21.5 -56.5q0 -43 -29 -72t-72 -29q-37 0 -58.5 21.5z" />
    <glyph glyph-name="uni1EF4" unicode="&#x1ef4;" horiz-adv-x="554" 
d="M630 696l-257 -439l-36 -257h-194l36 257l-135 439h206l48 -292l125 292h207zM297 -78.5q25 -24.5 25 -64.5q0 -50 -34 -83t-83 -33q-43 0 -68 24.5t-25 64.5q0 50 33.5 83t83.5 33q43 0 68 -24.5z" />
    <glyph glyph-name="Ygrave" unicode="&#x1ef2;" horiz-adv-x="554" 
d="M630 696l-257 -439l-36 -257h-194l36 257l-135 439h206l48 -292l125 292h207zM307 963l192 -133l-51 -86l-218 85z" />
    <glyph glyph-name="uni01B3" unicode="&#x1b3;" horiz-adv-x="580" 
d="M179 257l-135 439h206l47 -292l63 166q30 77 72.5 111t114.5 34q68 0 119 -37l-62 -110q-18 10 -36 10q-15 0 -25 -8t-22 -30l-148 -283l-36 -257h-194z" />
    <glyph glyph-name="uni1EF6" unicode="&#x1ef6;" horiz-adv-x="554" 
d="M630 696l-257 -439l-36 -257h-194l36 257l-135 439h206l48 -292l125 292h207zM306 856q36 2 52 11.5t16 29.5q0 12 -6.5 17.5t-22.5 5.5q-24 0 -55 -13l-17 74q46 26 104 26q56 0 86 -27t30 -71q0 -42 -25 -69t-68 -36l-4 -40h-101z" />
    <glyph glyph-name="uni0232" unicode="&#x232;" horiz-adv-x="554" 
d="M630 696l-257 -439l-36 -257h-194l36 257l-135 439h206l48 -292l125 292h207zM489 775h-292l19 130h293z" />
    <glyph glyph-name="uni01A6" unicode="&#x1a6;" horiz-adv-x="559" 
d="M524 270q-31 -53 -105 -94l109 -287h-203l-81 251h-31l-19 -140h-194l97 696h194l-15 -111h25q254 0 254 -186q0 -76 -31 -129zM232 273h34q48 0 69.5 33.5t21.5 80.5q0 32 -17.5 47t-53.5 15h-29z" />
    <glyph glyph-name="uni024E" unicode="&#x24e;" horiz-adv-x="555" 
d="M632 696l-44 -76h31l-14 -103h-78l-152 -260l-36 -257h-194l36 257l-80 260h-81l14 103h35l-23 76h186l16 -76h161l35 76h188zM299 385l62 132h-90z" />
    <glyph glyph-name="uni1EF8" unicode="&#x1ef8;" horiz-adv-x="554" 
d="M630 696l-257 -439l-36 -257h-194l36 257l-135 439h206l48 -292l125 292h207zM369 757.5q-14 6.5 -31 18.5q-13 9 -21.5 13.5t-16.5 4.5q-15 0 -26.5 -10.5t-26.5 -33.5l-79 46q27 57 64.5 94t78.5 37q20 0 34 -7t33 -20q11 -9 19 -13t16 -4q14 0 25 10t25 33l80 -44
q-26 -57 -64.5 -94t-79.5 -37q-16 0 -30 6.5z" />
    <glyph glyph-name="Z" unicode="Z" horiz-adv-x="495" 
d="M-31 0l20 145l306 401h-227l22 150h444l-21 -147l-304 -394h261l-42 -155h-459z" />
    <glyph glyph-name="Zacute" unicode="&#x179;" horiz-adv-x="495" 
d="M-31 0l20 145l306 401h-227l22 150h444l-21 -147l-304 -394h261l-42 -155h-459zM420 965l59 -134l-240 -88l-42 89z" />
    <glyph glyph-name="Zcaron" unicode="&#x17d;" horiz-adv-x="495" 
d="M-31 0l20 145l306 401h-227l22 150h444l-21 -147l-304 -394h261l-42 -155h-459zM457 959l61 -73l-150 -138h-110l-116 144l72 67l111 -87z" />
    <glyph glyph-name="Zdotaccent" unicode="&#x17b;" horiz-adv-x="495" 
d="M-31 0l20 145l306 401h-227l22 150h444l-21 -147l-304 -394h261l-42 -155h-459zM251 770.5q-25 24.5 -25 64.5q0 50 34 83t83 33q43 0 68 -24.5t25 -64.5q0 -50 -33.5 -83t-83.5 -33q-43 0 -68 24.5z" />
    <glyph glyph-name="uni1E92" unicode="&#x1e92;" horiz-adv-x="495" 
d="M-31 0l20 145l306 401h-227l22 150h444l-21 -147l-304 -394h261l-42 -155h-459zM256 -78.5q25 -24.5 25 -64.5q0 -50 -34 -83t-83 -33q-43 0 -68 24.5t-25 64.5q0 50 33.5 83t83.5 33q43 0 68 -24.5z" />
    <glyph glyph-name="uni0224" unicode="&#x224;" horiz-adv-x="483" 
d="M513 549l-302 -394h247l-23 -155l-5 -36q-15 -92 -76 -141.5t-151 -49.5q-86 0 -139 46l74 108q16 -9 28.5 -13.5t28.5 -4.5q44 0 51 55l5 36h-282l20 145l306 401h-227l22 150h444z" />
    <glyph glyph-name="uni01B5" unicode="&#x1b5;" horiz-adv-x="495" 
d="M534 696l-21 -147l-118 -146h59l-16 -116h-137l-107 -132h276l-42 -155h-459l20 145l114 142h-63l16 116h141l115 143h-244l22 150h444z" />
    <glyph glyph-name="Cacute.loclPLK" horiz-adv-x="524" 
d="M570 631l-101 -100q-45 42 -95 42q-53 0 -86.5 -50.5t-48 -123.5t-14.5 -144q0 -65 21.5 -95.5t63.5 -30.5q29 0 55.5 13.5t63.5 40.5l71 -109q-102 -94 -228 -94q-114 0 -180.5 71.5t-66.5 208.5q0 119 37.5 222.5t116 168t195.5 64.5q123 0 196 -84zM403 984l124 -75
l-157 -163l-75 47z" />
    <glyph glyph-name="Nacute.loclPLK" horiz-adv-x="580" 
d="M506 0h-235l-67 533q4 -82 4 -127q0 -97 -13 -193l-27 -213h-168l97 696h233l67 -534q-4 92 -4 129q0 86 12 181l30 224h168zM374 984l124 -75l-157 -163l-75 47z" />
    <glyph glyph-name="Oacute.loclPLK" horiz-adv-x="624" 
d="M558.5 645q63.5 -70 63.5 -204q0 -119 -36 -224t-114 -171t-197 -66q-123 0 -186.5 70.5t-63.5 205.5q0 119 36 223.5t114 170t197 65.5q123 0 186.5 -70zM278.5 516q-30.5 -59 -43 -140t-12.5 -152q0 -55 15.5 -79t49.5 -24q50 0 80.5 57.5t43 137.5t12.5 154
q0 56 -16 80.5t-50 24.5q-49 0 -79.5 -59zM395 984l124 -75l-157 -163l-75 47z" />
    <glyph glyph-name="Sacute.loclPLK" horiz-adv-x="526" 
d="M551 620l-96 -99q-54 54 -122 54q-38 0 -58 -16.5t-20 -42.5q0 -25 20.5 -41.5t82.5 -43.5q77 -33 113.5 -78.5t36.5 -117.5q0 -70 -33.5 -128t-99.5 -92.5t-158 -34.5q-154 0 -246 105l105 104q33 -32 67 -48t76 -16t65 19.5t23 53.5q0 31 -21.5 51.5t-77.5 44.5
q-82 34 -117.5 78t-35.5 111q0 66 32.5 119t93 83t143.5 30q144 0 227 -95zM355 984l124 -75l-157 -163l-75 47z" />
    <glyph glyph-name="Zacute.loclPLK" horiz-adv-x="495" 
d="M-31 0l20 145l306 401h-227l22 150h444l-21 -147l-304 -394h261l-42 -155h-459zM331 984l124 -75l-157 -163l-75 47z" />
    <glyph glyph-name="Eng.ss01" horiz-adv-x="574" 
d="M545.5 675.5q34.5 -39.5 34.5 -103.5q0 -22 -2 -33l-74 -539l-4 -27q-15 -98 -78.5 -149t-158.5 -51q-87 0 -140 46l76 112q16 -9 27.5 -13t27.5 -4q21 0 34 13t17 37l5 36l71 517q1 6 1 17q0 38 -31 38q-35 0 -84 -44l-75 -528h-193l98 696h169l5 -52q40 37 82 54t90 17
q68 0 102.5 -39.5z" />
    <glyph glyph-name="uni019D.ss01" horiz-adv-x="573" 
d="M545.5 675.5q34.5 -39.5 34.5 -104.5q0 -22 -2 -34l-75 -537h-193l71 517q1 7 1 18q0 37 -31 37q-36 0 -83 -44l-75 -528l-4 -27q-15 -98 -78.5 -149t-158.5 -51q-87 0 -140 46l76 112q16 -9 27.5 -13t27.5 -4q21 0 34 13t17 37l5 36l98 696h169l6 -52q40 37 81.5 54
t89.5 17q68 0 102.5 -39.5z" />
    <glyph glyph-name="uni2C64.ss01" horiz-adv-x="404" 
d="M449 711q11 -2 26 -7l-56 -189q-22 8 -50 8q-48 0 -75 -29.5t-45 -86.5l-56 -407h1l-5 -38q-1 -4 -1 -11q0 -37 35 -37q17 0 30.5 4t32.5 13l43 -114q-64 -43 -148 -43q-88 0 -137 42.5t-49 124.5q0 11 2 35l3 24l97 696h169l2 -87q24 49 62.5 76.5t89.5 27.5q18 0 29 -2
z" />
    <glyph glyph-name="uni0181.ss02" horiz-adv-x="546" 
d="M474.5 406.5q61.5 -48.5 61.5 -140.5q0 -66 -29.5 -126.5t-93.5 -100t-162 -39.5h-251l97 696h422l-40 -147h-209l-13 -94h46q110 0 171.5 -48.5zM310 173q23 33 23 83q0 32 -15 48.5t-48 16.5h-32l-25 -181h30q44 0 67 33z" />
    <glyph glyph-name="uniA78D.ss02" horiz-adv-x="535" 
d="M461 0h-194l33 234l-294 -1l65 463h193l-43 -310h100l43 310h194z" />
    <glyph glyph-name="uni0299" unicode="&#x299;" horiz-adv-x="487" 
d="M464 187q0 -92 -67.5 -139.5t-181.5 -47.5h-218l73 528q114 25 210 25q94 0 146.5 -34.5t52.5 -95.5q0 -50 -31 -83t-93 -46q109 -14 109 -107zM282.5 347.5q13.5 19.5 13.5 53.5q0 36 -32 36q-10 0 -26 -2l-15 -107h22q24 0 37.5 19.5zM264 140.5q16 21.5 16 59.5
q0 19 -9.5 28.5t-30.5 9.5h-29l-17 -119h25q29 0 45 21.5z" />
    <glyph glyph-name="uni0262" unicode="&#x262;" horiz-adv-x="507" 
d="M508 475l-98 -92q-23 20 -45 30t-50 10q-60 0 -86.5 -66t-26.5 -161q0 -45 12 -63.5t37 -18.5t45 8l10 78h-42l1 118h228l-38 -268q-44 -32 -100.5 -49.5t-121.5 -17.5q-222 0 -222 213q0 108 38.5 188.5t107.5 124.5t157 44q121 0 194 -78z" />
    <glyph glyph-name="uni029B" unicode="&#x29b;" horiz-adv-x="507" 
d="M681 725l-63 -114q-27 15 -52 15q-21 0 -30.5 -12.5t-12.5 -38.5l-15 -100l-89 -84q-27 16 -51.5 24t-52.5 8q-60 0 -86.5 -66t-26.5 -161q0 -45 12 -63.5t37 -18.5t45 8l10 78h-42l1 118h228l-38 -268q-44 -32 -100.5 -49.5t-121.5 -17.5q-222 0 -222 213
q0 107 38.5 188t104.5 125t145 44q33 0 63 -9l9 60q12 76 56.5 117.5t123.5 41.5q75 0 130 -38z" />
    <glyph glyph-name="uni029C" unicode="&#x29c;" horiz-adv-x="517" 
d="M260 0l28 201h-77l-28 -201h-186l74 534h186l-27 -196h77l27 196h186l-74 -534h-186z" />
    <glyph glyph-name="uni026A" unicode="&#x26a;" horiz-adv-x="302" 
d="M313 404h-50l-38 -274h50l-18 -130h-286l18 130h50l38 274h-50l18 130h286z" />
    <glyph glyph-name="uni029F" unicode="&#x29f;" horiz-adv-x="410" 
d="M257 534l-52 -391h187l-41 -143h-354l74 534h186z" />
    <glyph glyph-name="uni0274" unicode="&#x274;" horiz-adv-x="518" 
d="M447 0h-215l-52 373q1 -26 1 -82q0 -90 -10 -169l-17 -122h-157l74 534h215l52 -373l-1 89q0 76 9 147l19 137h156z" />
    <glyph glyph-name="uni0276" unicode="&#x276;" horiz-adv-x="690" 
d="M487 407q16 -34 19 -75h147l-17 -124h-145q-14 -46 -39 -80h203l-17 -128h-315q-45 -20 -100 -20q-98 0 -154 57t-56 165q0 93 30.5 173t95 129t161.5 49q59 0 96 -19h322l-37 -127h-194zM307.5 194.5q19.5 77.5 19.5 162.5q0 32 -9.5 46t-30.5 14q-46 0 -66 -75.5
t-20 -159.5q0 -35 9.5 -50t30.5 -15q47 0 66.5 77.5z" />
    <glyph glyph-name="uni0280" unicode="&#x280;" horiz-adv-x="492" 
d="M443 274.5q-23 -40.5 -69 -67.5l80 -207h-183l-54 174h-20l-24 -174h-176l74 534h191q102 0 153 -38.5t51 -121.5q0 -59 -23 -99.5zM213 294h19q28 0 42 20t14 53q0 22 -9.5 31t-28.5 9h-21z" />
    <glyph glyph-name="uni0281" unicode="&#x281;" horiz-adv-x="489" 
d="M443 205q0 -102 -64.5 -153.5t-178.5 -51.5h-203l74 534h176l-25 -175h23l99 175h183l-137 -212q53 -37 53 -117zM265 196q0 22 -10.5 31.5t-31.5 9.5h-18l-15 -110h17q58 0 58 69z" />
    <glyph glyph-name="uni028F" unicode="&#x28f;" horiz-adv-x="476" 
d="M528 534l-207 -344l-27 -190h-186l27 189l-112 345h196l25 -217l88 217h196z" />
    <glyph glyph-name="a" unicode="a" horiz-adv-x="523" 
d="M420.5 538.5q54.5 -14.5 103.5 -42.5l-47 -328q-2 -20 -2 -27q0 -14 4.5 -22t16.5 -13l-56 -122q-46 4 -82 24t-50 56q-28 -41 -62.5 -62.5t-81.5 -21.5q-75 0 -114.5 54t-39.5 149t30.5 179t98 137.5t173.5 53.5q54 0 108.5 -14.5zM224 348.5q-25 -73.5 -25 -168.5
q0 -36 8.5 -49.5t23.5 -13.5q31 0 62 54l36 247q-15 4 -31 4q-49 0 -74 -73.5z" />
    <glyph glyph-name="aacute" unicode="&#xe1;" horiz-adv-x="523" 
d="M420.5 538.5q54.5 -14.5 103.5 -42.5l-47 -328q-2 -20 -2 -27q0 -14 4.5 -22t16.5 -13l-56 -122q-46 4 -82 24t-50 56q-28 -41 -62.5 -62.5t-81.5 -21.5q-75 0 -114.5 54t-39.5 149t30.5 179t98 137.5t173.5 53.5q54 0 108.5 -14.5zM224 348.5q-25 -73.5 -25 -168.5
q0 -36 8.5 -49.5t23.5 -13.5q31 0 62 54l36 247q-15 4 -31 4q-49 0 -74 -73.5zM428 847l59 -134l-239 -98l-45 91z" />
    <glyph glyph-name="abreve" unicode="&#x103;" horiz-adv-x="523" 
d="M420.5 538.5q54.5 -14.5 103.5 -42.5l-47 -328q-2 -20 -2 -27q0 -14 4.5 -22t16.5 -13l-56 -122q-46 4 -82 24t-50 56q-28 -41 -62.5 -62.5t-81.5 -21.5q-75 0 -114.5 54t-39.5 149t30.5 179t98 137.5t173.5 53.5q54 0 108.5 -14.5zM224 348.5q-25 -73.5 -25 -168.5
q0 -36 8.5 -49.5t23.5 -13.5q31 0 62 54l36 247q-15 4 -31 4q-49 0 -74 -73.5zM223.5 675q-36.5 48 -36.5 123q0 15 1 22l96 14q2 -36 17.5 -57t43.5 -21q29 0 50 21.5t33 58.5l92 -19q-15 -82 -62.5 -136t-123.5 -54q-74 0 -110.5 48z" />
    <glyph glyph-name="uni1EAF" unicode="&#x1eaf;" horiz-adv-x="523" 
d="M450 1021l87 -95l-179 -151l-63 60zM228.5 649.5q-36.5 46.5 -36.5 115.5q0 13 1 20l95 15q2 -30 17 -49t43 -19q55 0 81 70l97 -19q-15 -77 -63 -128.5t-125 -51.5q-73 0 -109.5 46.5zM420.5 538.5q54.5 -14.5 103.5 -42.5l-47 -328q-2 -20 -2 -27q0 -14 4.5 -22
t16.5 -13l-56 -122q-46 4 -82 24t-50 56q-28 -41 -62.5 -62.5t-81.5 -21.5q-75 0 -114.5 54t-39.5 149t30.5 179t98 137.5t173.5 53.5q54 0 108.5 -14.5zM224 348.5q-25 -73.5 -25 -168.5q0 -36 8.5 -49.5t23.5 -13.5q31 0 62 54l36 247q-15 4 -31 4q-49 0 -74 -73.5z" />
    <glyph glyph-name="uni1EB7" unicode="&#x1eb7;" horiz-adv-x="523" 
d="M420.5 538.5q54.5 -14.5 103.5 -42.5l-47 -328q-2 -20 -2 -27q0 -14 4.5 -22t16.5 -13l-56 -122q-46 4 -82 24t-50 56q-28 -41 -62.5 -62.5t-81.5 -21.5q-75 0 -114.5 54t-39.5 149t30.5 179t98 137.5t173.5 53.5q54 0 108.5 -14.5zM224 348.5q-25 -73.5 -25 -168.5
q0 -36 8.5 -49.5t23.5 -13.5q31 0 62 54l36 247q-15 4 -31 4q-49 0 -74 -73.5zM223.5 675q-36.5 48 -36.5 123q0 15 1 22l96 14q2 -36 17.5 -57t43.5 -21q29 0 50 21.5t33 58.5l92 -19q-15 -82 -62.5 -136t-123.5 -54q-74 0 -110.5 48zM303 -78.5q25 -24.5 25 -64.5
q0 -50 -34 -83t-83 -33q-43 0 -68 24.5t-25 64.5q0 50 33.5 83t83.5 33q43 0 68 -24.5z" />
    <glyph glyph-name="uni1EB1" unicode="&#x1eb1;" horiz-adv-x="523" 
d="M321 1018l102 -188l-77 -55l-136 158zM228.5 649.5q-36.5 46.5 -36.5 115.5q0 13 1 20l95 15q2 -30 17 -49t43 -19q55 0 81 70l97 -19q-15 -77 -63 -128.5t-125 -51.5q-73 0 -109.5 46.5zM420.5 538.5q54.5 -14.5 103.5 -42.5l-47 -328q-2 -20 -2 -27q0 -14 4.5 -22
t16.5 -13l-56 -122q-46 4 -82 24t-50 56q-28 -41 -62.5 -62.5t-81.5 -21.5q-75 0 -114.5 54t-39.5 149t30.5 179t98 137.5t173.5 53.5q54 0 108.5 -14.5zM224 348.5q-25 -73.5 -25 -168.5q0 -36 8.5 -49.5t23.5 -13.5q31 0 62 54l36 247q-15 4 -31 4q-49 0 -74 -73.5z" />
    <glyph glyph-name="uni1EB3" unicode="&#x1eb3;" horiz-adv-x="523" 
d="M420.5 538.5q54.5 -14.5 103.5 -42.5l-47 -328q-2 -20 -2 -27q0 -14 4.5 -22t16.5 -13l-56 -122q-46 4 -82 24t-50 56q-28 -41 -62.5 -62.5t-81.5 -21.5q-75 0 -114.5 54t-39.5 149t30.5 179t98 137.5t173.5 53.5q54 0 108.5 -14.5zM224 348.5q-25 -73.5 -25 -168.5
q0 -36 8.5 -49.5t23.5 -13.5q31 0 62 54l36 247q-15 4 -31 4q-49 0 -74 -73.5zM227.5 649.5q-36.5 46.5 -36.5 115.5q0 13 1 20l95 15q2 -30 17 -49t43 -19q55 0 81 70l97 -19q-15 -77 -63 -128.5t-125 -51.5q-73 0 -109.5 46.5zM317 884q36 2 52 11.5t16 29.5
q0 12 -6.5 17.5t-22.5 5.5q-24 0 -55 -13l-17 74q46 26 104 26q56 0 86 -27t30 -71q0 -42 -25 -69t-68 -36l-7 -50h-101z" />
    <glyph glyph-name="uni1EB5" unicode="&#x1eb5;" horiz-adv-x="523" 
d="M388.5 825q-13.5 6 -30.5 17q-3 2 -15 9t-22 7q-15 0 -26.5 -9.5t-25.5 -30.5l-78 41q27 52 64 85.5t77 33.5q20 0 34 -6.5t31 -17.5q21 -16 35 -16q13 0 24 9t25 30l78 -40q-25 -52 -63 -85t-78 -33q-16 0 -29.5 6zM231.5 649.5q-36.5 46.5 -36.5 115.5q0 13 1 20l95 15
q2 -30 17 -49t43 -19q55 0 81 70l97 -19q-15 -77 -63 -128.5t-125 -51.5q-73 0 -109.5 46.5zM420.5 538.5q54.5 -14.5 103.5 -42.5l-47 -328q-2 -20 -2 -27q0 -14 4.5 -22t16.5 -13l-56 -122q-46 4 -82 24t-50 56q-28 -41 -62.5 -62.5t-81.5 -21.5q-75 0 -114.5 54
t-39.5 149t30.5 179t98 137.5t173.5 53.5q54 0 108.5 -14.5zM224 348.5q-25 -73.5 -25 -168.5q0 -36 8.5 -49.5t23.5 -13.5q31 0 62 54l36 247q-15 4 -31 4q-49 0 -74 -73.5z" />
    <glyph glyph-name="uni01CE" unicode="&#x1ce;" horiz-adv-x="523" 
d="M420.5 538.5q54.5 -14.5 103.5 -42.5l-47 -328q-2 -20 -2 -27q0 -14 4.5 -22t16.5 -13l-56 -122q-46 4 -82 24t-50 56q-28 -41 -62.5 -62.5t-81.5 -21.5q-75 0 -114.5 54t-39.5 149t30.5 179t98 137.5t173.5 53.5q54 0 108.5 -14.5zM224 348.5q-25 -73.5 -25 -168.5
q0 -36 8.5 -49.5t23.5 -13.5q31 0 62 54l36 247q-15 4 -31 4q-49 0 -74 -73.5zM479 825l59 -73l-150 -148h-111l-109 148l68 73l108 -96z" />
    <glyph glyph-name="acircumflex" unicode="&#xe2;" horiz-adv-x="523" 
d="M420.5 538.5q54.5 -14.5 103.5 -42.5l-47 -328q-2 -20 -2 -27q0 -14 4.5 -22t16.5 -13l-56 -122q-46 4 -82 24t-50 56q-28 -41 -62.5 -62.5t-81.5 -21.5q-75 0 -114.5 54t-39.5 149t30.5 179t98 137.5t173.5 53.5q54 0 108.5 -14.5zM224 348.5q-25 -73.5 -25 -168.5
q0 -36 8.5 -49.5t23.5 -13.5q31 0 62 54l36 247q-15 4 -31 4q-49 0 -74 -73.5zM214 615l-58 73l151 148h111l113 -153l-74 -68l-108 96z" />
    <glyph glyph-name="uni1EA5" unicode="&#x1ea5;" horiz-adv-x="523" 
d="M591 988l87 -95l-179 -151l-63 60zM206 584l-61 74l150 138h111l115 -144l-72 -68l-111 87zM420.5 538.5q54.5 -14.5 103.5 -42.5l-47 -328q-2 -20 -2 -27q0 -14 4.5 -22t16.5 -13l-56 -122q-46 4 -82 24t-50 56q-28 -41 -62.5 -62.5t-81.5 -21.5q-75 0 -114.5 54
t-39.5 149t30.5 179t98 137.5t173.5 53.5q54 0 108.5 -14.5zM224 348.5q-25 -73.5 -25 -168.5q0 -36 8.5 -49.5t23.5 -13.5q31 0 62 54l36 247q-15 4 -31 4q-49 0 -74 -73.5z" />
    <glyph glyph-name="uni1EAD" unicode="&#x1ead;" horiz-adv-x="523" 
d="M420.5 538.5q54.5 -14.5 103.5 -42.5l-47 -328q-2 -20 -2 -27q0 -14 4.5 -22t16.5 -13l-56 -122q-46 4 -82 24t-50 56q-28 -41 -62.5 -62.5t-81.5 -21.5q-75 0 -114.5 54t-39.5 149t30.5 179t98 137.5t173.5 53.5q54 0 108.5 -14.5zM224 348.5q-25 -73.5 -25 -168.5
q0 -36 8.5 -49.5t23.5 -13.5q31 0 62 54l36 247q-15 4 -31 4q-49 0 -74 -73.5zM214 615l-58 73l151 148h111l113 -153l-74 -68l-108 96zM303 -78.5q25 -24.5 25 -64.5q0 -50 -34 -83t-83 -33q-43 0 -68 24.5t-25 64.5q0 50 33.5 83t83.5 33q43 0 68 -24.5z" />
    <glyph glyph-name="uni1EA7" unicode="&#x1ea7;" horiz-adv-x="523" 
d="M159 985l102 -188l-77 -55l-136 158zM207 584l-61 74l150 138h111l115 -144l-72 -68l-111 87zM420.5 538.5q54.5 -14.5 103.5 -42.5l-47 -328q-2 -20 -2 -27q0 -14 4.5 -22t16.5 -13l-56 -122q-46 4 -82 24t-50 56q-28 -41 -62.5 -62.5t-81.5 -21.5q-75 0 -114.5 54
t-39.5 149t30.5 179t98 137.5t173.5 53.5q54 0 108.5 -14.5zM224 348.5q-25 -73.5 -25 -168.5q0 -36 8.5 -49.5t23.5 -13.5q31 0 62 54l36 247q-15 4 -31 4q-49 0 -74 -73.5z" />
    <glyph glyph-name="uni1EA9" unicode="&#x1ea9;" horiz-adv-x="523" 
d="M420.5 538.5q54.5 -14.5 103.5 -42.5l-47 -328q-2 -20 -2 -27q0 -14 4.5 -22t16.5 -13l-56 -122q-46 4 -82 24t-50 56q-28 -41 -62.5 -62.5t-81.5 -21.5q-75 0 -114.5 54t-39.5 149t30.5 179t98 137.5t173.5 53.5q54 0 108.5 -14.5zM224 348.5q-25 -73.5 -25 -168.5
q0 -36 8.5 -49.5t23.5 -13.5q31 0 62 54l36 247q-15 4 -31 4q-49 0 -74 -73.5zM205 584l-61 74l150 138h111l115 -144l-72 -68l-111 87zM466 874q36 2 52 11.5t16 29.5q0 12 -6.5 17.5t-22.5 5.5q-24 0 -55 -13l-17 74q46 26 104 26q56 0 86 -27t30 -71q0 -42 -25 -69
t-68 -36l-7 -50h-101z" />
    <glyph glyph-name="uni1EAB" unicode="&#x1eab;" horiz-adv-x="523" 
d="M382.5 828q-13.5 6 -30.5 17q-3 2 -15 9t-22 7q-15 0 -26.5 -9.5t-25.5 -30.5l-78 41q27 52 64 85.5t77 33.5q20 0 34 -6.5t31 -17.5q21 -16 35 -16q13 0 24 9t25 30l78 -40q-25 -52 -63 -85t-78 -33q-16 0 -29.5 6zM204 583l-61 74l150 138h111l115 -144l-72 -68
l-111 87zM420.5 538.5q54.5 -14.5 103.5 -42.5l-47 -328q-2 -20 -2 -27q0 -14 4.5 -22t16.5 -13l-56 -122q-46 4 -82 24t-50 56q-28 -41 -62.5 -62.5t-81.5 -21.5q-75 0 -114.5 54t-39.5 149t30.5 179t98 137.5t173.5 53.5q54 0 108.5 -14.5zM224 348.5
q-25 -73.5 -25 -168.5q0 -36 8.5 -49.5t23.5 -13.5q31 0 62 54l36 247q-15 4 -31 4q-49 0 -74 -73.5z" />
    <glyph glyph-name="uni0201" unicode="&#x201;" horiz-adv-x="523" 
d="M420.5 538.5q54.5 -14.5 103.5 -42.5l-47 -328q-2 -20 -2 -27q0 -14 4.5 -22t16.5 -13l-56 -122q-46 4 -82 24t-50 56q-28 -41 -62.5 -62.5t-81.5 -21.5q-75 0 -114.5 54t-39.5 149t30.5 179t98 137.5t173.5 53.5q54 0 108.5 -14.5zM224 348.5q-25 -73.5 -25 -168.5
q0 -36 8.5 -49.5t23.5 -13.5q31 0 62 54l36 247q-15 4 -31 4q-49 0 -74 -73.5zM249 874l66 -211l-98 -42l-95 197zM420 874l59 -213l-98 -36l-88 198z" />
    <glyph glyph-name="adieresis" unicode="&#xe4;" horiz-adv-x="523" 
d="M420.5 538.5q54.5 -14.5 103.5 -42.5l-47 -328q-2 -20 -2 -27q0 -14 4.5 -22t16.5 -13l-56 -122q-46 4 -82 24t-50 56q-28 -41 -62.5 -62.5t-81.5 -21.5q-75 0 -114.5 54t-39.5 149t30.5 179t98 137.5t173.5 53.5q54 0 108.5 -14.5zM224 348.5q-25 -73.5 -25 -168.5
q0 -36 8.5 -49.5t23.5 -13.5q31 0 62 54l36 247q-15 4 -31 4q-49 0 -74 -73.5zM167.5 656.5q-21.5 21.5 -21.5 56.5q0 43 29.5 72t71.5 29q38 0 59.5 -21.5t21.5 -56.5q0 -43 -29.5 -72t-72.5 -29q-37 0 -58.5 21.5zM390.5 656.5q-21.5 21.5 -21.5 56.5q0 43 29 72t72 29
q37 0 58.5 -21.5t21.5 -56.5q0 -43 -29 -72t-72 -29q-37 0 -58.5 21.5z" />
    <glyph glyph-name="uni01DF" unicode="&#x1df;" horiz-adv-x="523" 
d="M420.5 538.5q54.5 -14.5 103.5 -42.5l-47 -328q-2 -20 -2 -27q0 -14 4.5 -22t16.5 -13l-56 -122q-46 4 -82 24t-50 56q-28 -41 -62.5 -62.5t-81.5 -21.5q-75 0 -114.5 54t-39.5 149t30.5 179t98 137.5t173.5 53.5q54 0 108.5 -14.5zM224 348.5q-25 -73.5 -25 -168.5
q0 -36 8.5 -49.5t23.5 -13.5q31 0 62 54l36 247q-15 4 -31 4q-49 0 -74 -73.5zM162.5 612.5q-21.5 21.5 -21.5 56.5q0 43 29.5 72t71.5 29q38 0 59.5 -21.5t21.5 -56.5q0 -43 -29.5 -72t-72.5 -29q-37 0 -58.5 21.5zM385.5 612.5q-21.5 21.5 -21.5 56.5q0 43 29 72t72 29
q37 0 58.5 -21.5t21.5 -56.5q0 -43 -29 -72t-72 -29q-37 0 -58.5 21.5zM503 807h-292l19 130h293z" />
    <glyph glyph-name="uni0227" unicode="&#x227;" horiz-adv-x="523" 
d="M420.5 538.5q54.5 -14.5 103.5 -42.5l-47 -328q-2 -20 -2 -27q0 -14 4.5 -22t16.5 -13l-56 -122q-46 4 -82 24t-50 56q-28 -41 -62.5 -62.5t-81.5 -21.5q-75 0 -114.5 54t-39.5 149t30.5 179t98 137.5t173.5 53.5q54 0 108.5 -14.5zM224 348.5q-25 -73.5 -25 -168.5
q0 -36 8.5 -49.5t23.5 -13.5q31 0 62 54l36 247q-15 4 -31 4q-49 0 -74 -73.5zM269 644.5q-25 24.5 -25 64.5q0 50 34 83t83 33q43 0 68 -24.5t25 -64.5q0 -50 -33.5 -83t-83.5 -33q-43 0 -68 24.5z" />
    <glyph glyph-name="uni1EA1" unicode="&#x1ea1;" horiz-adv-x="523" 
d="M420.5 538.5q54.5 -14.5 103.5 -42.5l-47 -328q-2 -20 -2 -27q0 -14 4.5 -22t16.5 -13l-56 -122q-46 4 -82 24t-50 56q-28 -41 -62.5 -62.5t-81.5 -21.5q-75 0 -114.5 54t-39.5 149t30.5 179t98 137.5t173.5 53.5q54 0 108.5 -14.5zM224 348.5q-25 -73.5 -25 -168.5
q0 -36 8.5 -49.5t23.5 -13.5q31 0 62 54l36 247q-15 4 -31 4q-49 0 -74 -73.5zM303 -78.5q25 -24.5 25 -64.5q0 -50 -34 -83t-83 -33q-43 0 -68 24.5t-25 64.5q0 50 33.5 83t83.5 33q43 0 68 -24.5z" />
    <glyph glyph-name="uni01E1" unicode="&#x1e1;" horiz-adv-x="523" 
d="M420.5 538.5q54.5 -14.5 103.5 -42.5l-47 -328q-2 -20 -2 -27q0 -14 4.5 -22t16.5 -13l-56 -122q-46 4 -82 24t-50 56q-28 -41 -62.5 -62.5t-81.5 -21.5q-75 0 -114.5 54t-39.5 149t30.5 179t98 137.5t173.5 53.5q54 0 108.5 -14.5zM224 348.5q-25 -73.5 -25 -168.5
q0 -36 8.5 -49.5t23.5 -13.5q31 0 62 54l36 247q-15 4 -31 4q-49 0 -74 -73.5zM262 612.5q-25 24.5 -25 64.5q0 50 34 83t83 33q43 0 68 -24.5t25 -64.5q0 -50 -33.5 -83t-83.5 -33q-43 0 -68 24.5zM503 823h-292l19 130h293z" />
    <glyph glyph-name="agrave" unicode="&#xe0;" horiz-adv-x="523" 
d="M420.5 538.5q54.5 -14.5 103.5 -42.5l-47 -328q-2 -20 -2 -27q0 -14 4.5 -22t16.5 -13l-56 -122q-46 4 -82 24t-50 56q-28 -41 -62.5 -62.5t-81.5 -21.5q-75 0 -114.5 54t-39.5 149t30.5 179t98 137.5t173.5 53.5q54 0 108.5 -14.5zM224 348.5q-25 -73.5 -25 -168.5
q0 -36 8.5 -49.5t23.5 -13.5q31 0 62 54l36 247q-15 4 -31 4q-49 0 -74 -73.5zM301 846l192 -143l-53 -85l-218 95z" />
    <glyph glyph-name="uni1EA3" unicode="&#x1ea3;" horiz-adv-x="523" 
d="M420.5 538.5q54.5 -14.5 103.5 -42.5l-47 -328q-2 -20 -2 -27q0 -14 4.5 -22t16.5 -13l-56 -122q-46 4 -82 24t-50 56q-28 -41 -62.5 -62.5t-81.5 -21.5q-75 0 -114.5 54t-39.5 149t30.5 179t98 137.5t173.5 53.5q54 0 108.5 -14.5zM224 348.5q-25 -73.5 -25 -168.5
q0 -36 8.5 -49.5t23.5 -13.5q31 0 62 54l36 247q-15 4 -31 4q-49 0 -74 -73.5zM295 704q36 2 52 11.5t16 29.5q0 12 -6.5 17.5t-22.5 5.5q-24 0 -55 -13l-17 74q46 26 104 26q56 0 86 -27t30 -71q0 -42 -25 -69t-68 -36l-7 -50h-101z" />
    <glyph glyph-name="uni0203" unicode="&#x203;" horiz-adv-x="523" 
d="M420.5 538.5q54.5 -14.5 103.5 -42.5l-47 -328q-2 -20 -2 -27q0 -14 4.5 -22t16.5 -13l-56 -122q-46 4 -82 24t-50 56q-28 -41 -62.5 -62.5t-81.5 -21.5q-75 0 -114.5 54t-39.5 149t30.5 179t98 137.5t173.5 53.5q54 0 108.5 -14.5zM224 348.5q-25 -73.5 -25 -168.5
q0 -36 8.5 -49.5t23.5 -13.5q31 0 62 54l36 247q-15 4 -31 4q-49 0 -74 -73.5zM164 613q17 83 66.5 136.5t127.5 53.5q75 0 111 -47.5t36 -122.5q0 -14 -1 -22l-99 -14q-5 77 -60 77q-30 0 -52 -21.5t-34 -58.5z" />
    <glyph glyph-name="uni0251" unicode="&#x251;" horiz-adv-x="524" 
d="M475 143q0 -15 4.5 -23.5t16.5 -13.5l-55 -122q-47 4 -82.5 24t-49.5 56q-28 -41 -62.5 -62.5t-81.5 -21.5q-76 0 -115 54t-39 149q0 99 29.5 183.5t85.5 135.5t132 51q42 -1 70.5 -16.5t45.5 -49.5l25 47h129l-51 -366q-2 -20 -2 -25zM323 389q-15 33 -42 33
q-39 0 -60 -72.5t-21 -168.5q0 -37 8.5 -50.5t23.5 -13.5q29 0 62 54z" />
    <glyph glyph-name="uni0252" unicode="&#x252;" horiz-adv-x="524" 
d="M474 500q39 -54 39 -149q0 -99 -29.5 -183.5t-85.5 -135.5t-132 -51q-42 1 -70.5 16.5t-45.5 49.5l-25 -47h-129l51 366q2 20 2 25q0 15 -4.5 23.5t-16.5 13.5l55 122q47 -4 82.5 -24t49.5 -56q28 41 62.5 62.5t81.5 21.5q76 0 115 -54zM303 184.5q21 72.5 21 168.5
q0 37 -8.5 50.5t-23.5 13.5q-29 0 -62 -54l-29 -218q15 -33 42 -33q39 0 60 72.5z" />
    <glyph glyph-name="amacron" unicode="&#x101;" horiz-adv-x="523" 
d="M420.5 538.5q54.5 -14.5 103.5 -42.5l-47 -328q-2 -20 -2 -27q0 -14 4.5 -22t16.5 -13l-56 -122q-46 4 -82 24t-50 56q-28 -41 -62.5 -62.5t-81.5 -21.5q-75 0 -114.5 54t-39.5 149t30.5 179t98 137.5t173.5 53.5q54 0 108.5 -14.5zM224 348.5q-25 -73.5 -25 -168.5
q0 -36 8.5 -49.5t23.5 -13.5q31 0 62 54l36 247q-15 4 -31 4q-49 0 -74 -73.5zM483 649h-292l19 130h293z" />
    <glyph glyph-name="aogonek" unicode="&#x105;" horiz-adv-x="523" 
d="M475 141q0 -14 4.5 -22t16.5 -13l-56 -122q-66 -25 -91 -54t-25 -54q0 -33 40 -33q15 0 53 6l-26 -109q-30 -8 -67 -8q-57 0 -93.5 30t-36.5 83q0 55 37 97.5t113 74.5q-24 18 -36 47q-28 -41 -62.5 -62.5t-81.5 -21.5q-75 0 -114.5 54t-39.5 149t30.5 179t98 137.5
t173.5 53.5q54 0 108.5 -14.5t103.5 -42.5l-47 -328q-2 -20 -2 -27zM329 418q-15 4 -31 4q-49 0 -74 -73.5t-25 -168.5q0 -36 8.5 -49.5t23.5 -13.5q31 0 62 54z" />
    <glyph glyph-name="aring" unicode="&#xe5;" horiz-adv-x="523" 
d="M420.5 538.5q54.5 -14.5 103.5 -42.5l-47 -328q-2 -20 -2 -27q0 -14 4.5 -22t16.5 -13l-56 -122q-46 4 -82 24t-50 56q-28 -41 -62.5 -62.5t-81.5 -21.5q-75 0 -114.5 54t-39.5 149t30.5 179t98 137.5t173.5 53.5q54 0 108.5 -14.5zM224 348.5q-25 -73.5 -25 -168.5
q0 -36 8.5 -49.5t23.5 -13.5q31 0 62 54l36 247q-15 4 -31 4q-49 0 -74 -73.5zM459.5 846q32.5 -35 32.5 -92q0 -42 -19.5 -78.5t-56 -58t-84.5 -21.5q-59 0 -91.5 35t-32.5 92q0 41 20 77.5t56.5 58.5t83.5 22q59 0 91.5 -35zM324 770q-13 -18 -13 -42q0 -38 31 -38
q21 0 34 18t13 41q0 39 -30 39q-22 0 -35 -18z" />
    <glyph glyph-name="aringacute" unicode="&#x1fb;" horiz-adv-x="523" 
d="M420.5 538.5q54.5 -14.5 103.5 -42.5l-47 -328q-2 -20 -2 -27q0 -14 4.5 -22t16.5 -13l-56 -122q-46 4 -82 24t-50 56q-28 -41 -62.5 -62.5t-81.5 -21.5q-75 0 -114.5 54t-39.5 149t30.5 179t98 137.5t173.5 53.5q54 0 108.5 -14.5zM224 348.5q-25 -73.5 -25 -168.5
q0 -36 8.5 -49.5t23.5 -13.5q31 0 62 54l36 247q-15 4 -31 4q-49 0 -74 -73.5zM456.5 824q32.5 -35 32.5 -92q0 -42 -19.5 -78.5t-56 -58t-84.5 -21.5q-59 0 -91.5 35t-32.5 92q0 41 20 77.5t56.5 58.5t83.5 22q59 0 91.5 -35zM321 748q-13 -18 -13 -42q0 -38 31 -38
q21 0 34 18t13 41q0 39 -30 39q-22 0 -35 -18zM452 1082l59 -134l-240 -88l-42 89z" />
    <glyph glyph-name="uni2C65" unicode="&#x2c65;" horiz-adv-x="523" 
d="M475 141q0 -14 4.5 -22t16.5 -13l-56 -122q-46 4 -82 24t-50 56q-26 -37 -56 -58t-70 -25l-21 -57l-54 15l17 46q-56 13 -85 65t-29 133q0 95 30.5 179t98 137.5t173.5 53.5q17 0 26 -1l19 51l53 -15l-16 -43q66 -13 130 -49l-47 -328q-2 -20 -2 -27zM190 160l102 272
q-53 -6 -77.5 -82.5t-24.5 -174.5v-15zM334 386l-104 -279q19 1 38 16.5t34 43.5z" />
    <glyph glyph-name="atilde" unicode="&#xe3;" horiz-adv-x="523" 
d="M420.5 538.5q54.5 -14.5 103.5 -42.5l-47 -328q-2 -20 -2 -27q0 -14 4.5 -22t16.5 -13l-56 -122q-46 4 -82 24t-50 56q-28 -41 -62.5 -62.5t-81.5 -21.5q-75 0 -114.5 54t-39.5 149t30.5 179t98 137.5t173.5 53.5q54 0 108.5 -14.5zM224 348.5q-25 -73.5 -25 -168.5
q0 -36 8.5 -49.5t23.5 -13.5q31 0 62 54l36 247q-15 4 -31 4q-49 0 -74 -73.5zM361 631.5q-14 6.5 -31 18.5q-13 9 -21.5 13.5t-16.5 4.5q-15 0 -26.5 -10.5t-26.5 -33.5l-79 46q27 57 64.5 94t78.5 37q20 0 34 -7t33 -20q11 -9 19 -13t16 -4q14 0 25 10t25 33l80 -44
q-26 -57 -64.5 -94t-79.5 -37q-16 0 -30 6.5z" />
    <glyph glyph-name="uni0250" unicode="&#x250;" horiz-adv-x="489" 
d="M204 177q-2 -16 -2 -22q0 -22 12 -30.5t42 -8.5q54 0 116 23l35 -118q-43 -20 -96 -30t-102 -10q-96 0 -144.5 36.5t-48.5 112.5q0 18 3 39l27 196q2 20 2 25q0 15 -5 23.5t-16 13.5l55 122q96 -8 125 -67q59 71 149 71q63 0 100 -39.5t37 -105.5q0 -102 -71 -154.5
t-187 -52.5h-28zM232 390l-11 -89h12q36 0 56 20.5t20 59.5q0 38 -28 38q-26 0 -49 -29z" />
    <glyph glyph-name="ae" unicode="&#xe6;" horiz-adv-x="770" 
d="M352.5 538.5q32.5 -14.5 56.5 -43.5q32 27 76.5 42.5t95.5 15.5q90 0 141.5 -41t51.5 -106q0 -103 -88.5 -152t-220.5 -63q1 -42 17.5 -58.5t50.5 -16.5q28 0 55 11.5t64 35.5l63 -107q-95 -76 -210 -76q-131 0 -185 81q-38 -44 -80.5 -62t-91.5 -18q-69 0 -110.5 39.5
t-41.5 104.5q0 86 59.5 144.5t206.5 58.5h36q7 23 16 44q-4 22 -24.5 33t-50.5 11q-59 0 -128 -25l-25 122q48 19 96.5 29.5t87.5 10.5q50 0 82.5 -14.5zM505.5 394.5q-21.5 -37.5 -31.5 -95.5q64 5 91 36t27 63q0 34 -33 34q-32 0 -53.5 -37.5zM261 224q-32 0 -50.5 -18
t-18.5 -51q0 -41 32 -41q14 0 28 11t32 34q-2 24 -2 39l1 26h-22z" />
    <glyph glyph-name="aeacute" unicode="&#x1fd;" horiz-adv-x="770" 
d="M352.5 538.5q32.5 -14.5 56.5 -43.5q32 27 76.5 42.5t95.5 15.5q90 0 141.5 -41t51.5 -106q0 -103 -88.5 -152t-220.5 -63q1 -42 17.5 -58.5t50.5 -16.5q28 0 55 11.5t64 35.5l63 -107q-95 -76 -210 -76q-131 0 -185 81q-38 -44 -80.5 -62t-91.5 -18q-69 0 -110.5 39.5
t-41.5 104.5q0 86 59.5 144.5t206.5 58.5h36q7 23 16 44q-4 22 -24.5 33t-50.5 11q-59 0 -128 -25l-25 122q48 19 96.5 29.5t87.5 10.5q50 0 82.5 -14.5zM505.5 394.5q-21.5 -37.5 -31.5 -95.5q64 5 91 36t27 63q0 34 -33 34q-32 0 -53.5 -37.5zM261 224q-32 0 -50.5 -18
t-18.5 -51q0 -41 32 -41q14 0 28 11t32 34q-2 24 -2 39l1 26h-22zM528 847l59 -134l-239 -98l-45 91z" />
    <glyph glyph-name="uni01E3" unicode="&#x1e3;" horiz-adv-x="770" 
d="M352.5 538.5q32.5 -14.5 56.5 -43.5q32 27 76.5 42.5t95.5 15.5q90 0 141.5 -41t51.5 -106q0 -103 -88.5 -152t-220.5 -63q1 -42 17.5 -58.5t50.5 -16.5q28 0 55 11.5t64 35.5l63 -107q-95 -76 -210 -76q-131 0 -185 81q-38 -44 -80.5 -62t-91.5 -18q-69 0 -110.5 39.5
t-41.5 104.5q0 86 59.5 144.5t206.5 58.5h36q7 23 16 44q-4 22 -24.5 33t-50.5 11q-59 0 -128 -25l-25 122q48 19 96.5 29.5t87.5 10.5q50 0 82.5 -14.5zM505.5 394.5q-21.5 -37.5 -31.5 -95.5q64 5 91 36t27 63q0 34 -33 34q-32 0 -53.5 -37.5zM261 224q-32 0 -50.5 -18
t-18.5 -51q0 -41 32 -41q14 0 28 11t32 34q-2 24 -2 39l1 26h-22zM583 649h-292l19 130h293z" />
    <glyph glyph-name="b" unicode="b" horiz-adv-x="534" 
d="M486.5 504q36.5 -49 36.5 -141q0 -169 -71 -276t-237 -107q-106 0 -215 48l100 716l188 20l-38 -269q24 27 58.5 42.5t71.5 15.5q70 0 106.5 -49zM234 370l-34 -246q18 -8 39 -8q47 0 70.5 74t23.5 161q0 39 -9 52.5t-26 13.5q-33 0 -64 -47z" />
    <glyph glyph-name="uni1E03" unicode="&#x1e03;" horiz-adv-x="534" 
d="M486.5 504q36.5 -49 36.5 -141q0 -169 -71 -276t-237 -107q-106 0 -215 48l100 716l188 20l-38 -269q24 27 58.5 42.5t71.5 15.5q70 0 106.5 -49zM234 370l-34 -246q18 -8 39 -8q47 0 70.5 74t23.5 161q0 39 -9 52.5t-26 13.5q-33 0 -64 -47zM306 818.5
q-25 24.5 -25 64.5q0 50 34 83t83 33q43 0 68 -24.5t25 -64.5q0 -50 -33.5 -83t-83.5 -33q-43 0 -68 24.5z" />
    <glyph glyph-name="uni1E05" unicode="&#x1e05;" horiz-adv-x="534" 
d="M486.5 504q36.5 -49 36.5 -141q0 -169 -71 -276t-237 -107q-106 0 -215 48l100 716l188 20l-38 -269q24 27 58.5 42.5t71.5 15.5q70 0 106.5 -49zM234 370l-34 -246q18 -8 39 -8q47 0 70.5 74t23.5 161q0 39 -9 52.5t-26 13.5q-33 0 -64 -47zM281 -78.5
q25 -24.5 25 -64.5q0 -50 -34 -83t-83 -33q-43 0 -68 24.5t-25 64.5q0 50 33.5 83t83.5 33q43 0 68 -24.5z" />
    <glyph glyph-name="uniA7B5" unicode="&#xa7b5;" horiz-adv-x="546" 
d="M74 555q14 99 81.5 153.5t169.5 54.5q63 0 108.5 -23t69 -62.5t23.5 -87.5q0 -63 -33.5 -114t-112.5 -71q61 -3 104.5 -40.5t43.5 -114.5q0 -59 -24.5 -121t-77.5 -105t-133 -43q-72 0 -116 41l-31 -227l-182 -21zM319 165.5q23 41.5 23 91.5q0 44 -18 61t-50 17h-27
l28 125h8q29 0 43.5 36t14.5 83q0 54 -34 54q-42 0 -55 -78l-58 -416q23 -15 56 -15q46 0 69 41.5z" />
    <glyph glyph-name="uni0253" unicode="&#x253;" horiz-adv-x="534" 
d="M486.5 504q36.5 -49 36.5 -141q0 -169 -71 -276t-237 -107q-106 0 -215 48l70 505l7 47q12 81 70 132t157 51q39 0 77 -10.5t64 -26.5l-65 -117q-34 17 -65 17q-24 0 -37 -14t-17 -47l-5 -32l-4 -39q22 27 56.5 43t70.5 16q71 0 107.5 -49zM309.5 190q23.5 74 23.5 161
q0 39 -9 52.5t-26 13.5q-33 0 -64 -47l-34 -246q18 -8 39 -8q47 0 70.5 74z" />
    <glyph glyph-name="uni02AD" unicode="&#x2ad;" horiz-adv-x="350" 
d="M337 400h-106l11 85h-73l-12 -85h-107l25 172h286zM280 -1h-106l11 85h-73l-12 -85h-107l25 172h286z" />
    <glyph glyph-name="uni0298" unicode="&#x298;" horiz-adv-x="722" 
d="M581 679q67 -36 102.5 -102.5t35.5 -156.5q0 -130 -49.5 -230t-139 -154.5t-206.5 -54.5q-91 0 -158 36.5t-103 103.5t-36 158q0 131 50.5 230t140.5 152.5t205 53.5q91 0 158 -36zM259.5 499q-49.5 -89 -49.5 -231q0 -160 128 -160q98 0 148 87.5t50 228.5
q0 83 -33.5 123.5t-92.5 40.5q-101 0 -150.5 -89zM309 278q-20 20 -20 52q0 40 27.5 67t66.5 27q35 0 55 -20t20 -52q0 -40 -27 -67t-67 -27q-35 0 -55 20z" />
    <glyph glyph-name="uni02AC" unicode="&#x2ac;" horiz-adv-x="425" 
d="M450 669l-88 -269h-103l4 194l-55 -194h-101l-19 269h70l9 -210l59 210h95l-2 -211l62 211h69zM394 269l-88 -269h-103l4 194l-55 -194h-101l-19 269h70l9 -210l59 210h95l-2 -211l62 211h69z" />
    <glyph glyph-name="uni0180" unicode="&#x180;" horiz-adv-x="544" 
d="M496.5 504q36.5 -49 36.5 -141q0 -169 -71 -276t-237 -107q-106 0 -215 48l79 564h-43l15 103h42l7 49l188 20l-10 -69h115l-30 -103h-99l-14 -97q24 27 58.5 42.5t71.5 15.5q70 0 106.5 -49zM319.5 190q23.5 74 23.5 161q0 39 -9 52.5t-26 13.5q-33 0 -64 -47l-34 -246
q18 -8 39 -8q47 0 70.5 74z" />
    <glyph glyph-name="uni0183" unicode="&#x183;" horiz-adv-x="535" 
d="M485.5 484q36.5 -50 36.5 -146q0 -153 -70.5 -255.5t-236.5 -102.5q-106 0 -215 48l100 716h378l-40 -134h-171l-19 -135q24 27 59 43t73 16q69 0 105.5 -50zM292 151.5q21 35.5 31 85t10 91.5q0 41 -9 55t-26 14q-16 0 -34 -11.5t-33 -34.5l-31 -227q18 -8 39 -8
q32 0 53 35.5z" />
    <glyph glyph-name="c" unicode="c" horiz-adv-x="432" 
d="M472 482l-88 -103q-38 32 -75 32q-55 0 -78.5 -62t-23.5 -144q0 -45 15 -62t43 -17q18 0 36.5 7.5t45.5 23.5l65 -113q-80 -64 -179 -64q-103 0 -161.5 61.5t-58.5 167.5q0 90 33.5 168.5t99 127t158.5 48.5q103 0 168 -71z" />
    <glyph glyph-name="cacute" unicode="&#x107;" horiz-adv-x="432" 
d="M472 482l-88 -103q-38 32 -75 32q-55 0 -78.5 -62t-23.5 -144q0 -45 15 -62t43 -17q18 0 36.5 7.5t45.5 23.5l65 -113q-80 -64 -179 -64q-103 0 -161.5 61.5t-58.5 167.5q0 90 33.5 168.5t99 127t158.5 48.5q103 0 168 -71zM405 847l59 -134l-239 -98l-45 91z" />
    <glyph glyph-name="ccaron" unicode="&#x10d;" horiz-adv-x="432" 
d="M472 482l-88 -103q-38 32 -75 32q-55 0 -78.5 -62t-23.5 -144q0 -45 15 -62t43 -17q18 0 36.5 7.5t45.5 23.5l65 -113q-80 -64 -179 -64q-103 0 -161.5 61.5t-58.5 167.5q0 90 33.5 168.5t99 127t158.5 48.5q103 0 168 -71zM456 825l59 -73l-150 -148h-111l-109 148
l68 73l108 -96z" />
    <glyph glyph-name="ccedilla" unicode="&#xe7;" horiz-adv-x="432" 
d="M264 -18l-5 -29q42 -6 64.5 -28.5t22.5 -61.5q0 -31 -16 -62t-53.5 -52t-97.5 -21q-34 0 -62 9.5t-48 24.5l51 79q27 -15 55 -15q42 0 43 29q0 15 -18.5 21t-61.5 6l27 106q-73 19 -112.5 76.5t-39.5 144.5q0 90 33.5 168.5t99 127t158.5 48.5q103 0 168 -71l-88 -103
q-38 32 -75 32q-55 0 -78.5 -62t-23.5 -144q0 -45 15 -62t43 -17q18 0 36.5 7.5t45.5 23.5l65 -113q-70 -55 -148 -62z" />
    <glyph glyph-name="ccircumflex" unicode="&#x109;" horiz-adv-x="432" 
d="M472 482l-88 -103q-38 32 -75 32q-55 0 -78.5 -62t-23.5 -144q0 -45 15 -62t43 -17q18 0 36.5 7.5t45.5 23.5l65 -113q-80 -64 -179 -64q-103 0 -161.5 61.5t-58.5 167.5q0 90 33.5 168.5t99 127t158.5 48.5q103 0 168 -71zM191 615l-58 73l151 148h111l113 -153l-74 -68
l-108 96z" />
    <glyph glyph-name="uni0255" unicode="&#x255;" horiz-adv-x="468" 
d="M419 235q30 -29 30 -81q0 -83 -56.5 -128t-144.5 -45q-33 0 -61 5l-40 -75l-75 34l40 71q-48 26 -73.5 76t-25.5 121q0 88 33.5 166t99.5 126t158 48q104 0 169 -71l-89 -103q-36 32 -75 32q-54 0 -78 -62t-24 -144l1 -27q26 45 59 65.5t74 20.5q48 0 78 -29z
M318.5 121.5q11.5 10.5 12.5 30.5q0 19 -17 19q-29 0 -57 -56q15 -4 32 -4q18 0 29.5 10.5z" />
    <glyph glyph-name="cdotaccent" unicode="&#x10b;" horiz-adv-x="432" 
d="M472 482l-88 -103q-38 32 -75 32q-55 0 -78.5 -62t-23.5 -144q0 -45 15 -62t43 -17q18 0 36.5 7.5t45.5 23.5l65 -113q-80 -64 -179 -64q-103 0 -161.5 61.5t-58.5 167.5q0 90 33.5 168.5t99 127t158.5 48.5q103 0 168 -71zM246 644.5q-25 24.5 -25 64.5q0 50 34 83
t83 33q43 0 68 -24.5t25 -64.5q0 -50 -33.5 -83t-83.5 -33q-43 0 -68 24.5z" />
    <glyph glyph-name="uni0188" unicode="&#x188;" horiz-adv-x="431" 
d="M645 725l-64 -114q-27 15 -52 15q-20 0 -29.5 -13.5t-14.5 -43.5l-13 -87l-80 -95q-42 24 -83 24q-55 0 -78.5 -62t-23.5 -144q0 -45 15 -62t43 -17q18 0 36.5 7.5t45.5 23.5l65 -113q-80 -64 -179 -64q-103 0 -161.5 61.5t-58.5 167.5q0 88 32.5 167.5t93 128
t139.5 48.5q26 0 47 -7l9 58q12 76 56.5 117.5t124.5 41.5q75 0 130 -38z" />
    <glyph glyph-name="uni0297" unicode="&#x297;" horiz-adv-x="443" 
d="M485 482l-88 -101q-36 30 -71 30q-46 0 -76 -56.5t-44 -142t-14 -172.5q0 -71 14 -95.5t43 -24.5q19 0 37.5 7t42.5 23l65 -112q-80 -64 -177 -64q-104 0 -161 68.5t-57 197.5q0 144 38.5 261t112 184.5t172.5 67.5q101 0 163 -71z" />
    <glyph glyph-name="uni023C" unicode="&#x23c;" horiz-adv-x="432" 
d="M301.5 133.5q18.5 7.5 45.5 23.5l65 -113q-80 -64 -179 -64q-11 0 -31 2l-22 -58l-54 15l21 55q-65 23 -99.5 78.5t-34.5 136.5q0 90 33.5 168.5t99 127t158.5 48.5q25 0 50 -5l21 55l54 -15l-21 -57q33 -17 64 -49l-88 -103q-10 9 -26 19l-102 -272h9q18 0 36.5 7.5z
M211 166l92 245q-52 -4 -74 -65t-22 -141q0 -26 4 -39z" />
    <glyph glyph-name="d" unicode="d" horiz-adv-x="535" 
d="M568 744l-104 -744h-165l1 62q-28 -39 -61.5 -60.5t-79.5 -21.5q-73 0 -111 52.5t-38 150.5q0 91 27 176t81.5 139.5t130.5 54.5q63 0 100 -43l35 253zM240 380q-20 -38 -29.5 -92t-9.5 -103q0 -40 8.5 -54t23.5 -14q30 0 70 64l30 214q-18 23 -42 23q-31 0 -51 -38z" />
    <glyph glyph-name="eth" unicode="&#xf0;" horiz-adv-x="530" 
d="M486 541q31 -72 31 -162q0 -111 -34.5 -201.5t-100.5 -143.5t-159 -53q-96 0 -155 56t-59 155q0 68 28 135.5t78.5 110.5t115.5 43q35 0 60.5 -10t47.5 -30q-7 42 -21 72t-41 58l-50 -49l-101 53l53 52q-41 12 -69 17l50 118q56 -9 125 -34l80 80l81 -76l-58 -61
q67 -58 98 -130zM287 142q17 26 25 68t17 117q-21 25 -52 25q-42 0 -62 -55t-20 -117q0 -35 11.5 -49.5t33.5 -14.5q30 0 47 26z" />
    <glyph glyph-name="uni0238" unicode="&#x238;" horiz-adv-x="784" 
d="M740.5 501.5q33.5 -51.5 33.5 -145.5q0 -95 -28 -181.5t-79.5 -140t-119.5 -53.5q-32 0 -59 19t-44 58l-17 -58h-145v60q-49 -79 -125 -79q-72 0 -109 53.5t-37 150.5q0 93 28.5 177.5t80.5 137.5t120 53q29 0 52.5 -14.5t38.5 -43.5l34 249l189 19l-38 -273
q25 29 57.5 46t68.5 17q65 0 98.5 -51.5zM285 167l31 220q-14 30 -38 30q-35 0 -55.5 -70.5t-20.5 -154.5q0 -43 8.5 -59t23.5 -16q26 0 51 50zM562 189.5q20 73.5 20 155.5q0 41 -7.5 56t-21.5 15q-22 0 -52 -38l-30 -218q7 -24 16 -34t21 -10q34 0 54 73.5z" />
    <glyph glyph-name="dcaron" unicode="&#x10f;" horiz-adv-x="647" 
d="M568 744l-104 -744h-165l1 62q-28 -39 -61.5 -60.5t-79.5 -21.5q-73 0 -111 52.5t-38 150.5q0 91 27 176t81.5 139.5t130.5 54.5q63 0 100 -43l35 253zM240 380q-20 -38 -29.5 -92t-9.5 -103q0 -40 8.5 -54t23.5 -14q30 0 70 64l30 214q-18 23 -42 23q-31 0 -51 -38z
M605 759l129 -16l-76 -231l-92 8z" />
    <glyph glyph-name="uni1E13" unicode="&#x1e13;" horiz-adv-x="535" 
d="M568 744l-104 -744h-165l1 62q-28 -39 -61.5 -60.5t-79.5 -21.5q-73 0 -111 52.5t-38 150.5q0 91 27 176t81.5 139.5t130.5 54.5q63 0 100 -43l35 253zM240 380q-20 -38 -29.5 -92t-9.5 -103q0 -40 8.5 -54t23.5 -14q30 0 70 64l30 214q-18 23 -42 23q-31 0 -51 -38z
M83 -282l-59 73l151 148h111l113 -153l-74 -68l-108 96z" />
    <glyph glyph-name="dcroat" unicode="&#x111;" horiz-adv-x="545" 
d="M605 694l-15 -103h-43l-83 -591h-165l1 62q-28 -39 -61.5 -60.5t-79.5 -21.5q-73 0 -111 52.5t-38 150.5q0 91 27 176t81.5 139.5t130.5 54.5q63 0 100 -43l11 81h-98l3 103h109l10 69l184 -19l-7 -50h44zM333 395q-18 23 -42 23q-31 0 -51 -38t-29.5 -92t-9.5 -103
q0 -40 8.5 -54t23.5 -14q30 0 70 64z" />
    <glyph glyph-name="uni0221" unicode="&#x221;" horiz-adv-x="740" 
d="M693 227q29 -28 29 -76q0 -83 -56 -126.5t-144 -43.5q-15 0 -39 2l-38 -72l-74 34l32 56q-61 26 -86 80q-65 -101 -158 -101q-73 0 -111 52t-38 151q0 92 27 176.5t81.5 139t133.5 54.5q60 0 97 -43l35 253l184 -19l-79 -566q-2 -17 -1 -24q26 56 56 78.5t75 22.5t74 -28
zM333 394q-9 12 -19 18t-23 6q-31 0 -51 -38t-29.5 -92t-9.5 -103q0 -40 8.5 -54t24.5 -14q29 0 69 66zM593.5 120.5q11.5 9.5 11.5 26.5q0 16 -14 16q-11 0 -20.5 -11.5t-22.5 -40.5h15q19 0 30.5 9.5z" />
    <glyph glyph-name="uni1E0B" unicode="&#x1e0b;" horiz-adv-x="535" 
d="M568 744l-104 -744h-165l1 62q-28 -39 -61.5 -60.5t-79.5 -21.5q-73 0 -111 52.5t-38 150.5q0 91 27 176t81.5 139.5t130.5 54.5q63 0 100 -43l35 253zM240 380q-20 -38 -29.5 -92t-9.5 -103q0 -40 8.5 -54t23.5 -14q30 0 70 64l30 214q-18 23 -42 23q-31 0 -51 -38z
M268 818.5q-25 24.5 -25 64.5q0 50 34 83t83 33q43 0 68 -24.5t25 -64.5q0 -50 -33.5 -83t-83.5 -33q-43 0 -68 24.5z" />
    <glyph glyph-name="uni1E0D" unicode="&#x1e0d;" horiz-adv-x="535" 
d="M568 744l-104 -744h-165l1 62q-28 -39 -61.5 -60.5t-79.5 -21.5q-73 0 -111 52.5t-38 150.5q0 91 27 176t81.5 139.5t130.5 54.5q63 0 100 -43l35 253zM240 380q-20 -38 -29.5 -92t-9.5 -103q0 -40 8.5 -54t23.5 -14q30 0 70 64l30 214q-18 23 -42 23q-31 0 -51 -38z
M300 -78.5q25 -24.5 25 -64.5q0 -50 -34 -83t-83 -33q-43 0 -68 24.5t-25 64.5q0 50 33.5 83t83.5 33q43 0 68 -24.5z" />
    <glyph glyph-name="uni018D" unicode="&#x18d;" horiz-adv-x="523" 
d="M76 -204.5q-47 21.5 -76 57.5l94 86q21 -20 42 -30t47 -10t39 13t13 34q0 17 -12.5 29.5t-52.5 31.5q-83 40 -119.5 89t-36.5 128q0 74 29 150t93 127.5t163 51.5q66 0 114.5 -28t74 -76t25.5 -105q0 -95 -39 -165.5t-136 -111.5q72 -51 72 -122q0 -43 -25 -82.5t-75 -64
t-122 -24.5q-65 0 -112 21.5zM309.5 218q14.5 55 14.5 127q0 71 -42 71q-39 0 -59 -57t-20 -142q0 -35 10.5 -56.5t40.5 -42.5q41 45 55.5 100z" />
    <glyph glyph-name="uni02A4" unicode="&#x2a4;" horiz-adv-x="951" 
d="M927 407l-175 -195q77 -10 117.5 -51.5t40.5 -114.5q0 -83 -38 -144.5t-104 -95t-149 -33.5q-143 0 -212 110l109 91q27 -31 51 -44.5t55 -13.5q45 0 72 32.5t27 93.5q0 38 -20 53.5t-58 15.5h-92l14 104l160 180h-206l-55 -395h-165l1 62q-28 -39 -61.5 -60.5
t-79.5 -21.5q-73 0 -111 52.5t-38 150.5q0 91 27 176t81.5 139.5t130.5 54.5q63 0 100 -43l35 253l184 -19l-29 -210h406zM333 395q-18 23 -42 23q-31 0 -51 -38t-29.5 -92t-9.5 -103q0 -40 8.5 -54t23.5 -14q30 0 70 64z" />
    <glyph glyph-name="uni0257" unicode="&#x257;" horiz-adv-x="535" 
d="M704 725l-66 -113q-25 14 -50 14q-20 0 -29.5 -12t-13.5 -39l-7 -42l-74 -533h-165l1 62q-28 -39 -61.5 -60.5t-79.5 -21.5q-73 0 -111 52t-38 151q0 92 27 176.5t81.5 139t133.5 54.5q60 0 97 -43l3 23l6 41q10 82 66.5 135.5t149.5 53.5q77 0 130 -38zM333 394
q-9 13 -19 18.5t-23 5.5q-31 0 -51 -38t-29.5 -92t-9.5 -103q0 -40 8.5 -54t24.5 -14q29 0 69 64z" />
    <glyph glyph-name="uni1E0F" unicode="&#x1e0f;" horiz-adv-x="535" 
d="M568 744l-104 -744h-165l1 62q-28 -39 -61.5 -60.5t-79.5 -21.5q-73 0 -111 52.5t-38 150.5q0 91 27 176t81.5 139.5t130.5 54.5q63 0 100 -43l35 253zM240 380q-20 -38 -29.5 -92t-9.5 -103q0 -40 8.5 -54t23.5 -14q30 0 70 64l30 214q-18 23 -42 23q-31 0 -51 -38z
M96 -70h292l-19 -130h-293z" />
    <glyph glyph-name="uni0256" unicode="&#x256;" horiz-adv-x="541" 
d="M602 -183q-65 -43 -151 -43q-84 0 -131 42.5t-47 123.5q0 24 2 36l3 24l7 47q-19 -28 -51 -47.5t-75 -19.5q-73 0 -111 52t-38 151q0 92 27 176.5t81.5 139t133.5 54.5q60 0 97 -43l35 253l184 -19l-104 -744l-6 -43l-1 -10q0 -38 39 -38q17 0 29.5 3.5t30.5 12.5z
M303 181l30 213q-9 13 -19 18.5t-23 5.5q-31 0 -51 -38t-29.5 -92t-9.5 -103q0 -40 8.5 -54t24.5 -14q29 0 69 64z" />
    <glyph glyph-name="uni018C" unicode="&#x18c;" horiz-adv-x="535" 
d="M464 0h-166l2 62q-29 -39 -62.5 -60.5t-79.5 -21.5q-72 0 -110 52t-38 151q0 86 26.5 166.5t80 132.5t129.5 52q64 0 100 -44l17 120h-182l18 134h369zM330 375q-9 12 -19 17.5t-23 5.5q-29 0 -49 -35.5t-29.5 -85.5t-9.5 -92q0 -40 8.5 -54t24.5 -14q31 0 69 64z" />
    <glyph glyph-name="uni01F3" unicode="&#x1f3;" horiz-adv-x="957" 
d="M568 744l-104 -744h-165l1 62q-28 -39 -61.5 -60.5t-79.5 -21.5q-73 0 -111 52.5t-38 150.5q0 91 27 176t81.5 139.5t130.5 54.5q63 0 100 -43l35 253zM240 380q-20 -38 -29.5 -92t-9.5 -103q0 -40 8.5 -54t23.5 -14q30 0 70 64l30 214q-18 23 -42 23q-31 0 -51 -38z
M980 534l-18 -132l-216 -261h188l-37 -141h-396l18 133l217 262h-164l20 139h388z" />
    <glyph glyph-name="uni02A3" unicode="&#x2a3;" horiz-adv-x="918" 
d="M922 402l-217 -261h189l-36 -141h-559l1 62q-28 -39 -61.5 -60.5t-79.5 -21.5q-73 0 -111 52.5t-38 150.5q0 91 27 176t81.5 139.5t130.5 54.5q63 0 100 -43l35 253l184 -19l-29 -210h401zM333 395q-18 23 -42 23q-31 0 -51 -38t-29.5 -92t-9.5 -103q0 -40 8.5 -54
t23.5 -14q30 0 70 64zM482 129l218 266h-181z" />
    <glyph glyph-name="uni01C6" unicode="&#x1c6;" horiz-adv-x="957" 
d="M568 744l-104 -744h-165l1 62q-28 -39 -61.5 -60.5t-79.5 -21.5q-73 0 -111 52.5t-38 150.5q0 91 27 176t81.5 139.5t130.5 54.5q63 0 100 -43l35 253zM240 380q-20 -38 -29.5 -92t-9.5 -103q0 -40 8.5 -54t23.5 -14q30 0 70 64l30 214q-18 23 -42 23q-31 0 -51 -38z
M980 534l-18 -132l-216 -261h188l-37 -141h-396l18 133l217 262h-164l20 139h388zM944 825l59 -73l-150 -148h-111l-109 148l68 73l108 -96z" />
    <glyph glyph-name="uni02A5" unicode="&#x2a5;" horiz-adv-x="1042" 
d="M1008.5 261q31.5 -30 31.5 -83q0 -89 -58 -134t-155 -44h-16q-7 -27 -19 -103l-5 -29l-96 2q13 87 24 130h-416l1 62q-28 -39 -61.5 -60.5t-79.5 -21.5q-73 0 -111 52.5t-38 150.5q0 91 27 176t81.5 139.5t130.5 54.5q63 0 100 -43l35 253l184 -19l-29 -210h401l-17 -119
l-231 -274h63q35 82 75.5 116t94.5 34q52 0 83.5 -30zM333 395q-18 23 -42 23q-31 0 -51 -38t-29.5 -92t-9.5 -103q0 -40 8.5 -54t23.5 -14q30 0 70 64zM519 395l-36 -258l220 258h-184zM910.5 150q11.5 9 11.5 26q0 21 -18 21q-15 0 -28.5 -14t-23.5 -42h27q20 0 31.5 9z
" />
    <glyph glyph-name="e" unicode="e" horiz-adv-x="501" 
d="M453.5 511.5q51.5 -41.5 51.5 -107.5q0 -101 -89 -150t-221 -63q0 -75 69 -75q28 0 55 11.5t64 35.5l63 -107q-95 -76 -210 -76q-108 0 -166 56t-58 161q0 94 32 175t99.5 131t168.5 50q90 0 141.5 -41.5zM296.5 334.5q26.5 30.5 26.5 64.5q0 33 -32 33t-53.5 -37.5
t-32.5 -95.5q65 5 91.5 35.5z" />
    <glyph glyph-name="eacute" unicode="&#xe9;" horiz-adv-x="501" 
d="M453.5 511.5q51.5 -41.5 51.5 -107.5q0 -101 -89 -150t-221 -63q0 -75 69 -75q28 0 55 11.5t64 35.5l63 -107q-95 -76 -210 -76q-108 0 -166 56t-58 161q0 94 32 175t99.5 131t168.5 50q90 0 141.5 -41.5zM296.5 334.5q26.5 30.5 26.5 64.5q0 33 -32 33t-53.5 -37.5
t-32.5 -95.5q65 5 91.5 35.5zM406 847l59 -134l-239 -98l-45 91z" />
    <glyph glyph-name="ebreve" unicode="&#x115;" horiz-adv-x="501" 
d="M453.5 511.5q51.5 -41.5 51.5 -107.5q0 -101 -89 -150t-221 -63q0 -75 69 -75q28 0 55 11.5t64 35.5l63 -107q-95 -76 -210 -76q-108 0 -166 56t-58 161q0 94 32 175t99.5 131t168.5 50q90 0 141.5 -41.5zM296.5 334.5q26.5 30.5 26.5 64.5q0 33 -32 33t-53.5 -37.5
t-32.5 -95.5q65 5 91.5 35.5zM201.5 675q-36.5 48 -36.5 123q0 15 1 22l96 14q2 -36 17.5 -57t43.5 -21q29 0 50 21.5t33 58.5l92 -19q-15 -82 -62.5 -136t-123.5 -54q-74 0 -110.5 48z" />
    <glyph glyph-name="ecaron" unicode="&#x11b;" horiz-adv-x="501" 
d="M453.5 511.5q51.5 -41.5 51.5 -107.5q0 -101 -89 -150t-221 -63q0 -75 69 -75q28 0 55 11.5t64 35.5l63 -107q-95 -76 -210 -76q-108 0 -166 56t-58 161q0 94 32 175t99.5 131t168.5 50q90 0 141.5 -41.5zM296.5 334.5q26.5 30.5 26.5 64.5q0 33 -32 33t-53.5 -37.5
t-32.5 -95.5q65 5 91.5 35.5zM457 825l59 -73l-150 -148h-111l-109 148l68 73l108 -96z" />
    <glyph glyph-name="uni0229" unicode="&#x229;" horiz-adv-x="501" 
d="M453.5 511.5q51.5 -41.5 51.5 -107.5q0 -101 -89 -150t-221 -63q0 -75 69 -75q28 0 55 11.5t64 35.5l63 -107q-74 -59 -164 -73l-5 -30q42 -6 64.5 -28.5t22.5 -61.5q0 -31 -16 -62t-53.5 -52t-97.5 -21q-34 0 -62 9.5t-48 24.5l51 79q27 -15 55 -15q42 0 43 29
q0 15 -18.5 21t-61.5 6l26 102q-82 14 -126 68t-44 144q0 95 32 176t99.5 131t168.5 50q90 0 141.5 -41.5zM296.5 334.5q26.5 30.5 26.5 64.5q0 33 -32 33t-53.5 -37.5t-32.5 -95.5q65 5 91.5 35.5z" />
    <glyph glyph-name="ecircumflex" unicode="&#xea;" horiz-adv-x="501" 
d="M453.5 511.5q51.5 -41.5 51.5 -107.5q0 -101 -89 -150t-221 -63q0 -75 69 -75q28 0 55 11.5t64 35.5l63 -107q-95 -76 -210 -76q-108 0 -166 56t-58 161q0 94 32 175t99.5 131t168.5 50q90 0 141.5 -41.5zM296.5 334.5q26.5 30.5 26.5 64.5q0 33 -32 33t-53.5 -37.5
t-32.5 -95.5q65 5 91.5 35.5zM192 615l-58 73l151 148h111l113 -153l-74 -68l-108 96z" />
    <glyph glyph-name="uni1EBF" unicode="&#x1ebf;" horiz-adv-x="501" 
d="M656 893l-179 -151l-63 60l155 186zM316 671l-132 -87l-61 74l150 138h111l115 -144l-72 -68zM453.5 511.5q51.5 -41.5 51.5 -107.5q0 -101 -89 -150t-221 -63q0 -75 69 -75q28 0 55 11.5t64 35.5l63 -107q-95 -76 -210 -76q-108 0 -166 56t-58 161q0 94 32 175t99.5 131
t168.5 50q90 0 141.5 -41.5zM296.5 334.5q26.5 30.5 26.5 64.5q0 33 -32 33t-53.5 -37.5t-32.5 -95.5q65 5 91.5 35.5z" />
    <glyph glyph-name="uni1EC7" unicode="&#x1ec7;" horiz-adv-x="501" 
d="M453.5 511.5q51.5 -41.5 51.5 -107.5q0 -101 -89 -150t-221 -63q0 -75 69 -75q28 0 55 11.5t64 35.5l63 -107q-95 -76 -210 -76q-108 0 -166 56t-58 161q0 94 32 175t99.5 131t168.5 50q90 0 141.5 -41.5zM296.5 334.5q26.5 30.5 26.5 64.5q0 33 -32 33t-53.5 -37.5
t-32.5 -95.5q65 5 91.5 35.5zM192 615l-58 73l151 148h111l113 -153l-74 -68l-108 96zM289 -78.5q25 -24.5 25 -64.5q0 -50 -34 -83t-83 -33q-43 0 -68 24.5t-25 64.5q0 50 33.5 83t83.5 33q43 0 68 -24.5z" />
    <glyph glyph-name="uni1EC1" unicode="&#x1ec1;" horiz-adv-x="501" 
d="M239 797l-77 -55l-136 158l111 85zM185 584l-61 74l150 138h111l115 -144l-72 -68l-111 87zM453.5 511.5q51.5 -41.5 51.5 -107.5q0 -101 -89 -150t-221 -63q0 -75 69 -75q28 0 55 11.5t64 35.5l63 -107q-95 -76 -210 -76q-108 0 -166 56t-58 161q0 94 32 175t99.5 131
t168.5 50q90 0 141.5 -41.5zM296.5 334.5q26.5 30.5 26.5 64.5q0 33 -32 33t-53.5 -37.5t-32.5 -95.5q65 5 91.5 35.5z" />
    <glyph glyph-name="uni1EC3" unicode="&#x1ec3;" horiz-adv-x="501" 
d="M453.5 511.5q51.5 -41.5 51.5 -107.5q0 -101 -89 -150t-221 -63q0 -75 69 -75q28 0 55 11.5t64 35.5l63 -107q-95 -76 -210 -76q-108 0 -166 56t-58 161q0 94 32 175t99.5 131t168.5 50q90 0 141.5 -41.5zM296.5 334.5q26.5 30.5 26.5 64.5q0 33 -32 33t-53.5 -37.5
t-32.5 -95.5q65 5 91.5 35.5zM183 584l-61 74l150 138h111l115 -144l-72 -68l-111 87zM444 874q36 2 52 11.5t16 29.5q0 12 -6.5 17.5t-22.5 5.5q-24 0 -55 -13l-17 74q46 26 104 26q56 0 86 -27t30 -71q0 -42 -25 -69t-68 -36l-7 -50h-101z" />
    <glyph glyph-name="uni1EC5" unicode="&#x1ec5;" horiz-adv-x="501" 
d="M266.5 851.5q-11.5 -9.5 -25.5 -30.5l-78 41q27 52 64 85.5t77 33.5q20 0 34 -6.5t31 -17.5q21 -16 35 -16q13 0 24 9t25 30l78 -40q-25 -52 -63 -85t-78 -33q-16 0 -29.5 6t-30.5 17q-3 2 -15 9t-22 7q-15 0 -26.5 -9.5zM314 670l-132 -87l-61 74l150 138h111l115 -144
l-72 -68zM453.5 511.5q51.5 -41.5 51.5 -107.5q0 -101 -89 -150t-221 -63q0 -75 69 -75q28 0 55 11.5t64 35.5l63 -107q-95 -76 -210 -76q-108 0 -166 56t-58 161q0 94 32 175t99.5 131t168.5 50q90 0 141.5 -41.5zM296.5 334.5q26.5 30.5 26.5 64.5q0 33 -32 33
t-53.5 -37.5t-32.5 -95.5q65 5 91.5 35.5z" />
    <glyph glyph-name="uni0205" unicode="&#x205;" horiz-adv-x="501" 
d="M453.5 511.5q51.5 -41.5 51.5 -107.5q0 -101 -89 -150t-221 -63q0 -75 69 -75q28 0 55 11.5t64 35.5l63 -107q-95 -76 -210 -76q-108 0 -166 56t-58 161q0 94 32 175t99.5 131t168.5 50q90 0 141.5 -41.5zM296.5 334.5q26.5 30.5 26.5 64.5q0 33 -32 33t-53.5 -37.5
t-32.5 -95.5q65 5 91.5 35.5zM227 874l66 -211l-98 -42l-95 197zM398 874l59 -213l-98 -36l-88 198z" />
    <glyph glyph-name="edieresis" unicode="&#xeb;" horiz-adv-x="501" 
d="M453.5 511.5q51.5 -41.5 51.5 -107.5q0 -101 -89 -150t-221 -63q0 -75 69 -75q28 0 55 11.5t64 35.5l63 -107q-95 -76 -210 -76q-108 0 -166 56t-58 161q0 94 32 175t99.5 131t168.5 50q90 0 141.5 -41.5zM296.5 334.5q26.5 30.5 26.5 64.5q0 33 -32 33t-53.5 -37.5
t-32.5 -95.5q65 5 91.5 35.5zM145.5 656.5q-21.5 21.5 -21.5 56.5q0 43 29.5 72t71.5 29q38 0 59.5 -21.5t21.5 -56.5q0 -43 -29.5 -72t-72.5 -29q-37 0 -58.5 21.5zM368.5 656.5q-21.5 21.5 -21.5 56.5q0 43 29 72t72 29q37 0 58.5 -21.5t21.5 -56.5q0 -43 -29 -72t-72 -29
q-37 0 -58.5 21.5z" />
    <glyph glyph-name="edotaccent" unicode="&#x117;" horiz-adv-x="501" 
d="M453.5 511.5q51.5 -41.5 51.5 -107.5q0 -101 -89 -150t-221 -63q0 -75 69 -75q28 0 55 11.5t64 35.5l63 -107q-95 -76 -210 -76q-108 0 -166 56t-58 161q0 94 32 175t99.5 131t168.5 50q90 0 141.5 -41.5zM296.5 334.5q26.5 30.5 26.5 64.5q0 33 -32 33t-53.5 -37.5
t-32.5 -95.5q65 5 91.5 35.5zM247 644.5q-25 24.5 -25 64.5q0 50 34 83t83 33q43 0 68 -24.5t25 -64.5q0 -50 -33.5 -83t-83.5 -33q-43 0 -68 24.5z" />
    <glyph glyph-name="uni1EB9" unicode="&#x1eb9;" horiz-adv-x="501" 
d="M453.5 511.5q51.5 -41.5 51.5 -107.5q0 -101 -89 -150t-221 -63q0 -75 69 -75q28 0 55 11.5t64 35.5l63 -107q-95 -76 -210 -76q-108 0 -166 56t-58 161q0 94 32 175t99.5 131t168.5 50q90 0 141.5 -41.5zM296.5 334.5q26.5 30.5 26.5 64.5q0 33 -32 33t-53.5 -37.5
t-32.5 -95.5q65 5 91.5 35.5zM289 -78.5q25 -24.5 25 -64.5q0 -50 -34 -83t-83 -33q-43 0 -68 24.5t-25 64.5q0 50 33.5 83t83.5 33q43 0 68 -24.5z" />
    <glyph glyph-name="egrave" unicode="&#xe8;" horiz-adv-x="501" 
d="M453.5 511.5q51.5 -41.5 51.5 -107.5q0 -101 -89 -150t-221 -63q0 -75 69 -75q28 0 55 11.5t64 35.5l63 -107q-95 -76 -210 -76q-108 0 -166 56t-58 161q0 94 32 175t99.5 131t168.5 50q90 0 141.5 -41.5zM296.5 334.5q26.5 30.5 26.5 64.5q0 33 -32 33t-53.5 -37.5
t-32.5 -95.5q65 5 91.5 35.5zM279 846l192 -143l-53 -85l-218 95z" />
    <glyph glyph-name="uni1EBB" unicode="&#x1ebb;" horiz-adv-x="501" 
d="M453.5 511.5q51.5 -41.5 51.5 -107.5q0 -101 -89 -150t-221 -63q0 -75 69 -75q28 0 55 11.5t64 35.5l63 -107q-95 -76 -210 -76q-108 0 -166 56t-58 161q0 94 32 175t99.5 131t168.5 50q90 0 141.5 -41.5zM296.5 334.5q26.5 30.5 26.5 64.5q0 33 -32 33t-53.5 -37.5
t-32.5 -95.5q65 5 91.5 35.5zM273 704q36 2 52 11.5t16 29.5q0 12 -6.5 17.5t-22.5 5.5q-24 0 -55 -13l-17 74q46 26 104 26q56 0 86 -27t30 -71q0 -42 -25 -69t-68 -36l-7 -50h-101z" />
    <glyph glyph-name="uni0207" unicode="&#x207;" horiz-adv-x="501" 
d="M453.5 511.5q51.5 -41.5 51.5 -107.5q0 -101 -89 -150t-221 -63q0 -75 69 -75q28 0 55 11.5t64 35.5l63 -107q-95 -76 -210 -76q-108 0 -166 56t-58 161q0 94 32 175t99.5 131t168.5 50q90 0 141.5 -41.5zM296.5 334.5q26.5 30.5 26.5 64.5q0 33 -32 33t-53.5 -37.5
t-32.5 -95.5q65 5 91.5 35.5zM142 613q17 83 66.5 136.5t127.5 53.5q75 0 111 -47.5t36 -122.5q0 -14 -1 -22l-99 -14q-5 77 -60 77q-30 0 -52 -21.5t-34 -58.5z" />
    <glyph glyph-name="emacron" unicode="&#x113;" horiz-adv-x="501" 
d="M453.5 511.5q51.5 -41.5 51.5 -107.5q0 -101 -89 -150t-221 -63q0 -75 69 -75q28 0 55 11.5t64 35.5l63 -107q-95 -76 -210 -76q-108 0 -166 56t-58 161q0 94 32 175t99.5 131t168.5 50q90 0 141.5 -41.5zM296.5 334.5q26.5 30.5 26.5 64.5q0 33 -32 33t-53.5 -37.5
t-32.5 -95.5q65 5 91.5 35.5zM461 649h-292l19 130h293z" />
    <glyph glyph-name="eogonek" unicode="&#x119;" horiz-adv-x="501" 
d="M453.5 511.5q51.5 -41.5 51.5 -107.5q0 -101 -89 -150t-221 -63q0 -75 69 -75q28 0 55 11.5t64 35.5l63 -107q-53 -42 -113 -61q-45 -22 -63.5 -46.5t-18.5 -45.5q0 -33 38 -33q25 0 57 8l-27 -111q-32 -8 -68 -8q-58 0 -95 28.5t-37 77.5q0 72 72 118q-87 11 -133 65.5
t-46 147.5q0 95 32 176t99.5 131t168.5 50q90 0 141.5 -41.5zM296.5 334.5q26.5 30.5 26.5 64.5q0 33 -32 33t-53.5 -37.5t-32.5 -95.5q65 5 91.5 35.5z" />
    <glyph glyph-name="uni025B" unicode="&#x25b;" horiz-adv-x="450" 
d="M57 23q-57 42 -57 119q0 62 42.5 99.5t116.5 42.5q-105 23 -105 111q0 74 60 116t156 42q56 0 105.5 -17.5t85.5 -55.5l-83 -87q-42 33 -87 33q-25 0 -39.5 -14t-14.5 -37q0 -45 50 -45h52l-34 -116h-48q-34 0 -50.5 -15t-16.5 -40q0 -47 58 -47q25 0 49.5 9.5t57.5 29.5
l59 -102q-38 -32 -92.5 -50t-115.5 -18q-92 0 -149 42z" />
    <glyph glyph-name="uni029A" unicode="&#x29a;" horiz-adv-x="524" 
d="M58.5 21.5q-58.5 40.5 -58.5 118.5q0 63 41.5 101t113.5 43q-100 24 -100 104q0 48 28.5 85.5t81.5 58.5t122 21q107 0 165 -60t58 -165q0 -162 -77 -254.5t-222 -92.5q-94 0 -152.5 40.5zM309.5 179.5q22.5 67.5 22.5 150.5q0 52 -13 74t-38 22q-21 0 -32.5 -14.5
t-11.5 -39.5q0 -42 41 -42h13l-34 -116h-6q-31 0 -47 -15.5t-16 -42.5q0 -21 12 -32.5t34 -11.5q53 0 75.5 67.5z" />
    <glyph glyph-name="uni025C" unicode="&#x25c;" horiz-adv-x="447" 
d="M382.5 516.5q49.5 -36.5 49.5 -97.5q0 -52 -36 -88t-106 -48q64 -6 94.5 -37.5t30.5 -81.5q0 -48 -25.5 -89.5t-80.5 -67.5t-139 -26q-119 0 -195 66l89 103q28 -21 51 -29.5t48 -8.5q30 0 46 16t16 45q0 21 -11.5 31t-37.5 10h-75l30 116h48q30 0 47 15.5t17 42.5
q0 38 -39 38q-24 0 -45 -7.5t-47 -23.5l-67 97q91 61 206 61q82 0 131.5 -36.5z" />
    <glyph glyph-name="uni025E" unicode="&#x25e;" horiz-adv-x="522" 
d="M70.5 37q-57.5 56 -57.5 163q0 109 36.5 188.5t104.5 122t160 42.5q86 0 140 -37t54 -99q0 -52 -34.5 -87t-99.5 -47q58 -6 87.5 -37t29.5 -80t-25.5 -90.5t-82.5 -68t-146 -26.5q-109 0 -166.5 56zM306 176q0 19 -11 28.5t-36 9.5h-26l32 116h5q22 0 36.5 15.5
t14.5 43.5q0 37 -34 37q-48 0 -72 -69.5t-24 -161.5q0 -46 12.5 -64.5t41.5 -18.5q61 0 61 64z" />
    <glyph glyph-name="uni025D" unicode="&#x25d;" horiz-adv-x="703" 
d="M723 340q-54 -36 -121 -36q-118 0 -133 108l-2 12l-36 -22q-5 -46 -41 -77t-100 -42q64 -6 94.5 -37.5t30.5 -81.5q0 -48 -25.5 -89.5t-80.5 -67.5t-139 -26q-119 0 -195 66l89 103q28 -21 51 -29.5t48 -8.5q30 0 46 16t16 45q0 21 -11.5 31t-37.5 10h-75l30 116h48
q30 0 47 15.5t17 42.5q0 38 -39 38q-24 0 -45 -7.5t-47 -23.5l-67 97q91 61 206 61q51 0 91 -15t63 -42l67 38h147l-8 -60l-1 -10q0 -17 9 -26t24 -9q17 0 31 4.5t17 5.5z" />
    <glyph glyph-name="uni0258" unicode="&#x258;" horiz-adv-x="507" 
d="M440 489q53 -64 53 -164q0 -105 -35.5 -182.5t-103.5 -119.5t-161 -42q-118 0 -191 78l86 98q25 -21 49.5 -31t54.5 -10q72 0 99 75q-123 8 -193 46t-70 123q0 53 28.5 97t83.5 70t129 26q118 0 171 -64zM236.5 319.5q19.5 -17.5 73.5 -20.5q1 15 1 46q0 44 -11 65.5
t-37 21.5q-21 0 -33.5 -17.5t-12.5 -50.5q0 -27 19.5 -44.5z" />
    <glyph glyph-name="uni0283" unicode="&#x283;" horiz-adv-x="255" 
d="M422 725l-66 -113q-25 14 -50 14q-20 0 -29.5 -12t-13.5 -39l-7 -41h1l-74 -534l-4 -29q-15 -98 -76 -147.5t-155 -49.5q-85 0 -140 46l74 107q18 -10 30 -14t28 -4q22 0 35 12.5t16 35.5l6 43l74 533h-1l6 41q10 82 66.5 135.5t149.5 53.5q77 0 130 -38z" />
    <glyph glyph-name="uni0286" unicode="&#x286;" horiz-adv-x="334" 
d="M502 725l-66 -113q-25 14 -50 14q-20 0 -29.5 -12t-13.5 -39l-7 -42l-72 -518l-3 -22q41 -13 74 -36l-39 -72q-20 12 -58 26q-27 -68 -78.5 -102.5t-134.5 -34.5q-65 0 -99.5 32t-34.5 87q0 62 41 98.5t105 36.5q30 0 42 -3l71 509l6 40q10 82 66.5 135.5t149.5 53.5
q77 0 130 -38zM50 -117.5q12 16.5 17 56.5l1 5q-18 2 -30 2q-24 0 -36.5 -13t-12.5 -35q0 -32 28 -32q21 0 33 16.5z" />
    <glyph glyph-name="uni01AA" unicode="&#x1aa;" horiz-adv-x="430" 
d="M496 -183q-65 -43 -151 -43q-84 0 -131 42.5t-47 123.5q0 24 2 36l3 24l57 404q-31 -14 -67 -14q-57 0 -93.5 44.5t-37.5 114.5q0 62 28 111t78 76t116 27q86 0 135 -48t49 -134q0 -20 -3 -43l-76 -538l-6 -43l-1 -10q0 -38 39 -38q17 0 29.5 3.5t30.5 12.5zM245 521
l9 64l2 20q0 30 -25 30q-24 0 -34.5 -23.5t-10.5 -56.5q0 -38 33 -38q15 0 26 4z" />
    <glyph glyph-name="uni0285" unicode="&#x285;" horiz-adv-x="484" 
d="M465 24q-65 -43 -151 -43q-84 0 -131 42.5t-47 123.5q0 24 2 36l3 24l17 120h-1l6 43l1 10q0 38 -39 38q-17 0 -29.5 -3.5t-30.5 -12.5l-46 108q65 43 151 43q84 0 131 -42.5t47 -123.5q0 -24 -2 -36l-3 -24h1l-17 -120l-6 -43l-1 -10q0 -38 39 -38q17 0 29.5 3.5
t30.5 12.5z" />
    <glyph glyph-name="uni0247" unicode="&#x247;" horiz-adv-x="501" 
d="M469.5 496.5q35.5 -38.5 35.5 -92.5q0 -91 -74.5 -140t-192.5 -66l-27 -72q19 -10 53 -10q28 0 55 11.5t64 35.5l63 -107q-95 -76 -210 -76q-42 0 -77 9l-24 -65l-54 15l26 70q-47 26 -71 73.5t-24 115.5q0 94 32 174.5t99.5 130.5t168.5 50l19 50l54 -15l-15 -40
q64 -13 99.5 -51.5zM217 384.5q-20 -40.5 -29 -95.5l26 2l55 147q-32 -13 -52 -53.5zM342 400q0 25 -14 36l-49 -129q63 27 63 93z" />
    <glyph glyph-name="uni1EBD" unicode="&#x1ebd;" horiz-adv-x="501" 
d="M453.5 511.5q51.5 -41.5 51.5 -107.5q0 -101 -89 -150t-221 -63q0 -75 69 -75q28 0 55 11.5t64 35.5l63 -107q-95 -76 -210 -76q-108 0 -166 56t-58 161q0 94 32 175t99.5 131t168.5 50q90 0 141.5 -41.5zM296.5 334.5q26.5 30.5 26.5 64.5q0 33 -32 33t-53.5 -37.5
t-32.5 -95.5q65 5 91.5 35.5zM339 631.5q-14 6.5 -31 18.5q-13 9 -21.5 13.5t-16.5 4.5q-15 0 -26.5 -10.5t-26.5 -33.5l-79 46q27 57 64.5 94t78.5 37q20 0 34 -7t33 -20q11 -9 19 -13t16 -4q14 0 25 10t25 33l80 -44q-26 -57 -64.5 -94t-79.5 -37q-16 0 -30 6.5z" />
    <glyph glyph-name="uni01DD" unicode="&#x1dd;" horiz-adv-x="501" 
d="M431 498q58 -56 58 -161q0 -94 -32 -175t-99.5 -131t-168.5 -50q-90 0 -141.5 41.5t-51.5 107.5q0 101 89 150t221 63q0 75 -69 75q-28 0 -55 -11.5t-64 -35.5l-63 107q95 76 210 76q108 0 166 -56zM263.5 139.5q21.5 37.5 32.5 95.5q-65 -5 -91.5 -35.5t-26.5 -64.5
q0 -33 32 -33t53.5 37.5z" />
    <glyph glyph-name="uni0259" unicode="&#x259;" horiz-adv-x="501" 
d="M431 498q58 -56 58 -161q0 -94 -32 -175t-99.5 -131t-168.5 -50q-90 0 -141.5 41.5t-51.5 107.5q0 101 89 150t221 63q0 75 -69 75q-28 0 -55 -11.5t-64 -35.5l-63 107q95 76 210 76q108 0 166 -56zM263.5 139.5q21.5 37.5 32.5 95.5q-65 -5 -91.5 -35.5t-26.5 -64.5
q0 -33 32 -33t53.5 37.5z" />
    <glyph glyph-name="uni025A" unicode="&#x25a;" horiz-adv-x="769" 
d="M789 340q-54 -36 -121 -36q-118 0 -133 108l-2 12l-49 -30q5 -24 5 -62q-1 -93 -33.5 -173t-99.5 -129t-167 -49q-90 0 -141.5 41.5t-51.5 107.5q0 101 89 150t221 63q0 75 -69 75q-28 0 -55 -11.5t-64 -35.5l-63 107q95 76 210 76q123 0 181 -73l92 53h147l-8 -60
l-1 -10q0 -17 9 -26t24 -9q17 0 31 4.5t17 5.5zM263.5 139.5q21.5 37.5 32.5 95.5q-65 -5 -91.5 -35.5t-26.5 -64.5q0 -33 32 -33t53.5 37.5z" />
    <glyph glyph-name="uni0292" unicode="&#x292;" horiz-adv-x="470" 
d="M447 407l-175 -195q77 -10 117.5 -51.5t40.5 -114.5q0 -83 -38 -144.5t-104 -95t-149 -33.5q-143 0 -212 110l109 91q27 -31 51 -44.5t55 -13.5q45 0 72 32.5t27 93.5q0 38 -20 53.5t-58 15.5h-92l14 104l160 180h-207l19 139h408z" />
    <glyph glyph-name="uni01EF" unicode="&#x1ef;" horiz-adv-x="470" 
d="M447 407l-175 -195q77 -10 117.5 -51.5t40.5 -114.5q0 -83 -38 -144.5t-104 -95t-149 -33.5q-143 0 -212 110l109 91q27 -31 51 -44.5t55 -13.5q45 0 72 32.5t27 93.5q0 38 -20 53.5t-58 15.5h-92l14 104l160 180h-207l19 139h408zM419 825l59 -73l-150 -148h-111
l-109 148l68 73l108 -96z" />
    <glyph glyph-name="uni0293" unicode="&#x293;" horiz-adv-x="471" 
d="M448 407l-170 -185q73 -8 113 -51t40 -119q0 -94 -49.5 -161.5t-136.5 -96.5l17 -60l-87 -30l-19 72q-28 -2 -43 -2q-79 0 -127.5 37.5t-48.5 106.5q0 47 19 80.5t50.5 51t68.5 17.5q49 0 76.5 -27.5t47.5 -93.5l1 -4q42 32 42 107q0 39 -20.5 55t-63.5 16h-86l14 99
l162 176h-209l19 139h408zM121 -83q-9 33 -17 45.5t-22 12.5q-11 0 -17 -8t-6 -21q0 -15 11 -22t41 -7h10z" />
    <glyph glyph-name="uni01B9" unicode="&#x1b9;" horiz-adv-x="472" 
d="M466 395h-218l122 -184l-15 -100l-2 1l1 -1h-90q-48 0 -75.5 -29.5t-27.5 -83.5q0 -41 18.5 -61t51.5 -20q31 0 60 13.5t66 44.5l80 -95q-93 -106 -239 -106q-108 0 -168.5 57.5t-60.5 151.5q0 98 60 160t166 72l-135 192l19 127h407z" />
    <glyph glyph-name="uni01BA" unicode="&#x1ba;" horiz-adv-x="474" 
d="M13.5 -168q-37.5 37 -37.5 86q0 64 45 100t128 57q57 15 80 31t23 41q0 19 -14 26.5t-48 7.5h-105l14 95l139 129h-204l19 129h409l-17 -118l-153 -134h7q66 0 104 -34t38 -94q0 -84 -53.5 -129t-146.5 -68q-44 -11 -65.5 -19t-29 -15.5t-7.5 -18.5q0 -9 6 -16.5
t18 -15.5l-49 -98q-63 21 -100.5 58z" />
    <glyph glyph-name="f" unicode="f" horiz-adv-x="333" 
d="M306 611q-15 -16 -20 -53l-3 -24h110l-39 -129h-89l-46 -332q-12 -92 -49.5 -150t-89 -91t-124.5 -58l-43 136q56 21 83 54t36 99l47 342h-61l18 129h60l5 35q12 87 71 141t156 54q46 0 84.5 -13.5t65.5 -33.5l-65 -109q-30 19 -65 19q-27 0 -42 -16z" />
    <glyph glyph-name="uni1E1F" unicode="&#x1e1f;" horiz-adv-x="333" 
d="M306 611q-15 -16 -20 -53l-3 -24h110l-39 -129h-89l-46 -332q-12 -92 -49.5 -150t-89 -91t-124.5 -58l-43 136q56 21 83 54t36 99l47 342h-61l18 129h60l5 35q12 87 71 141t156 54q46 0 84.5 -13.5t65.5 -33.5l-65 -109q-30 19 -65 19q-27 0 -42 -16zM257 818.5
q-25 24.5 -25 64.5q0 50 34 83t83 33q43 0 68 -24.5t25 -64.5q0 -50 -33.5 -83t-83.5 -33q-43 0 -68 24.5z" />
    <glyph glyph-name="uni02A9" unicode="&#x2a9;" horiz-adv-x="788" 
d="M750.5 520.5q28.5 -32.5 28.5 -90.5q0 -17 -3 -37l-56 -393l-4 -29q-15 -98 -76 -147.5t-155 -49.5q-85 0 -140 46l74 107q18 -10 30 -14t28 -4q22 0 35 12.5t16 35.5l55 394q1 7 1 18q0 12 -3 16.5t-9 4.5q-13 0 -28.5 -23.5t-40.5 -78.5l-41 -288h-186l56 405h-67
l-46 -332q-12 -92 -49.5 -150t-89 -91t-124.5 -58l-43 136q56 21 83 54t36 99l47 342h-61l18 129h60l5 35q12 87 71 141t156 54q46 0 84.5 -13.5t65.5 -33.5l-65 -109q-30 19 -65 19q-27 0 -42 -16t-20 -53l-3 -24h229l1 -83q29 46 70 74t88 28q51 0 79.5 -32.5z" />
    <glyph glyph-name="g" unicode="g" horiz-adv-x="525" 
d="M424 538.5q55 -14.5 104 -42.5l-64 -452q-20 -140 -85 -205t-193 -65q-51 0 -101.5 15.5t-93.5 43.5l63 120q67 -39 127 -39q40 0 65 20t33 75l8 55q-50 -65 -122 -65q-74 0 -113.5 54t-39.5 146t30.5 172.5t98.5 131t174 50.5q54 0 109 -14.5zM226 355q-25 -67 -25 -156
q0 -35 9 -48.5t25 -13.5q31 0 65 53l32 228q-13 4 -30 4q-51 0 -76 -67z" />
    <glyph glyph-name="uni01F5" unicode="&#x1f5;" horiz-adv-x="525" 
d="M424 538.5q55 -14.5 104 -42.5l-64 -452q-20 -140 -85 -205t-193 -65q-51 0 -101.5 15.5t-93.5 43.5l63 120q67 -39 127 -39q40 0 65 20t33 75l8 55q-50 -65 -122 -65q-74 0 -113.5 54t-39.5 146t30.5 172.5t98.5 131t174 50.5q54 0 109 -14.5zM226 355q-25 -67 -25 -156
q0 -35 9 -48.5t25 -13.5q31 0 65 53l32 228q-13 4 -30 4q-51 0 -76 -67zM416 847l59 -134l-239 -98l-45 91z" />
    <glyph glyph-name="uni0263" unicode="&#x263;" horiz-adv-x="471" 
d="M337.5 6q10.5 -37 10.5 -76q0 -74 -44.5 -115t-127.5 -41q-66 0 -101.5 31.5t-35.5 82.5q0 47 23 93t70 111l1 1l-110 441h197l16 -323l94 323h193l-217 -443l-1 -1q22 -47 32.5 -84zM210.5 -104q7.5 10 7.5 28q0 23 -13 69q-35 -53 -35 -86q0 -21 19 -21q14 0 21.5 10z
" />
    <glyph glyph-name="gbreve" unicode="&#x11f;" horiz-adv-x="525" 
d="M424 538.5q55 -14.5 104 -42.5l-64 -452q-20 -140 -85 -205t-193 -65q-51 0 -101.5 15.5t-93.5 43.5l63 120q67 -39 127 -39q40 0 65 20t33 75l8 55q-50 -65 -122 -65q-74 0 -113.5 54t-39.5 146t30.5 172.5t98.5 131t174 50.5q54 0 109 -14.5zM226 355q-25 -67 -25 -156
q0 -35 9 -48.5t25 -13.5q31 0 65 53l32 228q-13 4 -30 4q-51 0 -76 -67zM211.5 675q-36.5 48 -36.5 123q0 15 1 22l96 14q2 -36 17.5 -57t43.5 -21q29 0 50 21.5t33 58.5l92 -19q-15 -82 -62.5 -136t-123.5 -54q-74 0 -110.5 48z" />
    <glyph glyph-name="gcaron" unicode="&#x1e7;" horiz-adv-x="525" 
d="M424 538.5q55 -14.5 104 -42.5l-64 -452q-20 -140 -85 -205t-193 -65q-51 0 -101.5 15.5t-93.5 43.5l63 120q67 -39 127 -39q40 0 65 20t33 75l8 55q-50 -65 -122 -65q-74 0 -113.5 54t-39.5 146t30.5 172.5t98.5 131t174 50.5q54 0 109 -14.5zM226 355q-25 -67 -25 -156
q0 -35 9 -48.5t25 -13.5q31 0 65 53l32 228q-13 4 -30 4q-51 0 -76 -67zM467 825l59 -73l-150 -148h-111l-109 148l68 73l108 -96z" />
    <glyph glyph-name="gcircumflex" unicode="&#x11d;" horiz-adv-x="525" 
d="M424 538.5q55 -14.5 104 -42.5l-64 -452q-20 -140 -85 -205t-193 -65q-51 0 -101.5 15.5t-93.5 43.5l63 120q67 -39 127 -39q40 0 65 20t33 75l8 55q-50 -65 -122 -65q-74 0 -113.5 54t-39.5 146t30.5 172.5t98.5 131t174 50.5q54 0 109 -14.5zM226 355q-25 -67 -25 -156
q0 -35 9 -48.5t25 -13.5q31 0 65 53l32 228q-13 4 -30 4q-51 0 -76 -67zM202 615l-58 73l151 148h111l113 -153l-74 -68l-108 96z" />
    <glyph glyph-name="gcommaaccent" unicode="&#x123;" horiz-adv-x="525" 
d="M424 538.5q55 -14.5 104 -42.5l-64 -452q-20 -140 -85 -205t-193 -65q-51 0 -101.5 15.5t-93.5 43.5l63 120q67 -39 127 -39q40 0 65 20t33 75l8 55q-50 -65 -122 -65q-74 0 -113.5 54t-39.5 146t30.5 172.5t98.5 131t174 50.5q54 0 109 -14.5zM226 355q-25 -67 -25 -156
q0 -35 9 -48.5t25 -13.5q31 0 65 53l32 228q-13 4 -30 4q-51 0 -76 -67zM261.5 608.5q-22.5 21.5 -22.5 55.5q0 25 8.5 46.5t29.5 55.5l59 97h87l-41 -117q31 -21 31 -58q0 -44 -27 -72.5t-67 -28.5q-35 0 -57.5 21.5z" />
    <glyph glyph-name="gdotaccent" unicode="&#x121;" horiz-adv-x="525" 
d="M424 538.5q55 -14.5 104 -42.5l-64 -452q-20 -140 -85 -205t-193 -65q-51 0 -101.5 15.5t-93.5 43.5l63 120q67 -39 127 -39q40 0 65 20t33 75l8 55q-50 -65 -122 -65q-74 0 -113.5 54t-39.5 146t30.5 172.5t98.5 131t174 50.5q54 0 109 -14.5zM226 355q-25 -67 -25 -156
q0 -35 9 -48.5t25 -13.5q31 0 65 53l32 228q-13 4 -30 4q-51 0 -76 -67zM257 644.5q-25 24.5 -25 64.5q0 50 34 83t83 33q43 0 68 -24.5t25 -64.5q0 -50 -33.5 -83t-83.5 -33q-43 0 -68 24.5z" />
    <glyph glyph-name="uni0260" unicode="&#x260;" horiz-adv-x="530" 
d="M699 725l-66 -113q-25 14 -50 14q-20 0 -29.5 -12t-13.5 -39l-7 -42h1l-70 -489q-21 -140 -85.5 -205t-192.5 -65q-51 0 -101.5 15.5t-93.5 43.5l63 120q67 -39 127 -39q40 0 65 20t33 75l8 55q-50 -65 -122 -65q-74 0 -113.5 54t-39.5 146q0 91 30.5 171.5t94.5 131.5
t161 51q23 0 51 -5l4 26q10 82 66.5 135.5t149.5 53.5q77 0 130 -38zM300 190l32 228q-13 4 -30 4q-51 0 -76 -67t-25 -156q0 -35 9 -48.5t25 -13.5q31 0 65 53z" />
    <glyph glyph-name="uni01BE" unicode="&#x1be;" horiz-adv-x="461" 
d="M416 367.5q25 -38.5 25 -100.5q0 -83 -34.5 -148.5t-96.5 -101.5t-141 -36q-129 0 -208 96l101 89q24 -25 45.5 -36.5t47.5 -11.5q46 0 70.5 39t24.5 106q0 46 -20 74t-64 41l-38 10l19 134h-57l14 103h57l17 119l187 19l-20 -138h86l-14 -103h-86l-12 -84l25 -11
q47 -21 72 -59.5z" />
    <glyph glyph-name="uni0294" unicode="&#x294;" horiz-adv-x="461" 
d="M130 357l26 9q66 26 96.5 69.5t30.5 110.5q0 40 -16.5 60t-46.5 20q-26 0 -50 -12.5t-52 -38.5l-77 94q51 48 102.5 71t118.5 23q64 0 113.5 -25.5t77.5 -73t28 -111.5q0 -92 -36.5 -150t-112.5 -89l-23 -9l-42 -305h-186z" />
    <glyph glyph-name="uni0296" unicode="&#x296;" horiz-adv-x="461" 
d="M365 763l-46 -325l25 -11q47 -21 72 -59.5t25 -100.5q0 -83 -34.5 -148.5t-96.5 -101.5t-141 -36q-129 0 -208 96l101 89q24 -25 45.5 -36.5t47.5 -11.5q46 0 70.5 39t24.5 106q0 46 -20 74t-64 41l-38 10l50 356z" />
    <glyph glyph-name="uni0295" unicode="&#x295;" horiz-adv-x="455" 
d="M115 0l43 306l-19 12q-46 29 -68.5 64.5t-22.5 96.5q0 81 36 146t99 101.5t141 36.5q65 0 113.5 -24t88.5 -72l-99 -90q-22 25 -44 37t-49 12q-42 0 -69 -37.5t-27 -106.5q0 -45 20.5 -72t66.5 -45l26 -10l-50 -355h-186z" />
    <glyph glyph-name="uni0242" unicode="&#x242;" horiz-adv-x="429" 
d="M91 206l33 11q54 17 82 49t28 86q0 30 -13 47t-35 17q-23 0 -43.5 -11.5t-44.5 -33.5l-73 94q43 43 92 65.5t108 22.5q58 0 103 -23.5t70 -66t25 -97.5q0 -79 -31.5 -128.5t-93.5 -73.5l-28 -11l-21 -153h-186z" />
    <glyph glyph-name="uni02A1" unicode="&#x2a1;" horiz-adv-x="461" 
d="M309 305l-11 -80h83l-15 -103h-82l-17 -122h-186l17 122h-60l14 103h60l18 132l26 9q66 26 96.5 69.5t30.5 110.5q0 40 -16.5 60t-46.5 20q-26 0 -50 -12.5t-52 -38.5l-77 94q51 48 102.5 71t118.5 23q64 0 113.5 -25.5t77.5 -73t28 -111.5q0 -92 -36.5 -150t-112.5 -89z
" />
    <glyph glyph-name="uni02A2" unicode="&#x2a2;" horiz-adv-x="455" 
d="M437.5 739q48.5 -24 88.5 -72l-99 -90q-22 25 -44 37t-49 12q-42 0 -69 -37.5t-27 -106.5q0 -45 20.5 -72t66.5 -45l26 -10l-18 -130h60l-15 -103h-60l-17 -122h-186l17 122h-82l15 103h82l11 81l-19 12q-46 29 -68.5 64.5t-22.5 96.5q0 81 36 146t99 101.5t141 36.5
q65 0 113.5 -24z" />
    <glyph glyph-name="uni0261" unicode="&#x261;" horiz-adv-x="525" 
d="M424 538.5q55 -14.5 104 -42.5l-64 -452q-20 -140 -85 -205t-193 -65q-51 0 -101.5 15.5t-93.5 43.5l63 120q67 -39 127 -39q40 0 65 20t33 75l8 55q-50 -65 -122 -65q-74 0 -113.5 54t-39.5 146t30.5 172.5t98.5 131t174 50.5q54 0 109 -14.5zM226 355q-25 -67 -25 -156
q0 -35 9 -48.5t25 -13.5q31 0 65 53l32 228q-13 4 -30 4q-51 0 -76 -67z" />
    <glyph glyph-name="uni01E5" unicode="&#x1e5;" horiz-adv-x="522" 
d="M458 7h45l-8 -63h-54q-29 -87 -90.5 -128.5t-162.5 -41.5q-106 0 -196 59l58 110q70 -39 130 -39q63 0 84 40h-93l8 63h100l12 86q-22 -30 -53.5 -47t-70.5 -17q-73 0 -112.5 54t-39.5 143q0 81 30 155.5t97.5 123t172.5 48.5q55 0 110 -14.5t103 -42.5l-64 -452z
M270.5 181q17.5 15 33.5 39l28 198q-13 4 -30 4q-49 0 -73.5 -60.5t-24.5 -133.5q0 -62 33 -62q16 0 33.5 15z" />
    <glyph glyph-name="uni021D" unicode="&#x21d;" horiz-adv-x="443" 
d="M375.5 515.5q49.5 -37.5 49.5 -103.5q0 -55 -36 -89t-99 -49q60 0 91.5 -26t31.5 -72q0 -104 -101.5 -176.5t-303.5 -111.5l3 124q109 37 160 74.5t51 87.5q0 30 -38 30h-79l28 116h40q30 0 46 17t16 49q0 40 -39 40q-21 0 -42 -7.5t-48 -23.5l-68 97q47 32 95.5 46.5
t106.5 14.5q86 0 135.5 -37.5z" />
    <glyph glyph-name="h" unicode="h" horiz-adv-x="508" 
d="M470.5 520.5q28.5 -32.5 28.5 -90.5q0 -17 -3 -37l-56 -393h-186l49 351q1 7 1 18q0 12 -3 16.5t-9 4.5q-13 0 -29 -24t-41 -78l-40 -288h-186l104 744l188 19l-42 -306q24 41 62.5 68.5t83.5 27.5q50 0 78.5 -32.5z" />
    <glyph glyph-name="hbar" unicode="&#x127;" horiz-adv-x="517" 
d="M479.5 520.5q28.5 -32.5 28.5 -90.5q0 -17 -3 -37l-56 -393h-186l49 351q1 7 1 18q0 12 -3 16.5t-9 4.5q-13 0 -29 -24t-41 -78l-40 -288h-186l83 591h-42l14 103h42l7 50l188 19l-9 -69h114l-29 -103h-100l-18 -134q24 41 62.5 68.5t83.5 27.5q50 0 78.5 -32.5z" />
    <glyph glyph-name="uni021F" unicode="&#x21f;" horiz-adv-x="508" 
d="M470.5 520.5q28.5 -32.5 28.5 -90.5q0 -17 -3 -37l-56 -393h-186l49 351q1 7 1 18q0 12 -3 16.5t-9 4.5q-13 0 -29 -24t-41 -78l-40 -288h-186l104 744l188 19l-42 -306q24 41 62.5 68.5t83.5 27.5q50 0 78.5 -32.5zM471 1007l61 -73l-150 -138h-110l-116 144l72 67
l111 -87z" />
    <glyph glyph-name="hcircumflex" unicode="&#x125;" horiz-adv-x="508" 
d="M470.5 520.5q28.5 -32.5 28.5 -90.5q0 -17 -3 -37l-56 -393h-186l49 351q1 7 1 18q0 12 -3 16.5t-9 4.5q-13 0 -29 -24t-41 -78l-40 -288h-186l104 744l188 19l-42 -306q24 41 62.5 68.5t83.5 27.5q50 0 78.5 -32.5zM204 802l-61 74l150 138h111l115 -144l-72 -68
l-111 87z" />
    <glyph glyph-name="uni1E25" unicode="&#x1e25;" horiz-adv-x="508" 
d="M470.5 520.5q28.5 -32.5 28.5 -90.5q0 -17 -3 -37l-56 -393h-186l49 351q1 7 1 18q0 12 -3 16.5t-9 4.5q-13 0 -29 -24t-41 -78l-40 -288h-186l104 744l188 19l-42 -306q24 41 62.5 68.5t83.5 27.5q50 0 78.5 -32.5zM276 -78.5q25 -24.5 25 -64.5q0 -50 -34 -83t-83 -33
q-43 0 -68 24.5t-25 64.5q0 50 33.5 83t83.5 33q43 0 68 -24.5z" />
    <glyph glyph-name="uni0267" unicode="&#x267;" horiz-adv-x="507" 
d="M469.5 520.5q28.5 -32.5 28.5 -90.5q0 -17 -3 -37l-55 -393l-4 -29q-15 -98 -76 -147.5t-155 -49.5q-85 0 -140 46l74 107q18 -10 30 -14t28 -4q22 0 35 12.5t16 35.5l6 43l50 351q2 14 2 19q0 20 -13 20t-30 -24t-41 -78l-41 -288h-186l75 533l7 47q12 81 70 132t157 51
q39 0 77 -10.5t64 -26.5l-65 -117q-34 17 -65 17q-24 0 -37 -14t-17 -47l-5 -32l-9 -76q22 41 60 68.5t82 27.5q52 0 80.5 -32.5z" />
    <glyph glyph-name="uni0266" unicode="&#x266;" horiz-adv-x="507" 
d="M469.5 520.5q28.5 -32.5 28.5 -90.5q0 -17 -3 -37l-55 -393h-186l50 351q2 14 2 19q0 20 -13 20t-30 -24t-41 -78l-41 -288h-186l75 533l7 47q12 81 70 132t157 51q39 0 77 -10.5t64 -26.5l-65 -117q-34 17 -65 17q-24 0 -37 -14t-17 -47l-5 -32l-9 -76q22 41 60 68.5
t82 27.5q52 0 80.5 -32.5z" />
    <glyph glyph-name="uni0265" unicode="&#x265;" 
d="M261 65q-25 -37 -60 -61t-81 -24q-52 0 -81.5 33.5t-29.5 91.5q0 17 3 35l55 394h186l-50 -353q-1 -7 -1 -17q0 -12 3.5 -17t10.5 -5q13 0 30.5 19t34.5 50l45 323h186l-104 -741l-187 -20z" />
    <glyph glyph-name="uni02AE" unicode="&#x2ae;" horiz-adv-x="627" 
d="M634 534l-103 -741l-187 -20l40 292q-25 -37 -60 -61t-81 -24q-52 0 -81.5 34t-29.5 94q0 10 2 32l24 187l6 43l1 10q0 38 -39 38q-17 0 -29.5 -3.5t-30.5 -12.5l-46 108q65 43 151 43q84 0 131 -42.5t47 -123.5q0 -24 -2 -36l-3 -24l-18 -146q-1 -7 -1 -17q0 -22 14 -22
q13 0 30.5 19t34.5 50l44 323h186z" />
    <glyph glyph-name="uni02AF" unicode="&#x2af;" horiz-adv-x="627" 
d="M698 -183q-65 -43 -151 -43q-84 0 -131 42.5t-47 123.5q0 24 2 36l3 24l7 60q-24 -34 -58.5 -57t-79.5 -23q-52 0 -81.5 34t-29.5 94q0 10 2 32l24 187l6 43l1 10q0 38 -39 38q-17 0 -29.5 -3.5t-30.5 -12.5l-46 108q65 43 151 43q84 0 131 -42.5t47 -123.5q0 -24 -2 -36
l-3 -24l-18 -146q-1 -7 -1 -17q0 -22 14 -22q13 0 30.5 19t34.5 50l44 323h186l-74 -534l-6 -43l-1 -10q0 -38 39 -38q17 0 29.5 3.5t30.5 12.5z" />
    <glyph glyph-name="uni0195" unicode="&#x195;" horiz-adv-x="765" 
d="M324 28q-47 47 -47 117q0 9 2 29l24 177q1 7 1 18q0 12 -3 16.5t-9 4.5q-13 0 -28.5 -23.5t-40.5 -78.5l-41 -288h-186l104 744l188 19l-42 -306q24 41 62.5 68.5t83.5 27.5q50 0 78.5 -32.5t28.5 -90.5q0 -17 -3 -37l-31 -222q-2 -14 -2 -21q0 -33 25 -33q48 0 68 106.5
t20 226.5q0 42 -3 84h175q7 -56 7 -98q0 -143 -22.5 -241t-86 -156t-180.5 -58q-95 0 -142 47z" />
    <glyph glyph-name="i" unicode="i" horiz-adv-x="254" 
d="M257 534l-74 -534h-186l74 534h186zM111 644.5q-25 24.5 -25 64.5q0 50 34 83t83 33q43 0 68 -24.5t25 -64.5q0 -50 -33.5 -83t-83.5 -33q-43 0 -68 24.5z" />
    <glyph glyph-name="dotlessi" unicode="&#x131;" horiz-adv-x="254" 
d="M257 534l-74 -534h-186l74 534h186z" />
    <glyph glyph-name="iacute" unicode="&#xed;" horiz-adv-x="254" 
d="M257 534l-74 -534h-186l74 534h186zM270 847l59 -134l-239 -98l-45 91z" />
    <glyph glyph-name="ibreve" unicode="&#x12d;" horiz-adv-x="254" 
d="M257 534l-74 -534h-186l74 534h186zM65.5 675q-36.5 48 -36.5 123q0 15 1 22l96 14q2 -36 17.5 -57t43.5 -21q29 0 50 21.5t33 58.5l92 -19q-15 -82 -62.5 -136t-123.5 -54q-74 0 -110.5 48z" />
    <glyph glyph-name="uni01D0" unicode="&#x1d0;" horiz-adv-x="254" 
d="M257 534l-74 -534h-186l74 534h186zM321 825l59 -73l-150 -148h-111l-109 148l68 73l108 -96z" />
    <glyph glyph-name="icircumflex" unicode="&#xee;" horiz-adv-x="254" 
d="M257 534l-74 -534h-186l74 534h186zM56 615l-58 73l151 148h111l113 -153l-74 -68l-108 96z" />
    <glyph glyph-name="uni0209" unicode="&#x209;" horiz-adv-x="254" 
d="M257 534l-74 -534h-186l74 534h186zM91 874l66 -211l-98 -42l-95 197zM262 874l59 -213l-98 -36l-88 198z" />
    <glyph glyph-name="idieresis" unicode="&#xef;" horiz-adv-x="254" 
d="M257 534l-74 -534h-186l74 534h186zM9.5 656.5q-21.5 21.5 -21.5 56.5q0 43 29.5 72t71.5 29q38 0 59.5 -21.5t21.5 -56.5q0 -43 -29.5 -72t-72.5 -29q-37 0 -58.5 21.5zM232.5 656.5q-21.5 21.5 -21.5 56.5q0 43 29 72t72 29q37 0 58.5 -21.5t21.5 -56.5q0 -43 -29 -72
t-72 -29q-37 0 -58.5 21.5z" />
    <glyph glyph-name="uni1E2F" unicode="&#x1e2f;" horiz-adv-x="254" 
d="M257 534l-74 -534h-186l74 534h186zM276 977l87 -95l-179 -151l-63 60zM-16.5 611.5q-21.5 21.5 -21.5 56.5q0 43 30 72t72 29q37 0 58.5 -21.5t21.5 -56.5q0 -43 -29.5 -72t-72.5 -29q-37 0 -58.5 21.5zM225.5 611.5q-21.5 21.5 -21.5 56.5q0 43 29.5 72t71.5 29
q37 0 58.5 -21.5t21.5 -56.5q0 -43 -29.5 -72t-71.5 -29q-37 0 -58.5 21.5z" />
    <glyph glyph-name="i.loclTRK" horiz-adv-x="254" 
d="M257 534l-74 -534h-186l74 534h186zM111 644.5q-25 24.5 -25 64.5q0 50 34 83t83 33q43 0 68 -24.5t25 -64.5q0 -50 -33.5 -83t-83.5 -33q-43 0 -68 24.5z" />
    <glyph glyph-name="uni1ECB" unicode="&#x1ecb;" horiz-adv-x="254" 
d="M257 534l-74 -534h-186l74 534h186zM111 644.5q-25 24.5 -25 64.5q0 50 34 83t83 33q43 0 68 -24.5t25 -64.5q0 -50 -33.5 -83t-83.5 -33q-43 0 -68 24.5zM147 -78.5q25 -24.5 25 -64.5q0 -50 -34 -83t-83 -33q-43 0 -68 24.5t-25 64.5q0 50 33.5 83t83.5 33
q43 0 68 -24.5z" />
    <glyph glyph-name="igrave" unicode="&#xec;" horiz-adv-x="254" 
d="M257 534l-74 -534h-186l74 534h186zM143 846l192 -143l-53 -85l-218 95z" />
    <glyph glyph-name="uni1EC9" unicode="&#x1ec9;" horiz-adv-x="254" 
d="M257 534l-74 -534h-186l74 534h186zM137 704q36 2 52 11.5t16 29.5q0 12 -6.5 17.5t-22.5 5.5q-24 0 -55 -13l-17 74q46 26 104 26q56 0 86 -27t30 -71q0 -42 -25 -69t-68 -36l-7 -50h-101z" />
    <glyph glyph-name="uni020B" unicode="&#x20b;" horiz-adv-x="254" 
d="M257 534l-74 -534h-186l74 534h186zM6 613q17 83 66.5 136.5t127.5 53.5q75 0 111 -47.5t36 -122.5q0 -14 -1 -22l-99 -14q-5 77 -60 77q-30 0 -52 -21.5t-34 -58.5z" />
    <glyph glyph-name="ij" unicode="&#x133;" horiz-adv-x="507" 
d="M257 534l-74 -534h-186l74 534h186zM111 644.5q-25 24.5 -25 64.5q0 50 34 83t83 33q43 0 68 -24.5t25 -64.5q0 -50 -33.5 -83t-83.5 -33q-43 0 -68 24.5zM140 -91q56 22 83 55t36 99l66 471h186l-65 -461q-13 -92 -50 -150.5t-89 -91t-124 -57.5zM365 644.5
q-25 24.5 -25 64.5q0 50 34 83t83 33q43 0 68 -24.5t25 -64.5q0 -50 -33.5 -83t-83.5 -33q-43 0 -68 24.5z" />
    <glyph glyph-name="imacron" unicode="&#x12b;" horiz-adv-x="254" 
d="M257 534l-74 -534h-186l74 534h186zM325 649h-292l19 130h293z" />
    <glyph glyph-name="iogonek" unicode="&#x12f;" horiz-adv-x="254" 
d="M271 800.5q25 -24.5 25 -64.5q0 -50 -33.5 -83t-83.5 -33q-43 0 -68 24.5t-25 64.5q0 50 34 83t83 33q43 0 68 -24.5zM71 534h186l-74 -534h-41q-66 -25 -91 -54t-25 -54q0 -33 40 -33q15 0 53 6l-26 -109q-30 -8 -67 -8q-57 0 -93.5 30t-36.5 83q0 91 102 149z" />
    <glyph glyph-name="uni0269" unicode="&#x269;" horiz-adv-x="268" 
d="M66 534h185l-50 -375q-1 -4 -1 -10q0 -19 17 -19q7 0 17 2l14 -131q-21 -9 -49.5 -14.5t-56.5 -5.5q-64 0 -98 33.5t-34 95.5q0 22 2 34z" />
    <glyph glyph-name="uni0268" unicode="&#x268;" horiz-adv-x="311" 
d="M140 644.5q-25 24.5 -25 64.5q0 50 34 83t83 33q43 0 68 -24.5t25 -64.5q0 -50 -33.5 -83t-83.5 -33q-43 0 -68 24.5zM286 534l-26 -188h60l-19 -129h-59l-30 -217h-186l30 217h-62l20 129h60l26 188h186z" />
    <glyph glyph-name="itilde" unicode="&#x129;" horiz-adv-x="254" 
d="M257 534l-74 -534h-186l74 534h186zM203 631.5q-14 6.5 -31 18.5q-13 9 -21.5 13.5t-16.5 4.5q-15 0 -26.5 -10.5t-26.5 -33.5l-79 46q27 57 64.5 94t78.5 37q20 0 34 -7t33 -20q11 -9 19 -13t16 -4q14 0 25 10t25 33l80 -44q-26 -57 -64.5 -94t-79.5 -37q-16 0 -30 6.5z
" />
    <glyph glyph-name="j" unicode="j" horiz-adv-x="253" 
d="M-114 -91q56 22 83 55t36 99l66 471h186l-65 -461q-13 -92 -50 -150.5t-89 -91t-124 -57.5zM111 644.5q-25 24.5 -25 64.5q0 50 34 83t83 33q43 0 68 -24.5t25 -64.5q0 -50 -33.5 -83t-83.5 -33q-43 0 -68 24.5z" />
    <glyph glyph-name="uni0237" unicode="&#x237;" horiz-adv-x="253" 
d="M-114 -91q56 22 83 55t36 99l66 471h186l-65 -461q-13 -92 -50 -150.5t-89 -91t-124 -57.5z" />
    <glyph glyph-name="uni01F0" unicode="&#x1f0;" horiz-adv-x="253" 
d="M-114 -91q56 22 83 55t36 99l66 471h186l-65 -461q-13 -92 -50 -150.5t-89 -91t-124 -57.5zM321 825l59 -73l-150 -148h-111l-109 148l68 73l108 -96z" />
    <glyph glyph-name="jcircumflex" unicode="&#x135;" horiz-adv-x="253" 
d="M-114 -91q56 22 83 55t36 99l66 471h186l-65 -461q-13 -92 -50 -150.5t-89 -91t-124 -57.5zM56 615l-58 73l151 148h111l113 -153l-74 -68l-108 96z" />
    <glyph glyph-name="uni029D" unicode="&#x29d;" horiz-adv-x="349" 
d="M350 800.5q25 -24.5 25 -64.5q0 -50 -33.5 -83t-83.5 -33q-43 0 -68 24.5t-25 64.5q0 50 34 83t83 33q43 0 68 -24.5zM264 15l-3 -22q41 -13 74 -36l-39 -72q-20 12 -58 26q-27 -68 -78.5 -102.5t-134.5 -34.5q-65 0 -99.5 32t-34.5 87q0 62 41 98.5t105 36.5q30 0 42 -3
l71 509h186zM50 -117.5q12 16.5 17 56.5l1 5q-18 2 -30 2q-24 0 -36.5 -13t-12.5 -35q0 -32 28 -32q21 0 33 16.5z" />
    <glyph glyph-name="uni025F" unicode="&#x25f;" horiz-adv-x="317" 
d="M304 186h-60l-16 -113q-13 -92 -50 -150.5t-89 -91t-124 -57.5l-43 135q56 22 83 55t36 99l17 123h-61l19 131h61l30 217h186l-31 -217h60z" />
    <glyph glyph-name="uni0284" unicode="&#x284;" horiz-adv-x="346" 
d="M463 725l-66 -113q-25 14 -50 14q-20 0 -29.5 -12t-13.5 -39l-7 -41h1l-57 -403h59l-19 -131h-64q-29 -94 -90.5 -143.5t-156.5 -82.5l-41 132q43 18 67 38.5t37 55.5h-59l19 131h63l56 402h-1l6 41q10 82 66.5 135.5t149.5 53.5q77 0 130 -38z" />
    <glyph glyph-name="uni0249" unicode="&#x249;" horiz-adv-x="317" 
d="M304 186h-60l-16 -113q-13 -92 -50 -150.5t-89 -91t-124 -57.5l-43 135q56 22 83 55t36 99l17 123h-61l19 131h61l30 217h186l-31 -217h60zM147 644.5q-25 24.5 -25 64.5q0 50 34 83t83 33q43 0 68 -24.5t25 -64.5q0 -50 -33.5 -83t-83.5 -33q-43 0 -68 24.5z" />
    <glyph glyph-name="k" unicode="k" horiz-adv-x="533" 
d="M250 478q36 39 75 57t85 18q63 0 100 -34.5t37 -91.5q0 -61 -30 -105t-93 -81l71 -241h-197l-63 256q70 29 97 61.5t27 71.5q0 17 -8 26t-23 9q-44 0 -99 -83l-46 -341h-187l104 744l189 19z" />
    <glyph glyph-name="uni01E9" unicode="&#x1e9;" horiz-adv-x="533" 
d="M250 478q36 39 75 57t85 18q63 0 100 -34.5t37 -91.5q0 -61 -30 -105t-93 -81l71 -241h-197l-63 256q70 29 97 61.5t27 71.5q0 17 -8 26t-23 9q-44 0 -99 -83l-46 -341h-187l104 744l189 19zM512 1007l61 -73l-150 -138h-110l-116 144l72 67l111 -87z" />
    <glyph glyph-name="kcommaaccent" unicode="&#x137;" horiz-adv-x="533" 
d="M250 478q36 39 75 57t85 18q63 0 100 -34.5t37 -91.5q0 -61 -30 -105t-93 -81l71 -241h-197l-63 256q70 29 97 61.5t27 71.5q0 17 -8 26t-23 9q-44 0 -99 -83l-46 -341h-187l104 744l189 19zM281.5 -84.5q22.5 -21.5 22.5 -55.5q0 -25 -8.5 -46.5t-29.5 -55.5l-59 -97
h-87l41 117q-31 21 -31 58q0 44 27 72.5t67 28.5q35 0 57.5 -21.5z" />
    <glyph glyph-name="kgreenlandic" unicode="&#x138;" horiz-adv-x="516" 
d="M258 534l-74 -534h-187l74 534h187zM565 534l-152 -250l83 -284h-198l-72 282l148 252h191z" />
    <glyph glyph-name="uni0199" unicode="&#x199;" horiz-adv-x="533" 
d="M517 321.5q-30 -44.5 -94 -80.5l71 -241h-197l-62 256q70 29 97 61.5t27 71.5q0 17 -8.5 26t-23.5 9q-43 0 -98 -83l-47 -341h-187l75 533l7 47q12 81 70 132t157 51q39 0 77 -10.5t64 -26.5l-65 -117q-34 17 -65 17q-24 0 -37 -14t-17 -47l-5 -32l-7 -55q36 39 75 57
t85 18q63 0 100.5 -34.5t37.5 -91.5q0 -61 -30 -105.5z" />
    <glyph glyph-name="uni029E" unicode="&#x29e;" horiz-adv-x="506" 
d="M-54 0l157 248l-83 286h198l66 -292l-147 -242h-191zM223 -226l105 760h186l-104 -742z" />
    <glyph glyph-name="l" unicode="l" horiz-adv-x="267" 
d="M200 159q-1 -4 -1 -11q0 -18 17 -18q8 0 17 3l14 -132q-21 -9 -49.5 -14.5t-56.5 -5.5q-64 0 -98 33.5t-34 94.5q0 23 2 35l84 600l187 19z" />
    <glyph glyph-name="lacute" unicode="&#x13a;" horiz-adv-x="267" 
d="M200 159q-1 -4 -1 -11q0 -18 17 -18q8 0 17 3l14 -132q-21 -9 -49.5 -14.5t-56.5 -5.5q-64 0 -98 33.5t-34 94.5q0 23 2 35l84 600l187 19zM301 1013l59 -134l-240 -88l-42 89z" />
    <glyph glyph-name="uni019B" unicode="&#x19b;" horiz-adv-x="491" 
d="M432 189.5q15 -80.5 49 -151.5l-180 -56q-29 76 -39 156t-9 207l-99 -364l-187 45l208 459l76 -14q-1 46 -9 79l-47 -39l-83 63l68 55q-25 12 -74 18l34 116q53 -9 90.5 -21.5t66.5 -33.5l80 60l52 -88l-66 -51l-2 -1q36 -75 46 -216q10 -142 25 -222.5z" />
    <glyph glyph-name="uni019A" unicode="&#x19a;" horiz-adv-x="318" 
d="M233 159q-1 -4 -1 -11q0 -18 17 -18q8 0 17 3l14 -132q-21 -9 -49.5 -14.5t-56.5 -5.5q-64 0 -98 33.5t-34 94.5q0 23 2 35l23 163h-60l20 129h58l43 308l187 19l-44 -327h62l-19 -129h-61z" />
    <glyph glyph-name="uni026C" unicode="&#x26c;" horiz-adv-x="435" 
d="M358 133l14 -132q-21 -9 -49.5 -14.5t-56.5 -5.5q-64 0 -98 33.5t-34 94.5q0 23 2 35l13 91q-71 2 -107.5 33.5t-36.5 85.5q0 62 40 97.5t104 35.5q16 0 34 -4l37 261l187 19l-58 -428h2q27 2 60 9l2 -92q-36 -11 -75 -14h-2l-11 -79q-1 -4 -1 -11q0 -18 17 -18q8 0 17 3
zM162 332l9 63q-9 3 -18 3q-15 0 -23.5 -9.5t-8.5 -24.5q0 -32 41 -32z" />
    <glyph glyph-name="lcaron" unicode="&#x13e;" horiz-adv-x="367" 
d="M200 159q-1 -4 -1 -11q0 -18 17 -18q8 0 17 3l14 -132q-21 -9 -49.5 -14.5t-56.5 -5.5q-64 0 -98 33.5t-34 94.5q0 23 2 35l84 600l187 19zM325 759l129 -16l-76 -231l-92 8z" />
    <glyph glyph-name="uni1E3D" unicode="&#x1e3d;" horiz-adv-x="267" 
d="M200 159q-1 -4 -1 -11q0 -18 17 -18q8 0 17 3l14 -132q-21 -9 -49.5 -14.5t-56.5 -5.5q-64 0 -98 33.5t-34 94.5q0 23 2 35l84 600l187 19zM-30 -282l-59 73l151 148h111l113 -153l-74 -68l-108 96z" />
    <glyph glyph-name="lcommaaccent" unicode="&#x13c;" horiz-adv-x="267" 
d="M200 159q-1 -4 -1 -11q0 -18 17 -18q8 0 17 3l14 -132q-21 -9 -49.5 -14.5t-56.5 -5.5q-64 0 -98 33.5t-34 94.5q0 23 2 35l84 600l187 19zM171.5 -84.5q22.5 -21.5 22.5 -55.5q0 -25 -8.5 -46.5t-29.5 -55.5l-59 -97h-87l41 117q-31 21 -31 58q0 44 27 72.5t67 28.5
q35 0 57.5 -21.5z" />
    <glyph glyph-name="uni0234" unicode="&#x234;" horiz-adv-x="453" 
d="M405.5 227q29.5 -28 29.5 -76q0 -83 -56 -126.5t-144 -43.5q-15 0 -39 2l-39 -72l-74 34l33 56q-50 21 -75.5 60.5t-25.5 94.5q0 18 3 37l77 551l188 19l-83 -596q-1 -5 -1 -15q26 57 57 80t75 23q45 0 74.5 -28zM306.5 121q11.5 10 11.5 26t-15 16q-11 0 -20.5 -11.5
t-22.5 -40.5h15q20 0 31.5 10z" />
    <glyph glyph-name="ldot" unicode="&#x140;" horiz-adv-x="467" 
d="M200 159q-1 -4 -1 -11q0 -18 17 -18q8 0 17 3l14 -132q-21 -9 -49.5 -14.5t-56.5 -5.5q-64 0 -98 33.5t-34 94.5q0 23 2 35l84 600l187 19zM289 295.5q-25 24.5 -25 64.5q0 50 34 83t83 33q43 0 68 -24.5t25 -64.5q0 -50 -33.5 -83t-83.5 -33q-43 0 -68 24.5z" />
    <glyph glyph-name="uni1E37" unicode="&#x1e37;" horiz-adv-x="267" 
d="M200 159q-1 -4 -1 -11q0 -18 17 -18q8 0 17 3l14 -132q-21 -9 -49.5 -14.5t-56.5 -5.5q-64 0 -98 33.5t-34 94.5q0 23 2 35l84 600l187 19zM187 -78.5q25 -24.5 25 -64.5q0 -50 -34 -83t-83 -33q-43 0 -68 24.5t-25 64.5q0 50 33.5 83t83.5 33q43 0 68 -24.5z" />
    <glyph glyph-name="uni026E" unicode="&#x26e;" horiz-adv-x="663" 
d="M640 407l-175 -195q78 -10 118 -51.5t40 -114.5q0 -83 -38 -144.5t-104 -95t-149 -33.5q-131 0 -199 95l105 98q24 -27 46 -38.5t51 -11.5q45 0 72 32.5t27 93.5q0 38 -20 53.5t-58 15.5h-92l14 104l160 180h-206l-32 -236q-1 -4 -1 -11q0 -18 17 -18q8 0 17 3l14 -132
q-21 -9 -49.5 -14.5t-56.5 -5.5q-64 0 -98 33.5t-34 94.5q0 23 2 35l84 600l187 19l-31 -229h407z" />
    <glyph glyph-name="uni026D" unicode="&#x26d;" horiz-adv-x="253" 
d="M320 -183q-65 -43 -151 -43q-84 0 -131 42.5t-47 123.5q0 24 2 36l3 24l104 744l188 19l-106 -763l-6 -43l-1 -10q0 -38 39 -38q17 0 29.5 3.5t30.5 12.5z" />
    <glyph glyph-name="uni01C9" unicode="&#x1c9;" horiz-adv-x="520" 
d="M200 159q-1 -4 -1 -11q0 -18 17 -18q8 0 17 3l14 -132q-21 -9 -49.5 -14.5t-56.5 -5.5q-64 0 -98 33.5t-34 94.5q0 23 2 35l84 600l187 19zM153 -91q56 22 83 55t36 99l66 471h186l-65 -461q-13 -92 -50 -150.5t-89 -91t-124 -57.5zM378 644.5q-25 24.5 -25 64.5
q0 50 34 83t83 33q43 0 68 -24.5t25 -64.5q0 -50 -33.5 -83t-83.5 -33q-43 0 -68 24.5z" />
    <glyph glyph-name="uni026B" unicode="&#x26b;" horiz-adv-x="457" 
d="M303 159q-1 -4 -1 -11q0 -18 17 -18q8 0 17 3l14 -132q-21 -9 -49.5 -14.5t-56.5 -5.5q-64 0 -98 33.5t-34 94.5q0 23 2 35l25 179q-17 -3 -28.5 -14.5t-30.5 -37.5l-85 53q39 62 76.5 98t87.5 41l39 281l187 19l-48 -357q15 3 25.5 14.5t26.5 35.5l88 -52
q-38 -60 -74.5 -96t-85.5 -43z" />
    <glyph glyph-name="uni02AA" unicode="&#x2aa;" horiz-adv-x="633" 
d="M84.5 26q-66.5 45 -66.5 145q0 27 4 52l73 521l188 19l-77 -550q-2 -20 -2 -28q0 -41 25 -57t84 -16q64 0 94 13t30 39q0 17 -14.5 29t-58.5 31q-56 25 -80.5 57.5t-24.5 88.5q0 52 27 93.5t74.5 65.5t107.5 24q51 0 94.5 -18t75.5 -49l-77 -98q-47 33 -86 33
q-21 0 -32.5 -9t-11.5 -25q0 -18 13.5 -29.5t57.5 -29.5q56 -23 83.5 -56.5t27.5 -88.5q0 -104 -85.5 -153t-240.5 -49q-136 0 -202.5 45z" />
    <glyph glyph-name="lslash" unicode="&#x142;" horiz-adv-x="333" 
d="M271 133l14 -132q-21 -9 -49.5 -14.5t-56.5 -5.5q-64 0 -98 33.5t-34 94.5q0 23 2 35l16 111l-41 -24l-28 106l87 53l50 354l187 19l-34 -251l51 31l26 -109l-95 -57l-30 -218q-1 -4 -1 -11q0 -18 17 -18q8 0 17 3z" />
    <glyph glyph-name="uni02AB" unicode="&#x2ab;" horiz-adv-x="670" 
d="M674 402l-220 -261h192l-36 -141h-370q-50 -19 -97 -19q-66 0 -100.5 33.5t-34.5 94.5q0 17 3 36l84 599l187 19l-82 -604q-1 -4 -1 -10q0 -19 17 -19q8 0 16 2l219 263h-166l20 139h387z" />
    <glyph glyph-name="m" unicode="m" horiz-adv-x="743" 
d="M705.5 520.5q28.5 -32.5 28.5 -90.5q0 -17 -3 -37l-55 -393h-186l49 351l2 20q0 22 -12 22t-25.5 -22.5t-32.5 -73.5l-42 -297h-186l49 351l2 20q0 22 -13 22q-23 0 -57 -102l-41 -291h-186l74 534h162l1 -77q28 45 65 70.5t80 25.5t70.5 -23t35.5 -66q27 41 63.5 65
t77.5 24q51 0 79.5 -32.5z" />
    <glyph glyph-name="uni1E3F" unicode="&#x1e3f;" horiz-adv-x="743" 
d="M705.5 520.5q28.5 -32.5 28.5 -90.5q0 -17 -3 -37l-55 -393h-186l49 351l2 20q0 22 -12 22t-25.5 -22.5t-32.5 -73.5l-42 -297h-186l49 351l2 20q0 22 -13 22q-23 0 -57 -102l-41 -291h-186l74 534h162l1 -77q28 45 65 70.5t80 25.5t70.5 -23t35.5 -66q27 41 63.5 65
t77.5 24q51 0 79.5 -32.5zM521 847l59 -134l-239 -98l-45 91z" />
    <glyph glyph-name="uni1E41" unicode="&#x1e41;" horiz-adv-x="743" 
d="M705.5 520.5q28.5 -32.5 28.5 -90.5q0 -17 -3 -37l-55 -393h-186l49 351l2 20q0 22 -12 22t-25.5 -22.5t-32.5 -73.5l-42 -297h-186l49 351l2 20q0 22 -13 22q-23 0 -57 -102l-41 -291h-186l74 534h162l1 -77q28 45 65 70.5t80 25.5t70.5 -23t35.5 -66q27 41 63.5 65
t77.5 24q51 0 79.5 -32.5zM362 644.5q-25 24.5 -25 64.5q0 50 34 83t83 33q43 0 68 -24.5t25 -64.5q0 -50 -33.5 -83t-83.5 -33q-43 0 -68 24.5z" />
    <glyph glyph-name="uni0271" unicode="&#x271;" horiz-adv-x="743" 
d="M705.5 520.5q28.5 -32.5 28.5 -90.5q0 -17 -3 -37l-55 -393l-4 -29q-15 -98 -76 -147.5t-155 -49.5q-85 0 -140 46l74 107q18 -10 30 -14t28 -4q22 0 35 12.5t16 35.5l55 394l2 20q0 22 -12 22t-25.5 -22.5t-32.5 -73.5l-42 -297h-186l49 351l2 20q0 22 -13 22
q-23 0 -57 -102l-41 -291h-186l74 534h162l1 -77q28 45 65 70.5t80 25.5t70.5 -23t35.5 -66q27 41 63.5 65t77.5 24q51 0 79.5 -32.5z" />
    <glyph glyph-name="uni0270" unicode="&#x270;" horiz-adv-x="739" 
d="M747 534l-104 -741l-187 -19l38 284q-25 -35 -58 -56.5t-71 -21.5q-42 0 -70.5 23t-36.5 67q-28 -41 -64.5 -65.5t-75.5 -24.5q-52 0 -80.5 32.5t-28.5 90.5q0 18 3 37l55 394h186l-50 -352q-2 -16 -2 -20q0 -21 13 -21q12 0 26.5 21.5t29.5 61.5l44 310h186l-50 -352
q-2 -16 -2 -20q0 -21 13 -21q12 0 27.5 23.5t30.5 66.5l42 303h186z" />
    <glyph glyph-name="uni026F" unicode="&#x26f;" horiz-adv-x="743" 
d="M746 534l-74 -534h-162l-1 77q-28 -45 -65 -70.5t-80 -25.5t-70.5 23t-35.5 66q-27 -41 -63.5 -65t-77.5 -24q-51 0 -79.5 32.5t-28.5 90.5q0 18 3 37l55 393h186l-49 -351l-2 -20q0 -22 12 -22t25.5 22.5t32.5 73.5l42 297h186l-49 -351l-2 -20q0 -22 13 -22
q23 0 57 102l41 291h186z" />
    <glyph glyph-name="n" unicode="n" horiz-adv-x="508" 
d="M471.5 520.5q28.5 -32.5 28.5 -90.5q0 -17 -3 -37l-56 -393h-186l49 351q1 7 1 18q0 12 -3 16.5t-9 4.5q-13 0 -28.5 -23.5t-40.5 -78.5l-41 -288h-186l74 534h162l1 -83q29 46 70 74t88 28q51 0 79.5 -32.5z" />
    <glyph glyph-name="nacute" unicode="&#x144;" horiz-adv-x="508" 
d="M471.5 520.5q28.5 -32.5 28.5 -90.5q0 -17 -3 -37l-56 -393h-186l49 351q1 7 1 18q0 12 -3 16.5t-9 4.5q-13 0 -28.5 -23.5t-40.5 -78.5l-41 -288h-186l74 534h162l1 -83q29 46 70 74t88 28q51 0 79.5 -32.5zM402 847l59 -134l-239 -98l-45 91z" />
    <glyph glyph-name="napostrophe" unicode="&#x149;" horiz-adv-x="633" 
d="M212 743.5q18 -19.5 16 -49.5q-1 -18 -8 -35t-23 -44l-48 -80h-74l34 96q-24 16 -24 48q0 36 22.5 60t55.5 24q31 0 49 -19.5zM596.5 520.5q28.5 -32.5 28.5 -90.5q0 -17 -3 -37l-56 -393h-186l49 351q1 7 1 18q0 12 -3 16.5t-9 4.5q-13 0 -28.5 -23.5t-40.5 -78.5
l-41 -288h-186l74 534h162l1 -83q29 46 70 74t88 28q51 0 79.5 -32.5z" />
    <glyph glyph-name="ncaron" unicode="&#x148;" horiz-adv-x="508" 
d="M471.5 520.5q28.5 -32.5 28.5 -90.5q0 -17 -3 -37l-56 -393h-186l49 351q1 7 1 18q0 12 -3 16.5t-9 4.5q-13 0 -28.5 -23.5t-40.5 -78.5l-41 -288h-186l74 534h162l1 -83q29 46 70 74t88 28q51 0 79.5 -32.5zM453 825l59 -73l-150 -148h-111l-109 148l68 73l108 -96z" />
    <glyph glyph-name="uni1E4B" unicode="&#x1e4b;" horiz-adv-x="508" 
d="M471.5 520.5q28.5 -32.5 28.5 -90.5q0 -17 -3 -37l-56 -393h-186l49 351q1 7 1 18q0 12 -3 16.5t-9 4.5q-13 0 -28.5 -23.5t-40.5 -78.5l-41 -288h-186l74 534h162l1 -83q29 46 70 74t88 28q51 0 79.5 -32.5zM60 -282l-59 73l151 148h111l113 -153l-74 -68l-108 96z" />
    <glyph glyph-name="ncommaaccent" unicode="&#x146;" horiz-adv-x="508" 
d="M471.5 520.5q28.5 -32.5 28.5 -90.5q0 -17 -3 -37l-56 -393h-186l49 351q1 7 1 18q0 12 -3 16.5t-9 4.5q-13 0 -28.5 -23.5t-40.5 -78.5l-41 -288h-186l74 534h162l1 -83q29 46 70 74t88 28q51 0 79.5 -32.5zM261.5 -84.5q22.5 -21.5 22.5 -55.5q0 -25 -8.5 -46.5
t-29.5 -55.5l-59 -97h-87l41 117q-31 21 -31 58q0 44 27 72.5t67 28.5q35 0 57.5 -21.5z" />
    <glyph glyph-name="uni0235" unicode="&#x235;" horiz-adv-x="718" 
d="M671 227q29 -28 29 -76q0 -83 -56 -126.5t-144 -43.5q-15 0 -39 2l-38 -72l-75 34l33 56q-49 21 -74 60t-25 94q0 19 3 38l21 158q1 7 1 18q0 21 -13 21t-29.5 -24.5t-40.5 -77.5l-41 -288h-186l74 534h162l1 -83q29 46 70 74t87 28q52 0 80.5 -32.5t28.5 -90.5
q0 -17 -3 -37l-30 -214q-2 -17 -1 -23q26 54 56.5 76.5t74.5 22.5q45 0 74 -28zM571.5 121q11.5 10 11.5 26t-14 16q-12 0 -21.5 -11.5t-21.5 -40.5h15q19 0 30.5 10z" />
    <glyph glyph-name="uni1E45" unicode="&#x1e45;" horiz-adv-x="508" 
d="M471.5 520.5q28.5 -32.5 28.5 -90.5q0 -17 -3 -37l-56 -393h-186l49 351q1 7 1 18q0 12 -3 16.5t-9 4.5q-13 0 -28.5 -23.5t-40.5 -78.5l-41 -288h-186l74 534h162l1 -83q29 46 70 74t88 28q51 0 79.5 -32.5zM243 644.5q-25 24.5 -25 64.5q0 50 34 83t83 33
q43 0 68 -24.5t25 -64.5q0 -50 -33.5 -83t-83.5 -33q-43 0 -68 24.5z" />
    <glyph glyph-name="uni1E47" unicode="&#x1e47;" horiz-adv-x="508" 
d="M471.5 520.5q28.5 -32.5 28.5 -90.5q0 -17 -3 -37l-56 -393h-186l49 351q1 7 1 18q0 12 -3 16.5t-9 4.5q-13 0 -28.5 -23.5t-40.5 -78.5l-41 -288h-186l74 534h162l1 -83q29 46 70 74t88 28q51 0 79.5 -32.5zM277 -78.5q25 -24.5 25 -64.5q0 -50 -34 -83t-83 -33
q-43 0 -68 24.5t-25 64.5q0 50 33.5 83t83.5 33q43 0 68 -24.5z" />
    <glyph glyph-name="uni01F9" unicode="&#x1f9;" horiz-adv-x="508" 
d="M471.5 520.5q28.5 -32.5 28.5 -90.5q0 -17 -3 -37l-56 -393h-186l49 351q1 7 1 18q0 12 -3 16.5t-9 4.5q-13 0 -28.5 -23.5t-40.5 -78.5l-41 -288h-186l74 534h162l1 -83q29 46 70 74t88 28q51 0 79.5 -32.5zM275 846l192 -143l-53 -85l-218 95z" />
    <glyph glyph-name="eng" unicode="&#x14b;" horiz-adv-x="508" 
d="M471.5 520.5q28.5 -32.5 28.5 -90.5q0 -17 -3 -37l-56 -393l-4 -29q-15 -98 -76 -147.5t-155 -49.5q-85 0 -140 46l74 107q18 -10 30 -14t28 -4q22 0 35 12.5t16 35.5l55 394q1 7 1 18q0 12 -3 16.5t-9 4.5q-13 0 -28.5 -23.5t-40.5 -78.5l-41 -288h-186l74 534h162
l1 -83q29 46 70 74t88 28q51 0 79.5 -32.5z" />
    <glyph glyph-name="uni0272" unicode="&#x272;" horiz-adv-x="508" 
d="M471.5 520.5q28.5 -32.5 28.5 -90.5q0 -17 -3 -37l-56 -393h-186l49 351q1 7 1 18q0 12 -3 16.5t-9 4.5q-13 0 -28.5 -23.5t-40.5 -78.5l-41 -288l-4 -29q-15 -98 -76 -147.5t-155 -49.5q-85 0 -140 46l74 107q18 -10 30 -14t28 -4q22 0 35 12.5t16 35.5l6 43l74 534h162
l1 -83q29 46 70 74t88 28q51 0 79.5 -32.5z" />
    <glyph glyph-name="uni0273" unicode="&#x273;" horiz-adv-x="508" 
d="M580 -183q-65 -43 -151 -43q-84 0 -131 42.5t-47 123.5q0 24 2 36l3 24h-1l49 351q1 7 1 18q0 12 -3 16.5t-9 4.5q-13 0 -28.5 -23.5t-40.5 -78.5l-41 -288h-186l74 534h162l1 -83q29 46 70 74t88 28q51 0 79.5 -32.5t28.5 -90.5q0 -17 -3 -37l-56 -393h1l-6 -43l-1 -10
q0 -38 39 -38q17 0 29.5 3.5t30.5 12.5z" />
    <glyph glyph-name="uni01CC" unicode="&#x1cc;" horiz-adv-x="761" 
d="M471.5 520.5q28.5 -32.5 28.5 -90.5q0 -17 -3 -37l-56 -393h-186l49 351q1 7 1 18q0 12 -3 16.5t-9 4.5q-13 0 -28.5 -23.5t-40.5 -78.5l-41 -288h-186l74 534h162l1 -83q29 46 70 74t88 28q51 0 79.5 -32.5zM394 -91q56 22 83 55t36 99l66 471h186l-65 -461
q-13 -92 -50 -150.5t-89 -91t-124 -57.5zM619 644.5q-25 24.5 -25 64.5q0 50 34 83t83 33q43 0 68 -24.5t25 -64.5q0 -50 -33.5 -83t-83.5 -33q-43 0 -68 24.5z" />
    <glyph glyph-name="uni019E" unicode="&#x19e;" horiz-adv-x="508" 
d="M471.5 520.5q28.5 -32.5 28.5 -90.5q0 -17 -3 -37l-87 -600l-189 -20l85 578q1 7 1 18q0 21 -13 21t-29.5 -24.5t-40.5 -77.5l-41 -288h-186l74 534h162l1 -83q29 46 70 74t87 28q52 0 80.5 -32.5z" />
    <glyph glyph-name="ntilde" unicode="&#xf1;" horiz-adv-x="508" 
d="M471.5 520.5q28.5 -32.5 28.5 -90.5q0 -17 -3 -37l-56 -393h-186l49 351q1 7 1 18q0 12 -3 16.5t-9 4.5q-13 0 -28.5 -23.5t-40.5 -78.5l-41 -288h-186l74 534h162l1 -83q29 46 70 74t88 28q51 0 79.5 -32.5zM335 631.5q-14 6.5 -31 18.5q-13 9 -21.5 13.5t-16.5 4.5
q-15 0 -26.5 -10.5t-26.5 -33.5l-79 46q27 57 64.5 94t78.5 37q20 0 34 -7t33 -20q11 -9 19 -13t16 -4q14 0 25 10t25 33l80 -44q-26 -57 -64.5 -94t-79.5 -37q-16 0 -30 6.5z" />
    <glyph glyph-name="o" unicode="o" horiz-adv-x="529" 
d="M69.5 37q-56.5 57 -56.5 165q0 93 30.5 173t95.5 129t162 49q101 0 158 -57.5t57 -164.5q-1 -94 -31.5 -173.5t-95.5 -128.5t-162 -49q-101 0 -157.5 57zM307.5 194.5q19.5 77.5 19.5 162.5q0 32 -9.5 46t-30.5 14q-46 0 -66 -75.5t-20 -159.5q0 -35 9.5 -50t30.5 -15
q47 0 66.5 77.5z" />
    <glyph glyph-name="oacute" unicode="&#xf3;" horiz-adv-x="529" 
d="M69.5 37q-56.5 57 -56.5 165q0 93 30.5 173t95.5 129t162 49q101 0 158 -57.5t57 -164.5q-1 -94 -31.5 -173.5t-95.5 -128.5t-162 -49q-101 0 -157.5 57zM307.5 194.5q19.5 77.5 19.5 162.5q0 32 -9.5 46t-30.5 14q-46 0 -66 -75.5t-20 -159.5q0 -35 9.5 -50t30.5 -15
q47 0 66.5 77.5zM403 847l59 -134l-239 -98l-45 91z" />
    <glyph glyph-name="uni0275" unicode="&#x275;" horiz-adv-x="529" 
d="M459 495.5q57 -57.5 57 -164.5q-1 -94 -31.5 -173.5t-95.5 -128.5t-162 -49q-101 0 -157.5 57t-56.5 165q0 93 30.5 173t95.5 129t162 49q101 0 158 -57.5zM205 320h131q1 12 1 34q0 36 -11.5 52t-35.5 16q-59 0 -85 -102zM324 222h-132q-1 -13 -1 -37q0 -39 11.5 -56
t35.5 -17q60 0 86 110z" />
    <glyph glyph-name="obreve" unicode="&#x14f;" horiz-adv-x="529" 
d="M69.5 37q-56.5 57 -56.5 165q0 93 30.5 173t95.5 129t162 49q101 0 158 -57.5t57 -164.5q-1 -94 -31.5 -173.5t-95.5 -128.5t-162 -49q-101 0 -157.5 57zM307.5 194.5q19.5 77.5 19.5 162.5q0 32 -9.5 46t-30.5 14q-46 0 -66 -75.5t-20 -159.5q0 -35 9.5 -50t30.5 -15
q47 0 66.5 77.5zM198.5 675q-36.5 48 -36.5 123q0 15 1 22l96 14q2 -36 17.5 -57t43.5 -21q29 0 50 21.5t33 58.5l92 -19q-15 -82 -62.5 -136t-123.5 -54q-74 0 -110.5 48z" />
    <glyph glyph-name="uni01D2" unicode="&#x1d2;" horiz-adv-x="529" 
d="M69.5 37q-56.5 57 -56.5 165q0 93 30.5 173t95.5 129t162 49q101 0 158 -57.5t57 -164.5q-1 -94 -31.5 -173.5t-95.5 -128.5t-162 -49q-101 0 -157.5 57zM307.5 194.5q19.5 77.5 19.5 162.5q0 32 -9.5 46t-30.5 14q-46 0 -66 -75.5t-20 -159.5q0 -35 9.5 -50t30.5 -15
q47 0 66.5 77.5zM454 825l59 -73l-150 -148h-111l-109 148l68 73l108 -96z" />
    <glyph glyph-name="ocircumflex" unicode="&#xf4;" horiz-adv-x="529" 
d="M69.5 37q-56.5 57 -56.5 165q0 93 30.5 173t95.5 129t162 49q101 0 158 -57.5t57 -164.5q-1 -94 -31.5 -173.5t-95.5 -128.5t-162 -49q-101 0 -157.5 57zM307.5 194.5q19.5 77.5 19.5 162.5q0 32 -9.5 46t-30.5 14q-46 0 -66 -75.5t-20 -159.5q0 -35 9.5 -50t30.5 -15
q47 0 66.5 77.5zM189 615l-58 73l151 148h111l113 -153l-74 -68l-108 96z" />
    <glyph glyph-name="uni1ED1" unicode="&#x1ed1;" horiz-adv-x="529" 
d="M566 988l87 -95l-179 -151l-63 60zM181 584l-61 74l150 138h111l115 -144l-72 -68l-111 87zM69.5 37q-56.5 57 -56.5 165q0 93 30.5 173t95.5 129t162 49q101 0 158 -57.5t57 -164.5q-1 -94 -31.5 -173.5t-95.5 -128.5t-162 -49q-101 0 -157.5 57zM307.5 194.5
q19.5 77.5 19.5 162.5q0 32 -9.5 46t-30.5 14q-46 0 -66 -75.5t-20 -159.5q0 -35 9.5 -50t30.5 -15q47 0 66.5 77.5z" />
    <glyph glyph-name="uni1ED9" unicode="&#x1ed9;" horiz-adv-x="529" 
d="M69.5 37q-56.5 57 -56.5 165q0 93 30.5 173t95.5 129t162 49q101 0 158 -57.5t57 -164.5q-1 -94 -31.5 -173.5t-95.5 -128.5t-162 -49q-101 0 -157.5 57zM307.5 194.5q19.5 77.5 19.5 162.5q0 32 -9.5 46t-30.5 14q-46 0 -66 -75.5t-20 -159.5q0 -35 9.5 -50t30.5 -15
q47 0 66.5 77.5zM189 615l-58 73l151 148h111l113 -153l-74 -68l-108 96zM287 -78.5q25 -24.5 25 -64.5q0 -50 -34 -83t-83 -33q-43 0 -68 24.5t-25 64.5q0 50 33.5 83t83.5 33q43 0 68 -24.5z" />
    <glyph glyph-name="uni1ED3" unicode="&#x1ed3;" horiz-adv-x="529" 
d="M134 985l102 -188l-77 -55l-136 158zM182 584l-61 74l150 138h111l115 -144l-72 -68l-111 87zM69.5 37q-56.5 57 -56.5 165q0 93 30.5 173t95.5 129t162 49q101 0 158 -57.5t57 -164.5q-1 -94 -31.5 -173.5t-95.5 -128.5t-162 -49q-101 0 -157.5 57zM307.5 194.5
q19.5 77.5 19.5 162.5q0 32 -9.5 46t-30.5 14q-46 0 -66 -75.5t-20 -159.5q0 -35 9.5 -50t30.5 -15q47 0 66.5 77.5z" />
    <glyph glyph-name="uni1ED5" unicode="&#x1ed5;" horiz-adv-x="529" 
d="M69.5 37q-56.5 57 -56.5 165q0 93 30.5 173t95.5 129t162 49q101 0 158 -57.5t57 -164.5q-1 -94 -31.5 -173.5t-95.5 -128.5t-162 -49q-101 0 -157.5 57zM307.5 194.5q19.5 77.5 19.5 162.5q0 32 -9.5 46t-30.5 14q-46 0 -66 -75.5t-20 -159.5q0 -35 9.5 -50t30.5 -15
q47 0 66.5 77.5zM180 584l-61 74l150 138h111l115 -144l-72 -68l-111 87zM441 874q36 2 52 11.5t16 29.5q0 12 -6.5 17.5t-22.5 5.5q-24 0 -55 -13l-17 74q46 26 104 26q56 0 86 -27t30 -71q0 -42 -25 -69t-68 -36l-7 -50h-101z" />
    </font>
</defs>
</svg>
