<?xml version="1.0" standalone="no"?>
<!DOCTYPE svg PUBLIC "-//W3C//DTD SVG 1.1//EN" "http://www.w3.org/Graphics/SVG/1.1/DTD/svg11.dtd" >
<svg>
<metadata>
Created by FontForge 20120731 at Fri May  5 09:29:46 2017
 By www-data
Digitized data copyright 2012-2016, The Mozilla Foundation and Telefonica S.A.
</metadata>
<defs>
<font id="FiraSansCondensed-Black" horiz-adv-x="504" >
  <font-face 
    font-family="Fira Sans Condensed Black"
    font-weight="900"
    font-stretch="condensed"
    units-per-em="1000"
    panose-1="2 11 10 3 5 0 0 2 0 4"
    ascent="800"
    descent="-200"
    x-height="534"
    cap-height="696"
    bbox="-730 -356 1360 1236"
    underline-thickness="50"
    underline-position="-50"
    unicode-range="U+000D-FEFF"
  />
<missing-glyph horiz-adv-x="666" 
d="M543 1050v-1400h-420v1400h420zM489 998h-311v-1296h311v1296zM409.5 419q25.5 -32 25.5 -83q0 -53 -22.5 -82t-72.5 -36v-45q0 -11 -7.5 -17.5t-17.5 -6.5t-17.5 6.5t-7.5 17.5v84q53 3 72 19.5t19 57.5q0 33 -13 51t-48 18q-29 0 -52 -11q-8 -3 -13 -3q-11 0 -17.5 6.5
t-6.5 16.5q0 19 29.5 29t63.5 10q60 0 85.5 -32zM340 110q10 -10 10 -25q0 -16 -10 -26.5t-25 -10.5t-25 10.5t-10 26.5q0 15 10 25t25 10t25 -10z" />
    <glyph glyph-name="fi" unicode="fi" horiz-adv-x="564" 
d="M401.5 752q47.5 -12 80.5 -30l-49 -121q-56 24 -105 24q-36 0 -49.5 -13.5t-13.5 -48.5v-29h265v-534h-194v403h-71v-403h-194v403h-72v131h72v39q0 83 56 137t172 54q55 0 102.5 -12z" />
    <glyph glyph-name="fl" unicode="fl" horiz-adv-x="605" 
d="M620 -1q-19 -8 -47.5 -13.5t-57.5 -5.5q-76 0 -117.5 43.5t-41.5 121.5v478q-24 6 -40 6q-30 0 -40.5 -14t-10.5 -48v-33h69l-22 -131h-47v-403h-194v403h-72v131h72v39q0 53 23.5 96.5t71 69t115.5 25.5q46 0 103 -17l166 17v-603q0 -29 20 -29q10 0 17 3z" />
    <glyph glyph-name=".notdef" horiz-adv-x="666" 
d="M543 1050v-1400h-420v1400h420zM489 998h-311v-1296h311v1296zM409.5 419q25.5 -32 25.5 -83q0 -53 -22.5 -82t-72.5 -36v-45q0 -11 -7.5 -17.5t-17.5 -6.5t-17.5 6.5t-7.5 17.5v84q53 3 72 19.5t19 57.5q0 33 -13 51t-48 18q-29 0 -52 -11q-8 -3 -13 -3q-11 0 -17.5 6.5
t-6.5 16.5q0 19 29.5 29t63.5 10q60 0 85.5 -32zM340 110q10 -10 10 -25q0 -16 -10 -26.5t-25 -10.5t-25 10.5t-10 26.5q0 15 10 25t25 10t25 -10z" />
    <glyph glyph-name="nonmarkingreturn" unicode="&#xd;" horiz-adv-x="191" 
 />
    <glyph glyph-name="space" unicode=" " horiz-adv-x="191" 
 />
    <glyph glyph-name="A" unicode="A" horiz-adv-x="554" 
d="M369 0l-23 137h-140l-23 -137h-205l180 696h240l179 -696h-208zM229 277h93l-47 278z" />
    <glyph glyph-name="Aacute" unicode="&#xc1;" horiz-adv-x="554" 
d="M369 0l-23 137h-140l-23 -137h-205l180 696h240l179 -696h-208zM229 277h93l-47 278zM348 975l70 -137l-233 -89l-49 94z" />
    <glyph glyph-name="Abreve" unicode="&#x102;" horiz-adv-x="554" 
d="M369 0l-23 137h-140l-23 -137h-205l180 696h240l179 -696h-208zM229 277h93l-47 278zM156 799q-43 52 -49 131l99 17q17 -69 73 -69q55 0 72 69l99 -17q-6 -79 -48.5 -131t-122.5 -52t-123 52z" />
    <glyph glyph-name="uni1EAE" unicode="&#x1eae;" horiz-adv-x="554" 
d="M369 0l-23 137h-140l-23 -137h-205l180 696h240l179 -696h-208zM229 277h93l-47 278zM156 787q-43 52 -49 131l99 17q17 -69 73 -69q55 0 72 69l99 -17q-6 -79 -48.5 -131t-122.5 -52t-123 52zM346 1167l106 -98l-165 -151l-72 61z" />
    <glyph glyph-name="uni1EB6" unicode="&#x1eb6;" horiz-adv-x="554" 
d="M369 0l-23 137h-140l-23 -137h-205l180 696h240l179 -696h-208zM229 277h93l-47 278zM156 799q-43 52 -49 131l99 17q17 -69 73 -69q55 0 72 69l99 -17q-6 -79 -48.5 -131t-122.5 -52t-123 52zM201 -232.5q-30 29.5 -30 74.5t30 74.5t77 29.5t77 -29.5t30 -74.5
t-30 -74.5t-77 -29.5t-77 29.5z" />
    <glyph glyph-name="uni1EB0" unicode="&#x1eb0;" horiz-adv-x="554" 
d="M369 0l-23 137h-140l-23 -137h-205l180 696h240l179 -696h-208zM229 277h93l-47 278zM156 787q-43 52 -49 131l99 17q17 -69 73 -69q55 0 72 69l99 -17q-6 -79 -48.5 -131t-122.5 -52t-123 52zM217 1167l131 -188l-73 -61l-164 151z" />
    <glyph glyph-name="uni1EB2" unicode="&#x1eb2;" horiz-adv-x="554" 
d="M369 0l-23 137h-140l-23 -137h-205l180 696h240l179 -696h-208zM229 277h93l-47 278zM156 787q-43 52 -49 131l99 17q17 -69 73 -69q55 0 72 69l99 -17q-6 -79 -48.5 -131t-122.5 -52t-123 52zM228 1018q35 2 49.5 9.5t14.5 26.5q0 13 -8.5 20.5t-23.5 7.5
q-16 0 -27 -2.5t-30 -9.5l-27 73q44 27 110 27q60 0 92 -29.5t32 -77.5q0 -40 -20 -65t-58 -32v-40h-104v92z" />
    <glyph glyph-name="uni1EB4" unicode="&#x1eb4;" horiz-adv-x="554" 
d="M369 0l-23 137h-140l-23 -137h-205l180 696h240l179 -696h-208zM229 277h93l-47 278zM155 787q-43 52 -49 131l99 17q17 -69 73 -69q55 0 72 69l99 -17q-6 -79 -48.5 -131t-122.5 -52t-123 52zM295.5 970q-14.5 6 -33.5 17q-21 14 -35 14q-15 0 -25 -8.5t-22 -28.5
l-88 37q19 53 53.5 86t78.5 33q22 0 37 -6t34 -17q21 -14 35 -14q15 0 24.5 8.5t21.5 28.5l88 -37q-18 -53 -52.5 -86t-79.5 -33q-22 0 -36.5 6z" />
    <glyph glyph-name="uni01CD" unicode="&#x1cd;" horiz-adv-x="554" 
d="M369 0l-23 137h-140l-23 -137h-205l180 696h240l179 -696h-208zM229 277h93l-47 278zM403 960l64 -70l-132 -142h-114l-132 142l64 70l125 -86z" />
    <glyph glyph-name="Acircumflex" unicode="&#xc2;" horiz-adv-x="554" 
d="M369 0l-23 137h-140l-23 -137h-205l180 696h240l179 -696h-208zM229 277h93l-47 278zM153 756l-64 70l132 142h115l131 -142l-64 -70l-125 85z" />
    <glyph glyph-name="uni1EA4" unicode="&#x1ea4;" horiz-adv-x="554" 
d="M369 0l-23 137h-140l-23 -137h-205l180 696h240l179 -696h-208zM229 277h93l-47 278zM153 728l-64 70l132 142h115l131 -142l-64 -70l-125 85zM508 1135l106 -98l-165 -151l-72 61z" />
    <glyph glyph-name="uni1EAC" unicode="&#x1eac;" horiz-adv-x="554" 
d="M369 0l-23 137h-140l-23 -137h-205l180 696h240l179 -696h-208zM229 277h93l-47 278zM153 756l-64 70l132 142h115l131 -142l-64 -70l-125 85zM201 -232.5q-30 29.5 -30 74.5t30 74.5t77 29.5t77 -29.5t30 -74.5t-30 -74.5t-77 -29.5t-77 29.5z" />
    <glyph glyph-name="uni1EA6" unicode="&#x1ea6;" horiz-adv-x="554" 
d="M369 0l-23 137h-140l-23 -137h-205l180 696h240l179 -696h-208zM229 277h93l-47 278zM152 728l-64 70l132 142h115l131 -142l-64 -70l-125 85zM49 1135l131 -188l-73 -61l-164 151z" />
    <glyph glyph-name="uni1EA8" unicode="&#x1ea8;" horiz-adv-x="554" 
d="M369 0l-23 137h-140l-23 -137h-205l180 696h240l179 -696h-208zM229 277h93l-47 278zM152 728l-64 70l132 142h115l131 -142l-64 -70l-125 85zM398 970q35 2 49.5 9.5t14.5 26.5q0 13 -8.5 20.5t-23.5 7.5q-16 0 -27 -2.5t-30 -9.5l-27 73q44 27 110 27q60 0 92 -29.5
t32 -77.5q0 -40 -20 -65t-58 -32v-40h-104v92z" />
    <glyph glyph-name="uni1EAA" unicode="&#x1eaa;" horiz-adv-x="554" 
d="M369 0l-23 137h-140l-23 -137h-205l180 696h240l179 -696h-208zM229 277h93l-47 278zM151 728l-64 70l132 142h115l131 -142l-64 -70l-125 85zM294.5 974q-14.5 6 -33.5 17q-21 14 -35 14q-15 0 -25 -8.5t-22 -28.5l-88 37q19 53 53.5 86t78.5 33q22 0 37 -6t34 -17
q21 -14 35 -14q15 0 24.5 8.5t21.5 28.5l88 -37q-18 -53 -52.5 -86t-79.5 -33q-22 0 -36.5 6z" />
    <glyph glyph-name="uni0200" unicode="&#x200;" horiz-adv-x="554" 
d="M369 0l-23 137h-140l-23 -137h-205l180 696h240l179 -696h-208zM229 277h93l-47 278zM153 1000l95 -210l-89 -44l-122 195zM330 1000l88 -212l-92 -38l-115 196z" />
    <glyph glyph-name="Adieresis" unicode="&#xc4;" horiz-adv-x="554" 
d="M369 0l-23 137h-140l-23 -137h-205l180 696h240l179 -696h-208zM229 277h93l-47 278zM231 915.5q26 -26.5 26 -63.5q0 -39 -26 -65.5t-65 -26.5q-38 0 -64.5 26.5t-26.5 65.5q0 37 26.5 63.5t64.5 26.5q39 0 65 -26.5zM457 915.5q26 -26.5 26 -63.5q0 -39 -26 -65.5
t-65 -26.5q-38 0 -64.5 26.5t-26.5 65.5q0 37 26.5 63.5t64.5 26.5q39 0 65 -26.5z" />
    <glyph glyph-name="uni01DE" unicode="&#x1de;" horiz-adv-x="554" 
d="M369 0l-23 137h-140l-23 -137h-205l180 696h240l179 -696h-208zM229 277h93l-47 278zM230 900.5q26 -26.5 26 -63.5q0 -39 -26 -65.5t-65 -26.5q-38 0 -64.5 26.5t-26.5 65.5q0 37 26.5 63.5t64.5 26.5q39 0 65 -26.5zM456 900.5q26 -26.5 26 -63.5q0 -39 -26 -65.5
t-65 -26.5q-38 0 -64.5 26.5t-26.5 65.5q0 37 26.5 63.5t64.5 26.5q39 0 65 -26.5zM430 965h-300v129h300v-129z" />
    <glyph glyph-name="uni0226" unicode="&#x226;" horiz-adv-x="554" 
d="M369 0l-23 137h-140l-23 -137h-205l180 696h240l179 -696h-208zM229 277h93l-47 278zM355 923.5q30 -29.5 30 -74.5t-30 -74.5t-77 -29.5t-77 29.5t-30 74.5t30 74.5t77 29.5t77 -29.5z" />
    <glyph glyph-name="uni1EA0" unicode="&#x1ea0;" horiz-adv-x="554" 
d="M369 0l-23 137h-140l-23 -137h-205l180 696h240l179 -696h-208zM229 277h93l-47 278zM201 -232.5q-30 29.5 -30 74.5t30 74.5t77 29.5t77 -29.5t30 -74.5t-30 -74.5t-77 -29.5t-77 29.5z" />
    <glyph glyph-name="uni01E0" unicode="&#x1e0;" horiz-adv-x="554" 
d="M369 0l-23 137h-140l-23 -137h-205l180 696h240l179 -696h-208zM229 277h93l-47 278zM353 912.5q30 -29.5 30 -74.5t-30 -74.5t-77 -29.5t-77 29.5t-30 74.5t30 74.5t77 29.5t77 -29.5zM427 965h-300v129h300v-129z" />
    <glyph glyph-name="Agrave" unicode="&#xc0;" horiz-adv-x="554" 
d="M369 0l-23 137h-140l-23 -137h-205l180 696h240l179 -696h-208zM229 277h93l-47 278zM209 975l211 -132l-49 -95l-233 90z" />
    <glyph glyph-name="uni1EA2" unicode="&#x1ea2;" horiz-adv-x="554" 
d="M369 0l-23 137h-140l-23 -137h-205l180 696h240l179 -696h-208zM229 277h93l-47 278zM226 856q35 2 49.5 9.5t14.5 26.5q0 13 -8.5 20.5t-23.5 7.5q-16 0 -27 -2.5t-30 -9.5l-27 73q44 27 110 27q60 0 92 -29.5t32 -77.5q0 -40 -20 -65t-58 -32v-40h-104v92z" />
    <glyph glyph-name="uni0202" unicode="&#x202;" horiz-adv-x="554" 
d="M369 0l-23 137h-140l-23 -137h-205l180 696h240l179 -696h-208zM229 277h93l-47 278zM401.5 914q42.5 -54 48.5 -141l-99 -16q-17 81 -72 81q-56 0 -73 -81l-99 16q6 87 48.5 141t123.5 54q80 0 122.5 -54z" />
    <glyph glyph-name="uni2C6D" unicode="&#x2c6d;" horiz-adv-x="624" 
d="M596 145q8 -15 28 -25l-54 -139q-52 8 -86.5 24t-56.5 44q-58 -68 -157 -68q-78 0 -134.5 41.5t-87 122t-30.5 194.5q0 119 31.5 204t87.5 129t128 44q87 0 143 -63l10 43h170v-508q0 -28 8 -43zM237 204.5q9 -47.5 27.5 -66.5t49.5 -19q42 0 72 29v395q-33 30 -72 30
q-31 0 -49.5 -21t-27.5 -72t-9 -141q0 -87 9 -134.5z" />
    <glyph glyph-name="Amacron" unicode="&#x100;" horiz-adv-x="554" 
d="M369 0l-23 137h-140l-23 -137h-205l180 696h240l179 -696h-208zM229 277h93l-47 278zM428 776h-300v129h300v-129z" />
    <glyph glyph-name="Aogonek" unicode="&#x104;" horiz-adv-x="554" 
d="M366 -95q0 -45 45 -45q23 0 55 8l-11 -113q-34 -8 -68 -8q-66 0 -109 33t-43 91q0 102 129 161l-18 105h-140l-23 -137h-205l180 696h240l179 -696h-109q-102 -40 -102 -95zM229 277h93l-47 278z" />
    <glyph glyph-name="Aring" unicode="&#xc5;" horiz-adv-x="554" 
d="M369 0l-23 137h-140l-23 -137h-205l180 696h240l179 -696h-208zM229 277h93l-47 278zM384 969q39 -41 39 -104q0 -62 -39 -103.5t-105 -41.5q-67 0 -106 41.5t-39 103.5q0 63 39 104t106 41q66 0 105 -41zM244 865q0 -48 35 -48t35 48q0 49 -35 49t-35 -49z" />
    <glyph glyph-name="Aringacute" unicode="&#x1fa;" horiz-adv-x="554" 
d="M369 0l-23 137h-140l-23 -137h-205l180 696h240l179 -696h-208zM229 277h93l-47 278zM382 964q39 -41 39 -104q0 -62 -39 -103.5t-105 -41.5q-67 0 -106 41.5t-39 103.5q0 63 39 104t106 41q66 0 105 -41zM242 860q0 -48 35 -48t35 48q0 49 -35 49t-35 -49zM348 1236
l70 -137l-233 -89l-49 94z" />
    <glyph glyph-name="uni023A" unicode="&#x23a;" horiz-adv-x="554" 
d="M394 0l-28 137h-90l-51 -213l-60 13l47 200h-26l-28 -137h-180l180 696h186l15 62l61 -13l-17 -70l174 -675h-183zM212 267h31l51 218l-19 95zM306 267h33l-15 74z" />
    <glyph glyph-name="Atilde" unicode="&#xc3;" horiz-adv-x="554" 
d="M369 0l-23 137h-140l-23 -137h-205l180 696h240l179 -696h-208zM229 277h93l-47 278zM295.5 758.5q-14.5 6.5 -33.5 18.5q-21 16 -35 16q-15 0 -25 -9.5t-22 -31.5l-88 41q19 58 53.5 95t78.5 37q22 0 38 -7t33 -19q23 -15 35 -15q15 0 24.5 9.5t21.5 31.5l88 -41
q-18 -58 -52.5 -95t-79.5 -37q-22 0 -36.5 6.5z" />
    <glyph glyph-name="AE" unicode="&#xc6;" horiz-adv-x="784" 
d="M562 142h211v-142h-382l-14 137h-151l-35 -137h-219l243 696h527l-20 -140h-214l18 -137h208v-136h-190zM263 278h99l-28 274z" />
    <glyph glyph-name="AEacute" unicode="&#x1fc;" horiz-adv-x="784" 
d="M562 142h211v-142h-382l-14 137h-151l-35 -137h-219l243 696h527l-20 -140h-214l18 -137h208v-136h-190zM263 278h99l-28 274zM514 975l70 -137l-233 -89l-49 94z" />
    <glyph glyph-name="uni01E2" unicode="&#x1e2;" horiz-adv-x="784" 
d="M562 142h211v-142h-382l-14 137h-151l-35 -137h-219l243 696h527l-20 -140h-214l18 -137h208v-136h-190zM263 278h99l-28 274zM594 776h-300v129h300v-129z" />
    <glyph glyph-name="B" unicode="B" horiz-adv-x="566" 
d="M557 205q0 -111 -78.5 -158t-216.5 -47h-228v696h204q293 0 293 -180q0 -60 -33.5 -96.5t-84.5 -50.5q144 -34 144 -164zM236 558v-132h22q39 0 54.5 17t15.5 53q0 62 -72 62h-20zM329 160.5q22 17.5 22 59.5q0 39 -19.5 58.5t-61.5 19.5h-34v-155h28q43 0 65 17.5z" />
    <glyph glyph-name="uni1E02" unicode="&#x1e02;" horiz-adv-x="566" 
d="M557 205q0 -111 -78.5 -158t-216.5 -47h-228v696h204q293 0 293 -180q0 -60 -33.5 -96.5t-84.5 -50.5q144 -34 144 -164zM236 558v-132h22q39 0 54.5 17t15.5 53q0 62 -72 62h-20zM329 160.5q22 17.5 22 59.5q0 39 -19.5 58.5t-61.5 19.5h-34v-155h28q43 0 65 17.5z
M342 923.5q30 -29.5 30 -74.5t-30 -74.5t-77 -29.5t-77 29.5t-30 74.5t30 74.5t77 29.5t77 -29.5z" />
    <glyph glyph-name="uni1E04" unicode="&#x1e04;" horiz-adv-x="566" 
d="M557 205q0 -111 -78.5 -158t-216.5 -47h-228v696h204q293 0 293 -180q0 -60 -33.5 -96.5t-84.5 -50.5q144 -34 144 -164zM236 558v-132h22q39 0 54.5 17t15.5 53q0 62 -72 62h-20zM329 160.5q22 17.5 22 59.5q0 39 -19.5 58.5t-61.5 19.5h-34v-155h28q43 0 65 17.5z
M206 -232.5q-30 29.5 -30 74.5t30 74.5t77 29.5t77 -29.5t30 -74.5t-30 -74.5t-77 -29.5t-77 29.5z" />
    <glyph glyph-name="uniA7B4" unicode="&#xa7b4;" horiz-adv-x="566" 
d="M557 206q0 -108 -72 -157t-175 -49q-34 0 -74 5v-220h-202v911h207q290 0 290 -181q0 -60 -33.5 -96t-84.5 -50q144 -34 144 -163zM351 225q0 73 -61 73h-19l9 128h4q21 0 32.5 16t11.5 48q0 34 -16 51t-54 17h-22v-414q11 -1 34 -1q81 0 81 82z" />
    <glyph glyph-name="uni0181" unicode="&#x181;" horiz-adv-x="736" 
d="M727 205q0 -111 -78.5 -158t-216.5 -47h-228v556h-20q-35 0 -35 -36q0 -27 15 -64l-120 -51q-21 33 -32.5 64t-11.5 68q0 74 52.5 116.5t142.5 42.5h213q293 0 293 -180q0 -60 -33.5 -96.5t-84.5 -50.5q144 -34 144 -164zM406 558v-132h22q39 0 54.5 17t15.5 53
q0 62 -72 62h-20zM499 160.5q22 17.5 22 59.5q0 39 -19.5 58.5t-61.5 19.5h-34v-155h28q43 0 65 17.5z" />
    <glyph glyph-name="uni0181.ss02" horiz-adv-x="555" 
d="M481 399.5q67 -55.5 67 -164.5q0 -114 -70 -174.5t-190 -60.5h-254v696h435l-18 -150h-215v-91h51q127 0 194 -55.5zM321.5 166q16.5 23 16.5 67q0 42 -16.5 64.5t-58.5 22.5h-27v-177h31q38 0 54.5 23z" />
    <glyph glyph-name="uni0243" unicode="&#x243;" horiz-adv-x="579" 
d="M570 205q0 -111 -78.5 -158t-216.5 -47h-228v180h-37v84h37v432h204q293 0 293 -180q0 -60 -33.5 -96.5t-84.5 -50.5q144 -34 144 -164zM249 558v-132h22q39 0 54.5 17t15.5 53q0 62 -72 62h-20zM342 160.5q22 17.5 22 59.5q0 39 -19.5 58.5t-61.5 19.5h-34v-34h68v-84
h-68v-37h28q43 0 65 17.5z" />
    <glyph glyph-name="uni0182" unicode="&#x182;" horiz-adv-x="555" 
d="M481 399.5q67 -55.5 67 -164.5q0 -114 -70 -174.5t-190 -60.5h-254v696h435l-18 -150h-215v-91h51q127 0 194 -55.5zM321.5 166q16.5 23 16.5 67q0 42 -16.5 64.5t-58.5 22.5h-27v-177h31q38 0 54.5 23z" />
    <glyph glyph-name="C" unicode="C" horiz-adv-x="535" 
d="M531 635l-92 -109q-27 22 -51.5 33.5t-52.5 11.5q-53 0 -80 -53.5t-27 -167.5t27 -166t81 -52q30 0 55 12.5t60 40.5l87 -109q-41 -43 -96 -69.5t-121 -26.5q-140 0 -221.5 94.5t-81.5 275.5q0 116 38 198.5t106.5 125t158.5 42.5q121 0 210 -81z" />
    <glyph glyph-name="Cacute" unicode="&#x106;" horiz-adv-x="535" 
d="M531 635l-92 -109q-27 22 -51.5 33.5t-52.5 11.5q-53 0 -80 -53.5t-27 -167.5t27 -166t81 -52q30 0 55 12.5t60 40.5l87 -109q-41 -43 -96 -69.5t-121 -26.5q-140 0 -221.5 94.5t-81.5 275.5q0 116 38 198.5t106.5 125t158.5 42.5q121 0 210 -81zM399 975l70 -137
l-233 -89l-49 94z" />
    <glyph glyph-name="Cacute.loclPLK" horiz-adv-x="535" 
d="M531 635l-92 -109q-27 22 -51.5 33.5t-52.5 11.5q-53 0 -80 -53.5t-27 -167.5t27 -166t81 -52q30 0 55 12.5t60 40.5l87 -109q-41 -43 -96 -69.5t-121 -26.5q-140 0 -221.5 94.5t-81.5 275.5q0 116 38 198.5t106.5 125t158.5 42.5q121 0 210 -81zM330 986l140 -76
l-137 -164l-84 48z" />
    <glyph glyph-name="Ccaron" unicode="&#x10c;" horiz-adv-x="535" 
d="M531 635l-92 -109q-27 22 -51.5 33.5t-52.5 11.5q-53 0 -80 -53.5t-27 -167.5t27 -166t81 -52q30 0 55 12.5t60 40.5l87 -109q-41 -43 -96 -69.5t-121 -26.5q-140 0 -221.5 94.5t-81.5 275.5q0 116 38 198.5t106.5 125t158.5 42.5q121 0 210 -81zM454 960l64 -70
l-132 -142h-114l-132 142l64 70l125 -86z" />
    <glyph glyph-name="Ccedilla" unicode="&#xc7;" horiz-adv-x="535" 
d="M457.5 14.5q-45.5 -25.5 -99.5 -32.5v-28q101 -16 101 -104q0 -54 -40.5 -88.5t-113.5 -34.5q-34 0 -64.5 9t-52.5 24l41 82q29 -16 60 -16q38 0 38 26q0 16 -20 22.5t-65 6.5l12 105q-111 22 -173.5 114.5t-62.5 249.5q0 116 38 198.5t106.5 125t158.5 42.5
q121 0 210 -81l-92 -109q-27 22 -51.5 33.5t-52.5 11.5q-53 0 -80 -53.5t-27 -167.5t27 -166t81 -52q30 0 55 12.5t60 40.5l87 -109q-35 -36 -80.5 -61.5z" />
    <glyph glyph-name="Ccircumflex" unicode="&#x108;" horiz-adv-x="535" 
d="M531 635l-92 -109q-27 22 -51.5 33.5t-52.5 11.5q-53 0 -80 -53.5t-27 -167.5t27 -166t81 -52q30 0 55 12.5t60 40.5l87 -109q-41 -43 -96 -69.5t-121 -26.5q-140 0 -221.5 94.5t-81.5 275.5q0 116 38 198.5t106.5 125t158.5 42.5q121 0 210 -81zM204 756l-64 70l132 142
h115l131 -142l-64 -70l-125 85z" />
    <glyph glyph-name="Cdotaccent" unicode="&#x10a;" horiz-adv-x="535" 
d="M531 635l-92 -109q-27 22 -51.5 33.5t-52.5 11.5q-53 0 -80 -53.5t-27 -167.5t27 -166t81 -52q30 0 55 12.5t60 40.5l87 -109q-41 -43 -96 -69.5t-121 -26.5q-140 0 -221.5 94.5t-81.5 275.5q0 116 38 198.5t106.5 125t158.5 42.5q121 0 210 -81zM406 923.5
q30 -29.5 30 -74.5t-30 -74.5t-77 -29.5t-77 29.5t-30 74.5t30 74.5t77 29.5t77 -29.5z" />
    <glyph glyph-name="uniA7B3" unicode="&#xa7b3;" horiz-adv-x="546" 
d="M390 286l167 -464h-214l-75 330l-68 -330h-211l160 458l-149 416h213l57 -292l67 292h209z" />
    <glyph glyph-name="uni0187" unicode="&#x187;" horiz-adv-x="535" 
d="M673 826l-49 -117q-31 15 -56 15q-20 0 -28.5 -11.5t-8.5 -37.5v-40l-86 -102q-28 19 -54 28.5t-57 9.5q-53 0 -79.5 -53.5t-26.5 -167.5q0 -113 27.5 -165.5t81.5 -52.5q30 0 54.5 13t59.5 41l87 -110q-41 -43 -96.5 -69.5t-121.5 -26.5q-92 0 -159.5 41.5t-105 124.5
t-37.5 204q0 115 37.5 197.5t100.5 125.5t138 43q41 0 74 -14q2 76 45 118.5t123 42.5q74 0 137 -37z" />
    <glyph glyph-name="uni023B" unicode="&#x23b;" horiz-adv-x="535" 
d="M538 76q-41 -43 -96 -69.5t-121 -26.5q-30 0 -63 5l-14 -61l-63 13l16 66q-85 35 -132 123t-47 224q0 116 38 198.5t106.5 125t158.5 42.5q23 0 44 -3l11 45l62 -13l-11 -47q59 -21 104 -63l-92 -109q-27 21 -46 31l-98 -416q18 -9 41 -9q30 0 55 12.5t60 40.5zM245 208
l87 363q-52 -2 -78 -55.5t-26 -165.5q0 -89 17 -142z" />
    <glyph glyph-name="D" unicode="D" horiz-adv-x="602" 
d="M419 668.5q73 -27.5 118.5 -103.5t45.5 -214q0 -194 -87.5 -272.5t-239.5 -78.5h-222v696h213q99 0 172 -27.5zM236 554v-411h32q40 0 63.5 19t34.5 64t11 125q0 79 -11.5 123.5t-34.5 62t-61 17.5h-34z" />
    <glyph glyph-name="uni01F1" unicode="&#x1f1;" horiz-adv-x="1082" 
d="M419 668.5q73 -27.5 118.5 -103.5t45.5 -214q0 -194 -87.5 -272.5t-239.5 -78.5h-222v696h213q99 0 172 -27.5zM236 554v-411h32q40 0 63.5 19t34.5 64t11 125q0 79 -11.5 123.5t-34.5 62t-61 17.5h-34zM1065 696v-150l-251 -388h260l-19 -158h-472v148l255 395h-231v153
h458z" />
    <glyph glyph-name="uni01C4" unicode="&#x1c4;" horiz-adv-x="1082" 
d="M419 668.5q73 -27.5 118.5 -103.5t45.5 -214q0 -194 -87.5 -272.5t-239.5 -78.5h-222v696h213q99 0 172 -27.5zM236 554v-411h32q40 0 63.5 19t34.5 64t11 125q0 79 -11.5 123.5t-34.5 62t-61 17.5h-34zM1065 696v-150l-251 -388h260l-19 -158h-472v148l255 395h-231v153
h458zM954 960l64 -70l-132 -142h-114l-132 142l64 70l125 -86z" />
    <glyph glyph-name="uni0189" unicode="&#x189;" horiz-adv-x="619" 
d="M436 668.5q73 -27.5 118.5 -103.5t45.5 -214q0 -194 -87.5 -272.5t-239.5 -78.5h-222v296h-41v114h41v286h213q99 0 172 -27.5zM348.5 162q23.5 19 34.5 64t11 125q0 79 -11.5 123.5t-34.5 62t-61 17.5h-34v-144h91v-114h-91v-153h32q40 0 63.5 19z" />
    <glyph glyph-name="Eth" unicode="&#xd0;" horiz-adv-x="619" 
d="M436 668.5q73 -27.5 118.5 -103.5t45.5 -214q0 -194 -87.5 -272.5t-239.5 -78.5h-222v296h-41v114h41v286h213q99 0 172 -27.5zM348.5 162q23.5 19 34.5 64t11 125q0 79 -11.5 123.5t-34.5 62t-61 17.5h-34v-144h91v-114h-91v-153h32q40 0 63.5 19z" />
    <glyph glyph-name="Dcaron" unicode="&#x10e;" horiz-adv-x="602" 
d="M419 668.5q73 -27.5 118.5 -103.5t45.5 -214q0 -194 -87.5 -272.5t-239.5 -78.5h-222v696h213q99 0 172 -27.5zM236 554v-411h32q40 0 63.5 19t34.5 64t11 125q0 79 -11.5 123.5t-34.5 62t-61 17.5h-34zM389 960l64 -70l-132 -142h-114l-132 142l64 70l125 -86z" />
    <glyph glyph-name="uni1E12" unicode="&#x1e12;" horiz-adv-x="602" 
d="M419 668.5q73 -27.5 118.5 -103.5t45.5 -214q0 -194 -87.5 -272.5t-239.5 -78.5h-222v696h213q99 0 172 -27.5zM236 554v-411h32q40 0 63.5 19t34.5 64t11 125q0 79 -11.5 123.5t-34.5 62t-61 17.5h-34zM157 -283l-64 70l132 152h115l131 -152l-64 -70l-125 96z" />
    <glyph glyph-name="Dcroat" unicode="&#x110;" horiz-adv-x="619" 
d="M436 668.5q73 -27.5 118.5 -103.5t45.5 -214q0 -194 -87.5 -272.5t-239.5 -78.5h-222v296h-41v114h41v286h213q99 0 172 -27.5zM348.5 162q23.5 19 34.5 64t11 125q0 79 -11.5 123.5t-34.5 62t-61 17.5h-34v-144h91v-114h-91v-153h32q40 0 63.5 19z" />
    <glyph glyph-name="uni1E0A" unicode="&#x1e0a;" horiz-adv-x="602" 
d="M419 668.5q73 -27.5 118.5 -103.5t45.5 -214q0 -194 -87.5 -272.5t-239.5 -78.5h-222v696h213q99 0 172 -27.5zM236 554v-411h32q40 0 63.5 19t34.5 64t11 125q0 79 -11.5 123.5t-34.5 62t-61 17.5h-34zM341 923.5q30 -29.5 30 -74.5t-30 -74.5t-77 -29.5t-77 29.5
t-30 74.5t30 74.5t77 29.5t77 -29.5z" />
    <glyph glyph-name="uni1E0C" unicode="&#x1e0c;" horiz-adv-x="602" 
d="M419 668.5q73 -27.5 118.5 -103.5t45.5 -214q0 -194 -87.5 -272.5t-239.5 -78.5h-222v696h213q99 0 172 -27.5zM236 554v-411h32q40 0 63.5 19t34.5 64t11 125q0 79 -11.5 123.5t-34.5 62t-61 17.5h-34zM207 -232.5q-30 29.5 -30 74.5t30 74.5t77 29.5t77 -29.5t30 -74.5
t-30 -74.5t-77 -29.5t-77 29.5z" />
    <glyph glyph-name="uni018A" unicode="&#x18a;" horiz-adv-x="772" 
d="M589 668.5q73 -27.5 118.5 -103.5t45.5 -214q0 -194 -87.5 -272.5t-239.5 -78.5h-222v556h-20q-35 0 -35 -36q0 -27 15 -64l-120 -51q-21 33 -32.5 64t-11.5 68q0 74 52.5 116.5t142.5 42.5h222q99 0 172 -27.5zM501.5 162q23.5 19 34.5 64t11 125q0 79 -11.5 123.5
t-34.5 62t-61 17.5h-34v-411h32q40 0 63.5 19z" />
    <glyph glyph-name="uni1E0E" unicode="&#x1e0e;" horiz-adv-x="602" 
d="M419 668.5q73 -27.5 118.5 -103.5t45.5 -214q0 -194 -87.5 -272.5t-239.5 -78.5h-222v696h213q99 0 172 -27.5zM236 554v-411h32q40 0 63.5 19t34.5 64t11 125q0 79 -11.5 123.5t-34.5 62t-61 17.5h-34zM434 -199h-300v129h300v-129z" />
    <glyph glyph-name="uni018B" unicode="&#x18b;" horiz-adv-x="555" 
d="M521 0h-250q-126 0 -195 57.5t-69 172.5q0 108 67.5 166.5t195.5 58.5h49v91h-226v150h428v-696zM319 143v177h-25q-43 0 -60 -23t-17 -67t16.5 -65.5t55.5 -21.5h30z" />
    <glyph glyph-name="uni01F2" unicode="&#x1f2;" horiz-adv-x="1024" 
d="M419 668.5q73 -27.5 118.5 -103.5t45.5 -214q0 -194 -87.5 -272.5t-239.5 -78.5h-222v696h213q99 0 172 -27.5zM236 554v-411h32q40 0 63.5 19t34.5 64t11 125q0 79 -11.5 123.5t-34.5 62t-61 17.5h-34zM1012 534v-134l-197 -256h203l-16 -144h-406v136l198 257h-180v141
h398z" />
    <glyph glyph-name="uni01C5" unicode="&#x1c5;" horiz-adv-x="1024" 
d="M419 668.5q73 -27.5 118.5 -103.5t45.5 -214q0 -194 -87.5 -272.5t-239.5 -78.5h-222v696h213q99 0 172 -27.5zM236 554v-411h32q40 0 63.5 19t34.5 64t11 125q0 79 -11.5 123.5t-34.5 62t-61 17.5h-34zM1012 534v-134l-197 -256h203l-16 -144h-406v136l198 257h-180v141
h398zM939 826l64 -71l-131 -152h-115l-132 152l64 71l125 -96z" />
    <glyph glyph-name="E" unicode="E" horiz-adv-x="470" 
d="M458 696l-20 -140h-202v-135h178v-136h-178v-143h216v-142h-418v696h424z" />
    <glyph glyph-name="Eacute" unicode="&#xc9;" horiz-adv-x="470" 
d="M458 696l-20 -140h-202v-135h178v-136h-178v-143h216v-142h-418v696h424zM316 975l70 -137l-233 -89l-49 94z" />
    <glyph glyph-name="Ebreve" unicode="&#x114;" horiz-adv-x="470" 
d="M458 696l-20 -140h-202v-135h178v-136h-178v-143h216v-142h-418v696h424zM124 799q-43 52 -49 131l99 17q17 -69 73 -69q55 0 72 69l99 -17q-6 -79 -48.5 -131t-122.5 -52t-123 52z" />
    <glyph glyph-name="Ecaron" unicode="&#x11a;" horiz-adv-x="470" 
d="M458 696l-20 -140h-202v-135h178v-136h-178v-143h216v-142h-418v696h424zM371 960l64 -70l-132 -142h-114l-132 142l64 70l125 -86z" />
    <glyph glyph-name="uni0228" unicode="&#x228;" horiz-adv-x="470" 
d="M236 142h216v-142h-162v-46q101 -16 101 -104q0 -54 -40.5 -88.5t-113.5 -34.5q-34 0 -64.5 9t-52.5 24l41 82q29 -16 60 -16q38 0 38 26q0 16 -20 22.5t-65 6.5l13 119h-153v696h424l-20 -140h-202v-135h178v-136h-178v-143z" />
    <glyph glyph-name="Ecircumflex" unicode="&#xca;" horiz-adv-x="470" 
d="M458 696l-20 -140h-202v-135h178v-136h-178v-143h216v-142h-418v696h424zM121 756l-64 70l132 142h115l131 -142l-64 -70l-125 85z" />
    <glyph glyph-name="uni1EBE" unicode="&#x1ebe;" horiz-adv-x="470" 
d="M458 696l-20 -140h-202v-135h178v-136h-178v-143h216v-142h-418v696h424zM121 728l-64 70l132 142h115l131 -142l-64 -70l-125 85zM476 1135l106 -98l-165 -151l-72 61z" />
    <glyph glyph-name="uni1EC6" unicode="&#x1ec6;" horiz-adv-x="470" 
d="M458 696l-20 -140h-202v-135h178v-136h-178v-143h216v-142h-418v696h424zM121 756l-64 70l132 142h115l131 -142l-64 -70l-125 85zM166 -232.5q-30 29.5 -30 74.5t30 74.5t77 29.5t77 -29.5t30 -74.5t-30 -74.5t-77 -29.5t-77 29.5z" />
    <glyph glyph-name="uni1EC0" unicode="&#x1ec0;" horiz-adv-x="470" 
d="M458 696l-20 -140h-202v-135h178v-136h-178v-143h216v-142h-418v696h424zM120 728l-64 70l132 142h115l131 -142l-64 -70l-125 85zM17 1135l131 -188l-73 -61l-164 151z" />
    <glyph glyph-name="uni1EC2" unicode="&#x1ec2;" horiz-adv-x="470" 
d="M458 696l-20 -140h-202v-135h178v-136h-178v-143h216v-142h-418v696h424zM120 728l-64 70l132 142h115l131 -142l-64 -70l-125 85zM366 970q35 2 49.5 9.5t14.5 26.5q0 13 -8.5 20.5t-23.5 7.5q-16 0 -27 -2.5t-30 -9.5l-27 73q44 27 110 27q60 0 92 -29.5t32 -77.5
q0 -40 -20 -65t-58 -32v-40h-104v92z" />
    <glyph glyph-name="uni1EC4" unicode="&#x1ec4;" horiz-adv-x="470" 
d="M458 696l-20 -140h-202v-135h178v-136h-178v-143h216v-142h-418v696h424zM119 728l-64 70l132 142h115l131 -142l-64 -70l-125 85zM262.5 974q-14.5 6 -33.5 17q-21 14 -35 14q-15 0 -25 -8.5t-22 -28.5l-88 37q19 53 53.5 86t78.5 33q22 0 37 -6t34 -17q21 -14 35 -14
q15 0 24.5 8.5t21.5 28.5l88 -37q-18 -53 -52.5 -86t-79.5 -33q-22 0 -36.5 6z" />
    <glyph glyph-name="uni0204" unicode="&#x204;" horiz-adv-x="470" 
d="M458 696l-20 -140h-202v-135h178v-136h-178v-143h216v-142h-418v696h424zM121 1000l95 -210l-89 -44l-122 195zM298 1000l88 -212l-92 -38l-115 196z" />
    <glyph glyph-name="Edieresis" unicode="&#xcb;" horiz-adv-x="470" 
d="M458 696l-20 -140h-202v-135h178v-136h-178v-143h216v-142h-418v696h424zM199 915.5q26 -26.5 26 -63.5q0 -39 -26 -65.5t-65 -26.5q-38 0 -64.5 26.5t-26.5 65.5q0 37 26.5 63.5t64.5 26.5q39 0 65 -26.5zM425 915.5q26 -26.5 26 -63.5q0 -39 -26 -65.5t-65 -26.5
q-38 0 -64.5 26.5t-26.5 65.5q0 37 26.5 63.5t64.5 26.5q39 0 65 -26.5z" />
    <glyph glyph-name="Edotaccent" unicode="&#x116;" horiz-adv-x="470" 
d="M458 696l-20 -140h-202v-135h178v-136h-178v-143h216v-142h-418v696h424zM323 923.5q30 -29.5 30 -74.5t-30 -74.5t-77 -29.5t-77 29.5t-30 74.5t30 74.5t77 29.5t77 -29.5z" />
    <glyph glyph-name="uni1EB8" unicode="&#x1eb8;" horiz-adv-x="470" 
d="M458 696l-20 -140h-202v-135h178v-136h-178v-143h216v-142h-418v696h424zM166 -232.5q-30 29.5 -30 74.5t30 74.5t77 29.5t77 -29.5t30 -74.5t-30 -74.5t-77 -29.5t-77 29.5z" />
    <glyph glyph-name="Egrave" unicode="&#xc8;" horiz-adv-x="470" 
d="M458 696l-20 -140h-202v-135h178v-136h-178v-143h216v-142h-418v696h424zM177 975l211 -132l-49 -95l-233 90z" />
    <glyph glyph-name="uni1EBA" unicode="&#x1eba;" horiz-adv-x="470" 
d="M458 696l-20 -140h-202v-135h178v-136h-178v-143h216v-142h-418v696h424zM194 856q35 2 49.5 9.5t14.5 26.5q0 13 -8.5 20.5t-23.5 7.5q-16 0 -27 -2.5t-30 -9.5l-27 73q44 27 110 27q60 0 92 -29.5t32 -77.5q0 -40 -20 -65t-58 -32v-40h-104v92z" />
    <glyph glyph-name="uni0206" unicode="&#x206;" horiz-adv-x="470" 
d="M458 696l-20 -140h-202v-135h178v-136h-178v-143h216v-142h-418v696h424zM369.5 914q42.5 -54 48.5 -141l-99 -16q-17 81 -72 81q-56 0 -73 -81l-99 16q6 87 48.5 141t123.5 54q80 0 122.5 -54z" />
    <glyph glyph-name="Emacron" unicode="&#x112;" horiz-adv-x="470" 
d="M458 696l-20 -140h-202v-135h178v-136h-178v-143h216v-142h-418v696h424zM396 776h-300v129h300v-129z" />
    <glyph glyph-name="Eogonek" unicode="&#x118;" horiz-adv-x="470" 
d="M236 142h216v-142h-36q-102 -40 -102 -95q0 -45 45 -45q23 0 55 8l-11 -113q-34 -8 -68 -8q-66 0 -109 33t-43 91q0 77 72 129h-221v696h424l-20 -140h-202v-135h178v-136h-178v-143z" />
    <glyph glyph-name="uni0190" unicode="&#x190;" horiz-adv-x="503" 
d="M393 692.5q54 -23.5 99 -71.5l-90 -97q-54 51 -104 51q-66 0 -66 -68q0 -72 77 -72h70l-23 -139h-48q-45 0 -67.5 -23t-22.5 -65t21.5 -63t58.5 -21q30 0 56 13t58 42l102 -99q-42 -48 -100.5 -73.5t-139.5 -25.5q-78 0 -138 25.5t-93.5 73.5t-33.5 113q0 154 171 174
q-80 17 -116.5 60t-36.5 103q0 54 31.5 96t87.5 66t125 24q68 0 122 -23.5z" />
    <glyph glyph-name="uni018E" unicode="&#x18e;" horiz-adv-x="470" 
d="M23 696h413v-696h-418v142h215v143h-177v136h177v135h-210v140z" />
    <glyph glyph-name="uni01A9" unicode="&#x1a9;" horiz-adv-x="452" 
d="M448 696v-142h-234l137 -178v-68l-142 -162h239v-146h-444v141l164 199l-164 215v141h444z" />
    <glyph glyph-name="uni0246" unicode="&#x246;" horiz-adv-x="470" 
d="M331 285l-32 -143h153v-142h-185l-17 -76l-62 13l14 63h-168v696h324l14 62l62 -12l-11 -50h35l-20 -140h-47l-30 -135h53v-136h-83zM236 556v-135h60l31 135h-91zM236 285v-134l30 134h-30z" />
    <glyph glyph-name="uni1EBC" unicode="&#x1ebc;" horiz-adv-x="470" 
d="M458 696l-20 -140h-202v-135h178v-136h-178v-143h216v-142h-418v696h424zM263.5 758.5q-14.5 6.5 -33.5 18.5q-21 16 -35 16q-15 0 -25 -9.5t-22 -31.5l-88 41q19 58 53.5 95t78.5 37q22 0 38 -7t33 -19q23 -15 35 -15q15 0 24.5 9.5t21.5 31.5l88 -41q-18 -58 -52.5 -95
t-79.5 -37q-22 0 -36.5 6.5z" />
    <glyph glyph-name="uni01B7" unicode="&#x1b7;" horiz-adv-x="515" 
d="M458 347q48 -51 48 -138q0 -64 -32 -116t-93 -82t-146 -30q-81 0 -138.5 28t-98.5 80l101 94q32 -31 59 -44.5t61 -13.5q37 0 58.5 24.5t21.5 69.5q0 78 -93 78h-92v105l143 153h-216v141h425v-136l-146 -155q90 -7 138 -58z" />
    <glyph glyph-name="uni01EE" unicode="&#x1ee;" horiz-adv-x="515" 
d="M458 347q48 -51 48 -138q0 -64 -32 -116t-93 -82t-146 -30q-81 0 -138.5 28t-98.5 80l101 94q32 -31 59 -44.5t61 -13.5q37 0 58.5 24.5t21.5 69.5q0 78 -93 78h-92v105l143 153h-216v141h425v-136l-146 -155q90 -7 138 -58zM379 960l64 -70l-132 -142h-114l-132 142
l64 70l125 -86z" />
    <glyph glyph-name="uni01B8" unicode="&#x1b8;" horiz-adv-x="515" 
d="M516 89q-85 -108 -239 -108q-84 0 -145 29.5t-92.5 81t-31.5 116.5q0 84 49 136t139 60l-147 156v136h425v-141h-215l141 -154v-104h-92q-92 0 -92 -84q0 -42 20.5 -65t56.5 -23q35 0 62.5 13.5t59.5 44.5z" />
    <glyph glyph-name="F" unicode="F" horiz-adv-x="441" 
d="M34 0v696h409l-20 -140h-187v-156h165v-141h-165v-259h-202z" />
    <glyph glyph-name="uni1E1E" unicode="&#x1e1e;" horiz-adv-x="441" 
d="M34 0v696h409l-20 -140h-187v-156h165v-141h-165v-259h-202zM325 923.5q30 -29.5 30 -74.5t-30 -74.5t-77 -29.5t-77 29.5t-30 74.5t30 74.5t77 29.5t77 -29.5z" />
    <glyph glyph-name="uni0191" unicode="&#x191;" horiz-adv-x="441" 
d="M236 556v-156h165v-141h-165v-258h1v-24q0 -100 -59 -152t-159 -52q-90 0 -150 46l63 114q18 -9 30 -13t29 -4q21 0 32.5 12t11.5 36v36h-1v696h409l-20 -140h-187z" />
    <glyph glyph-name="G" unicode="G" horiz-adv-x="599" 
d="M469 691.5q58 -24.5 101 -65.5l-95 -100q-33 26 -60 37.5t-61 11.5q-66 0 -97 -52t-31 -175q0 -90 9.5 -138.5t29 -67.5t53.5 -19q31 0 60 17v132h-58l-18 136h267v-349q-52 -37 -117.5 -57.5t-127.5 -20.5q-159 0 -232.5 91t-73.5 277q0 120 41.5 202.5t115 123.5
t167.5 41q69 0 127 -24.5z" />
    <glyph glyph-name="uni01F4" unicode="&#x1f4;" horiz-adv-x="599" 
d="M469 691.5q58 -24.5 101 -65.5l-95 -100q-33 26 -60 37.5t-61 11.5q-66 0 -97 -52t-31 -175q0 -90 9.5 -138.5t29 -67.5t53.5 -19q31 0 60 17v132h-58l-18 136h267v-349q-52 -37 -117.5 -57.5t-127.5 -20.5q-159 0 -232.5 91t-73.5 277q0 120 41.5 202.5t115 123.5
t167.5 41q69 0 127 -24.5zM389 975l70 -137l-233 -89l-49 94z" />
    <glyph glyph-name="uni0194" unicode="&#x194;" horiz-adv-x="534" 
d="M368 104q32 -53 47.5 -99.5t15.5 -94.5q0 -137 -160 -137q-83 0 -122 36t-39 101q0 43 15 86.5t50 107.5l-197 592h207l85 -465l85 465h201zM289 -43q-5 17 -18 49q-12 -30 -18 -49t-6 -36q0 -29 24 -29q23 0 23 30q0 18 -5 35z" />
    <glyph glyph-name="Gbreve" unicode="&#x11e;" horiz-adv-x="599" 
d="M469 691.5q58 -24.5 101 -65.5l-95 -100q-33 26 -60 37.5t-61 11.5q-66 0 -97 -52t-31 -175q0 -90 9.5 -138.5t29 -67.5t53.5 -19q31 0 60 17v132h-58l-18 136h267v-349q-52 -37 -117.5 -57.5t-127.5 -20.5q-159 0 -232.5 91t-73.5 277q0 120 41.5 202.5t115 123.5
t167.5 41q69 0 127 -24.5zM197 799q-43 52 -49 131l99 17q17 -69 73 -69q55 0 72 69l99 -17q-6 -79 -48.5 -131t-122.5 -52t-123 52z" />
    <glyph glyph-name="Gcaron" unicode="&#x1e6;" horiz-adv-x="599" 
d="M469 691.5q58 -24.5 101 -65.5l-95 -100q-33 26 -60 37.5t-61 11.5q-66 0 -97 -52t-31 -175q0 -90 9.5 -138.5t29 -67.5t53.5 -19q31 0 60 17v132h-58l-18 136h267v-349q-52 -37 -117.5 -57.5t-127.5 -20.5q-159 0 -232.5 91t-73.5 277q0 120 41.5 202.5t115 123.5
t167.5 41q69 0 127 -24.5zM444 960l64 -70l-132 -142h-114l-132 142l64 70l125 -86z" />
    <glyph glyph-name="Gcircumflex" unicode="&#x11c;" horiz-adv-x="599" 
d="M469 691.5q58 -24.5 101 -65.5l-95 -100q-33 26 -60 37.5t-61 11.5q-66 0 -97 -52t-31 -175q0 -90 9.5 -138.5t29 -67.5t53.5 -19q31 0 60 17v132h-58l-18 136h267v-349q-52 -37 -117.5 -57.5t-127.5 -20.5q-159 0 -232.5 91t-73.5 277q0 120 41.5 202.5t115 123.5
t167.5 41q69 0 127 -24.5zM194 756l-64 70l132 142h115l131 -142l-64 -70l-125 85z" />
    <glyph glyph-name="Gcommaaccent" unicode="&#x122;" horiz-adv-x="599" 
d="M469 691.5q58 -24.5 101 -65.5l-95 -100q-33 26 -60 37.5t-61 11.5q-66 0 -97 -52t-31 -175q0 -90 9.5 -138.5t29 -67.5t53.5 -19q31 0 60 17v132h-58l-18 136h267v-349q-52 -37 -117.5 -57.5t-127.5 -20.5q-159 0 -232.5 91t-73.5 277q0 120 41.5 202.5t115 123.5
t167.5 41q69 0 127 -24.5zM384.5 -87.5q24.5 -25.5 24.5 -64.5q0 -21 -5.5 -39.5t-18.5 -47.5l-46 -102h-91l25 115q-40 26 -40 74q0 37 24.5 63.5t63.5 26.5t63.5 -25.5z" />
    <glyph glyph-name="Gdotaccent" unicode="&#x120;" horiz-adv-x="599" 
d="M469 691.5q58 -24.5 101 -65.5l-95 -100q-33 26 -60 37.5t-61 11.5q-66 0 -97 -52t-31 -175q0 -90 9.5 -138.5t29 -67.5t53.5 -19q31 0 60 17v132h-58l-18 136h267v-349q-52 -37 -117.5 -57.5t-127.5 -20.5q-159 0 -232.5 91t-73.5 277q0 120 41.5 202.5t115 123.5
t167.5 41q69 0 127 -24.5zM396 923.5q30 -29.5 30 -74.5t-30 -74.5t-77 -29.5t-77 29.5t-30 74.5t30 74.5t77 29.5t77 -29.5z" />
    <glyph glyph-name="uni0193" unicode="&#x193;" horiz-adv-x="574" 
d="M712 826l-49 -117q-31 15 -55 15q-21 0 -29.5 -11.5t-8.5 -37.5v-49l-89 -93q-34 21 -63.5 31.5t-63.5 10.5q-66 0 -97 -52t-31 -175q0 -90 9.5 -138.5t29 -67.5t53.5 -19q31 0 60 17v132h-58l-18 136h267v-349q-52 -37 -117.5 -57.5t-127.5 -20.5q-159 0 -232.5 91
t-73.5 277q0 119 41 201.5t109.5 124t152.5 41.5q46 0 86 -15q1 77 44.5 119.5t123.5 42.5q76 0 137 -37z" />
    <glyph glyph-name="uni0241" unicode="&#x241;" horiz-adv-x="487" 
d="M129 337l36 12q56 19 78 49t22 86q0 42 -18.5 66.5t-50.5 24.5q-27 0 -51 -11.5t-55 -38.5l-93 95q91 96 230 96q114 0 180 -61.5t66 -164.5q0 -78 -27.5 -121.5t-89.5 -72.5l-26 -11v-285h-202z" />
    <glyph glyph-name="uni01E4" unicode="&#x1e4;" horiz-adv-x="623" 
d="M629 179h-60v-120q-52 -37 -117.5 -57.5t-128.5 -20.5q-159 0 -232 90.5t-73 277.5q0 119 41 201.5t114.5 124t168.5 41.5q70 0 127.5 -24.5t100.5 -66.5l-96 -100q-34 26 -60.5 37.5t-59.5 11.5q-66 0 -97 -53t-31 -173q0 -90 9.5 -138.5t29.5 -67.5t56 -19q19 0 37 5
t40 14v37h-84v99h84v42h-81l-15 112h267v-154h60v-99z" />
    <glyph glyph-name="uni021C" unicode="&#x21c;" horiz-adv-x="481" 
d="M342.5 692q53.5 -24 83 -67t29.5 -99q0 -136 -160 -169q91 -10 134 -48.5t43 -114.5q0 -106 -98 -188.5t-310 -125.5l-16 144q87 28 133.5 55t64 56t17.5 69q0 42 -22.5 62t-72.5 20h-66l22 139h48q77 0 77 77q0 73 -61 73q-49 0 -111 -51l-89 97q92 95 231 95
q70 0 123.5 -24z" />
    <glyph glyph-name="H" unicode="H" horiz-adv-x="596" 
d="M360 0v282h-124v-282h-202v696h202v-259h124v259h202v-696h-202z" />
    <glyph glyph-name="Hbar" unicode="&#x126;" horiz-adv-x="610" 
d="M611 600v-104h-42v-496h-202v282h-124v-282h-202v496h-41v104h41v96h202v-96h124v96h202v-96h42zM367 437v59h-124v-59h124z" />
    <glyph glyph-name="uni021E" unicode="&#x21e;" horiz-adv-x="596" 
d="M360 0v282h-124v-282h-202v696h202v-259h124v259h202v-696h-202zM424 960l64 -70l-132 -142h-114l-132 142l64 70l125 -86z" />
    <glyph glyph-name="Hcircumflex" unicode="&#x124;" horiz-adv-x="596" 
d="M360 0v282h-124v-282h-202v696h202v-259h124v259h202v-696h-202zM174 756l-64 70l132 142h115l131 -142l-64 -70l-125 85z" />
    <glyph glyph-name="uni1E24" unicode="&#x1e24;" horiz-adv-x="596" 
d="M360 0v282h-124v-282h-202v696h202v-259h124v259h202v-696h-202zM222 -232.5q-30 29.5 -30 74.5t30 74.5t77 29.5t77 -29.5t30 -74.5t-30 -74.5t-77 -29.5t-77 29.5z" />
    <glyph glyph-name="uniA7AA" unicode="&#xa7aa;" horiz-adv-x="767" 
d="M732 696v-696h-202v282h-124v-282h-202v556h-20q-35 0 -35 -36q0 -27 15 -64l-120 -51q-21 33 -32.5 64t-11.5 68q0 74 52.5 116.5t142.5 42.5h211v-259h124v259h202z" />
    <glyph glyph-name="uniA78D" unicode="&#xa78d;" horiz-adv-x="569" 
d="M535 696v-696h-202v244q-51 -48 -128 -48q-93 0 -145.5 61.5t-52.5 170.5v268h198v-257q0 -55 15 -77t49 -22q41 0 64 26v330h202z" />
    <glyph glyph-name="uniA78D.ss02" horiz-adv-x="543" 
d="M307 0v233l-298 -1v464h202v-308h96v308h202v-696h-202z" />
    <glyph glyph-name="uni01F6" unicode="&#x1f6;" horiz-adv-x="850" 
d="M823.5 389.5q7.5 -67.5 7.5 -141.5q0 -140 -73 -203.5t-182 -63.5q-97 0 -156.5 49.5t-59.5 148.5v103h-124v-282h-202v696h202v-259h124v259h202v-523q0 -31 7.5 -42.5t22.5 -11.5q22 0 33.5 31.5t11.5 108.5q0 103 -23 275h189q13 -77 20.5 -144.5z" />
    <glyph glyph-name="I" unicode="I" horiz-adv-x="271" 
d="M236 696v-696h-202v696h202z" />
    <glyph glyph-name="IJ" unicode="&#x132;" horiz-adv-x="569" 
d="M236 696v-696h-202v696h202zM536 111q0 -90 -33 -149t-83.5 -92t-117.5 -57l-54 142q39 16 57 37.5t23.5 49.5t5.5 76v578h202v-585z" />
    <glyph glyph-name="Iacute" unicode="&#xcd;" horiz-adv-x="271" 
d="M236 696v-696h-202v696h202zM205 975l70 -137l-233 -89l-49 94z" />
    <glyph glyph-name="Ibreve" unicode="&#x12c;" horiz-adv-x="271" 
d="M236 696v-696h-202v696h202zM13 799q-43 52 -49 131l99 17q17 -69 73 -69q55 0 72 69l99 -17q-6 -79 -48.5 -131t-122.5 -52t-123 52z" />
    <glyph glyph-name="uni01CF" unicode="&#x1cf;" horiz-adv-x="271" 
d="M236 696v-696h-202v696h202zM260 960l64 -70l-132 -142h-114l-132 142l64 70l125 -86z" />
    <glyph glyph-name="Icircumflex" unicode="&#xce;" horiz-adv-x="271" 
d="M236 696v-696h-202v696h202zM10 756l-64 70l132 142h115l131 -142l-64 -70l-125 85z" />
    <glyph glyph-name="uni0208" unicode="&#x208;" horiz-adv-x="271" 
d="M236 696v-696h-202v696h202zM10 1000l95 -210l-89 -44l-122 195zM187 1000l88 -212l-92 -38l-115 196z" />
    <glyph glyph-name="Idieresis" unicode="&#xcf;" horiz-adv-x="271" 
d="M236 696v-696h-202v696h202zM88 915.5q26 -26.5 26 -63.5q0 -39 -26 -65.5t-65 -26.5q-38 0 -64.5 26.5t-26.5 65.5q0 37 26.5 63.5t64.5 26.5q39 0 65 -26.5zM314 915.5q26 -26.5 26 -63.5q0 -39 -26 -65.5t-65 -26.5q-38 0 -64.5 26.5t-26.5 65.5q0 37 26.5 63.5
t64.5 26.5q39 0 65 -26.5z" />
    <glyph glyph-name="uni1E2E" unicode="&#x1e2e;" horiz-adv-x="271" 
d="M236 696v-696h-202v696h202zM196 1141l106 -98l-165 -151l-72 61zM76 904.5q26 -26.5 26 -64.5t-26 -64.5t-65 -26.5t-65 26.5t-26 64.5t26 64.5t65 26.5t65 -26.5zM323 904.5q26 -26.5 26 -64.5t-26 -64.5t-65 -26.5t-65 26.5t-26 64.5t26 64.5t65 26.5t65 -26.5z" />
    <glyph glyph-name="Idotaccent" unicode="&#x130;" horiz-adv-x="271" 
d="M236 696v-696h-202v696h202zM212 923.5q30 -29.5 30 -74.5t-30 -74.5t-77 -29.5t-77 29.5t-30 74.5t30 74.5t77 29.5t77 -29.5z" />
    <glyph glyph-name="uni1ECA" unicode="&#x1eca;" horiz-adv-x="271" 
d="M236 696v-696h-202v696h202zM58 -232.5q-30 29.5 -30 74.5t30 74.5t77 29.5t77 -29.5t30 -74.5t-30 -74.5t-77 -29.5t-77 29.5z" />
    <glyph glyph-name="Igrave" unicode="&#xcc;" horiz-adv-x="271" 
d="M236 696v-696h-202v696h202zM66 975l211 -132l-49 -95l-233 90z" />
    <glyph glyph-name="uni1EC8" unicode="&#x1ec8;" horiz-adv-x="271" 
d="M236 696v-696h-202v696h202zM83 856q35 2 49.5 9.5t14.5 26.5q0 13 -8.5 20.5t-23.5 7.5q-16 0 -27 -2.5t-30 -9.5l-27 73q44 27 110 27q60 0 92 -29.5t32 -77.5q0 -40 -20 -65t-58 -32v-40h-104v92z" />
    <glyph glyph-name="uni020A" unicode="&#x20a;" horiz-adv-x="271" 
d="M236 696v-696h-202v696h202zM258.5 914q42.5 -54 48.5 -141l-99 -16q-17 81 -72 81q-56 0 -73 -81l-99 16q6 87 48.5 141t123.5 54q80 0 122.5 -54z" />
    <glyph glyph-name="Imacron" unicode="&#x12a;" horiz-adv-x="271" 
d="M236 696v-696h-202v696h202zM285 776h-300v129h300v-129z" />
    <glyph glyph-name="Iogonek" unicode="&#x12e;" horiz-adv-x="271" 
d="M236 696v-696h-48q-102 -40 -102 -95q0 -45 45 -45q23 0 55 8l-11 -113q-34 -8 -68 -8q-66 0 -109 33t-43 91q0 80 79 134v691h202z" />
    <glyph glyph-name="uni0196" unicode="&#x196;" horiz-adv-x="377" 
d="M392 26q-60 -46 -150 -46q-100 0 -159 52t-59 152v512h202v-525q0 -24 11.5 -36t32.5 -12q17 0 29 4t30 13z" />
    <glyph glyph-name="uni0197" unicode="&#x197;" horiz-adv-x="315" 
d="M315 433v-146h-57v-287h-202v287h-56v146h56v263h202v-263h57z" />
    <glyph glyph-name="Itilde" unicode="&#x128;" horiz-adv-x="271" 
d="M236 696v-696h-202v696h202zM152.5 758.5q-14.5 6.5 -33.5 18.5q-21 16 -35 16q-15 0 -25 -9.5t-22 -31.5l-88 41q19 58 53.5 95t78.5 37q22 0 38 -7t33 -19q23 -15 35 -15q15 0 24.5 9.5t21.5 31.5l88 -41q-18 -58 -52.5 -95t-79.5 -37q-22 0 -36.5 6.5z" />
    <glyph glyph-name="J" unicode="J" horiz-adv-x="298" 
d="M265 111q0 -90 -33 -149t-83.5 -92t-117.5 -57l-54 142q39 16 57 37.5t23.5 49.5t5.5 76v578h202v-585z" />
    <glyph glyph-name="Jcircumflex" unicode="&#x134;" horiz-adv-x="298" 
d="M265 111q0 -90 -33 -149t-83.5 -92t-117.5 -57l-54 142q39 16 57 37.5t23.5 49.5t5.5 76v578h202v-585zM39 756l-64 70l132 142h115l131 -142l-64 -70l-125 85z" />
    <glyph glyph-name="uniA7B2" unicode="&#xa7b2;" horiz-adv-x="347" 
d="M370 -115q-28 16 -75 32q-46 -144 -223 -144q-72 0 -111.5 33t-39.5 90q0 64 42.5 98.5t119.5 34.5l26 -1v668h202v-658q0 -24 -1 -35q57 -20 96 -45zM97.5 -116q11.5 18 11.5 61q-6 1 -27 1q-30 0 -43 -10.5t-13 -32.5q0 -37 34 -37q26 0 37.5 18z" />
    <glyph glyph-name="uni0248" unicode="&#x248;" horiz-adv-x="322" 
d="M322 270h-57v-159q0 -90 -33 -149t-83.5 -92t-117.5 -57l-54 142q39 16 57 37.5t23.5 49.5t5.5 76v152h-56v146h56v280h202v-280h57v-146z" />
    <glyph glyph-name="K" unicode="K" horiz-adv-x="609" 
d="M236 696v-696h-202v696h202zM612 696l-169 -310l186 -386h-223l-164 371l170 325h200z" />
    <glyph glyph-name="uni01E8" unicode="&#x1e8;" horiz-adv-x="609" 
d="M236 696v-696h-202v696h202zM612 696l-169 -310l186 -386h-223l-164 371l170 325h200zM427 960l64 -70l-132 -142h-114l-132 142l64 70l125 -86z" />
    <glyph glyph-name="Kcommaaccent" unicode="&#x136;" horiz-adv-x="609" 
d="M236 696v-696h-202v696h202zM612 696l-169 -310l186 -386h-223l-164 371l170 325h200zM365.5 -87.5q24.5 -25.5 24.5 -64.5q0 -21 -5.5 -39.5t-18.5 -47.5l-46 -102h-91l25 115q-40 26 -40 74q0 37 24.5 63.5t63.5 26.5t63.5 -25.5z" />
    <glyph glyph-name="uni0198" unicode="&#x198;" horiz-adv-x="618" 
d="M242 371l91 200q24 53 48 84t57 46t82 15q65 0 118 -36l-47 -112q-20 9 -34 9q-17 0 -27.5 -9.5t-22.5 -34.5l-67 -147l189 -386h-223zM236 696v-696h-202v696h202z" />
    <glyph glyph-name="L" unicode="L" horiz-adv-x="475" 
d="M236 696v-541h234l-21 -155h-415v696h202z" />
    <glyph glyph-name="uni01C7" unicode="&#x1c7;" horiz-adv-x="748" 
d="M236 696v-541h234l-21 -155h-415v696h202zM715 111q0 -90 -33 -149t-83.5 -92t-117.5 -57l-54 142q39 16 57 37.5t23.5 49.5t5.5 76v578h202v-585z" />
    <glyph glyph-name="Lacute" unicode="&#x139;" horiz-adv-x="475" 
d="M236 696v-541h234l-21 -155h-415v696h202zM205 975l70 -137l-233 -89l-49 94z" />
    <glyph glyph-name="uni023D" unicode="&#x23d;" horiz-adv-x="497" 
d="M258 155h234l-21 -155h-415v290h-56v146h56v260h202v-260h57v-146h-57v-135z" />
    <glyph glyph-name="uniA7AD" unicode="&#xa7ad;" horiz-adv-x="602" 
d="M597 155l-21 -155h-415v249q-83 2 -123 39t-40 99q0 59 34 91.5t91 32.5q18 0 38 -4v189h202v-340q50 3 105 13l15 -99q-56 -13 -120 -17v-98h234zM161 352v62q-12 3 -20 3q-26 0 -26 -27q0 -38 46 -38z" />
    <glyph glyph-name="Lcaron" unicode="&#x13d;" horiz-adv-x="475" 
d="M236 696v-541h234l-21 -155h-415v696h202zM370 462l53 233l-136 21l-23 -237z" />
    <glyph glyph-name="uni1E3C" unicode="&#x1e3c;" horiz-adv-x="475" 
d="M236 696v-541h234l-21 -155h-415v696h202zM115 -283l-64 70l132 152h115l131 -152l-64 -70l-125 96z" />
    <glyph glyph-name="Lcommaaccent" unicode="&#x13b;" horiz-adv-x="475" 
d="M236 696v-541h234l-21 -155h-415v696h202zM304.5 -87.5q24.5 -25.5 24.5 -64.5q0 -21 -5.5 -39.5t-18.5 -47.5l-46 -102h-91l25 115q-40 26 -40 74q0 37 24.5 63.5t63.5 26.5t63.5 -25.5z" />
    <glyph glyph-name="Ldot" unicode="&#x13f;" horiz-adv-x="475" 
d="M236 696v-541h234l-21 -155h-415v696h202zM447 481.5q30 -29.5 30 -74.5t-30 -74.5t-77 -29.5t-77 29.5t-30 74.5t30 74.5t77 29.5t77 -29.5z" />
    <glyph glyph-name="uni1E36" unicode="&#x1e36;" horiz-adv-x="475" 
d="M236 696v-541h234l-21 -155h-415v696h202zM165 -232.5q-30 29.5 -30 74.5t30 74.5t77 29.5t77 -29.5t30 -74.5t-30 -74.5t-77 -29.5t-77 29.5z" />
    <glyph glyph-name="uni01C8" unicode="&#x1c8;" horiz-adv-x="721" 
d="M236 696v-541h234l-21 -155h-415v696h202zM687 65q0 -121 -61 -187.5t-168 -104.5l-67 141q53 27 77.5 57t24.5 87v476h194v-469zM667 797.5q30 -29.5 30 -74.5t-30 -74.5t-77 -29.5t-77 29.5t-30 74.5t30 74.5t77 29.5t77 -29.5z" />
    <glyph glyph-name="Lslash" unicode="&#x141;" horiz-adv-x="530" 
d="M290 155h234l-21 -155h-415v207l-31 -21l-60 101l87 59l4 3v347h202v-213l86 57l61 -101l-147 -98v-186z" />
    <glyph glyph-name="M" unicode="M" horiz-adv-x="725" 
d="M713 0h-195l-1 250v78q0 110 5 201l-65 -458h-190l-70 458q10 -144 10 -245v-34l-2 -250h-193l44 696h247l62 -453l55 453h249z" />
    <glyph glyph-name="uni1E3E" unicode="&#x1e3e;" horiz-adv-x="725" 
d="M713 0h-195l-1 250v78q0 110 5 201l-65 -458h-190l-70 458q10 -144 10 -245v-34l-2 -250h-193l44 696h247l62 -453l55 453h249zM432 975l70 -137l-233 -89l-49 94z" />
    <glyph glyph-name="uni1E40" unicode="&#x1e40;" horiz-adv-x="725" 
d="M713 0h-195l-1 250v78q0 110 5 201l-65 -458h-190l-70 458q10 -144 10 -245v-34l-2 -250h-193l44 696h247l62 -453l55 453h249zM439 923.5q30 -29.5 30 -74.5t-30 -74.5t-77 -29.5t-77 29.5t-30 74.5t30 74.5t77 29.5t77 -29.5z" />
    <glyph glyph-name="uni019C" unicode="&#x19c;" horiz-adv-x="817" 
d="M782 696v-696h-177l-13 53q-34 -38 -66.5 -55t-73.5 -17q-45 0 -78 22.5t-52 61.5q-35 -45 -69 -64.5t-78 -19.5q-70 0 -110.5 50t-40.5 128v537h202v-526q0 -21 7.5 -32.5t20.5 -11.5q11 0 22 11.5t27 34.5v524h201v-526q0 -21 7 -32.5t19 -11.5q13 0 25 11.5t25 36.5
v522h202z" />
    <glyph glyph-name="N" unicode="N" horiz-adv-x="590" 
d="M555 0h-248l-125 517l3 -24q11 -74 17 -136t6 -137v-220h-174v696h246l128 -519l-3 20q-12 79 -18 136t-6 134v229h174v-696z" />
    <glyph glyph-name="uni01CA" unicode="&#x1ca;" horiz-adv-x="888" 
d="M555 0h-248l-125 517l3 -24q11 -74 17 -136t6 -137v-220h-174v696h246l128 -519l-3 20q-12 79 -18 136t-6 134v229h174v-696zM855 111q0 -90 -33 -149t-83.5 -92t-117.5 -57l-54 142q39 16 57 37.5t23.5 49.5t5.5 76v578h202v-585z" />
    <glyph glyph-name="Nacute" unicode="&#x143;" horiz-adv-x="590" 
d="M555 0h-248l-125 517l3 -24q11 -74 17 -136t6 -137v-220h-174v696h246l128 -519l-3 20q-12 79 -18 136t-6 134v229h174v-696zM364 975l70 -137l-233 -89l-49 94z" />
    <glyph glyph-name="Nacute.loclPLK" horiz-adv-x="590" 
d="M555 0h-248l-125 517l3 -24q11 -74 17 -136t6 -137v-220h-174v696h246l128 -519l-3 20q-12 79 -18 136t-6 134v229h174v-696zM295 986l140 -76l-137 -164l-84 48z" />
    <glyph glyph-name="Ncaron" unicode="&#x147;" horiz-adv-x="590" 
d="M555 0h-248l-125 517l3 -24q11 -74 17 -136t6 -137v-220h-174v696h246l128 -519l-3 20q-12 79 -18 136t-6 134v229h174v-696zM419 960l64 -70l-132 -142h-114l-132 142l64 70l125 -86z" />
    <glyph glyph-name="uni1E4A" unicode="&#x1e4a;" horiz-adv-x="590" 
d="M555 0h-248l-125 517l3 -24q11 -74 17 -136t6 -137v-220h-174v696h246l128 -519l-3 20q-12 79 -18 136t-6 134v229h174v-696zM168 -283l-64 70l132 152h115l131 -152l-64 -70l-125 96z" />
    <glyph glyph-name="Ncommaaccent" unicode="&#x145;" horiz-adv-x="590" 
d="M555 0h-248l-125 517l3 -24q11 -74 17 -136t6 -137v-220h-174v696h246l128 -519l-3 20q-12 79 -18 136t-6 134v229h174v-696zM357.5 -87.5q24.5 -25.5 24.5 -64.5q0 -21 -5.5 -39.5t-18.5 -47.5l-46 -102h-91l25 115q-40 26 -40 74q0 37 24.5 63.5t63.5 26.5t63.5 -25.5z
" />
    <glyph glyph-name="uni1E44" unicode="&#x1e44;" horiz-adv-x="590" 
d="M555 0h-248l-125 517l3 -24q11 -74 17 -136t6 -137v-220h-174v696h246l128 -519l-3 20q-12 79 -18 136t-6 134v229h174v-696zM371 923.5q30 -29.5 30 -74.5t-30 -74.5t-77 -29.5t-77 29.5t-30 74.5t30 74.5t77 29.5t77 -29.5z" />
    <glyph glyph-name="uni1E46" unicode="&#x1e46;" horiz-adv-x="590" 
d="M555 0h-248l-125 517l3 -24q11 -74 17 -136t6 -137v-220h-174v696h246l128 -519l-3 20q-12 79 -18 136t-6 134v229h174v-696zM218 -232.5q-30 29.5 -30 74.5t30 74.5t77 29.5t77 -29.5t30 -74.5t-30 -74.5t-77 -29.5t-77 29.5z" />
    <glyph glyph-name="uni01F8" unicode="&#x1f8;" horiz-adv-x="590" 
d="M555 0h-248l-125 517l3 -24q11 -74 17 -136t6 -137v-220h-174v696h246l128 -519l-3 20q-12 79 -18 136t-6 134v229h174v-696zM225 975l211 -132l-49 -95l-233 90z" />
    <glyph glyph-name="Eng" unicode="&#x14a;" horiz-adv-x="590" 
d="M556 1v-24q0 -100 -59 -152t-159 -52q-90 0 -150 46l63 114q18 -9 30 -13t29 -4q21 0 32.5 12t11.5 36v36h-47l-125 517l3 -24q11 -74 17 -136t6 -137v-220h-174v696h246l128 -519l-3 20q-12 79 -18 136t-6 134v229h174v-695h1z" />
    <glyph glyph-name="Eng.ss01" horiz-adv-x="582" 
d="M512.5 668q40.5 -48 40.5 -127v-564q0 -100 -59 -152t-159 -52q-90 0 -150 46l63 114q18 -9 30 -13t29 -4q21 0 32.5 12t11.5 36v547q0 32 -8.5 45.5t-28.5 13.5t-38 -12t-40 -37v-521h-202v696h178l13 -54q40 40 78.5 57t90.5 17q78 0 118.5 -48z" />
    <glyph glyph-name="uni019D" unicode="&#x19d;" horiz-adv-x="590" 
d="M555 696v-696h-248l-125 517l3 -24q11 -74 17 -136t6 -137v-244q0 -98 -53.5 -150.5t-142.5 -52.5q-88 0 -144 46l62 105q19 -10 31 -13.5t29 -3.5q21 0 32.5 13.5t11.5 40.5v735h246l128 -519l-3 20q-12 79 -18 136t-6 134v229h174z" />
    <glyph glyph-name="uni019D.ss01" horiz-adv-x="582" 
d="M512.5 668q40.5 -48 40.5 -127v-541h-202v511q0 32 -8.5 45.5t-28.5 13.5t-38 -12t-40 -37v-520h1v-24q0 -100 -59 -152t-159 -52q-90 0 -150 46l63 114q18 -9 30 -13t29 -4q21 0 32.5 12t11.5 36v36h-1v696h178l13 -54q40 40 78.5 57t90.5 17q78 0 118.5 -48z" />
    <glyph glyph-name="uni01CB" unicode="&#x1cb;" horiz-adv-x="851" 
d="M555 0h-248l-125 517l3 -24q11 -74 17 -136t6 -137v-220h-174v696h246l128 -519l-3 20q-12 79 -18 136t-6 134v229h174v-696zM817 65q0 -121 -61 -187.5t-168 -104.5l-67 141q53 27 77.5 57t24.5 87v476h194v-469zM797 797.5q30 -29.5 30 -74.5t-30 -74.5t-77 -29.5
t-77 29.5t-30 74.5t30 74.5t77 29.5t77 -29.5z" />
    <glyph glyph-name="uni0220" unicode="&#x220;" horiz-adv-x="582" 
d="M512.5 668q40.5 -48 40.5 -127v-756h-202v726q0 32 -8.5 45.5t-28.5 13.5t-38 -12t-40 -37v-521h-202v696h178l13 -54q40 40 78.5 57t90.5 17q78 0 118.5 -48z" />
    <glyph glyph-name="Ntilde" unicode="&#xd1;" horiz-adv-x="590" 
d="M555 0h-248l-125 517l3 -24q11 -74 17 -136t6 -137v-220h-174v696h246l128 -519l-3 20q-12 79 -18 136t-6 134v229h174v-696zM311.5 758.5q-14.5 6.5 -33.5 18.5q-21 16 -35 16q-15 0 -25 -9.5t-22 -31.5l-88 41q19 58 53.5 95t78.5 37q22 0 38 -7t33 -19q23 -15 35 -15
q15 0 24.5 9.5t21.5 31.5l88 -41q-18 -58 -52.5 -95t-79.5 -37q-22 0 -36.5 6.5z" />
    <glyph glyph-name="O" unicode="O" horiz-adv-x="632" 
d="M537 622.5q76 -93.5 76 -273.5q0 -177 -76.5 -273t-220.5 -96q-145 0 -221.5 94.5t-76.5 274.5q0 177 76.5 272t221.5 95t221 -93.5zM264 551.5q-19 -21.5 -27.5 -70t-8.5 -132.5q0 -86 8.5 -134.5t27.5 -70t52 -21.5q34 0 53 21.5t27 70t8 134.5q0 83 -8.5 132t-28 70.5
t-51.5 21.5q-33 0 -52 -21.5z" />
    <glyph glyph-name="uni0222" unicode="&#x222;" horiz-adv-x="596" 
d="M577 223q0 -69 -34 -124t-97.5 -86.5t-147.5 -31.5q-85 0 -148.5 30.5t-97.5 85.5t-34 126q0 66 30 111.5t86 69.5q-40 21 -61.5 54.5t-21.5 78.5v159h202v-178q0 -26 9.5 -39.5t35.5 -13.5t35 13.5t9 39.5v178h202v-159q0 -43 -21.5 -76.5t-62.5 -55.5q117 -47 117 -182
zM368 226q0 51 -18.5 76.5t-51.5 25.5q-34 0 -52 -25.5t-18 -76.5q0 -103 70 -103t70 103z" />
    <glyph glyph-name="Oacute" unicode="&#xd3;" horiz-adv-x="632" 
d="M537 622.5q76 -93.5 76 -273.5q0 -177 -76.5 -273t-220.5 -96q-145 0 -221.5 94.5t-76.5 274.5q0 177 76.5 272t221.5 95t221 -93.5zM264 551.5q-19 -21.5 -27.5 -70t-8.5 -132.5q0 -86 8.5 -134.5t27.5 -70t52 -21.5q34 0 53 21.5t27 70t8 134.5q0 83 -8.5 132t-28 70.5
t-51.5 21.5q-33 0 -52 -21.5zM386 975l70 -137l-233 -89l-49 94z" />
    <glyph glyph-name="Oacute.loclPLK" horiz-adv-x="632" 
d="M537 622.5q76 -93.5 76 -273.5q0 -177 -76.5 -273t-220.5 -96q-145 0 -221.5 94.5t-76.5 274.5q0 177 76.5 272t221.5 95t221 -93.5zM264 551.5q-19 -21.5 -27.5 -70t-8.5 -132.5q0 -86 8.5 -134.5t27.5 -70t52 -21.5q34 0 53 21.5t27 70t8 134.5q0 83 -8.5 132t-28 70.5
t-51.5 21.5q-33 0 -52 -21.5zM317 986l140 -76l-137 -164l-84 48z" />
    <glyph glyph-name="Obreve" unicode="&#x14e;" horiz-adv-x="632" 
d="M537 622.5q76 -93.5 76 -273.5q0 -177 -76.5 -273t-220.5 -96q-145 0 -221.5 94.5t-76.5 274.5q0 177 76.5 272t221.5 95t221 -93.5zM264 551.5q-19 -21.5 -27.5 -70t-8.5 -132.5q0 -86 8.5 -134.5t27.5 -70t52 -21.5q34 0 53 21.5t27 70t8 134.5q0 83 -8.5 132t-28 70.5
t-51.5 21.5q-33 0 -52 -21.5zM194 799q-43 52 -49 131l99 17q17 -69 73 -69q55 0 72 69l99 -17q-6 -79 -48.5 -131t-122.5 -52t-123 52z" />
    <glyph glyph-name="uni01D1" unicode="&#x1d1;" horiz-adv-x="632" 
d="M537 622.5q76 -93.5 76 -273.5q0 -177 -76.5 -273t-220.5 -96q-145 0 -221.5 94.5t-76.5 274.5q0 177 76.5 272t221.5 95t221 -93.5zM264 551.5q-19 -21.5 -27.5 -70t-8.5 -132.5q0 -86 8.5 -134.5t27.5 -70t52 -21.5q34 0 53 21.5t27 70t8 134.5q0 83 -8.5 132t-28 70.5
t-51.5 21.5q-33 0 -52 -21.5zM441 960l64 -70l-132 -142h-114l-132 142l64 70l125 -86z" />
    <glyph glyph-name="uni019F" unicode="&#x19f;" horiz-adv-x="632" 
d="M537 622.5q76 -93.5 76 -273.5q0 -177 -76.5 -273t-220.5 -96q-145 0 -221.5 94.5t-76.5 274.5q0 177 76.5 272t221.5 95t221 -93.5zM248.5 534q-22.5 -39 -26.5 -130h188q-4 91 -26.5 130t-67.5 39t-67.5 -39zM384.5 162.5q21.5 39.5 25.5 135.5h-188q4 -96 25.5 -135.5
t68.5 -39.5t68.5 39.5z" />
    <glyph glyph-name="Ocircumflex" unicode="&#xd4;" horiz-adv-x="632" 
d="M537 622.5q76 -93.5 76 -273.5q0 -177 -76.5 -273t-220.5 -96q-145 0 -221.5 94.5t-76.5 274.5q0 177 76.5 272t221.5 95t221 -93.5zM264 551.5q-19 -21.5 -27.5 -70t-8.5 -132.5q0 -86 8.5 -134.5t27.5 -70t52 -21.5q34 0 53 21.5t27 70t8 134.5q0 83 -8.5 132t-28 70.5
t-51.5 21.5q-33 0 -52 -21.5zM191 756l-64 70l132 142h115l131 -142l-64 -70l-125 85z" />
    <glyph glyph-name="uni1ED0" unicode="&#x1ed0;" horiz-adv-x="632" 
d="M537 622.5q76 -93.5 76 -273.5q0 -177 -76.5 -273t-220.5 -96q-145 0 -221.5 94.5t-76.5 274.5q0 177 76.5 272t221.5 95t221 -93.5zM264 551.5q-19 -21.5 -27.5 -70t-8.5 -132.5q0 -86 8.5 -134.5t27.5 -70t52 -21.5q34 0 53 21.5t27 70t8 134.5q0 83 -8.5 132t-28 70.5
t-51.5 21.5q-33 0 -52 -21.5zM191 728l-64 70l132 142h115l131 -142l-64 -70l-125 85zM546 1135l106 -98l-165 -151l-72 61z" />
    <glyph glyph-name="uni1ED8" unicode="&#x1ed8;" horiz-adv-x="632" 
d="M537 622.5q76 -93.5 76 -273.5q0 -177 -76.5 -273t-220.5 -96q-145 0 -221.5 94.5t-76.5 274.5q0 177 76.5 272t221.5 95t221 -93.5zM264 551.5q-19 -21.5 -27.5 -70t-8.5 -132.5q0 -86 8.5 -134.5t27.5 -70t52 -21.5q34 0 53 21.5t27 70t8 134.5q0 83 -8.5 132t-28 70.5
t-51.5 21.5q-33 0 -52 -21.5zM191 756l-64 70l132 142h115l131 -142l-64 -70l-125 85zM239 -232.5q-30 29.5 -30 74.5t30 74.5t77 29.5t77 -29.5t30 -74.5t-30 -74.5t-77 -29.5t-77 29.5z" />
    <glyph glyph-name="uni1ED2" unicode="&#x1ed2;" horiz-adv-x="632" 
d="M537 622.5q76 -93.5 76 -273.5q0 -177 -76.5 -273t-220.5 -96q-145 0 -221.5 94.5t-76.5 274.5q0 177 76.5 272t221.5 95t221 -93.5zM264 551.5q-19 -21.5 -27.5 -70t-8.5 -132.5q0 -86 8.5 -134.5t27.5 -70t52 -21.5q34 0 53 21.5t27 70t8 134.5q0 83 -8.5 132t-28 70.5
t-51.5 21.5q-33 0 -52 -21.5zM190 728l-64 70l132 142h115l131 -142l-64 -70l-125 85zM87 1135l131 -188l-73 -61l-164 151z" />
    <glyph glyph-name="uni1ED4" unicode="&#x1ed4;" horiz-adv-x="632" 
d="M537 622.5q76 -93.5 76 -273.5q0 -177 -76.5 -273t-220.5 -96q-145 0 -221.5 94.5t-76.5 274.5q0 177 76.5 272t221.5 95t221 -93.5zM264 551.5q-19 -21.5 -27.5 -70t-8.5 -132.5q0 -86 8.5 -134.5t27.5 -70t52 -21.5q34 0 53 21.5t27 70t8 134.5q0 83 -8.5 132t-28 70.5
t-51.5 21.5q-33 0 -52 -21.5zM190 728l-64 70l132 142h115l131 -142l-64 -70l-125 85zM436 970q35 2 49.5 9.5t14.5 26.5q0 13 -8.5 20.5t-23.5 7.5q-16 0 -27 -2.5t-30 -9.5l-27 73q44 27 110 27q60 0 92 -29.5t32 -77.5q0 -40 -20 -65t-58 -32v-40h-104v92z" />
    <glyph glyph-name="uni1ED6" unicode="&#x1ed6;" horiz-adv-x="632" 
d="M537 622.5q76 -93.5 76 -273.5q0 -177 -76.5 -273t-220.5 -96q-145 0 -221.5 94.5t-76.5 274.5q0 177 76.5 272t221.5 95t221 -93.5zM264 551.5q-19 -21.5 -27.5 -70t-8.5 -132.5q0 -86 8.5 -134.5t27.5 -70t52 -21.5q34 0 53 21.5t27 70t8 134.5q0 83 -8.5 132t-28 70.5
t-51.5 21.5q-33 0 -52 -21.5zM189 728l-64 70l132 142h115l131 -142l-64 -70l-125 85zM332.5 974q-14.5 6 -33.5 17q-21 14 -35 14q-15 0 -25 -8.5t-22 -28.5l-88 37q19 53 53.5 86t78.5 33q22 0 37 -6t34 -17q21 -14 35 -14q15 0 24.5 8.5t21.5 28.5l88 -37
q-18 -53 -52.5 -86t-79.5 -33q-22 0 -36.5 6z" />
    <glyph glyph-name="uni020C" unicode="&#x20c;" horiz-adv-x="632" 
d="M537 622.5q76 -93.5 76 -273.5q0 -177 -76.5 -273t-220.5 -96q-145 0 -221.5 94.5t-76.5 274.5q0 177 76.5 272t221.5 95t221 -93.5zM264 551.5q-19 -21.5 -27.5 -70t-8.5 -132.5q0 -86 8.5 -134.5t27.5 -70t52 -21.5q34 0 53 21.5t27 70t8 134.5q0 83 -8.5 132t-28 70.5
t-51.5 21.5q-33 0 -52 -21.5zM191 1000l95 -210l-89 -44l-122 195zM368 1000l88 -212l-92 -38l-115 196z" />
    <glyph glyph-name="Odieresis" unicode="&#xd6;" horiz-adv-x="632" 
d="M537 622.5q76 -93.5 76 -273.5q0 -177 -76.5 -273t-220.5 -96q-145 0 -221.5 94.5t-76.5 274.5q0 177 76.5 272t221.5 95t221 -93.5zM264 551.5q-19 -21.5 -27.5 -70t-8.5 -132.5q0 -86 8.5 -134.5t27.5 -70t52 -21.5q34 0 53 21.5t27 70t8 134.5q0 83 -8.5 132t-28 70.5
t-51.5 21.5q-33 0 -52 -21.5zM269 915.5q26 -26.5 26 -63.5q0 -39 -26 -65.5t-65 -26.5q-38 0 -64.5 26.5t-26.5 65.5q0 37 26.5 63.5t64.5 26.5q39 0 65 -26.5zM495 915.5q26 -26.5 26 -63.5q0 -39 -26 -65.5t-65 -26.5q-38 0 -64.5 26.5t-26.5 65.5q0 37 26.5 63.5
t64.5 26.5q39 0 65 -26.5z" />
    <glyph glyph-name="uni022A" unicode="&#x22a;" horiz-adv-x="632" 
d="M537 622.5q76 -93.5 76 -273.5q0 -177 -76.5 -273t-220.5 -96q-145 0 -221.5 94.5t-76.5 274.5q0 177 76.5 272t221.5 95t221 -93.5zM264 551.5q-19 -21.5 -27.5 -70t-8.5 -132.5q0 -86 8.5 -134.5t27.5 -70t52 -21.5q34 0 53 21.5t27 70t8 134.5q0 83 -8.5 132t-28 70.5
t-51.5 21.5q-33 0 -52 -21.5zM268 900.5q26 -26.5 26 -63.5q0 -39 -26 -65.5t-65 -26.5q-38 0 -64.5 26.5t-26.5 65.5q0 37 26.5 63.5t64.5 26.5q39 0 65 -26.5zM494 900.5q26 -26.5 26 -63.5q0 -39 -26 -65.5t-65 -26.5q-38 0 -64.5 26.5t-26.5 65.5q0 37 26.5 63.5
t64.5 26.5q39 0 65 -26.5zM468 965h-300v129h300v-129z" />
    <glyph glyph-name="uni022E" unicode="&#x22e;" horiz-adv-x="632" 
d="M537 622.5q76 -93.5 76 -273.5q0 -177 -76.5 -273t-220.5 -96q-145 0 -221.5 94.5t-76.5 274.5q0 177 76.5 272t221.5 95t221 -93.5zM264 551.5q-19 -21.5 -27.5 -70t-8.5 -132.5q0 -86 8.5 -134.5t27.5 -70t52 -21.5q34 0 53 21.5t27 70t8 134.5q0 83 -8.5 132t-28 70.5
t-51.5 21.5q-33 0 -52 -21.5zM393 923.5q30 -29.5 30 -74.5t-30 -74.5t-77 -29.5t-77 29.5t-30 74.5t30 74.5t77 29.5t77 -29.5z" />
    <glyph glyph-name="uni0230" unicode="&#x230;" horiz-adv-x="632" 
d="M537 622.5q76 -93.5 76 -273.5q0 -177 -76.5 -273t-220.5 -96q-145 0 -221.5 94.5t-76.5 274.5q0 177 76.5 272t221.5 95t221 -93.5zM264 551.5q-19 -21.5 -27.5 -70t-8.5 -132.5q0 -86 8.5 -134.5t27.5 -70t52 -21.5q34 0 53 21.5t27 70t8 134.5q0 83 -8.5 132t-28 70.5
t-51.5 21.5q-33 0 -52 -21.5zM391 912.5q30 -29.5 30 -74.5t-30 -74.5t-77 -29.5t-77 29.5t-30 74.5t30 74.5t77 29.5t77 -29.5zM465 965h-300v129h300v-129z" />
    <glyph glyph-name="uni1ECC" unicode="&#x1ecc;" horiz-adv-x="632" 
d="M537 622.5q76 -93.5 76 -273.5q0 -177 -76.5 -273t-220.5 -96q-145 0 -221.5 94.5t-76.5 274.5q0 177 76.5 272t221.5 95t221 -93.5zM264 551.5q-19 -21.5 -27.5 -70t-8.5 -132.5q0 -86 8.5 -134.5t27.5 -70t52 -21.5q34 0 53 21.5t27 70t8 134.5q0 83 -8.5 132t-28 70.5
t-51.5 21.5q-33 0 -52 -21.5zM239 -232.5q-30 29.5 -30 74.5t30 74.5t77 29.5t77 -29.5t30 -74.5t-30 -74.5t-77 -29.5t-77 29.5z" />
    <glyph glyph-name="Ograve" unicode="&#xd2;" horiz-adv-x="632" 
d="M537 622.5q76 -93.5 76 -273.5q0 -177 -76.5 -273t-220.5 -96q-145 0 -221.5 94.5t-76.5 274.5q0 177 76.5 272t221.5 95t221 -93.5zM264 551.5q-19 -21.5 -27.5 -70t-8.5 -132.5q0 -86 8.5 -134.5t27.5 -70t52 -21.5q34 0 53 21.5t27 70t8 134.5q0 83 -8.5 132t-28 70.5
t-51.5 21.5q-33 0 -52 -21.5zM247 975l211 -132l-49 -95l-233 90z" />
    <glyph glyph-name="uni1ECE" unicode="&#x1ece;" horiz-adv-x="632" 
d="M537 622.5q76 -93.5 76 -273.5q0 -177 -76.5 -273t-220.5 -96q-145 0 -221.5 94.5t-76.5 274.5q0 177 76.5 272t221.5 95t221 -93.5zM264 551.5q-19 -21.5 -27.5 -70t-8.5 -132.5q0 -86 8.5 -134.5t27.5 -70t52 -21.5q34 0 53 21.5t27 70t8 134.5q0 83 -8.5 132t-28 70.5
t-51.5 21.5q-33 0 -52 -21.5zM264 856q35 2 49.5 9.5t14.5 26.5q0 13 -8.5 20.5t-23.5 7.5q-16 0 -27 -2.5t-30 -9.5l-27 73q44 27 110 27q60 0 92 -29.5t32 -77.5q0 -40 -20 -65t-58 -32v-40h-104v92z" />
    <glyph glyph-name="Ohorn" unicode="&#x1a0;" horiz-adv-x="671" 
d="M657.5 593q-27.5 -34 -77.5 -44q33 -81 33 -200q0 -177 -76.5 -273t-220.5 -96q-145 0 -221.5 94.5t-76.5 274.5q0 177 76.5 272t221.5 95q137 0 211 -82q21 3 29 15.5t8 37.5q0 22 -2.5 37t-8.5 34l116 15q16 -43 16 -91q0 -55 -27.5 -89zM369 144.5q19 21.5 27 70
t8 134.5q0 83 -8.5 132t-28 70.5t-51.5 21.5q-33 0 -52 -21.5t-27.5 -70t-8.5 -132.5q0 -86 8.5 -134.5t27.5 -70t52 -21.5q34 0 53 21.5z" />
    <glyph glyph-name="uni1EDA" unicode="&#x1eda;" horiz-adv-x="671" 
d="M456 838l-233 -89l-49 94l212 132zM657.5 593q-27.5 -34 -77.5 -44q33 -81 33 -200q0 -177 -76.5 -273t-220.5 -96q-145 0 -221.5 94.5t-76.5 274.5q0 177 76.5 272t221.5 95q137 0 211 -82q21 3 29 15.5t8 37.5q0 22 -2.5 37t-8.5 34l116 15q16 -43 16 -91
q0 -55 -27.5 -89zM369 144.5q19 21.5 27 70t8 134.5q0 83 -8.5 132t-28 70.5t-51.5 21.5q-33 0 -52 -21.5t-27.5 -70t-8.5 -132.5q0 -86 8.5 -134.5t27.5 -70t52 -21.5q34 0 53 21.5z" />
    <glyph glyph-name="uni1EE2" unicode="&#x1ee2;" horiz-adv-x="671" 
d="M657.5 593q-27.5 -34 -77.5 -44q33 -81 33 -200q0 -177 -76.5 -273t-220.5 -96q-145 0 -221.5 94.5t-76.5 274.5q0 177 76.5 272t221.5 95q137 0 211 -82q21 3 29 15.5t8 37.5q0 22 -2.5 37t-8.5 34l116 15q16 -43 16 -91q0 -55 -27.5 -89zM369 144.5q19 21.5 27 70
t8 134.5q0 83 -8.5 132t-28 70.5t-51.5 21.5q-33 0 -52 -21.5t-27.5 -70t-8.5 -132.5q0 -86 8.5 -134.5t27.5 -70t52 -21.5q34 0 53 21.5zM393 -83.5q30 -29.5 30 -74.5t-30 -74.5t-77 -29.5t-77 29.5t-30 74.5t30 74.5t77 29.5t77 -29.5z" />
    <glyph glyph-name="uni1EDC" unicode="&#x1edc;" horiz-adv-x="671" 
d="M458 843l-49 -95l-233 90l71 137zM657.5 593q-27.5 -34 -77.5 -44q33 -81 33 -200q0 -177 -76.5 -273t-220.5 -96q-145 0 -221.5 94.5t-76.5 274.5q0 177 76.5 272t221.5 95q137 0 211 -82q21 3 29 15.5t8 37.5q0 22 -2.5 37t-8.5 34l116 15q16 -43 16 -91
q0 -55 -27.5 -89zM369 144.5q19 21.5 27 70t8 134.5q0 83 -8.5 132t-28 70.5t-51.5 21.5q-33 0 -52 -21.5t-27.5 -70t-8.5 -132.5q0 -86 8.5 -134.5t27.5 -70t52 -21.5q34 0 53 21.5z" />
    <glyph glyph-name="uni1EDE" unicode="&#x1ede;" horiz-adv-x="671" 
d="M269 917.5q-11 -2.5 -30 -9.5l-27 73q44 27 110 27q60 0 92 -29.5t32 -77.5q0 -40 -20 -65t-58 -32v-40h-104v92q35 2 49.5 9.5t14.5 26.5q0 13 -8.5 20.5t-23.5 7.5q-16 0 -27 -2.5zM657.5 593q-27.5 -34 -77.5 -44q33 -81 33 -200q0 -177 -76.5 -273t-220.5 -96
q-145 0 -221.5 94.5t-76.5 274.5q0 177 76.5 272t221.5 95q137 0 211 -82q21 3 29 15.5t8 37.5q0 22 -2.5 37t-8.5 34l116 15q16 -43 16 -91q0 -55 -27.5 -89zM369 144.5q19 21.5 27 70t8 134.5q0 83 -8.5 132t-28 70.5t-51.5 21.5q-33 0 -52 -21.5t-27.5 -70t-8.5 -132.5
q0 -86 8.5 -134.5t27.5 -70t52 -21.5q34 0 53 21.5z" />
    <glyph glyph-name="uni1EE0" unicode="&#x1ee0;" horiz-adv-x="671" 
d="M240 783.5q-10 -9.5 -22 -31.5l-88 41q19 58 53.5 95t78.5 37q22 0 38 -7t33 -19q23 -15 35 -15q15 0 24.5 9.5t21.5 31.5l88 -41q-18 -58 -52.5 -95t-79.5 -37q-22 0 -36.5 6.5t-33.5 18.5q-21 16 -35 16q-15 0 -25 -9.5zM657.5 593q-27.5 -34 -77.5 -44q33 -81 33 -200
q0 -177 -76.5 -273t-220.5 -96q-145 0 -221.5 94.5t-76.5 274.5q0 177 76.5 272t221.5 95q137 0 211 -82q21 3 29 15.5t8 37.5q0 22 -2.5 37t-8.5 34l116 15q16 -43 16 -91q0 -55 -27.5 -89zM369 144.5q19 21.5 27 70t8 134.5q0 83 -8.5 132t-28 70.5t-51.5 21.5
q-33 0 -52 -21.5t-27.5 -70t-8.5 -132.5q0 -86 8.5 -134.5t27.5 -70t52 -21.5q34 0 53 21.5z" />
    <glyph glyph-name="Ohungarumlaut" unicode="&#x150;" horiz-adv-x="632" 
d="M537 622.5q76 -93.5 76 -273.5q0 -177 -76.5 -273t-220.5 -96q-145 0 -221.5 94.5t-76.5 274.5q0 177 76.5 272t221.5 95t221 -93.5zM264 551.5q-19 -21.5 -27.5 -70t-8.5 -132.5q0 -86 8.5 -134.5t27.5 -70t52 -21.5q34 0 53 21.5t27 70t8 134.5q0 83 -8.5 132t-28 70.5
t-51.5 21.5q-33 0 -52 -21.5zM271 1000l119 -54l-115 -196l-92 38zM448 1000l116 -59l-122 -195l-89 44z" />
    <glyph glyph-name="uni01A2" unicode="&#x1a2;" horiz-adv-x="895" 
d="M802.5 662q58.5 -53 58.5 -150v-726h-202v736q0 56 -42 56q-22 0 -47 -10q43 -88 43 -219q0 -177 -76.5 -273t-220.5 -96q-145 0 -221.5 94.5t-76.5 274.5q0 177 76.5 272t221.5 95q102 0 172 -50q72 49 161 49q95 0 153.5 -53zM369 144.5q19 21.5 27 70t8 134.5
q0 83 -8.5 132t-28 70.5t-51.5 21.5q-33 0 -52 -21.5t-27.5 -70t-8.5 -132.5q0 -86 8.5 -134.5t27.5 -70t52 -21.5q34 0 53 21.5z" />
    <glyph glyph-name="uni020E" unicode="&#x20e;" horiz-adv-x="632" 
d="M537 622.5q76 -93.5 76 -273.5q0 -177 -76.5 -273t-220.5 -96q-145 0 -221.5 94.5t-76.5 274.5q0 177 76.5 272t221.5 95t221 -93.5zM264 551.5q-19 -21.5 -27.5 -70t-8.5 -132.5q0 -86 8.5 -134.5t27.5 -70t52 -21.5q34 0 53 21.5t27 70t8 134.5q0 83 -8.5 132t-28 70.5
t-51.5 21.5q-33 0 -52 -21.5zM439.5 914q42.5 -54 48.5 -141l-99 -16q-17 81 -72 81q-56 0 -73 -81l-99 16q6 87 48.5 141t123.5 54q80 0 122.5 -54z" />
    <glyph glyph-name="Omacron" unicode="&#x14c;" horiz-adv-x="632" 
d="M537 622.5q76 -93.5 76 -273.5q0 -177 -76.5 -273t-220.5 -96q-145 0 -221.5 94.5t-76.5 274.5q0 177 76.5 272t221.5 95t221 -93.5zM264 551.5q-19 -21.5 -27.5 -70t-8.5 -132.5q0 -86 8.5 -134.5t27.5 -70t52 -21.5q34 0 53 21.5t27 70t8 134.5q0 83 -8.5 132t-28 70.5
t-51.5 21.5q-33 0 -52 -21.5zM466 776h-300v129h300v-129z" />
    <glyph glyph-name="uni1E52" unicode="&#x1e52;" horiz-adv-x="632" 
d="M537 622.5q76 -93.5 76 -273.5q0 -177 -76.5 -273t-220.5 -96q-145 0 -221.5 94.5t-76.5 274.5q0 177 76.5 272t221.5 95t221 -93.5zM264 551.5q-19 -21.5 -27.5 -70t-8.5 -132.5q0 -86 8.5 -134.5t27.5 -70t52 -21.5q34 0 53 21.5t27 70t8 134.5q0 83 -8.5 132t-28 70.5
t-51.5 21.5q-33 0 -52 -21.5zM466 763h-300v129h300v-129zM383 1143l70 -137l-233 -89l-49 94z" />
    <glyph glyph-name="uni1E50" unicode="&#x1e50;" horiz-adv-x="632" 
d="M247 1142l211 -132l-49 -95l-233 90zM466 763h-300v129h300v-129zM537 622.5q76 -93.5 76 -273.5q0 -177 -76.5 -273t-220.5 -96q-145 0 -221.5 94.5t-76.5 274.5q0 177 76.5 272t221.5 95t221 -93.5zM264 551.5q-19 -21.5 -27.5 -70t-8.5 -132.5q0 -86 8.5 -134.5
t27.5 -70t52 -21.5q34 0 53 21.5t27 70t8 134.5q0 83 -8.5 132t-28 70.5t-51.5 21.5q-33 0 -52 -21.5z" />
    <glyph glyph-name="uniA7B6" unicode="&#xa7b6;" horiz-adv-x="839" 
d="M785.5 516q18.5 -91 18.5 -212q0 -168 -53 -245.5t-158 -77.5q-70 0 -112 29.5t-60 95.5q-16 -64 -59 -94.5t-104 -30.5q-116 0 -170 76.5t-54 246.5q0 121 18.5 212t53.5 180h185l-9 -39q-23 -98 -34.5 -171.5t-11.5 -169.5q0 -74 5 -116t16 -59.5t30 -17.5q36 0 36 54
v222h199v-222q0 -29 8 -41.5t27 -12.5t28.5 17t13 57.5t3.5 118.5q0 109 -16 190t-48 190h194q35 -89 53.5 -180z" />
    <glyph glyph-name="uni01EA" unicode="&#x1ea;" horiz-adv-x="632" 
d="M330 -95q0 -45 45 -45q23 0 55 8l-11 -113q-34 -8 -68 -8q-66 0 -109 33t-43 91q0 67 54 114q-115 19 -175 112t-60 252q0 177 76.5 272t221.5 95t221 -93.5t76 -273.5q0 -140 -48 -230t-140 -122q-95 -38 -95 -92zM264 551.5q-19 -21.5 -27.5 -70t-8.5 -132.5
q0 -86 8.5 -134.5t27.5 -70t52 -21.5q34 0 53 21.5t27 70t8 134.5q0 83 -8.5 132t-28 70.5t-51.5 21.5q-33 0 -52 -21.5z" />
    <glyph glyph-name="uni01EC" unicode="&#x1ec;" horiz-adv-x="632" 
d="M466 905v-129h-300v129h300zM330 -95q0 -45 45 -45q23 0 55 8l-11 -113q-34 -8 -68 -8q-66 0 -109 33t-43 91q0 67 54 114q-115 19 -175 112t-60 252q0 177 76.5 272t221.5 95t221 -93.5t76 -273.5q0 -140 -48 -230t-140 -122q-95 -38 -95 -92zM264 551.5
q-19 -21.5 -27.5 -70t-8.5 -132.5q0 -86 8.5 -134.5t27.5 -70t52 -21.5q34 0 53 21.5t27 70t8 134.5q0 83 -8.5 132t-28 70.5t-51.5 21.5q-33 0 -52 -21.5z" />
    <glyph glyph-name="uni0186" unicode="&#x186;" horiz-adv-x="535" 
d="M375.5 675q66.5 -41 103.5 -123.5t37 -201.5q0 -181 -80.5 -275t-221.5 -94q-66 0 -121.5 26.5t-95.5 68.5l88 109q32 -26 58.5 -39t58.5 -13q52 0 78.5 49t26.5 168q0 120 -24 170.5t-75 50.5q-31 0 -56 -11.5t-52 -35.5l-95 111q44 40 96 60.5t120 20.5q88 0 154.5 -41
z" />
    <glyph glyph-name="Oslash" unicode="&#xd8;" horiz-adv-x="632" 
d="M581 545q32 -81 32 -196q0 -177 -76.5 -272.5t-220.5 -95.5q-19 0 -28 1l-33 -120l-146 38l37 128q-63 43 -95.5 124t-32.5 197q0 176 76.5 271.5t221.5 95.5q18 0 27 -1l33 118l147 -40l-36 -124q62 -43 94 -124zM259 553.5q-21 -21.5 -30 -70.5t-9 -134q0 -115 12 -162
l96 388h-12q-36 0 -57 -21.5zM373.5 142.5q20.5 21.5 29 70t8.5 136.5q0 102 -12 153l-94 -381h11q37 0 57.5 21.5z" />
    <glyph glyph-name="Oslashacute" unicode="&#x1fe;" horiz-adv-x="632" 
d="M581 545q32 -81 32 -196q0 -177 -76.5 -272.5t-220.5 -95.5q-19 0 -28 1l-33 -120l-146 38l37 128q-63 43 -95.5 124t-32.5 197q0 176 76.5 271.5t221.5 95.5q18 0 27 -1l33 118l147 -40l-36 -124q62 -43 94 -124zM259 553.5q-21 -21.5 -30 -70.5t-9 -134q0 -115 12 -162
l96 388h-12q-36 0 -57 -21.5zM373.5 142.5q20.5 21.5 29 70t8.5 136.5q0 102 -12 153l-94 -381h11q37 0 57.5 21.5zM387 1018l70 -137l-233 -89l-49 94z" />
    <glyph glyph-name="Otilde" unicode="&#xd5;" horiz-adv-x="632" 
d="M537 622.5q76 -93.5 76 -273.5q0 -177 -76.5 -273t-220.5 -96q-145 0 -221.5 94.5t-76.5 274.5q0 177 76.5 272t221.5 95t221 -93.5zM264 551.5q-19 -21.5 -27.5 -70t-8.5 -132.5q0 -86 8.5 -134.5t27.5 -70t52 -21.5q34 0 53 21.5t27 70t8 134.5q0 83 -8.5 132t-28 70.5
t-51.5 21.5q-33 0 -52 -21.5zM333.5 758.5q-14.5 6.5 -33.5 18.5q-21 16 -35 16q-15 0 -25 -9.5t-22 -31.5l-88 41q19 58 53.5 95t78.5 37q22 0 38 -7t33 -19q23 -15 35 -15q15 0 24.5 9.5t21.5 31.5l88 -41q-18 -58 -52.5 -95t-79.5 -37q-22 0 -36.5 6.5z" />
    <glyph glyph-name="uni1E4C" unicode="&#x1e4c;" horiz-adv-x="632" 
d="M537 622.5q76 -93.5 76 -273.5q0 -177 -76.5 -273t-220.5 -96q-145 0 -221.5 94.5t-76.5 274.5q0 177 76.5 272t221.5 95t221 -93.5zM264 551.5q-19 -21.5 -27.5 -70t-8.5 -132.5q0 -86 8.5 -134.5t27.5 -70t52 -21.5q34 0 53 21.5t27 70t8 134.5q0 83 -8.5 132t-28 70.5
t-51.5 21.5q-33 0 -52 -21.5zM333.5 763.5q-14.5 6.5 -33.5 18.5q-21 16 -35 16q-15 0 -25 -9.5t-22 -31.5l-88 41q19 58 53.5 95t78.5 37q22 0 38 -7t33 -19q23 -15 35 -15q15 0 24.5 9.5t21.5 31.5l88 -41q-18 -58 -52.5 -95t-79.5 -37q-22 0 -36.5 6.5zM386 1169l70 -137
l-233 -89l-49 94z" />
    <glyph glyph-name="uni022C" unicode="&#x22c;" horiz-adv-x="632" 
d="M537 622.5q76 -93.5 76 -273.5q0 -177 -76.5 -273t-220.5 -96q-145 0 -221.5 94.5t-76.5 274.5q0 177 76.5 272t221.5 95t221 -93.5zM264 551.5q-19 -21.5 -27.5 -70t-8.5 -132.5q0 -86 8.5 -134.5t27.5 -70t52 -21.5q34 0 53 21.5t27 70t8 134.5q0 83 -8.5 132t-28 70.5
t-51.5 21.5q-33 0 -52 -21.5zM333.5 763.5q-14.5 6.5 -33.5 18.5q-21 16 -35 16q-15 0 -25 -9.5t-22 -31.5l-88 41q19 58 53.5 95t78.5 37q22 0 38 -7t33 -19q23 -15 35 -15q15 0 24.5 9.5t21.5 31.5l88 -41q-18 -58 -52.5 -95t-79.5 -37q-22 0 -36.5 6.5zM468 964h-300v129
h300v-129z" />
    <glyph glyph-name="OE" unicode="&#x152;" horiz-adv-x="826" 
d="M542 142h266v-142h-407q-45 -20 -102 -20q-133 0 -207 96.5t-74 272.5q0 174 74 270.5t207 96.5q59 0 104 -20h412l-21 -140h-253q36 -59 47 -135h182v-136h-181q-10 -82 -47 -143zM353 144.5q17 21.5 25 70.5t8 134q0 124 -18.5 174t-60.5 50q-29 0 -46 -21t-25 -70
t-8 -133q0 -85 8 -134t25 -70.5t46 -21.5t46 21.5z" />
    <glyph glyph-name="P" unicode="P" horiz-adv-x="557" 
d="M473 636.5q75 -59.5 75 -174.5q0 -118 -70.5 -180.5t-193.5 -62.5h-48v-219h-202v696h226q138 0 213 -59.5zM323.5 384.5q18.5 24.5 18.5 78.5q0 47 -18 70t-62 23h-26v-196h27q42 0 60.5 24.5z" />
    <glyph glyph-name="uni1E54" unicode="&#x1e54;" horiz-adv-x="557" 
d="M473 636.5q75 -59.5 75 -174.5q0 -118 -70.5 -180.5t-193.5 -62.5h-48v-219h-202v696h226q138 0 213 -59.5zM323.5 384.5q18.5 24.5 18.5 78.5q0 47 -18 70t-62 23h-26v-196h27q42 0 60.5 24.5zM352 975l70 -137l-233 -89l-49 94z" />
    <glyph glyph-name="uni1E56" unicode="&#x1e56;" horiz-adv-x="557" 
d="M473 636.5q75 -59.5 75 -174.5q0 -118 -70.5 -180.5t-193.5 -62.5h-48v-219h-202v696h226q138 0 213 -59.5zM323.5 384.5q18.5 24.5 18.5 78.5q0 47 -18 70t-62 23h-26v-196h27q42 0 60.5 24.5zM359 923.5q30 -29.5 30 -74.5t-30 -74.5t-77 -29.5t-77 29.5t-30 74.5
t30 74.5t77 29.5t77 -29.5z" />
    <glyph glyph-name="uni01A4" unicode="&#x1a4;" horiz-adv-x="727" 
d="M643 636.5q75 -59.5 75 -174.5q0 -118 -70.5 -180.5t-193.5 -62.5h-48v-219h-202v556h-20q-35 0 -35 -36q0 -27 15 -64l-120 -51q-21 33 -32.5 64t-11.5 68q0 74 52.5 116.5t142.5 42.5h235q138 0 213 -59.5zM493.5 384.5q18.5 24.5 18.5 78.5q0 47 -18 70t-62 23h-26
v-196h27q42 0 60.5 24.5z" />
    <glyph glyph-name="Thorn" unicode="&#xde;" horiz-adv-x="557" 
d="M475 532.5q73 -59.5 73 -174.5q0 -124 -69 -187.5t-190 -63.5h-53v-107h-202v696h202v-104h35q131 0 204 -59.5zM326.5 274q18.5 26 18.5 84q0 49 -19.5 72t-60.5 23h-29v-205h33q39 0 57.5 26z" />
    <glyph glyph-name="Q" unicode="Q" horiz-adv-x="632" 
d="M574.5 32q45.5 -15 87.5 -50l-118 -153q-102 155 -244 155q-134 0 -208 95t-74 270t77 271t221 96q145 0 221 -94.5t76 -272.5q0 -117 -43 -188t-111 -114q70 0 115.5 -15zM236.5 215q8.5 -49 27.5 -70.5t52 -21.5q34 0 53 21.5t27 70t8 134.5q0 85 -8.5 133.5
t-27.5 69.5t-52 21t-52 -21t-27.5 -69.5t-8.5 -133.5t8.5 -134z" />
    <glyph glyph-name="uni024A" unicode="&#x24a;" horiz-adv-x="618" 
d="M749 -181q-60 -46 -150 -46q-100 0 -159 52t-59 152v45q-48 -41 -117 -41q-73 0 -128.5 42t-86.5 122.5t-31 193.5q0 119 31.5 204t87.5 129t128 44q79 0 133 -52l5 32h180v-732q0 -24 11.5 -36t32.5 -12q17 0 29 4t30 13zM381 144v403q-31 26 -67 26q-31 0 -49.5 -21
t-27.5 -72t-9 -141q0 -87 9 -134.5t27.5 -66.5t49.5 -19q38 0 67 25z" />
    <glyph glyph-name="R" unicode="R" horiz-adv-x="570" 
d="M263 249h-27v-249h-202v696h232q144 0 213.5 -55t69.5 -166q0 -128 -108 -187l152 -288h-217zM236 385h34q39 0 57 21.5t18 68.5q0 43 -20.5 63t-60.5 20h-28v-173z" />
    <glyph glyph-name="Racute" unicode="&#x154;" horiz-adv-x="570" 
d="M263 249h-27v-249h-202v696h232q144 0 213.5 -55t69.5 -166q0 -128 -108 -187l152 -288h-217zM236 385h34q39 0 57 21.5t18 68.5q0 43 -20.5 63t-60.5 20h-28v-173zM347 975l70 -137l-233 -89l-49 94z" />
    <glyph glyph-name="Rcaron" unicode="&#x158;" horiz-adv-x="570" 
d="M263 249h-27v-249h-202v696h232q144 0 213.5 -55t69.5 -166q0 -128 -108 -187l152 -288h-217zM236 385h34q39 0 57 21.5t18 68.5q0 43 -20.5 63t-60.5 20h-28v-173zM402 960l64 -70l-132 -142h-114l-132 142l64 70l125 -86z" />
    <glyph glyph-name="Rcommaaccent" unicode="&#x156;" horiz-adv-x="570" 
d="M263 249h-27v-249h-202v696h232q144 0 213.5 -55t69.5 -166q0 -128 -108 -187l152 -288h-217zM236 385h34q39 0 57 21.5t18 68.5q0 43 -20.5 63t-60.5 20h-28v-173zM347.5 -87.5q24.5 -25.5 24.5 -64.5q0 -21 -5.5 -39.5t-18.5 -47.5l-46 -102h-91l25 115q-40 26 -40 74
q0 37 24.5 63.5t63.5 26.5t63.5 -25.5z" />
    <glyph glyph-name="uni0210" unicode="&#x210;" horiz-adv-x="570" 
d="M263 249h-27v-249h-202v696h232q144 0 213.5 -55t69.5 -166q0 -128 -108 -187l152 -288h-217zM236 385h34q39 0 57 21.5t18 68.5q0 43 -20.5 63t-60.5 20h-28v-173zM152 1000l95 -210l-89 -44l-122 195zM329 1000l88 -212l-92 -38l-115 196z" />
    <glyph glyph-name="uni1E5A" unicode="&#x1e5a;" horiz-adv-x="570" 
d="M263 249h-27v-249h-202v696h232q144 0 213.5 -55t69.5 -166q0 -128 -108 -187l152 -288h-217zM236 385h34q39 0 57 21.5t18 68.5q0 43 -20.5 63t-60.5 20h-28v-173zM208 -232.5q-30 29.5 -30 74.5t30 74.5t77 29.5t77 -29.5t30 -74.5t-30 -74.5t-77 -29.5t-77 29.5z" />
    <glyph glyph-name="uni0212" unicode="&#x212;" horiz-adv-x="570" 
d="M263 249h-27v-249h-202v696h232q144 0 213.5 -55t69.5 -166q0 -128 -108 -187l152 -288h-217zM236 385h34q39 0 57 21.5t18 68.5q0 43 -20.5 63t-60.5 20h-28v-173zM400.5 914q42.5 -54 48.5 -141l-99 -16q-17 81 -72 81q-56 0 -73 -81l-99 16q6 87 48.5 141t123.5 54
q80 0 122.5 -54z" />
    <glyph glyph-name="uni024C" unicode="&#x24c;" horiz-adv-x="583" 
d="M276 249h-27v-249h-202v249h-37v136h37v311h232q144 0 213.5 -55t69.5 -166q0 -128 -108 -187l152 -288h-217zM249 558v-173h34q39 0 57 21.5t18 68.5q0 43 -20.5 63t-60.5 20h-28z" />
    <glyph glyph-name="uni2C64" unicode="&#x2c64;" horiz-adv-x="570" 
d="M309 -80q12 4 30 13l63 -114q-60 -46 -150 -46q-100 0 -159 52t-59 152v719h232q144 0 213.5 -55t69.5 -166q0 -128 -108 -187l152 -288h-217l-113 249h-27v-285q0 -24 11.5 -36t32.5 -12q17 0 29 4zM236 558v-173h34q39 0 57 21.5t18 68.5q0 43 -20.5 63t-60.5 20h-28z
" />
    <glyph glyph-name="uni2C64.ss01" horiz-adv-x="416" 
d="M309 -80q12 4 30 13l63 -114q-60 -46 -150 -46q-100 0 -159 52t-59 152v719h178l14 -92q18 51 54.5 80t85.5 29q35 0 60 -9l-29 -191q-28 7 -57 7q-46 0 -69 -29t-35 -82v-445q0 -24 11.5 -36t32.5 -12q17 0 29 4z" />
    <glyph glyph-name="S" unicode="S" horiz-adv-x="536" 
d="M406 692q58 -24 104 -70l-86 -104q-63 55 -129 55q-33 0 -49 -14.5t-16 -38.5q0 -18 9 -29.5t31 -23t69 -29.5q67 -26 107 -55.5t59.5 -71.5t19.5 -103q0 -67 -32.5 -119t-93.5 -80.5t-144 -28.5q-156 0 -260 104l97 107q74 -66 150 -66q38 0 55.5 18t17.5 47
q0 31 -20 50.5t-76 40.5q-110 42 -153.5 93t-43.5 128q0 65 32.5 113.5t89.5 74.5t128 26q76 0 134 -24z" />
    <glyph glyph-name="Sacute" unicode="&#x15a;" horiz-adv-x="536" 
d="M406 692q58 -24 104 -70l-86 -104q-63 55 -129 55q-33 0 -49 -14.5t-16 -38.5q0 -18 9 -29.5t31 -23t69 -29.5q67 -26 107 -55.5t59.5 -71.5t19.5 -103q0 -67 -32.5 -119t-93.5 -80.5t-144 -28.5q-156 0 -260 104l97 107q74 -66 150 -66q38 0 55.5 18t17.5 47
q0 31 -20 50.5t-76 40.5q-110 42 -153.5 93t-43.5 128q0 65 32.5 113.5t89.5 74.5t128 26q76 0 134 -24zM350 975l70 -137l-233 -89l-49 94z" />
    <glyph glyph-name="Sacute.loclPLK" horiz-adv-x="536" 
d="M406 692q58 -24 104 -70l-86 -104q-63 55 -129 55q-33 0 -49 -14.5t-16 -38.5q0 -18 9 -29.5t31 -23t69 -29.5q67 -26 107 -55.5t59.5 -71.5t19.5 -103q0 -67 -32.5 -119t-93.5 -80.5t-144 -28.5q-156 0 -260 104l97 107q74 -66 150 -66q38 0 55.5 18t17.5 47
q0 31 -20 50.5t-76 40.5q-110 42 -153.5 93t-43.5 128q0 65 32.5 113.5t89.5 74.5t128 26q76 0 134 -24zM281 986l140 -76l-137 -164l-84 48z" />
    <glyph glyph-name="uniA78B" unicode="&#xa78b;" horiz-adv-x="253" 
d="M58 327l-21 369h179l-21 -369h-137z" />
    <glyph glyph-name="Scaron" unicode="&#x160;" horiz-adv-x="536" 
d="M406 692q58 -24 104 -70l-86 -104q-63 55 -129 55q-33 0 -49 -14.5t-16 -38.5q0 -18 9 -29.5t31 -23t69 -29.5q67 -26 107 -55.5t59.5 -71.5t19.5 -103q0 -67 -32.5 -119t-93.5 -80.5t-144 -28.5q-156 0 -260 104l97 107q74 -66 150 -66q38 0 55.5 18t17.5 47
q0 31 -20 50.5t-76 40.5q-110 42 -153.5 93t-43.5 128q0 65 32.5 113.5t89.5 74.5t128 26q76 0 134 -24zM405 960l64 -70l-132 -142h-114l-132 142l64 70l125 -86z" />
    <glyph glyph-name="Scedilla" unicode="&#x15e;" horiz-adv-x="536" 
d="M469 59q-56 -60 -154 -75v-30q101 -16 101 -104q0 -54 -40.5 -88.5t-113.5 -34.5q-34 0 -64.5 9t-52.5 24l41 82q29 -16 60 -16q38 0 38 26q0 16 -20 22.5t-65 6.5l11 101q-126 13 -215 102l97 107q74 -66 150 -66q38 0 55.5 18t17.5 47q0 31 -20 50.5t-76 40.5
q-110 42 -153.5 93t-43.5 128q0 65 32.5 113.5t89.5 74.5t128 26q76 0 134 -24t104 -70l-86 -104q-63 55 -129 55q-33 0 -49 -14.5t-16 -38.5q0 -18 9 -29.5t31 -23t69 -29.5q67 -26 107 -55.5t59.5 -71.5t19.5 -103q0 -89 -56 -149z" />
    <glyph glyph-name="Scircumflex" unicode="&#x15c;" horiz-adv-x="536" 
d="M406 692q58 -24 104 -70l-86 -104q-63 55 -129 55q-33 0 -49 -14.5t-16 -38.5q0 -18 9 -29.5t31 -23t69 -29.5q67 -26 107 -55.5t59.5 -71.5t19.5 -103q0 -67 -32.5 -119t-93.5 -80.5t-144 -28.5q-156 0 -260 104l97 107q74 -66 150 -66q38 0 55.5 18t17.5 47
q0 31 -20 50.5t-76 40.5q-110 42 -153.5 93t-43.5 128q0 65 32.5 113.5t89.5 74.5t128 26q76 0 134 -24zM155 756l-64 70l132 142h115l131 -142l-64 -70l-125 85z" />
    <glyph glyph-name="Scommaaccent" unicode="&#x218;" horiz-adv-x="536" 
d="M406 692q58 -24 104 -70l-86 -104q-63 55 -129 55q-33 0 -49 -14.5t-16 -38.5q0 -18 9 -29.5t31 -23t69 -29.5q67 -26 107 -55.5t59.5 -71.5t19.5 -103q0 -67 -32.5 -119t-93.5 -80.5t-144 -28.5q-156 0 -260 104l97 107q74 -66 150 -66q38 0 55.5 18t17.5 47
q0 31 -20 50.5t-76 40.5q-110 42 -153.5 93t-43.5 128q0 65 32.5 113.5t89.5 74.5t128 26q76 0 134 -24zM329.5 -87.5q24.5 -25.5 24.5 -64.5q0 -21 -5.5 -39.5t-18.5 -47.5l-46 -102h-91l25 115q-40 26 -40 74q0 37 24.5 63.5t63.5 26.5t63.5 -25.5z" />
    <glyph glyph-name="uni1E60" unicode="&#x1e60;" horiz-adv-x="536" 
d="M406 692q58 -24 104 -70l-86 -104q-63 55 -129 55q-33 0 -49 -14.5t-16 -38.5q0 -18 9 -29.5t31 -23t69 -29.5q67 -26 107 -55.5t59.5 -71.5t19.5 -103q0 -67 -32.5 -119t-93.5 -80.5t-144 -28.5q-156 0 -260 104l97 107q74 -66 150 -66q38 0 55.5 18t17.5 47
q0 31 -20 50.5t-76 40.5q-110 42 -153.5 93t-43.5 128q0 65 32.5 113.5t89.5 74.5t128 26q76 0 134 -24zM357 923.5q30 -29.5 30 -74.5t-30 -74.5t-77 -29.5t-77 29.5t-30 74.5t30 74.5t77 29.5t77 -29.5z" />
    <glyph glyph-name="uni1E62" unicode="&#x1e62;" horiz-adv-x="536" 
d="M406 692q58 -24 104 -70l-86 -104q-63 55 -129 55q-33 0 -49 -14.5t-16 -38.5q0 -18 9 -29.5t31 -23t69 -29.5q67 -26 107 -55.5t59.5 -71.5t19.5 -103q0 -67 -32.5 -119t-93.5 -80.5t-144 -28.5q-156 0 -260 104l97 107q74 -66 150 -66q38 0 55.5 18t17.5 47
q0 31 -20 50.5t-76 40.5q-110 42 -153.5 93t-43.5 128q0 65 32.5 113.5t89.5 74.5t128 26q76 0 134 -24zM190 -232.5q-30 29.5 -30 74.5t30 74.5t77 29.5t77 -29.5t30 -74.5t-30 -74.5t-77 -29.5t-77 29.5z" />
    <glyph glyph-name="uni1E9E" unicode="&#x1e9e;" horiz-adv-x="616" 
d="M424.5 698q63.5 -18 141.5 -53v-82l-117 -168q158 -36 158 -197q0 -71 -31.5 -120.5t-84 -73.5t-114.5 -24q-73 0 -126 28l56 128q16 -8 39 -8t37.5 17.5t14.5 55.5q0 47 -25 72.5t-89 34.5v93l106 158q-51 14 -92 14q-34 0 -48 -17t-14 -55v-501h-202v494
q0 102 62.5 162t180.5 60q84 0 147.5 -18z" />
    <glyph glyph-name="uni018F" unicode="&#x18f;" horiz-adv-x="578" 
d="M487.5 625q72.5 -91 72.5 -275t-72 -276.5t-207 -92.5q-143 0 -208 92.5t-65 266.5q0 38 7 75h343q-1 84 -26.5 121t-75.5 37q-39 0 -68 -13t-58 -37l-87 102q50 46 106.5 68.5t127.5 22.5q138 0 210.5 -91zM338.5 157.5q18.5 34.5 19.5 124.5h-157q0 -89 20 -124t60 -35
q39 0 57.5 34.5z" />
    <glyph glyph-name="T" unicode="T" 
d="M510 696l-20 -150h-137v-546h-202v546h-148v150h507z" />
    <glyph glyph-name="Tbar" unicode="&#x166;" 
d="M490 546h-137v-155h96v-105h-96v-286h-202v286h-98v105h98v155h-148v150h507z" />
    <glyph glyph-name="Tcaron" unicode="&#x164;" 
d="M510 696l-20 -150h-137v-546h-202v546h-148v150h507zM377 960l64 -70l-132 -142h-114l-132 142l64 70l125 -86z" />
    <glyph glyph-name="uni0162" unicode="&#x162;" 
d="M428.5 -78q25.5 -27 25.5 -72q0 -54 -40 -88.5t-113 -34.5q-34 0 -65 9.5t-53 23.5l42 84q29 -18 56 -18q21 0 31 6t10 21t-20 21.5t-65 6.5l14 119h-100v546h-148v150h507l-20 -150h-137v-590q50 -7 75.5 -34z" />
    <glyph glyph-name="uni1E70" unicode="&#x1e70;" 
d="M510 696l-20 -150h-137v-546h-202v546h-148v150h507zM125 -283l-64 70l132 152h115l131 -152l-64 -70l-125 96z" />
    <glyph glyph-name="uni021A" unicode="&#x21a;" 
d="M510 696l-20 -150h-137v-546h-202v546h-148v150h507zM314.5 -87.5q24.5 -25.5 24.5 -64.5q0 -21 -5.5 -39.5t-18.5 -47.5l-46 -102h-91l25 115q-40 26 -40 74q0 37 24.5 63.5t63.5 26.5t63.5 -25.5z" />
    <glyph glyph-name="uni023E" unicode="&#x23e;" horiz-adv-x="506" 
d="M490 555h-69l-84 -173v-382h-171v31l-52 -107l-50 24l102 210v397h-163v141h424l31 63l50 -25l-18 -38h20zM337 510l22 45h-22v-45z" />
    <glyph glyph-name="uni1E6A" unicode="&#x1e6a;" 
d="M510 696l-20 -150h-137v-546h-202v546h-148v150h507zM329 923.5q30 -29.5 30 -74.5t-30 -74.5t-77 -29.5t-77 29.5t-30 74.5t30 74.5t77 29.5t77 -29.5z" />
    <glyph glyph-name="uni1E6C" unicode="&#x1e6c;" 
d="M510 696l-20 -150h-137v-546h-202v546h-148v150h507zM175 -232.5q-30 29.5 -30 74.5t30 74.5t77 29.5t77 -29.5t30 -74.5t-30 -74.5t-77 -29.5t-77 29.5z" />
    <glyph glyph-name="uni01AC" unicode="&#x1ac;" horiz-adv-x="568" 
d="M554 546h-137v-546h-202v546h-26q-41 0 -41 -37q0 -22 12 -51l-125 -52q-35 61 -35 126q0 77 54 119.5t146 44.5h375z" />
    <glyph glyph-name="uni1E6E" unicode="&#x1e6e;" 
d="M510 696l-20 -150h-137v-546h-202v546h-148v150h507zM402 -199h-300v129h300v-129z" />
    <glyph glyph-name="uni01BC" unicode="&#x1bc;" horiz-adv-x="516" 
d="M440 561h-214v-120q46 23 91 23q50 0 90.5 -26t64 -78t23.5 -126q0 -77 -32.5 -134.5t-93 -88.5t-142.5 -31q-74 0 -130 30t-94 81l104 95q49 -63 111 -63q81 0 81 108q0 58 -17 81t-49 23q-30 0 -65 -24h-125v385h418z" />
    <glyph glyph-name="uni0184" unicode="&#x184;" horiz-adv-x="587" 
d="M513 411.5q67 -56.5 67 -169.5q0 -119 -69 -180.5t-191 -61.5h-253v474l-72 56q63 65 108 166h166v-228h50q127 0 194 -56.5zM354.5 167.5q16.5 24.5 16.5 72.5q0 45 -17 68.5t-59 23.5h-26v-189h31q38 0 54.5 24.5z" />
    <glyph glyph-name="uni01A7" unicode="&#x1a7;" horiz-adv-x="527" 
d="M402.5 690q55.5 -26 86 -73.5t30.5 -110.5q0 -77 -46 -127t-156 -88q-56 -19 -76.5 -42t-20.5 -57q0 -31 18 -47.5t53 -16.5q36 0 71 16t72 47l97 -107q-45 -46 -110 -74.5t-150 -28.5q-79 0 -138 28t-90.5 79t-31.5 119q0 85 43 134.5t143 86.5q66 24 90.5 43.5
t24.5 49.5q0 25 -15 38.5t-44 13.5q-72 0 -134 -54l-88 103q97 94 242 94q74 0 129.5 -26z" />
    <glyph glyph-name="uni01AE" unicode="&#x1ae;" horiz-adv-x="511" 
d="M518 -181q-60 -46 -150 -46q-100 0 -159 52t-59 152v24h1v545h-148v150h507l-20 -150h-137v-546h-1v-36q0 -24 11.5 -36t32.5 -12q17 0 29 4t30 13z" />
    <glyph glyph-name="U" unicode="U" horiz-adv-x="583" 
d="M559 222q0 -69 -29.5 -123.5t-89.5 -86t-148 -31.5q-133 0 -200.5 64.5t-67.5 176.5v474h202v-468q0 -54 15 -78.5t51 -24.5q35 0 50 24.5t15 78.5v468h202v-474z" />
    <glyph glyph-name="Uacute" unicode="&#xda;" horiz-adv-x="583" 
d="M559 222q0 -69 -29.5 -123.5t-89.5 -86t-148 -31.5q-133 0 -200.5 64.5t-67.5 176.5v474h202v-468q0 -54 15 -78.5t51 -24.5q35 0 50 24.5t15 78.5v468h202v-474zM361 975l70 -137l-233 -89l-49 94z" />
    <glyph glyph-name="uni0244" unicode="&#x244;" horiz-adv-x="616" 
d="M617 496h-41v-274q0 -69 -29.5 -123.5t-89.5 -86t-148 -31.5q-133 0 -200.5 64.5t-67.5 176.5v274h-41v104h41v96h202v-96h131v96h202v-96h41v-104zM374 496h-131v-268q0 -54 15 -78.5t51 -24.5q35 0 50 24.5t15 78.5v268z" />
    <glyph glyph-name="Ubreve" unicode="&#x16c;" horiz-adv-x="583" 
d="M559 222q0 -69 -29.5 -123.5t-89.5 -86t-148 -31.5q-133 0 -200.5 64.5t-67.5 176.5v474h202v-468q0 -54 15 -78.5t51 -24.5q35 0 50 24.5t15 78.5v468h202v-474zM169 799q-43 52 -49 131l99 17q17 -69 73 -69q55 0 72 69l99 -17q-6 -79 -48.5 -131t-122.5 -52t-123 52z
" />
    <glyph glyph-name="uni01D3" unicode="&#x1d3;" horiz-adv-x="583" 
d="M559 222q0 -69 -29.5 -123.5t-89.5 -86t-148 -31.5q-133 0 -200.5 64.5t-67.5 176.5v474h202v-468q0 -54 15 -78.5t51 -24.5q35 0 50 24.5t15 78.5v468h202v-474zM416 960l64 -70l-132 -142h-114l-132 142l64 70l125 -86z" />
    <glyph glyph-name="Ucircumflex" unicode="&#xdb;" horiz-adv-x="583" 
d="M559 222q0 -69 -29.5 -123.5t-89.5 -86t-148 -31.5q-133 0 -200.5 64.5t-67.5 176.5v474h202v-468q0 -54 15 -78.5t51 -24.5q35 0 50 24.5t15 78.5v468h202v-474zM166 756l-64 70l132 142h115l131 -142l-64 -70l-125 85z" />
    <glyph glyph-name="uni0214" unicode="&#x214;" horiz-adv-x="583" 
d="M559 222q0 -69 -29.5 -123.5t-89.5 -86t-148 -31.5q-133 0 -200.5 64.5t-67.5 176.5v474h202v-468q0 -54 15 -78.5t51 -24.5q35 0 50 24.5t15 78.5v468h202v-474zM166 1000l95 -210l-89 -44l-122 195zM343 1000l88 -212l-92 -38l-115 196z" />
    <glyph glyph-name="Udieresis" unicode="&#xdc;" horiz-adv-x="583" 
d="M559 222q0 -69 -29.5 -123.5t-89.5 -86t-148 -31.5q-133 0 -200.5 64.5t-67.5 176.5v474h202v-468q0 -54 15 -78.5t51 -24.5q35 0 50 24.5t15 78.5v468h202v-474zM244 915.5q26 -26.5 26 -63.5q0 -39 -26 -65.5t-65 -26.5q-38 0 -64.5 26.5t-26.5 65.5q0 37 26.5 63.5
t64.5 26.5q39 0 65 -26.5zM470 915.5q26 -26.5 26 -63.5q0 -39 -26 -65.5t-65 -26.5q-38 0 -64.5 26.5t-26.5 65.5q0 37 26.5 63.5t64.5 26.5q39 0 65 -26.5z" />
    <glyph glyph-name="uni01D7" unicode="&#x1d7;" horiz-adv-x="583" 
d="M559 222q0 -69 -29.5 -123.5t-89.5 -86t-148 -31.5q-133 0 -200.5 64.5t-67.5 176.5v474h202v-468q0 -54 15 -78.5t51 -24.5q35 0 50 24.5t15 78.5v468h202v-474zM352 1141l106 -98l-165 -151l-72 61zM232 904.5q26 -26.5 26 -64.5t-26 -64.5t-65 -26.5t-65 26.5
t-26 64.5t26 64.5t65 26.5t65 -26.5zM479 904.5q26 -26.5 26 -64.5t-26 -64.5t-65 -26.5t-65 26.5t-26 64.5t26 64.5t65 26.5t65 -26.5z" />
    <glyph glyph-name="uni01D9" unicode="&#x1d9;" horiz-adv-x="583" 
d="M559 222q0 -69 -29.5 -123.5t-89.5 -86t-148 -31.5q-133 0 -200.5 64.5t-67.5 176.5v474h202v-468q0 -54 15 -78.5t51 -24.5q35 0 50 24.5t15 78.5v468h202v-474zM418 1140l64 -70l-132 -142h-114l-132 142l64 70l125 -86zM232 904.5q26 -26.5 26 -64.5t-26 -64.5
t-65 -26.5t-65 26.5t-26 64.5t26 64.5t65 26.5t65 -26.5zM479 904.5q26 -26.5 26 -64.5t-26 -64.5t-65 -26.5t-65 26.5t-26 64.5t26 64.5t65 26.5t65 -26.5z" />
    <glyph glyph-name="uni01DB" unicode="&#x1db;" horiz-adv-x="583" 
d="M559 222q0 -69 -29.5 -123.5t-89.5 -86t-148 -31.5q-133 0 -200.5 64.5t-67.5 176.5v474h202v-468q0 -54 15 -78.5t51 -24.5q35 0 50 24.5t15 78.5v468h202v-474zM235 1141l131 -188l-73 -61l-164 151zM232 904.5q26 -26.5 26 -64.5q0 -39 -26 -65t-65 -26
q-38 0 -64.5 26.5t-26.5 64.5t26.5 64.5t64.5 26.5q39 0 65 -26.5zM479 904.5q26 -26.5 26 -64.5q0 -39 -26 -65t-65 -26q-38 0 -64.5 26.5t-26.5 64.5t26.5 64.5t64.5 26.5q39 0 65 -26.5z" />
    <glyph glyph-name="uni01D5" unicode="&#x1d5;" horiz-adv-x="583" 
d="M559 222q0 -69 -29.5 -123.5t-89.5 -86t-148 -31.5q-133 0 -200.5 64.5t-67.5 176.5v474h202v-468q0 -54 15 -78.5t51 -24.5q35 0 50 24.5t15 78.5v468h202v-474zM243 900.5q26 -26.5 26 -63.5q0 -39 -26 -65.5t-65 -26.5q-38 0 -64.5 26.5t-26.5 65.5q0 37 26.5 63.5
t64.5 26.5q39 0 65 -26.5zM469 900.5q26 -26.5 26 -63.5q0 -39 -26 -65.5t-65 -26.5q-38 0 -64.5 26.5t-26.5 65.5q0 37 26.5 63.5t64.5 26.5q39 0 65 -26.5zM443 965h-300v129h300v-129z" />
    <glyph glyph-name="uni1EE4" unicode="&#x1ee4;" horiz-adv-x="583" 
d="M559 222q0 -69 -29.5 -123.5t-89.5 -86t-148 -31.5q-133 0 -200.5 64.5t-67.5 176.5v474h202v-468q0 -54 15 -78.5t51 -24.5q35 0 50 24.5t15 78.5v468h202v-474zM214 -232.5q-30 29.5 -30 74.5t30 74.5t77 29.5t77 -29.5t30 -74.5t-30 -74.5t-77 -29.5t-77 29.5z" />
    <glyph glyph-name="Ugrave" unicode="&#xd9;" horiz-adv-x="583" 
d="M559 222q0 -69 -29.5 -123.5t-89.5 -86t-148 -31.5q-133 0 -200.5 64.5t-67.5 176.5v474h202v-468q0 -54 15 -78.5t51 -24.5q35 0 50 24.5t15 78.5v468h202v-474zM222 975l211 -132l-49 -95l-233 90z" />
    <glyph glyph-name="uni1EE6" unicode="&#x1ee6;" horiz-adv-x="583" 
d="M559 222q0 -69 -29.5 -123.5t-89.5 -86t-148 -31.5q-133 0 -200.5 64.5t-67.5 176.5v474h202v-468q0 -54 15 -78.5t51 -24.5q35 0 50 24.5t15 78.5v468h202v-474zM239 856q35 2 49.5 9.5t14.5 26.5q0 13 -8.5 20.5t-23.5 7.5q-16 0 -27 -2.5t-30 -9.5l-27 73
q44 27 110 27q60 0 92 -29.5t32 -77.5q0 -40 -20 -65t-58 -32v-40h-104v92z" />
    <glyph glyph-name="Uhorn" unicode="&#x1af;" horiz-adv-x="698" 
d="M670.5 579.5q-40.5 -35.5 -111.5 -35.5v-322q0 -69 -29.5 -123.5t-89.5 -86t-148 -31.5q-133 0 -200.5 64.5t-67.5 176.5v474h202v-468q0 -54 15 -78.5t51 -24.5q35 0 50 24.5t15 78.5v468h202v-61q17 4 24 16t7 36q0 22 -2.5 37t-8.5 34l116 15q16 -43 16 -91
q0 -67 -40.5 -102.5z" />
    <glyph glyph-name="uni1EE8" unicode="&#x1ee8;" horiz-adv-x="698" 
d="M431 838l-233 -89l-49 94l212 132zM670.5 579.5q-40.5 -35.5 -111.5 -35.5v-322q0 -69 -29.5 -123.5t-89.5 -86t-148 -31.5q-133 0 -200.5 64.5t-67.5 176.5v474h202v-468q0 -54 15 -78.5t51 -24.5q35 0 50 24.5t15 78.5v468h202v-61q17 4 24 16t7 36q0 22 -2.5 37
t-8.5 34l116 15q16 -43 16 -91q0 -67 -40.5 -102.5z" />
    <glyph glyph-name="uni1EF0" unicode="&#x1ef0;" horiz-adv-x="698" 
d="M670.5 579.5q-40.5 -35.5 -111.5 -35.5v-322q0 -69 -29.5 -123.5t-89.5 -86t-148 -31.5q-133 0 -200.5 64.5t-67.5 176.5v474h202v-468q0 -54 15 -78.5t51 -24.5q35 0 50 24.5t15 78.5v468h202v-61q17 4 24 16t7 36q0 22 -2.5 37t-8.5 34l116 15q16 -43 16 -91
q0 -67 -40.5 -102.5zM368 -83.5q30 -29.5 30 -74.5t-30 -74.5t-77 -29.5t-77 29.5t-30 74.5t30 74.5t77 29.5t77 -29.5z" />
    <glyph glyph-name="uni1EEA" unicode="&#x1eea;" horiz-adv-x="698" 
d="M433 843l-49 -95l-233 90l71 137zM670.5 579.5q-40.5 -35.5 -111.5 -35.5v-322q0 -69 -29.5 -123.5t-89.5 -86t-148 -31.5q-133 0 -200.5 64.5t-67.5 176.5v474h202v-468q0 -54 15 -78.5t51 -24.5q35 0 50 24.5t15 78.5v468h202v-61q17 4 24 16t7 36q0 22 -2.5 37
t-8.5 34l116 15q16 -43 16 -91q0 -67 -40.5 -102.5z" />
    <glyph glyph-name="uni1EEC" unicode="&#x1eec;" horiz-adv-x="698" 
d="M244 917.5q-11 -2.5 -30 -9.5l-27 73q44 27 110 27q60 0 92 -29.5t32 -77.5q0 -40 -20 -65t-58 -32v-40h-104v92q35 2 49.5 9.5t14.5 26.5q0 13 -8.5 20.5t-23.5 7.5q-16 0 -27 -2.5zM670.5 579.5q-40.5 -35.5 -111.5 -35.5v-322q0 -69 -29.5 -123.5t-89.5 -86
t-148 -31.5q-133 0 -200.5 64.5t-67.5 176.5v474h202v-468q0 -54 15 -78.5t51 -24.5q35 0 50 24.5t15 78.5v468h202v-61q17 4 24 16t7 36q0 22 -2.5 37t-8.5 34l116 15q16 -43 16 -91q0 -67 -40.5 -102.5z" />
    <glyph glyph-name="uni1EEE" unicode="&#x1eee;" horiz-adv-x="698" 
d="M215 783.5q-10 -9.5 -22 -31.5l-88 41q19 58 53.5 95t78.5 37q22 0 38 -7t33 -19q22 -15 35 -15q15 0 24.5 9.5t21.5 31.5l88 -41q-18 -58 -52.5 -95t-79.5 -37q-22 0 -36.5 6.5t-33.5 18.5q-21 16 -35 16q-15 0 -25 -9.5zM670.5 579.5q-40.5 -35.5 -111.5 -35.5v-322
q0 -69 -29.5 -123.5t-89.5 -86t-148 -31.5q-133 0 -200.5 64.5t-67.5 176.5v474h202v-468q0 -54 15 -78.5t51 -24.5q35 0 50 24.5t15 78.5v468h202v-61q17 4 24 16t7 36q0 22 -2.5 37t-8.5 34l116 15q16 -43 16 -91q0 -67 -40.5 -102.5z" />
    <glyph glyph-name="Uhungarumlaut" unicode="&#x170;" horiz-adv-x="583" 
d="M559 222q0 -69 -29.5 -123.5t-89.5 -86t-148 -31.5q-133 0 -200.5 64.5t-67.5 176.5v474h202v-468q0 -54 15 -78.5t51 -24.5q35 0 50 24.5t15 78.5v468h202v-474zM246 1000l119 -54l-115 -196l-92 38zM423 1000l116 -59l-122 -195l-89 44z" />
    <glyph glyph-name="uni0216" unicode="&#x216;" horiz-adv-x="583" 
d="M559 222q0 -69 -29.5 -123.5t-89.5 -86t-148 -31.5q-133 0 -200.5 64.5t-67.5 176.5v474h202v-468q0 -54 15 -78.5t51 -24.5q35 0 50 24.5t15 78.5v468h202v-474zM414.5 914q42.5 -54 48.5 -141l-99 -16q-17 81 -72 81q-56 0 -73 -81l-99 16q6 87 48.5 141t123.5 54
q80 0 122.5 -54z" />
    <glyph glyph-name="Umacron" unicode="&#x16a;" horiz-adv-x="583" 
d="M559 222q0 -69 -29.5 -123.5t-89.5 -86t-148 -31.5q-133 0 -200.5 64.5t-67.5 176.5v474h202v-468q0 -54 15 -78.5t51 -24.5q35 0 50 24.5t15 78.5v468h202v-474zM441 776h-300v129h300v-129z" />
    <glyph glyph-name="Uogonek" unicode="&#x172;" horiz-adv-x="583" 
d="M559 696v-474q0 -77 -37 -135.5t-109 -85.5v-1q-57 -22 -79.5 -47.5t-22.5 -47.5t12 -33.5t33 -11.5q25 0 55 8l-11 -113q-32 -8 -68 -8q-65 0 -107 33.5t-42 91.5q0 71 73 110q-115 10 -173.5 73.5t-58.5 166.5v474h202v-468q0 -54 15 -78.5t51 -24.5q35 0 50 24.5
t15 78.5v468h202z" />
    <glyph glyph-name="uni01B1" unicode="&#x1b1;" horiz-adv-x="621" 
d="M149 21q-67 40 -101.5 111t-34.5 163q0 180 120 262h-102v139h239v-129q-25 -51 -36.5 -109.5t-11.5 -162.5q0 -92 20 -132t68 -40t68 40t20 132q0 106 -11 164t-36 108v129h238v-139h-102q121 -82 121 -262q0 -92 -34.5 -163t-101.5 -111t-162 -40q-94 0 -161 40z" />
    <glyph glyph-name="Uring" unicode="&#x16e;" horiz-adv-x="583" 
d="M559 222q0 -69 -29.5 -123.5t-89.5 -86t-148 -31.5q-133 0 -200.5 64.5t-67.5 176.5v474h202v-468q0 -54 15 -78.5t51 -24.5q35 0 50 24.5t15 78.5v468h202v-474zM397 969q39 -41 39 -104q0 -62 -39 -103.5t-105 -41.5q-67 0 -106 41.5t-39 103.5q0 63 39 104t106 41
q66 0 105 -41zM257 865q0 -48 35 -48t35 48q0 49 -35 49t-35 -49z" />
    <glyph glyph-name="Utilde" unicode="&#x168;" horiz-adv-x="583" 
d="M559 222q0 -69 -29.5 -123.5t-89.5 -86t-148 -31.5q-133 0 -200.5 64.5t-67.5 176.5v474h202v-468q0 -54 15 -78.5t51 -24.5q35 0 50 24.5t15 78.5v468h202v-474zM308.5 758.5q-14.5 6.5 -33.5 18.5q-21 16 -35 16q-15 0 -25 -9.5t-22 -31.5l-88 41q19 58 53.5 95
t78.5 37q22 0 38 -7t33 -19q23 -15 35 -15q15 0 24.5 9.5t21.5 31.5l88 -41q-18 -58 -52.5 -95t-79.5 -37q-22 0 -36.5 6.5z" />
    <glyph glyph-name="uni1E78" unicode="&#x1e78;" horiz-adv-x="583" 
d="M559 222q0 -69 -29.5 -123.5t-89.5 -86t-148 -31.5q-133 0 -200.5 64.5t-67.5 176.5v474h202v-468q0 -54 15 -78.5t51 -24.5q35 0 50 24.5t15 78.5v468h202v-474zM308.5 763.5q-14.5 6.5 -33.5 18.5q-21 16 -35 16q-15 0 -25 -9.5t-22 -31.5l-88 41q19 58 53.5 95
t78.5 37q22 0 38 -7t33 -19q23 -15 35 -15q15 0 24.5 9.5t21.5 31.5l88 -41q-18 -58 -52.5 -95t-79.5 -37q-22 0 -36.5 6.5zM361 1169l70 -137l-233 -89l-49 94z" />
    <glyph glyph-name="V" unicode="V" horiz-adv-x="534" 
d="M556 696l-151 -696h-264l-163 696h207l90 -554l80 554h201z" />
    <glyph glyph-name="uni01B2" unicode="&#x1b2;" horiz-adv-x="583" 
d="M516.5 672q42.5 -44 42.5 -132v-265q0 -93 -35.5 -159.5t-100.5 -100.5t-151 -34q-76 0 -132.5 28.5t-86 79.5t-29.5 116v491h202v-499q0 -34 13.5 -53t39.5 -19q34 0 56 33.5t22 104.5v284q0 27 -21 27q-8 0 -17 -3l-25 128q46 17 101 17q79 0 121.5 -44z" />
    <glyph glyph-name="uni0245" unicode="&#x245;" horiz-adv-x="554" 
d="M398 696l179 -696h-211l-90 555l-90 -555h-208l180 696h240z" />
    <glyph glyph-name="W" unicode="W" horiz-adv-x="785" 
d="M785 696l-85 -696h-262l-47 506l-53 -506h-257l-81 696h196l36 -550l59 550h207l50 -550l48 550h189z" />
    <glyph glyph-name="Wacute" unicode="&#x1e82;" horiz-adv-x="785" 
d="M785 696l-85 -696h-262l-47 506l-53 -506h-257l-81 696h196l36 -550l59 550h207l50 -550l48 550h189zM465 975l70 -137l-233 -89l-49 94z" />
    <glyph glyph-name="Wcircumflex" unicode="&#x174;" horiz-adv-x="785" 
d="M785 696l-85 -696h-262l-47 506l-53 -506h-257l-81 696h196l36 -550l59 550h207l50 -550l48 550h189zM270 756l-64 70l132 142h115l131 -142l-64 -70l-125 85z" />
    <glyph glyph-name="Wdieresis" unicode="&#x1e84;" horiz-adv-x="785" 
d="M785 696l-85 -696h-262l-47 506l-53 -506h-257l-81 696h196l36 -550l59 550h207l50 -550l48 550h189zM348 915.5q26 -26.5 26 -63.5q0 -39 -26 -65.5t-65 -26.5q-38 0 -64.5 26.5t-26.5 65.5q0 37 26.5 63.5t64.5 26.5q39 0 65 -26.5zM574 915.5q26 -26.5 26 -63.5
q0 -39 -26 -65.5t-65 -26.5q-38 0 -64.5 26.5t-26.5 65.5q0 37 26.5 63.5t64.5 26.5q39 0 65 -26.5z" />
    <glyph glyph-name="Wgrave" unicode="&#x1e80;" horiz-adv-x="785" 
d="M785 696l-85 -696h-262l-47 506l-53 -506h-257l-81 696h196l36 -550l59 550h207l50 -550l48 550h189zM326 975l211 -132l-49 -95l-233 90z" />
    <glyph glyph-name="uni2C72" unicode="&#x2c72;" horiz-adv-x="855" 
d="M81 0h257l53 506l47 -506h259l51 527q2 27 11.5 38.5t29.5 11.5q14 0 22.5 -2.5t19.5 -7.5l49 114q-56 35 -126 35q-79 0 -123.5 -43.5t-53.5 -145.5l-29 -381l-50 550h-207l-59 -550l-36 550h-196z" />
    <glyph glyph-name="uni01F7" unicode="&#x1f7;" horiz-adv-x="557" 
d="M462.5 691.5q39.5 -24.5 62.5 -68.5t23 -102q0 -81 -32 -135.5t-85 -90t-136 -69.5l-59 -23v-203h-202v696h202v-37q27 28 62.5 42.5t76.5 14.5q48 0 87.5 -24.5zM320 412.5q22 38.5 22 94.5q0 69 -48 69q-32 0 -58 -26v-212l7 4q55 32 77 70.5z" />
    <glyph glyph-name="X" unicode="X" horiz-adv-x="555" 
d="M394 375l172 -375h-213l-80 242l-73 -242h-211l164 369l-153 327h213l62 -203l70 203h210z" />
    <glyph glyph-name="Y" unicode="Y" horiz-adv-x="568" 
d="M585 696l-200 -438v-258h-202v257l-200 439h215l88 -287l90 287h209z" />
    <glyph glyph-name="Yacute" unicode="&#xdd;" horiz-adv-x="568" 
d="M585 696l-200 -438v-258h-202v257l-200 439h215l88 -287l90 287h209zM354 975l70 -137l-233 -89l-49 94z" />
    <glyph glyph-name="Ycircumflex" unicode="&#x176;" horiz-adv-x="568" 
d="M585 696l-200 -438v-258h-202v257l-200 439h215l88 -287l90 287h209zM159 756l-64 70l132 142h115l131 -142l-64 -70l-125 85z" />
    <glyph glyph-name="Ydieresis" unicode="&#x178;" horiz-adv-x="568" 
d="M585 696l-200 -438v-258h-202v257l-200 439h215l88 -287l90 287h209zM237 915.5q26 -26.5 26 -63.5q0 -39 -26 -65.5t-65 -26.5q-38 0 -64.5 26.5t-26.5 65.5q0 37 26.5 63.5t64.5 26.5q39 0 65 -26.5zM463 915.5q26 -26.5 26 -63.5q0 -39 -26 -65.5t-65 -26.5
q-38 0 -64.5 26.5t-26.5 65.5q0 37 26.5 63.5t64.5 26.5q39 0 65 -26.5z" />
    <glyph glyph-name="uni1EF4" unicode="&#x1ef4;" horiz-adv-x="568" 
d="M585 696l-200 -438v-258h-202v257l-200 439h215l88 -287l90 287h209zM207 -232.5q-30 29.5 -30 74.5t30 74.5t77 29.5t77 -29.5t30 -74.5t-30 -74.5t-77 -29.5t-77 29.5z" />
    <glyph glyph-name="Ygrave" unicode="&#x1ef2;" horiz-adv-x="568" 
d="M585 696l-200 -438v-258h-202v257l-200 439h215l88 -287l90 287h209zM215 975l211 -132l-49 -95l-233 90z" />
    <glyph glyph-name="uni01B3" unicode="&#x1b3;" horiz-adv-x="605" 
d="M183 257l-200 439h215l89 -286l40 144q24 88 64.5 125t114.5 37q68 0 123 -34l-48 -115q-22 10 -42 10t-31 -10.5t-21 -37.5l-102 -272v-257h-202v257z" />
    <glyph glyph-name="uni1EF6" unicode="&#x1ef6;" horiz-adv-x="568" 
d="M585 696l-200 -438v-258h-202v257l-200 439h215l88 -287l90 287h209zM232 856q35 2 49.5 9.5t14.5 26.5q0 13 -8.5 20.5t-23.5 7.5q-16 0 -27 -2.5t-30 -9.5l-27 73q44 27 110 27q60 0 92 -29.5t32 -77.5q0 -40 -20 -65t-58 -32v-40h-104v92z" />
    <glyph glyph-name="uni0232" unicode="&#x232;" horiz-adv-x="568" 
d="M585 696l-200 -438v-258h-202v257l-200 439h215l88 -287l90 287h209zM434 776h-300v129h300v-129z" />
    <glyph glyph-name="uni01A6" unicode="&#x1a6;" horiz-adv-x="575" 
d="M267 138h-31v-138h-202v696h202v-111h35q144 0 213.5 -55t69.5 -166q0 -128 -108 -187l152 -288h-218zM236 274h39q39 0 56.5 21.5t17.5 68.5q0 43 -20 63t-60 20h-33v-173z" />
    <glyph glyph-name="uni024E" unicode="&#x24e;" horiz-adv-x="569" 
d="M551 621h34v-105h-82l-118 -258v-258h-202v257l-117 259h-83v105h35l-34 75h205l24 -75h149l25 75h198zM287 395l40 121h-79z" />
    <glyph glyph-name="uni1EF8" unicode="&#x1ef8;" horiz-adv-x="568" 
d="M585 696l-200 -438v-258h-202v257l-200 439h215l88 -287l90 287h209zM301.5 758.5q-14.5 6.5 -33.5 18.5q-21 16 -35 16q-15 0 -25 -9.5t-22 -31.5l-88 41q19 58 53.5 95t78.5 37q22 0 38 -7t33 -19q23 -15 35 -15q15 0 24.5 9.5t21.5 31.5l88 -41q-18 -58 -52.5 -95
t-79.5 -37q-22 0 -36.5 6.5z" />
    <glyph glyph-name="Z" unicode="Z" horiz-adv-x="505" 
d="M488 696v-150l-251 -388h260l-19 -158h-472v148l255 395h-231v153h458z" />
    <glyph glyph-name="Zacute" unicode="&#x179;" horiz-adv-x="505" 
d="M488 696v-150l-251 -388h260l-19 -158h-472v148l255 395h-231v153h458zM322 975l70 -137l-233 -89l-49 94z" />
    <glyph glyph-name="Zacute.loclPLK" horiz-adv-x="505" 
d="M488 696v-150l-251 -388h260l-19 -158h-472v148l255 395h-231v153h458zM253 986l140 -76l-137 -164l-84 48z" />
    <glyph glyph-name="Zcaron" unicode="&#x17d;" horiz-adv-x="505" 
d="M488 696v-150l-251 -388h260l-19 -158h-472v148l255 395h-231v153h458zM377 960l64 -70l-132 -142h-114l-132 142l64 70l125 -86z" />
    <glyph glyph-name="Zdotaccent" unicode="&#x17b;" horiz-adv-x="505" 
d="M488 696v-150l-251 -388h260l-19 -158h-472v148l255 395h-231v153h458zM329 923.5q30 -29.5 30 -74.5t-30 -74.5t-77 -29.5t-77 29.5t-30 74.5t30 74.5t77 29.5t77 -29.5z" />
    <glyph glyph-name="uni1E92" unicode="&#x1e92;" horiz-adv-x="505" 
d="M488 696v-150l-251 -388h260l-19 -158h-472v148l255 395h-231v153h458zM165 -232.5q-30 29.5 -30 74.5t30 74.5t77 29.5t77 -29.5t30 -74.5t-30 -74.5t-77 -29.5t-77 29.5z" />
    <glyph glyph-name="uni0224" unicode="&#x224;" horiz-adv-x="497" 
d="M489 158v-181q0 -100 -58.5 -152t-156.5 -52q-92 0 -153 46l63 114q18 -9 31 -13t33 -4q23 0 36 11.5t13 36.5v37l-291 -1v148l255 395h-231v153h458v-150l-251 -388h252z" />
    <glyph glyph-name="uni01B5" unicode="&#x1b5;" horiz-adv-x="505" 
d="M217 158h280l-19 -158h-472v138l101 149h-67v117h147l94 139h-251v153h458v-140l-103 -152h64v-117h-144z" />
    <glyph glyph-name="uni0299" unicode="&#x299;" 
d="M457.5 253q31.5 -34 31.5 -90q0 -82 -61.5 -122.5t-170.5 -40.5h-224v530q125 24 218 24q103 0 161 -38t58 -108q0 -44 -28 -73.5t-82 -40.5q66 -7 97.5 -41zM227 437v-108h18q19 0 29 12t10 42q0 32 -8.5 43.5t-28.5 11.5q-11 0 -20 -1zM284.5 132.5q9.5 13.5 9.5 47.5
q0 31 -9.5 44.5t-32.5 13.5h-25v-119h26q22 0 31.5 13.5z" />
    <glyph glyph-name="uni0262" unicode="&#x262;" horiz-adv-x="517" 
d="M490 477l-88 -96q-27 20 -51.5 30t-52.5 10q-47 0 -65.5 -35.5t-18.5 -116.5q0 -64 7 -97t20 -44.5t35 -11.5q21 0 47 8v73h-44l-17 122h236v-268q-45 -31 -103 -49.5t-124 -18.5q-133 0 -194.5 69t-61.5 218q0 90 34 154t94 97t139 33q126 0 208 -77z" />
    <glyph glyph-name="uni029B" unicode="&#x29b;" horiz-adv-x="517" 
d="M631 727l-48 -118q-31 15 -56 15q-20 0 -28.5 -11.5t-8.5 -37.5v-98l-79 -89q-31 17 -56 25t-54 8q-49 0 -68 -35t-19 -117q0 -64 7 -97t20 -44.5t35 -11.5q23 0 47 8v73h-44l-17 122h236v-268q-44 -31 -101.5 -49.5t-123.5 -18.5q-134 0 -196 69.5t-62 217.5
q0 89 32.5 153t88.5 97.5t125 33.5q32 0 66 -9v52q0 79 43.5 123t124.5 44q75 0 136 -37z" />
    <glyph glyph-name="uni029C" unicode="&#x29c;" horiz-adv-x="529" 
d="M302 0v201h-75v-201h-194v534h194v-195h75v195h194v-534h-194z" />
    <glyph glyph-name="uni026A" unicode="&#x26a;" horiz-adv-x="308" 
d="M301 401h-50v-265h50v-136h-294v136h50v265h-50v133h294v-133z" />
    <glyph glyph-name="uni029F" unicode="&#x29f;" horiz-adv-x="419" 
d="M227 534v-388h190l-19 -146h-365v534h194z" />
    <glyph glyph-name="uni0274" unicode="&#x274;" horiz-adv-x="530" 
d="M497 0h-227l-99 372q13 -70 19.5 -126.5t6.5 -127.5v-118h-164v534h224l102 -371q-15 88 -20.5 136.5t-5.5 120.5v114h164v-534z" />
    <glyph glyph-name="uni0276" unicode="&#x276;" horiz-adv-x="708" 
d="M475 130h215v-130h-322q-49 -19 -101 -19q-117 0 -184.5 72.5t-67.5 214.5q0 135 68 210.5t185 75.5q53 0 98 -20h332l-19 -129h-204q20 -35 29 -73h155v-124h-153q-10 -40 -31 -78zM301.5 132.5q11.5 13.5 16 45.5t4.5 90q0 83 -12 115t-41 32q-30 0 -42.5 -32.5
t-12.5 -114.5q0 -58 5.5 -90t17 -45.5t32.5 -13.5t32.5 13.5z" />
    <glyph glyph-name="uni0280" unicode="&#x280;" horiz-adv-x="489" 
d="M235 173h-18v-173h-184v534h207q113 0 171.5 -45.5t58.5 -138.5q0 -104 -74 -147l108 -203h-195zM217 282h17q25 0 36 15.5t11 55.5q0 37 -10.5 50t-32.5 13h-21v-134z" />
    <glyph glyph-name="uni0281" unicode="&#x281;" horiz-adv-x="489" 
d="M470 185q0 -93 -58.5 -139t-171.5 -46h-207v534h184v-173h18l74 173h195l-108 -202q74 -45 74 -147zM270.5 131.5q10.5 13.5 10.5 51.5q0 39 -11 54t-36 15h-17v-134h21q22 0 32.5 13.5z" />
    <glyph glyph-name="uni028F" unicode="&#x28f;" horiz-adv-x="479" 
d="M500 534l-164 -344v-190h-194v189l-163 345h202l61 -227l61 227h197z" />
    <glyph glyph-name="a" unicode="a" horiz-adv-x="500" 
d="M468.5 127.5q5.5 -11.5 21.5 -18.5l-39 -125q-50 4 -83 20.5t-52 51.5q-51 -76 -146 -76q-72 0 -116 47t-44 123q0 88 60.5 135t175.5 47h28v14q0 43 -13 57.5t-52 14.5q-47 0 -122 -27l-42 121q44 20 98.5 31t101.5 11q113 0 165.5 -47t52.5 -149v-193q0 -26 5.5 -37.5z
M274 145v86h-11q-34 0 -49.5 -15t-15.5 -47q0 -25 9 -39t25 -14q25 0 42 29z" />
    <glyph glyph-name="a.ss04" horiz-adv-x="547" 
d="M516.5 145.5q7.5 -15.5 28.5 -27.5l-55 -138q-56 8 -90.5 26.5t-55.5 50.5q-26 -35 -61.5 -56t-79.5 -21q-93 0 -140.5 74.5t-47.5 214.5q0 86 25 150.5t70.5 99.5t104.5 35q71 0 116 -55l8 35h170v-343q0 -30 7.5 -45.5zM290 130q14 11 25 31v230q-11 13 -21.5 19
t-24.5 6q-26 0 -40.5 -32.5t-14.5 -115.5q0 -91 13 -120t35 -29q14 0 28 11z" />
    <glyph glyph-name="aacute" unicode="&#xe1;" horiz-adv-x="500" 
d="M468.5 127.5q5.5 -11.5 21.5 -18.5l-39 -125q-50 4 -83 20.5t-52 51.5q-51 -76 -146 -76q-72 0 -116 47t-44 123q0 88 60.5 135t175.5 47h28v14q0 43 -13 57.5t-52 14.5q-47 0 -122 -27l-42 121q44 20 98.5 31t101.5 11q113 0 165.5 -47t52.5 -149v-193q0 -26 5.5 -37.5z
M274 145v86h-11q-34 0 -49.5 -15t-15.5 -47q0 -25 9 -39t25 -14q25 0 42 29zM310 850l73 -137l-232 -99l-51 94z" />
    <glyph glyph-name="abreve" unicode="&#x103;" horiz-adv-x="500" 
d="M468.5 127.5q5.5 -11.5 21.5 -18.5l-39 -125q-50 4 -83 20.5t-52 51.5q-51 -76 -146 -76q-72 0 -116 47t-44 123q0 88 60.5 135t175.5 47h28v14q0 43 -13 57.5t-52 14.5q-47 0 -122 -27l-42 121q44 20 98.5 31t101.5 11q113 0 165.5 -47t52.5 -149v-193q0 -26 5.5 -37.5z
M274 145v86h-11q-34 0 -49.5 -15t-15.5 -47q0 -25 9 -39t25 -14q25 0 42 29zM129.5 680q-42.5 54 -48.5 141l99 16q17 -81 73 -81q55 0 72 81l99 -16q-6 -87 -48.5 -141t-122.5 -54q-81 0 -123.5 54z" />
    <glyph glyph-name="uni1EAF" unicode="&#x1eaf;" horiz-adv-x="500" 
d="M468.5 127.5q5.5 -11.5 21.5 -18.5l-39 -125q-50 4 -83 20.5t-52 51.5q-51 -76 -146 -76q-72 0 -116 47t-44 123q0 88 60.5 135t175.5 47h28v14q0 43 -13 57.5t-52 14.5q-47 0 -122 -27l-42 121q44 20 98.5 31t101.5 11q113 0 165.5 -47t52.5 -149v-193q0 -26 5.5 -37.5z
M274 145v86h-11q-34 0 -49.5 -15t-15.5 -47q0 -25 9 -39t25 -14q25 0 42 29zM130 656q-43 52 -49 131l99 17q17 -69 73 -69q55 0 72 69l99 -17q-6 -79 -48.5 -131t-122.5 -52t-123 52zM320 1035l106 -98l-165 -151l-72 61z" />
    <glyph glyph-name="uni1EB7" unicode="&#x1eb7;" horiz-adv-x="500" 
d="M468.5 127.5q5.5 -11.5 21.5 -18.5l-39 -125q-50 4 -83 20.5t-52 51.5q-51 -76 -146 -76q-72 0 -116 47t-44 123q0 88 60.5 135t175.5 47h28v14q0 43 -13 57.5t-52 14.5q-47 0 -122 -27l-42 121q44 20 98.5 31t101.5 11q113 0 165.5 -47t52.5 -149v-193q0 -26 5.5 -37.5z
M274 145v86h-11q-34 0 -49.5 -15t-15.5 -47q0 -25 9 -39t25 -14q25 0 42 29zM129.5 680q-42.5 54 -48.5 141l99 16q17 -81 73 -81q55 0 72 81l99 -16q-6 -87 -48.5 -141t-122.5 -54q-81 0 -123.5 54zM176 -232.5q-30 29.5 -30 74.5t30 74.5t77 29.5t77 -29.5t30 -74.5
t-30 -74.5t-77 -29.5t-77 29.5z" />
    <glyph glyph-name="uni1EB1" unicode="&#x1eb1;" horiz-adv-x="500" 
d="M468.5 127.5q5.5 -11.5 21.5 -18.5l-39 -125q-50 4 -83 20.5t-52 51.5q-51 -76 -146 -76q-72 0 -116 47t-44 123q0 88 60.5 135t175.5 47h28v14q0 43 -13 57.5t-52 14.5q-47 0 -122 -27l-42 121q44 20 98.5 31t101.5 11q113 0 165.5 -47t52.5 -149v-193q0 -26 5.5 -37.5z
M274 145v86h-11q-34 0 -49.5 -15t-15.5 -47q0 -25 9 -39t25 -14q25 0 42 29zM134 656q-43 52 -49 131l99 17q17 -69 73 -69q55 0 72 69l99 -17q-6 -79 -48.5 -131t-122.5 -52t-123 52zM191 1035l131 -188l-73 -61l-164 151z" />
    <glyph glyph-name="uni1EB3" unicode="&#x1eb3;" horiz-adv-x="500" 
d="M468.5 127.5q5.5 -11.5 21.5 -18.5l-39 -125q-50 4 -83 20.5t-52 51.5q-51 -76 -146 -76q-72 0 -116 47t-44 123q0 88 60.5 135t175.5 47h28v14q0 43 -13 57.5t-52 14.5q-47 0 -122 -27l-42 121q44 20 98.5 31t101.5 11q113 0 165.5 -47t52.5 -149v-193q0 -26 5.5 -37.5z
M274 145v86h-11q-34 0 -49.5 -15t-15.5 -47q0 -25 9 -39t25 -14q25 0 42 29zM134 656q-43 52 -49 131l99 17q17 -69 73 -69q55 0 72 69l99 -17q-6 -79 -48.5 -131t-122.5 -52t-123 52zM204 896q35 2 49.5 9.5t14.5 26.5q0 13 -9 20t-23 7q-16 0 -27 -2.5t-30 -9.5l-27 74
q46 26 110 26q60 0 92 -29.5t32 -76.5q0 -40 -20 -65.5t-58 -32.5v-49h-104v102z" />
    <glyph glyph-name="uni1EB5" unicode="&#x1eb5;" horiz-adv-x="500" 
d="M468.5 127.5q5.5 -11.5 21.5 -18.5l-39 -125q-50 4 -83 20.5t-52 51.5q-51 -76 -146 -76q-72 0 -116 47t-44 123q0 88 60.5 135t175.5 47h28v14q0 43 -13 57.5t-52 14.5q-47 0 -122 -27l-42 121q44 20 98.5 31t101.5 11q113 0 165.5 -47t52.5 -149v-193q0 -26 5.5 -37.5z
M274 145v86h-11q-34 0 -49.5 -15t-15.5 -47q0 -25 9 -39t25 -14q25 0 42 29zM129 656q-43 52 -49 131l99 17q17 -69 73 -69q55 0 72 69l99 -17q-6 -79 -48.5 -131t-122.5 -52t-123 52zM269.5 838q-14.5 6 -33.5 17q-21 14 -35 14q-15 0 -25 -8.5t-22 -28.5l-88 37
q19 53 53.5 86t78.5 33q22 0 37 -6t34 -17q21 -14 35 -14q15 0 24.5 8.5t21.5 28.5l88 -37q-18 -53 -52.5 -86t-79.5 -33q-22 0 -36.5 6z" />
    <glyph glyph-name="uni01CE" unicode="&#x1ce;" horiz-adv-x="500" 
d="M468.5 127.5q5.5 -11.5 21.5 -18.5l-39 -125q-50 4 -83 20.5t-52 51.5q-51 -76 -146 -76q-72 0 -116 47t-44 123q0 88 60.5 135t175.5 47h28v14q0 43 -13 57.5t-52 14.5q-47 0 -122 -27l-42 121q44 20 98.5 31t101.5 11q113 0 165.5 -47t52.5 -149v-193q0 -26 5.5 -37.5z
M274 145v86h-11q-34 0 -49.5 -15t-15.5 -47q0 -25 9 -39t25 -14q25 0 42 29zM377 826l64 -71l-131 -152h-115l-132 152l64 71l125 -96z" />
    <glyph glyph-name="acircumflex" unicode="&#xe2;" horiz-adv-x="500" 
d="M468.5 127.5q5.5 -11.5 21.5 -18.5l-39 -125q-50 4 -83 20.5t-52 51.5q-51 -76 -146 -76q-72 0 -116 47t-44 123q0 88 60.5 135t175.5 47h28v14q0 43 -13 57.5t-52 14.5q-47 0 -122 -27l-42 121q44 20 98.5 31t101.5 11q113 0 165.5 -47t52.5 -149v-193q0 -26 5.5 -37.5z
M274 145v86h-11q-34 0 -49.5 -15t-15.5 -47q0 -25 9 -39t25 -14q25 0 42 29zM127 616l-64 70l132 152h115l131 -152l-64 -70l-125 95z" />
    <glyph glyph-name="uni1EA5" unicode="&#x1ea5;" horiz-adv-x="500" 
d="M468.5 127.5q5.5 -11.5 21.5 -18.5l-39 -125q-50 4 -83 20.5t-52 51.5q-51 -76 -146 -76q-72 0 -116 47t-44 123q0 88 60.5 135t175.5 47h28v14q0 43 -13 57.5t-52 14.5q-47 0 -122 -27l-42 121q44 20 98.5 31t101.5 11q113 0 165.5 -47t52.5 -149v-193q0 -26 5.5 -37.5z
M274 145v86h-11q-34 0 -49.5 -15t-15.5 -47q0 -25 9 -39t25 -14q25 0 42 29zM127 586l-64 70l132 142h115l131 -142l-64 -70l-125 85zM482 993l106 -98l-165 -151l-72 61z" />
    <glyph glyph-name="uni1EAD" unicode="&#x1ead;" horiz-adv-x="500" 
d="M468.5 127.5q5.5 -11.5 21.5 -18.5l-39 -125q-50 4 -83 20.5t-52 51.5q-51 -76 -146 -76q-72 0 -116 47t-44 123q0 88 60.5 135t175.5 47h28v14q0 43 -13 57.5t-52 14.5q-47 0 -122 -27l-42 121q44 20 98.5 31t101.5 11q113 0 165.5 -47t52.5 -149v-193q0 -26 5.5 -37.5z
M274 145v86h-11q-34 0 -49.5 -15t-15.5 -47q0 -25 9 -39t25 -14q25 0 42 29zM127 616l-64 70l132 152h115l131 -152l-64 -70l-125 95zM176 -232.5q-30 29.5 -30 74.5t30 74.5t77 29.5t77 -29.5t30 -74.5t-30 -74.5t-77 -29.5t-77 29.5z" />
    <glyph glyph-name="uni1EA7" unicode="&#x1ea7;" horiz-adv-x="500" 
d="M468.5 127.5q5.5 -11.5 21.5 -18.5l-39 -125q-50 4 -83 20.5t-52 51.5q-51 -76 -146 -76q-72 0 -116 47t-44 123q0 88 60.5 135t175.5 47h28v14q0 43 -13 57.5t-52 14.5q-47 0 -122 -27l-42 121q44 20 98.5 31t101.5 11q113 0 165.5 -47t52.5 -149v-193q0 -26 5.5 -37.5z
M274 145v86h-11q-34 0 -49.5 -15t-15.5 -47q0 -25 9 -39t25 -14q25 0 42 29zM126 586l-64 70l132 142h115l131 -142l-64 -70l-125 85zM23 993l131 -188l-73 -61l-164 151z" />
    <glyph glyph-name="uni1EA9" unicode="&#x1ea9;" horiz-adv-x="500" 
d="M468.5 127.5q5.5 -11.5 21.5 -18.5l-39 -125q-50 4 -83 20.5t-52 51.5q-51 -76 -146 -76q-72 0 -116 47t-44 123q0 88 60.5 135t175.5 47h28v14q0 43 -13 57.5t-52 14.5q-47 0 -122 -27l-42 121q44 20 98.5 31t101.5 11q113 0 165.5 -47t52.5 -149v-193q0 -26 5.5 -37.5z
M274 145v86h-11q-34 0 -49.5 -15t-15.5 -47q0 -25 9 -39t25 -14q25 0 42 29zM127 586l-64 70l132 142h115l131 -142l-64 -70l-125 85zM345 877q35 2 49.5 9.5t14.5 26.5q0 13 -9 20t-23 7q-16 0 -27 -2.5t-30 -9.5l-27 74q46 26 110 26q60 0 92 -29.5t32 -76.5
q0 -40 -20 -65.5t-58 -32.5v-49h-104v102z" />
    <glyph glyph-name="uni1EAB" unicode="&#x1eab;" horiz-adv-x="500" 
d="M468.5 127.5q5.5 -11.5 21.5 -18.5l-39 -125q-50 4 -83 20.5t-52 51.5q-51 -76 -146 -76q-72 0 -116 47t-44 123q0 88 60.5 135t175.5 47h28v14q0 43 -13 57.5t-52 14.5q-47 0 -122 -27l-42 121q44 20 98.5 31t101.5 11q113 0 165.5 -47t52.5 -149v-193q0 -26 5.5 -37.5z
M274 145v86h-11q-34 0 -49.5 -15t-15.5 -47q0 -25 9 -39t25 -14q25 0 42 29zM126 585l-64 70l132 142h115l131 -142l-64 -70l-125 85zM268.5 832q-14.5 6 -33.5 17q-21 14 -35 14q-15 0 -25 -8.5t-22 -28.5l-88 37q19 53 53.5 86t78.5 33q22 0 37 -6t34 -17q21 -14 35 -14
q15 0 24.5 8.5t21.5 28.5l88 -37q-18 -53 -52.5 -86t-79.5 -33q-22 0 -36.5 6z" />
    <glyph glyph-name="uni0201" unicode="&#x201;" horiz-adv-x="500" 
d="M468.5 127.5q5.5 -11.5 21.5 -18.5l-39 -125q-50 4 -83 20.5t-52 51.5q-51 -76 -146 -76q-72 0 -116 47t-44 123q0 88 60.5 135t175.5 47h28v14q0 43 -13 57.5t-52 14.5q-47 0 -122 -27l-42 121q44 20 98.5 31t101.5 11q113 0 165.5 -47t52.5 -149v-193q0 -26 5.5 -37.5z
M274 145v86h-11q-34 0 -49.5 -15t-15.5 -47q0 -25 9 -39t25 -14q25 0 42 29zM139 874l95 -210l-89 -44l-122 195zM316 874l88 -212l-92 -38l-115 196z" />
    <glyph glyph-name="adieresis" unicode="&#xe4;" horiz-adv-x="500" 
d="M468.5 127.5q5.5 -11.5 21.5 -18.5l-39 -125q-50 4 -83 20.5t-52 51.5q-51 -76 -146 -76q-72 0 -116 47t-44 123q0 88 60.5 135t175.5 47h28v14q0 43 -13 57.5t-52 14.5q-47 0 -122 -27l-42 121q44 20 98.5 31t101.5 11q113 0 165.5 -47t52.5 -149v-193q0 -26 5.5 -37.5z
M274 145v86h-11q-34 0 -49.5 -15t-15.5 -47q0 -25 9 -39t25 -14q25 0 42 29zM204 789.5q26 -26.5 26 -63.5q0 -39 -26 -65.5t-65 -26.5q-38 0 -64.5 26.5t-26.5 65.5q0 37 26.5 63.5t64.5 26.5q39 0 65 -26.5zM430 789.5q26 -26.5 26 -63.5q0 -39 -26 -65.5t-65 -26.5
q-38 0 -64.5 26.5t-26.5 65.5q0 37 26.5 63.5t64.5 26.5q39 0 65 -26.5z" />
    <glyph glyph-name="uni01DF" unicode="&#x1df;" horiz-adv-x="500" 
d="M468.5 127.5q5.5 -11.5 21.5 -18.5l-39 -125q-50 4 -83 20.5t-52 51.5q-51 -76 -146 -76q-72 0 -116 47t-44 123q0 88 60.5 135t175.5 47h28v14q0 43 -13 57.5t-52 14.5q-47 0 -122 -27l-42 121q44 20 98.5 31t101.5 11q113 0 165.5 -47t52.5 -149v-193q0 -26 5.5 -37.5z
M274 145v86h-11q-34 0 -49.5 -15t-15.5 -47q0 -25 9 -39t25 -14q25 0 42 29zM204 744.5q26 -26.5 26 -63.5q0 -39 -26 -65.5t-65 -26.5q-38 0 -64.5 26.5t-26.5 65.5q0 37 26.5 63.5t64.5 26.5q39 0 65 -26.5zM430 744.5q26 -26.5 26 -63.5q0 -39 -26 -65.5t-65 -26.5
q-38 0 -64.5 26.5t-26.5 65.5q0 37 26.5 63.5t64.5 26.5q39 0 65 -26.5zM402 809h-300v129h300v-129z" />
    <glyph glyph-name="uni0227" unicode="&#x227;" horiz-adv-x="500" 
d="M468.5 127.5q5.5 -11.5 21.5 -18.5l-39 -125q-50 4 -83 20.5t-52 51.5q-51 -76 -146 -76q-72 0 -116 47t-44 123q0 88 60.5 135t175.5 47h28v14q0 43 -13 57.5t-52 14.5q-47 0 -122 -27l-42 121q44 20 98.5 31t101.5 11q113 0 165.5 -47t52.5 -149v-193q0 -26 5.5 -37.5z
M274 145v86h-11q-34 0 -49.5 -15t-15.5 -47q0 -25 9 -39t25 -14q25 0 42 29zM329 797.5q30 -29.5 30 -74.5t-30 -74.5t-77 -29.5t-77 29.5t-30 74.5t30 74.5t77 29.5t77 -29.5z" />
    <glyph glyph-name="uni1EA1" unicode="&#x1ea1;" horiz-adv-x="500" 
d="M468.5 127.5q5.5 -11.5 21.5 -18.5l-39 -125q-50 4 -83 20.5t-52 51.5q-51 -76 -146 -76q-72 0 -116 47t-44 123q0 88 60.5 135t175.5 47h28v14q0 43 -13 57.5t-52 14.5q-47 0 -122 -27l-42 121q44 20 98.5 31t101.5 11q113 0 165.5 -47t52.5 -149v-193q0 -26 5.5 -37.5z
M274 145v86h-11q-34 0 -49.5 -15t-15.5 -47q0 -25 9 -39t25 -14q25 0 42 29zM176 -232.5q-30 29.5 -30 74.5t30 74.5t77 29.5t77 -29.5t30 -74.5t-30 -74.5t-77 -29.5t-77 29.5z" />
    <glyph glyph-name="uni01E1" unicode="&#x1e1;" horiz-adv-x="500" 
d="M468.5 127.5q5.5 -11.5 21.5 -18.5l-39 -125q-50 4 -83 20.5t-52 51.5q-51 -76 -146 -76q-72 0 -116 47t-44 123q0 88 60.5 135t175.5 47h28v14q0 43 -13 57.5t-52 14.5q-47 0 -122 -27l-42 121q44 20 98.5 31t101.5 11q113 0 165.5 -47t52.5 -149v-193q0 -26 5.5 -37.5z
M274 145v86h-11q-34 0 -49.5 -15t-15.5 -47q0 -25 9 -39t25 -14q25 0 42 29zM328 766.5q30 -29.5 30 -74.5t-30 -74.5t-77 -29.5t-77 29.5t-30 74.5t30 74.5t77 29.5t77 -29.5zM402 827h-300v129h300v-129z" />
    <glyph glyph-name="agrave" unicode="&#xe0;" horiz-adv-x="500" 
d="M468.5 127.5q5.5 -11.5 21.5 -18.5l-39 -125q-50 4 -83 20.5t-52 51.5q-51 -76 -146 -76q-72 0 -116 47t-44 123q0 88 60.5 135t175.5 47h28v14q0 43 -13 57.5t-52 14.5q-47 0 -122 -27l-42 121q44 20 98.5 31t101.5 11q113 0 165.5 -47t52.5 -149v-193q0 -26 5.5 -37.5z
M274 145v86h-11q-34 0 -49.5 -15t-15.5 -47q0 -25 9 -39t25 -14q25 0 42 29zM192 850l210 -142l-51 -94l-232 99z" />
    <glyph glyph-name="uni1EA3" unicode="&#x1ea3;" horiz-adv-x="500" 
d="M468.5 127.5q5.5 -11.5 21.5 -18.5l-39 -125q-50 4 -83 20.5t-52 51.5q-51 -76 -146 -76q-72 0 -116 47t-44 123q0 88 60.5 135t175.5 47h28v14q0 43 -13 57.5t-52 14.5q-47 0 -122 -27l-42 121q44 20 98.5 31t101.5 11q113 0 165.5 -47t52.5 -149v-193q0 -26 5.5 -37.5z
M274 145v86h-11q-34 0 -49.5 -15t-15.5 -47q0 -25 9 -39t25 -14q25 0 42 29zM201 704q35 2 49.5 9.5t14.5 26.5q0 13 -9 20t-23 7q-16 0 -27 -2.5t-30 -9.5l-27 74q46 26 110 26q60 0 92 -29.5t32 -76.5q0 -40 -20 -65.5t-58 -32.5v-49h-104v102z" />
    <glyph glyph-name="uni0203" unicode="&#x203;" horiz-adv-x="500" 
d="M468.5 127.5q5.5 -11.5 21.5 -18.5l-39 -125q-50 4 -83 20.5t-52 51.5q-51 -76 -146 -76q-72 0 -116 47t-44 123q0 88 60.5 135t175.5 47h28v14q0 43 -13 57.5t-52 14.5q-47 0 -122 -27l-42 121q44 20 98.5 31t101.5 11q113 0 165.5 -47t52.5 -149v-193q0 -26 5.5 -37.5z
M274 145v86h-11q-34 0 -49.5 -15t-15.5 -47q0 -25 9 -39t25 -14q25 0 42 29zM375.5 752q42.5 -54 48.5 -141l-99 -16q-17 81 -72 81q-56 0 -73 -81l-99 16q6 87 48.5 141t123.5 54q80 0 122.5 -54z" />
    <glyph glyph-name="uni0251" unicode="&#x251;" horiz-adv-x="547" 
d="M516.5 145.5q7.5 -15.5 28.5 -27.5l-55 -138q-56 8 -90.5 26.5t-55.5 50.5q-26 -35 -61.5 -56t-79.5 -21q-93 0 -140.5 74.5t-47.5 214.5q0 86 25 150.5t70.5 99.5t104.5 35q71 0 116 -55l8 35h170v-343q0 -30 7.5 -45.5zM290 130q14 11 25 31v230q-11 13 -21.5 19
t-24.5 6q-26 0 -40.5 -32.5t-14.5 -115.5q0 -91 13 -120t35 -29q14 0 28 11z" />
    <glyph glyph-name="uni0252" unicode="&#x252;" horiz-adv-x="547" 
d="M484.5 479.5q47.5 -74.5 47.5 -214.5q0 -86 -25 -150.5t-70.5 -99.5t-104.5 -35q-71 0 -116 55l-8 -35h-170v343q0 30 -7.5 45.5t-28.5 27.5l55 138q56 -8 90.5 -26.5t55.5 -50.5q26 35 61.5 56t79.5 21q93 0 140.5 -74.5zM318.5 150.5q14.5 32.5 14.5 115.5
q0 91 -13 120t-35 29q-14 0 -28 -11t-25 -31v-230q11 -13 21.5 -19t24.5 -6q26 0 40.5 32.5z" />
    <glyph glyph-name="amacron" unicode="&#x101;" horiz-adv-x="500" 
d="M468.5 127.5q5.5 -11.5 21.5 -18.5l-39 -125q-50 4 -83 20.5t-52 51.5q-51 -76 -146 -76q-72 0 -116 47t-44 123q0 88 60.5 135t175.5 47h28v14q0 43 -13 57.5t-52 14.5q-47 0 -122 -27l-42 121q44 20 98.5 31t101.5 11q113 0 165.5 -47t52.5 -149v-193q0 -26 5.5 -37.5z
M274 145v86h-11q-34 0 -49.5 -15t-15.5 -47q0 -25 9 -39t25 -14q25 0 42 29zM402 650h-300v129h300v-129z" />
    <glyph glyph-name="aogonek" unicode="&#x105;" horiz-adv-x="500" 
d="M349 -111q0 -45 45 -45q23 0 55 8l-11 -113q-34 -8 -68 -8q-66 0 -109 33t-43 91q0 56 34.5 95t95.5 67q-19 16 -32 39q-51 -76 -146 -76q-72 0 -116 47t-44 123q0 88 60.5 135t175.5 47h28v14q0 43 -13 57.5t-52 14.5q-47 0 -122 -27l-42 121q44 20 98.5 31t101.5 11
q113 0 165.5 -47t52.5 -149v-193q0 -26 5.5 -37.5t21.5 -18.5l-39 -125q-102 -40 -102 -95zM274 145v86h-11q-34 0 -49.5 -15t-15.5 -47q0 -25 9 -39t25 -14q25 0 42 29z" />
    <glyph glyph-name="aring" unicode="&#xe5;" horiz-adv-x="500" 
d="M468.5 127.5q5.5 -11.5 21.5 -18.5l-39 -125q-50 4 -83 20.5t-52 51.5q-51 -76 -146 -76q-72 0 -116 47t-44 123q0 88 60.5 135t175.5 47h28v14q0 43 -13 57.5t-52 14.5q-47 0 -122 -27l-42 121q44 20 98.5 31t101.5 11q113 0 165.5 -47t52.5 -149v-193q0 -26 5.5 -37.5z
M274 145v86h-11q-34 0 -49.5 -15t-15.5 -47q0 -25 9 -39t25 -14q25 0 42 29zM357 843q39 -41 39 -104q0 -62 -39 -103.5t-105 -41.5q-67 0 -106 41.5t-39 103.5q0 63 39 104t106 41q66 0 105 -41zM217 739q0 -48 35 -48t35 48q0 49 -35 49t-35 -49z" />
    <glyph glyph-name="aringacute" unicode="&#x1fb;" horiz-adv-x="500" 
d="M394 958l-233 -89l-49 94l212 132zM146 614.5q-39 41.5 -39 103.5q0 63 39 104t106 41q66 0 105 -41t39 -104q0 -62 -39 -103.5t-105 -41.5q-67 0 -106 41.5zM217 718q0 -48 35 -48t35 48q0 49 -35 49t-35 -49zM468.5 127.5q5.5 -11.5 21.5 -18.5l-39 -125
q-50 4 -83 20.5t-52 51.5q-51 -76 -146 -76q-72 0 -116 47t-44 123q0 88 60.5 135t175.5 47h28v14q0 43 -13 57.5t-52 14.5q-47 0 -122 -27l-42 121q44 20 98.5 31t101.5 11q113 0 165.5 -47t52.5 -149v-193q0 -26 5.5 -37.5zM274 145v86h-11q-34 0 -49.5 -15t-15.5 -47
q0 -25 9 -39t25 -14q25 0 42 29z" />
    <glyph glyph-name="uni2C65" unicode="&#x2c65;" horiz-adv-x="500" 
d="M468.5 127.5q5.5 -11.5 21.5 -18.5l-39 -125q-50 4 -83 20.5t-52 51.5q-37 -56 -101 -71l-12 -61l-56 11l9 45q-67 5 -106.5 51.5t-39.5 118.5q0 81 55 124.5t162 47.5l22 109h-15q-72 0 -147 -27l-42 108q44 20 98.5 31t101.5 11q20 0 30 -1l10 50l55 -11l-10 -46
q68 -16 100.5 -62t32.5 -126v-193q0 -26 5.5 -37.5zM300 397l-15 -75h19v31q0 29 -4 44zM304 147v84h-38l-25 -122q32 8 63 38zM185 118l22 106q-19 -7 -26.5 -21t-7.5 -38q0 -32 12 -47z" />
    <glyph glyph-name="atilde" unicode="&#xe3;" horiz-adv-x="500" 
d="M468.5 127.5q5.5 -11.5 21.5 -18.5l-39 -125q-50 4 -83 20.5t-52 51.5q-51 -76 -146 -76q-72 0 -116 47t-44 123q0 88 60.5 135t175.5 47h28v14q0 43 -13 57.5t-52 14.5q-47 0 -122 -27l-42 121q44 20 98.5 31t101.5 11q113 0 165.5 -47t52.5 -149v-193q0 -26 5.5 -37.5z
M274 145v86h-11q-34 0 -49.5 -15t-15.5 -47q0 -25 9 -39t25 -14q25 0 42 29zM269.5 632.5q-14.5 6.5 -33.5 18.5q-21 16 -35 16q-15 0 -25 -9.5t-22 -31.5l-88 41q19 58 53.5 95t78.5 37q22 0 38 -7t33 -19q23 -15 35 -15q15 0 24.5 9.5t21.5 31.5l88 -41q-18 -58 -52.5 -95
t-79.5 -37q-22 0 -36.5 6.5z" />
    <glyph glyph-name="uni0250" unicode="&#x250;" horiz-adv-x="500" 
d="M413 143l42 -121q-44 -20 -98.5 -31t-101.5 -11q-113 0 -165.5 47t-52.5 149v193q0 26 -5.5 37.5t-21.5 18.5l39 125q50 -4 83 -20.5t52 -51.5q51 76 146 76q72 0 116 -47t44 -123q0 -88 -60.5 -135t-175.5 -47h-28v-14q0 -43 13 -57.5t52 -14.5q47 0 122 27zM226 389
v-86h11q34 0 49.5 15t15.5 47q0 25 -9 39t-25 14q-25 0 -42 -29z" />
    <glyph glyph-name="ae" unicode="&#xe6;" horiz-adv-x="781" 
d="M767 212h-290q6 -56 27.5 -75t63.5 -19q24 0 49 10.5t58 33.5l77 -104q-38 -35 -89.5 -56.5t-112.5 -21.5q-131 0 -204 86q-61 -86 -168 -86q-77 0 -122.5 47.5t-45.5 122.5q0 86 62 132t182 46h28v16q0 44 -13 58.5t-51 14.5q-21 0 -55 -7.5t-69 -19.5l-41 122
q46 20 96.5 31t96.5 11q102 0 149 -60q62 60 152 60q65 0 115.5 -32t79.5 -95t29 -153q0 -26 -4 -62zM584 329q0 49 -12 75.5t-40 26.5q-27 0 -39.5 -23.5t-16.5 -86.5h108v8zM297 162q-8 28 -10 62h-14q-32 0 -48 -14t-16 -46q0 -48 32 -48q31 0 56 46z" />
    <glyph glyph-name="aeacute" unicode="&#x1fd;" horiz-adv-x="781" 
d="M767 212h-290q6 -56 27.5 -75t63.5 -19q24 0 49 10.5t58 33.5l77 -104q-38 -35 -89.5 -56.5t-112.5 -21.5q-131 0 -204 86q-61 -86 -168 -86q-77 0 -122.5 47.5t-45.5 122.5q0 86 62 132t182 46h28v16q0 44 -13 58.5t-51 14.5q-21 0 -55 -7.5t-69 -19.5l-41 122
q46 20 96.5 31t96.5 11q102 0 149 -60q62 60 152 60q65 0 115.5 -32t79.5 -95t29 -153q0 -26 -4 -62zM584 329q0 49 -12 75.5t-40 26.5q-27 0 -39.5 -23.5t-16.5 -86.5h108v8zM297 162q-8 28 -10 62h-14q-32 0 -48 -14t-16 -46q0 -48 32 -48q31 0 56 46zM447 850l73 -137
l-232 -99l-51 94z" />
    <glyph glyph-name="uni01E3" unicode="&#x1e3;" horiz-adv-x="781" 
d="M767 212h-290q6 -56 27.5 -75t63.5 -19q24 0 49 10.5t58 33.5l77 -104q-38 -35 -89.5 -56.5t-112.5 -21.5q-131 0 -204 86q-61 -86 -168 -86q-77 0 -122.5 47.5t-45.5 122.5q0 86 62 132t182 46h28v16q0 44 -13 58.5t-51 14.5q-21 0 -55 -7.5t-69 -19.5l-41 122
q46 20 96.5 31t96.5 11q102 0 149 -60q62 60 152 60q65 0 115.5 -32t79.5 -95t29 -153q0 -26 -4 -62zM584 329q0 49 -12 75.5t-40 26.5q-27 0 -39.5 -23.5t-16.5 -86.5h108v8zM297 162q-8 28 -10 62h-14q-32 0 -48 -14t-16 -46q0 -48 32 -48q31 0 56 46zM539 650h-300v129
h300v-129z" />
    <glyph glyph-name="b" unicode="b" horiz-adv-x="547" 
d="M485 480q44 -74 44 -214q0 -85 -23 -149.5t-66.5 -100.5t-103.5 -36q-39 0 -70.5 17.5t-52.5 48.5l-7 -46h-173v744l194 20v-274q20 29 54 46.5t73 17.5q87 0 131 -74zM317.5 150q14.5 32 14.5 116q0 90 -13 119.5t-36 29.5q-30 0 -56 -47v-213q19 -37 49 -37
q27 0 41.5 32z" />
    <glyph glyph-name="uni1E03" unicode="&#x1e03;" horiz-adv-x="547" 
d="M485 480q44 -74 44 -214q0 -85 -23 -149.5t-66.5 -100.5t-103.5 -36q-39 0 -70.5 17.5t-52.5 48.5l-7 -46h-173v744l194 20v-274q20 29 54 46.5t73 17.5q87 0 131 -74zM317.5 150q14.5 32 14.5 116q0 90 -13 119.5t-36 29.5q-30 0 -56 -47v-213q19 -37 49 -37
q27 0 41.5 32zM372 971.5q30 -29.5 30 -74.5t-30 -74.5t-77 -29.5t-77 29.5t-30 74.5t30 74.5t77 29.5t77 -29.5z" />
    <glyph glyph-name="uni1E05" unicode="&#x1e05;" horiz-adv-x="547" 
d="M485 480q44 -74 44 -214q0 -85 -23 -149.5t-66.5 -100.5t-103.5 -36q-39 0 -70.5 17.5t-52.5 48.5l-7 -46h-173v744l194 20v-274q20 29 54 46.5t73 17.5q87 0 131 -74zM317.5 150q14.5 32 14.5 116q0 90 -13 119.5t-36 29.5q-30 0 -56 -47v-213q19 -37 49 -37
q27 0 41.5 32zM204 -232.5q-30 29.5 -30 74.5t30 74.5t77 29.5t77 -29.5t30 -74.5t-30 -74.5t-77 -29.5t-77 29.5z" />
    <glyph glyph-name="uniA7B5" unicode="&#xa7b5;" horiz-adv-x="558" 
d="M495 355q51 -43 51 -146q0 -69 -26 -120.5t-73 -79.5t-108 -28q-68 0 -121 34v-216l-185 -26v775q0 105 65.5 160.5t168.5 55.5q110 0 168 -53t58 -140q0 -66 -28.5 -107t-93.5 -58q73 -8 124 -51zM330.5 150q20.5 23 20.5 79q0 58 -23 81.5t-56 23.5h-24l9 127h6
q21 0 31.5 22t10.5 70q0 44 -10 61.5t-32 17.5q-23 0 -34 -19t-11 -63v-413q25 -10 57 -10q35 0 55.5 23z" />
    <glyph glyph-name="uni0253" unicode="&#x253;" horiz-adv-x="547" 
d="M485 480.5q44 -73.5 44 -214.5q0 -85 -23 -149.5t-66.5 -100.5t-103.5 -36q-39 0 -70.5 17.5t-52.5 48.5l-7 -46h-173v572q0 54 23.5 97.5t71.5 69t118 25.5q39 0 78 -10.5t68 -26.5l-52 -119q-33 16 -65 16q-25 0 -36.5 -14t-11.5 -46v-74q20 29 54 46.5t71 17.5
q89 0 133 -73.5zM318 150q14 32 14 116q0 90 -12.5 119.5t-35.5 29.5q-15 0 -30 -12t-27 -35v-213q19 -37 50 -37q27 0 41 32z" />
    <glyph glyph-name="uni02AD" unicode="&#x2ad;" horiz-adv-x="354" 
d="M30 399v174h294v-174h-109v81h-76v-81h-109zM30 -2v174h294v-174h-109v81h-76v-81h-109z" />
    <glyph glyph-name="uni0298" unicode="&#x298;" horiz-adv-x="733" 
d="M550.5 671.5q78.5 -44.5 121.5 -127.5t43 -195q0 -108 -43 -191.5t-122 -130t-183 -46.5q-105 0 -184 44.5t-122 128t-43 195.5q0 108 43.5 191t122.5 129.5t183 46.5q105 0 183.5 -44.5zM248.5 530.5q-40.5 -56.5 -40.5 -181.5q0 -126 40 -183t120 -57q79 0 118.5 57
t39.5 183q0 123 -43 180.5t-115 57.5q-79 0 -119.5 -56.5zM428 400.5q24 -23.5 24 -59.5t-24 -59.5t-62 -23.5q-37 0 -61 23.5t-24 59.5t24 59.5t61 23.5q38 0 62 -23.5z" />
    <glyph glyph-name="uni02AC" unicode="&#x2ac;" horiz-adv-x="423" 
d="M396 669l-50 -269h-106l-24 194l-28 -194h-103l-57 269h73l38 -210l29 210h98l29 -211l31 211h70zM396 269l-50 -269h-106l-24 194l-28 -194h-103l-57 269h73l38 -210l29 210h98l29 -211l31 211h70z" />
    <glyph glyph-name="uni0180" unicode="&#x180;" horiz-adv-x="554" 
d="M492 480q44 -74 44 -214q0 -85 -23 -149.5t-66.5 -100.5t-103.5 -36q-39 0 -70.5 17.5t-52.5 48.5l-7 -46h-173v592h-42v104h42v48l194 20v-68h106v-104h-106v-102q20 29 54 46.5t73 17.5q87 0 131 -74zM324.5 150q14.5 32 14.5 116q0 90 -13 119.5t-36 29.5
q-30 0 -56 -47v-213q19 -37 49 -37q27 0 41.5 32z" />
    <glyph glyph-name="uni0183" unicode="&#x183;" horiz-adv-x="547" 
d="M485 472q44 -73 44 -210q0 -83 -23 -146.5t-66.5 -99.5t-103.5 -36q-39 0 -70.5 17.5t-52.5 48.5l-7 -46h-173v744h386l-20 -136h-172v-127q20 29 54 46.5t71 17.5q89 0 133 -73zM318 149.5q14 31.5 14 112.5q0 86 -12.5 115t-35.5 29q-15 0 -30 -12t-27 -35v-204
q19 -37 50 -37q27 0 41 31.5z" />
    <glyph glyph-name="c" unicode="c" horiz-adv-x="439" 
d="M452 484l-79 -109q-43 34 -81 34q-39 0 -57 -31.5t-18 -114.5q0 -78 19 -106t55 -28q20 0 37 7t41 23l83 -114q-75 -65 -174 -65q-123 0 -193 75t-70 208q0 87 32 153t90.5 102t136.5 36q103 0 178 -70z" />
    <glyph glyph-name="cacute" unicode="&#x107;" horiz-adv-x="439" 
d="M452 484l-79 -109q-43 34 -81 34q-39 0 -57 -31.5t-18 -114.5q0 -78 19 -106t55 -28q20 0 37 7t41 23l83 -114q-75 -65 -174 -65q-123 0 -193 75t-70 208q0 87 32 153t90.5 102t136.5 36q103 0 178 -70zM328 850l73 -137l-232 -99l-51 94z" />
    <glyph glyph-name="cacute.loclPLK" horiz-adv-x="439" 
d="M452 484l-79 -109q-43 34 -81 34q-39 0 -57 -31.5t-18 -114.5q0 -78 19 -106t55 -28q20 0 37 7t41 23l83 -114q-75 -65 -174 -65q-123 0 -193 75t-70 208q0 87 32 153t90.5 102t136.5 36q103 0 178 -70zM270 828l140 -77l-136 -167l-84 48z" />
    <glyph glyph-name="ccaron" unicode="&#x10d;" horiz-adv-x="439" 
d="M452 484l-79 -109q-43 34 -81 34q-39 0 -57 -31.5t-18 -114.5q0 -78 19 -106t55 -28q20 0 37 7t41 23l83 -114q-75 -65 -174 -65q-123 0 -193 75t-70 208q0 87 32 153t90.5 102t136.5 36q103 0 178 -70zM395 826l64 -71l-131 -152h-115l-132 152l64 71l125 -96z" />
    <glyph glyph-name="ccedilla" unicode="&#xe7;" horiz-adv-x="439" 
d="M310 -18v-28q101 -16 101 -104q0 -54 -40.5 -88.5t-113.5 -34.5q-34 0 -64.5 9t-52.5 24l41 82q29 -16 60 -16q38 0 38 26q0 16 -20 22.5t-65 6.5l12 107q-91 20 -141 91.5t-50 183.5q0 87 32 153t90.5 102t136.5 36q103 0 178 -70l-79 -109q-43 34 -81 34
q-39 0 -57 -31.5t-18 -114.5q0 -78 19 -106t55 -28q20 0 37 7t41 23l83 -114q-63 -55 -142 -63z" />
    <glyph glyph-name="ccircumflex" unicode="&#x109;" horiz-adv-x="439" 
d="M452 484l-79 -109q-43 34 -81 34q-39 0 -57 -31.5t-18 -114.5q0 -78 19 -106t55 -28q20 0 37 7t41 23l83 -114q-75 -65 -174 -65q-123 0 -193 75t-70 208q0 87 32 153t90.5 102t136.5 36q103 0 178 -70zM145 616l-64 70l132 152h115l131 -152l-64 -70l-125 95z" />
    <glyph glyph-name="uni0255" unicode="&#x255;" horiz-adv-x="467" 
d="M440.5 232.5q35.5 -33.5 35.5 -92.5q0 -79 -52 -119t-131 -40q-34 0 -62 5l-31 -76l-85 34l33 72q-64 32 -98.5 96t-34.5 151t32 153t90.5 102t136.5 36q103 0 178 -70l-79 -109q-43 34 -81 34q-39 0 -57 -31.5t-18 -114.5q0 -48 7 -83q40 86 128 86q53 0 88.5 -33.5z
M354 146q0 11 -5 18t-15 7q-14 0 -27 -13.5t-22 -40.5q15 -4 34 -4q35 0 35 33z" />
    <glyph glyph-name="cdotaccent" unicode="&#x10b;" horiz-adv-x="439" 
d="M452 484l-79 -109q-43 34 -81 34q-39 0 -57 -31.5t-18 -114.5q0 -78 19 -106t55 -28q20 0 37 7t41 23l83 -114q-75 -65 -174 -65q-123 0 -193 75t-70 208q0 87 32 153t90.5 102t136.5 36q103 0 178 -70zM347 797.5q30 -29.5 30 -74.5t-30 -74.5t-77 -29.5t-77 29.5
t-30 74.5t30 74.5t77 29.5t77 -29.5z" />
    <glyph glyph-name="uni0188" unicode="&#x188;" horiz-adv-x="439" 
d="M594 727l-49 -118q-31 15 -55 15q-21 0 -29.5 -11.5t-8.5 -37.5v-91l-74 -102q-42 27 -84 27q-40 0 -58.5 -31t-18.5 -115q0 -78 19 -106t55 -28q20 0 37 7t41 23l83 -114q-75 -65 -174 -65q-123 0 -193 75t-70 208q0 85 30.5 151.5t83 103t115.5 36.5q21 0 45 -6v49
q0 79 43.5 123t124.5 44q76 0 137 -37z" />
    <glyph glyph-name="uni0297" unicode="&#x297;" horiz-adv-x="450" 
d="M463 484l-77 -109q-43 32 -81 32q-29 0 -47 -22t-27.5 -76t-9.5 -149q0 -93 9.5 -145t27 -71.5t43.5 -19.5q20 0 37.5 7t39.5 23l83 -115q-76 -66 -170 -66q-133 0 -202 99t-69 288t71.5 291.5t200.5 102.5q101 0 171 -70z" />
    <glyph glyph-name="uni023C" unicode="&#x23c;" horiz-adv-x="439" 
d="M328 136q17 7 41 23l83 -114q-75 -65 -174 -65q-22 0 -32 1l-14 -57l-57 12l13 56q-83 25 -128 95t-45 176q0 87 32 153t90.5 102t136.5 36q27 0 47 -4l12 53l57 -12l-13 -57q38 -16 75 -50l-79 -109q-16 13 -29 20l-63 -266h10q20 0 37 7zM230 169l57 240
q-36 -2 -53 -33.5t-17 -112.5q0 -61 13 -94z" />
    <glyph glyph-name="d" unicode="d" horiz-adv-x="548" 
d="M515 744v-744h-173l-6 51q-52 -71 -135 -71q-91 0 -137.5 75t-46.5 214q0 85 25.5 150t71.5 100t105 35q62 0 102 -42v252zM321 161v226q-12 15 -21.5 22t-22.5 7q-61 0 -61 -148q0 -90 14 -119.5t39 -29.5q30 0 52 42z" />
    <glyph glyph-name="eth" unicode="&#xf0;" horiz-adv-x="540" 
d="M477.5 505q41.5 -95 41.5 -221q0 -84 -28.5 -153t-86 -109.5t-140.5 -40.5q-71 0 -128 30t-89 87t-32 135q0 73 27.5 130t71.5 87.5t92 30.5q34 0 60 -9t50 -27q-14 40 -31.5 68t-47.5 55l-42 -47l-116 54l46 51q-37 11 -69 17l36 119q59 -8 131 -32l69 79l97 -77
l-50 -59q97 -73 138.5 -168zM311.5 145.5q11.5 27.5 11.5 94.5v87q-25 23 -54 23t-43.5 -27.5t-14.5 -87.5q0 -67 14 -92t43 -25q32 0 43.5 27.5z" />
    <glyph glyph-name="uni0238" unicode="&#x238;" horiz-adv-x="799" 
d="M740 481q41 -73 41 -215q0 -86 -22.5 -150.5t-64 -99.5t-97.5 -35q-33 0 -63 18t-51 51l-7 -50h-151l-8 54q-48 -73 -125 -73q-86 0 -130.5 75t-44.5 213q0 87 24 151.5t65.5 99t94.5 34.5q30 0 56.5 -14t45.5 -41v245l194 20v-277q21 30 53.5 48.5t69.5 18.5
q79 0 120 -73zM281 128.5q12 9.5 22 28.5v230q-17 28 -39 28t-35 -32t-13 -115q0 -91 11.5 -120t31.5 -29q10 0 22 9.5zM570.5 149.5q12.5 31.5 12.5 116.5q0 90 -11 119t-30 29q-25 0 -45 -37v-225q19 -34 41 -34q20 0 32.5 31.5z" />
    <glyph glyph-name="dcaron" unicode="&#x10f;" horiz-adv-x="686" 
d="M515 744v-744h-173l-6 51q-52 -71 -135 -71q-91 0 -137.5 75t-46.5 214q0 85 25.5 150t71.5 100t105 35q62 0 102 -42v252zM321 161v226q-12 15 -21.5 22t-22.5 7q-61 0 -61 -148q0 -90 14 -119.5t39 -29.5q30 0 52 42zM650 510l53 233l-136 21l-23 -237z" />
    <glyph glyph-name="uni1E13" unicode="&#x1e13;" horiz-adv-x="548" 
d="M515 744v-744h-173l-6 51q-52 -71 -135 -71q-91 0 -137.5 75t-46.5 214q0 85 25.5 150t71.5 100t105 35q62 0 102 -42v252zM321 161v226q-12 15 -21.5 22t-22.5 7q-61 0 -61 -148q0 -90 14 -119.5t39 -29.5q30 0 52 42zM154 -283l-64 70l132 152h115l131 -152l-64 -70
l-125 96z" />
    <glyph glyph-name="dcroat" unicode="&#x111;" horiz-adv-x="555" 
d="M557 696v-104h-42v-592h-173l-6 51q-52 -71 -135 -71q-91 0 -137.5 75t-46.5 214q0 85 25.5 150t71.5 100t105 35q62 0 102 -42v80h-107v104h107v68l194 -20v-48h42zM321 161v226q-12 15 -21.5 22t-22.5 7q-61 0 -61 -148q0 -90 14 -119.5t39 -29.5q30 0 52 42z" />
    <glyph glyph-name="uni0221" unicode="&#x221;" horiz-adv-x="750" 
d="M717 223.5q33 -32.5 33 -89.5q0 -76 -53 -114.5t-136 -38.5q-23 0 -34 2l-31 -73l-83 34l27 60q-53 23 -83 68q-31 -44 -68 -68t-88 -24q-91 0 -137.5 75t-46.5 214q0 86 25.5 150.5t72 99.5t107.5 35q59 0 99 -42v252l194 -20v-538q0 -16 2 -36q24 47 51 66.5t67 19.5
q49 0 82 -32.5zM323 166q-2 24 -2 40v181q-11 15 -20.5 22t-22.5 7q-62 0 -62 -148q0 -90 14.5 -119.5t39.5 -29.5q31 0 53 47zM627 142q0 20 -15 20q-10 0 -17 -9.5t-18 -38.5q5 -1 17 -1q33 0 33 29z" />
    <glyph glyph-name="uni1E0B" unicode="&#x1e0b;" horiz-adv-x="548" 
d="M515 744v-744h-173l-6 51q-52 -71 -135 -71q-91 0 -137.5 75t-46.5 214q0 85 25.5 150t71.5 100t105 35q62 0 102 -42v252zM321 161v226q-12 15 -21.5 22t-22.5 7q-61 0 -61 -148q0 -90 14 -119.5t39 -29.5q30 0 52 42zM346 971.5q30 -29.5 30 -74.5t-30 -74.5t-77 -29.5
t-77 29.5t-30 74.5t30 74.5t77 29.5t77 -29.5z" />
    <glyph glyph-name="uni1E0D" unicode="&#x1e0d;" horiz-adv-x="548" 
d="M515 744v-744h-173l-6 51q-52 -71 -135 -71q-91 0 -137.5 75t-46.5 214q0 85 25.5 150t71.5 100t105 35q62 0 102 -42v252zM321 161v226q-12 15 -21.5 22t-22.5 7q-61 0 -61 -148q0 -90 14 -119.5t39 -29.5q30 0 52 42zM204 -232.5q-30 29.5 -30 74.5t30 74.5t77 29.5
t77 -29.5t30 -74.5t-30 -74.5t-77 -29.5t-77 29.5z" />
    <glyph glyph-name="uni018D" unicode="&#x18d;" horiz-adv-x="530" 
d="M375 80q56 -33 74 -65.5t18 -78.5q0 -71 -54.5 -117t-166.5 -46q-56 0 -105 18.5t-80 45.5l82 96q47 -30 91 -30q52 0 52 37q0 14 -4.5 22.5t-20.5 19t-50 25.5q-72 34 -114.5 70t-62 85.5t-19.5 121.5q1 131 68 200.5t182 69.5q119 0 184.5 -66.5t65.5 -192.5
q0 -150 -140 -215zM219 208.5q5 -23.5 19 -41.5t44 -37q25 30 30.5 62t6.5 96q0 72 -12 99.5t-41 27.5q-20 0 -31 -12t-16 -42.5t-5 -86.5q0 -42 5 -65.5z" />
    <glyph glyph-name="uni02A4" unicode="&#x2a4;" horiz-adv-x="973" 
d="M967 11q0 -68 -31 -122t-90.5 -85t-142.5 -31q-151 0 -232 109l99 95q34 -32 60 -45.5t58 -13.5q38 0 60 25.5t22 77.5q0 48 -24 68.5t-71 20.5h-88v105l135 178h-207v-393h-173l-6 51q-52 -71 -135 -71q-91 0 -137.5 75t-46.5 214q0 85 25.5 150t71.5 100t105 35
q62 0 102 -42v252l194 -20v-210h417v-129l-150 -191q185 -21 185 -203zM321 161v226q-12 15 -21.5 22t-22.5 7q-61 0 -61 -148q0 -90 14 -119.5t39 -29.5q30 0 52 42z" />
    <glyph glyph-name="uni0257" unicode="&#x257;" horiz-adv-x="548" 
d="M657 727l-49 -118q-31 15 -55 15q-21 0 -29.5 -11.5t-8.5 -37.5v-575h-173l-6 51q-52 -71 -134 -71q-93 0 -139 75t-46 214q0 86 25.5 150.5t72 99.5t107.5 35q59 0 99 -42v60q0 86 51 139t148 53q76 0 137 -37zM321 161v226q-11 15 -20.5 22t-22.5 7q-62 0 -62 -148
q0 -90 14.5 -119.5t39.5 -29.5q29 0 51 42z" />
    <glyph glyph-name="uni1E0F" unicode="&#x1e0f;" horiz-adv-x="548" 
d="M515 744v-744h-173l-6 51q-52 -71 -135 -71q-91 0 -137.5 75t-46.5 214q0 85 25.5 150t71.5 100t105 35q62 0 102 -42v252zM321 161v226q-12 15 -21.5 22t-22.5 7q-61 0 -61 -148q0 -90 14 -119.5t39 -29.5q30 0 52 42zM431 -199h-300v129h300v-129z" />
    <glyph glyph-name="uni0256" unicode="&#x256;" horiz-adv-x="548" 
d="M681 -181q-60 -46 -151 -46q-95 0 -152 51.5t-57 149.5v59q-48 -53 -119 -53q-93 0 -139 75t-46 214q0 86 25.5 150.5t72 99.5t107.5 35q59 0 99 -42v252l194 -20v-785q0 -48 44 -48q17 0 29.5 3.5t29.5 12.5zM321 161v226q-11 15 -20.5 22t-22.5 7q-62 0 -62 -148
q0 -90 14.5 -119.5t39.5 -29.5q29 0 51 42z" />
    <glyph glyph-name="uni018C" unicode="&#x18c;" horiz-adv-x="548" 
d="M515 0h-173l-6 51q-52 -71 -134 -71q-92 0 -138.5 73.5t-46.5 205.5q0 81 25.5 143.5t72 97t107.5 34.5q59 0 99 -42v116h-181v136h375v-744zM321 161v206q-11 15 -20.5 21.5t-22.5 6.5q-62 0 -62 -137q0 -83 14.5 -111t39.5 -28q29 0 51 42z" />
    <glyph glyph-name="uni01F3" unicode="&#x1f3;" horiz-adv-x="980" 
d="M515 744v-744h-173l-6 51q-52 -71 -135 -71q-91 0 -137.5 75t-46.5 214q0 85 25.5 150t71.5 100t105 35q62 0 102 -42v252zM321 161v226q-12 15 -21.5 22t-22.5 7q-61 0 -61 -148q0 -90 14 -119.5t39 -29.5q30 0 52 42zM968 534v-134l-197 -256h203l-16 -144h-406v136
l198 257h-180v141h398z" />
    <glyph glyph-name="uni02A3" unicode="&#x2a3;" horiz-adv-x="936" 
d="M930 144l-16 -144h-572l-6 51q-52 -71 -135 -71q-91 0 -137.5 75t-46.5 214q0 85 25.5 150t71.5 100t105 35q62 0 102 -42v252l194 -20v-210h408v-134l-201 -256h208zM321 161v226q-12 15 -21.5 22t-22.5 7q-61 0 -61 -148q0 -90 14 -119.5t39 -29.5q30 0 52 42zM515 143
l195 250h-195v-250z" />
    <glyph glyph-name="uni01C6" unicode="&#x1c6;" horiz-adv-x="980" 
d="M515 744v-744h-173l-6 51q-52 -71 -135 -71q-91 0 -137.5 75t-46.5 214q0 85 25.5 150t71.5 100t105 35q62 0 102 -42v252zM321 161v226q-12 15 -21.5 22t-22.5 7q-61 0 -61 -148q0 -90 14 -119.5t39 -29.5q30 0 52 42zM968 534v-134l-197 -256h203l-16 -144h-406v136
l198 257h-180v141h398zM895 826l64 -71l-131 -152h-115l-132 152l64 71l125 -96z" />
    <glyph glyph-name="uni02A5" unicode="&#x2a5;" horiz-adv-x="1067" 
d="M1043 259.5q36 -34.5 36 -95.5q0 -165 -209 -164h-1q-5 -30 -5 -94v-37h-100q0 77 6 131h-428l-6 51q-52 -71 -135 -71q-91 0 -137.5 75t-46.5 214q0 85 25.5 150t71.5 100t105 35q62 0 102 -42v252l194 -20v-210h408v-124l-206 -266h73q24 81 63.5 115.5t97.5 34.5
q56 0 92 -34.5zM321 161v226q-12 15 -21.5 22t-22.5 7q-61 0 -61 -148q0 -90 14 -119.5t39 -29.5q30 0 52 42zM515 146l195 247h-195v-247zM956 176q0 23 -22 23q-33 0 -46 -55h26q42 0 42 32z" />
    <glyph glyph-name="e" unicode="e" horiz-adv-x="514" 
d="M500 212h-292q6 -56 27.5 -75.5t61.5 -19.5q27 0 53 11t58 34l78 -104q-39 -35 -91 -56.5t-114 -21.5q-132 0 -199 77t-67 208q0 83 27.5 148.5t83 103t135.5 37.5q112 0 177.5 -72t65.5 -208q0 -26 -4 -62zM314 329q0 52 -10.5 77.5t-39.5 25.5q-27 0 -40 -23.5
t-17 -87.5h107v8z" />
    <glyph glyph-name="eacute" unicode="&#xe9;" horiz-adv-x="514" 
d="M500 212h-292q6 -56 27.5 -75.5t61.5 -19.5q27 0 53 11t58 34l78 -104q-39 -35 -91 -56.5t-114 -21.5q-132 0 -199 77t-67 208q0 83 27.5 148.5t83 103t135.5 37.5q112 0 177.5 -72t65.5 -208q0 -26 -4 -62zM314 329q0 52 -10.5 77.5t-39.5 25.5q-27 0 -40 -23.5
t-17 -87.5h107v8zM321 850l73 -137l-232 -99l-51 94z" />
    <glyph glyph-name="ebreve" unicode="&#x115;" horiz-adv-x="514" 
d="M500 212h-292q6 -56 27.5 -75.5t61.5 -19.5q27 0 53 11t58 34l78 -104q-39 -35 -91 -56.5t-114 -21.5q-132 0 -199 77t-67 208q0 83 27.5 148.5t83 103t135.5 37.5q112 0 177.5 -72t65.5 -208q0 -26 -4 -62zM314 329q0 52 -10.5 77.5t-39.5 25.5q-27 0 -40 -23.5
t-17 -87.5h107v8zM140.5 680q-42.5 54 -48.5 141l99 16q17 -81 73 -81q55 0 72 81l99 -16q-6 -87 -48.5 -141t-122.5 -54q-81 0 -123.5 54z" />
    <glyph glyph-name="ecaron" unicode="&#x11b;" horiz-adv-x="514" 
d="M500 212h-292q6 -56 27.5 -75.5t61.5 -19.5q27 0 53 11t58 34l78 -104q-39 -35 -91 -56.5t-114 -21.5q-132 0 -199 77t-67 208q0 83 27.5 148.5t83 103t135.5 37.5q112 0 177.5 -72t65.5 -208q0 -26 -4 -62zM314 329q0 52 -10.5 77.5t-39.5 25.5q-27 0 -40 -23.5
t-17 -87.5h107v8zM388 826l64 -71l-131 -152h-115l-132 152l64 71l125 -96z" />
    <glyph glyph-name="uni0229" unicode="&#x229;" horiz-adv-x="514" 
d="M500 212h-292q6 -56 27.5 -75.5t61.5 -19.5q27 0 53 11t58 34l78 -104q-68 -61 -159 -75v-29q101 -16 101 -104q0 -54 -40.5 -88.5t-113.5 -34.5q-34 0 -64.5 9t-52.5 24l41 82q29 -16 60 -16q38 0 38 26q0 16 -20 22.5t-65 6.5l12 104q-103 17 -155.5 91t-52.5 189
q0 83 27.5 148.5t83 103t135.5 37.5q112 0 177.5 -72t65.5 -208q0 -26 -4 -62zM314 329q0 52 -10.5 77.5t-39.5 25.5q-27 0 -40 -23.5t-17 -87.5h107v8z" />
    <glyph glyph-name="ecircumflex" unicode="&#xea;" horiz-adv-x="514" 
d="M500 212h-292q6 -56 27.5 -75.5t61.5 -19.5q27 0 53 11t58 34l78 -104q-39 -35 -91 -56.5t-114 -21.5q-132 0 -199 77t-67 208q0 83 27.5 148.5t83 103t135.5 37.5q112 0 177.5 -72t65.5 -208q0 -26 -4 -62zM314 329q0 52 -10.5 77.5t-39.5 25.5q-27 0 -40 -23.5
t-17 -87.5h107v8zM138 616l-64 70l132 152h115l131 -152l-64 -70l-125 95z" />
    <glyph glyph-name="uni1EBF" unicode="&#x1ebf;" horiz-adv-x="514" 
d="M500 212h-292q6 -56 27.5 -75.5t61.5 -19.5q27 0 53 11t58 34l78 -104q-39 -35 -91 -56.5t-114 -21.5q-132 0 -199 77t-67 208q0 83 27.5 148.5t83 103t135.5 37.5q112 0 177.5 -72t65.5 -208q0 -26 -4 -62zM314 329q0 52 -10.5 77.5t-39.5 25.5q-27 0 -40 -23.5
t-17 -87.5h107v8zM138 586l-64 70l132 142h115l131 -142l-64 -70l-125 85zM493 993l106 -98l-165 -151l-72 61z" />
    <glyph glyph-name="uni1EC7" unicode="&#x1ec7;" horiz-adv-x="514" 
d="M500 212h-292q6 -56 27.5 -75.5t61.5 -19.5q27 0 53 11t58 34l78 -104q-39 -35 -91 -56.5t-114 -21.5q-132 0 -199 77t-67 208q0 83 27.5 148.5t83 103t135.5 37.5q112 0 177.5 -72t65.5 -208q0 -26 -4 -62zM314 329q0 52 -10.5 77.5t-39.5 25.5q-27 0 -40 -23.5
t-17 -87.5h107v8zM138 616l-64 70l132 152h115l131 -152l-64 -70l-125 95zM194 -232.5q-30 29.5 -30 74.5t30 74.5t77 29.5t77 -29.5t30 -74.5t-30 -74.5t-77 -29.5t-77 29.5z" />
    <glyph glyph-name="uni1EC1" unicode="&#x1ec1;" horiz-adv-x="514" 
d="M500 212h-292q6 -56 27.5 -75.5t61.5 -19.5q27 0 53 11t58 34l78 -104q-39 -35 -91 -56.5t-114 -21.5q-132 0 -199 77t-67 208q0 83 27.5 148.5t83 103t135.5 37.5q112 0 177.5 -72t65.5 -208q0 -26 -4 -62zM314 329q0 52 -10.5 77.5t-39.5 25.5q-27 0 -40 -23.5
t-17 -87.5h107v8zM137 586l-64 70l132 142h115l131 -142l-64 -70l-125 85zM34 993l131 -188l-73 -61l-164 151z" />
    <glyph glyph-name="uni1EC3" unicode="&#x1ec3;" horiz-adv-x="514" 
d="M500 212h-292q6 -56 27.5 -75.5t61.5 -19.5q27 0 53 11t58 34l78 -104q-39 -35 -91 -56.5t-114 -21.5q-132 0 -199 77t-67 208q0 83 27.5 148.5t83 103t135.5 37.5q112 0 177.5 -72t65.5 -208q0 -26 -4 -62zM314 329q0 52 -10.5 77.5t-39.5 25.5q-27 0 -40 -23.5
t-17 -87.5h107v8zM138 586l-64 70l132 142h115l131 -142l-64 -70l-125 85zM356 877q35 2 49.5 9.5t14.5 26.5q0 13 -9 20t-23 7q-16 0 -27 -2.5t-30 -9.5l-27 74q46 26 110 26q60 0 92 -29.5t32 -76.5q0 -40 -20 -65.5t-58 -32.5v-49h-104v102z" />
    <glyph glyph-name="uni1EC5" unicode="&#x1ec5;" horiz-adv-x="514" 
d="M500 212h-292q6 -56 27.5 -75.5t61.5 -19.5q27 0 53 11t58 34l78 -104q-39 -35 -91 -56.5t-114 -21.5q-132 0 -199 77t-67 208q0 83 27.5 148.5t83 103t135.5 37.5q112 0 177.5 -72t65.5 -208q0 -26 -4 -62zM314 329q0 52 -10.5 77.5t-39.5 25.5q-27 0 -40 -23.5
t-17 -87.5h107v8zM137 585l-64 70l132 142h115l131 -142l-64 -70l-125 85zM279.5 832q-14.5 6 -33.5 17q-21 14 -35 14q-15 0 -25 -8.5t-22 -28.5l-88 37q19 53 53.5 86t78.5 33q22 0 37 -6t34 -17q21 -14 35 -14q15 0 24.5 8.5t21.5 28.5l88 -37q-18 -53 -52.5 -86
t-79.5 -33q-22 0 -36.5 6z" />
    <glyph glyph-name="uni0205" unicode="&#x205;" horiz-adv-x="514" 
d="M500 212h-292q6 -56 27.5 -75.5t61.5 -19.5q27 0 53 11t58 34l78 -104q-39 -35 -91 -56.5t-114 -21.5q-132 0 -199 77t-67 208q0 83 27.5 148.5t83 103t135.5 37.5q112 0 177.5 -72t65.5 -208q0 -26 -4 -62zM314 329q0 52 -10.5 77.5t-39.5 25.5q-27 0 -40 -23.5
t-17 -87.5h107v8zM150 874l95 -210l-89 -44l-122 195zM327 874l88 -212l-92 -38l-115 196z" />
    <glyph glyph-name="edieresis" unicode="&#xeb;" horiz-adv-x="514" 
d="M500 212h-292q6 -56 27.5 -75.5t61.5 -19.5q27 0 53 11t58 34l78 -104q-39 -35 -91 -56.5t-114 -21.5q-132 0 -199 77t-67 208q0 83 27.5 148.5t83 103t135.5 37.5q112 0 177.5 -72t65.5 -208q0 -26 -4 -62zM314 329q0 52 -10.5 77.5t-39.5 25.5q-27 0 -40 -23.5
t-17 -87.5h107v8zM215 789.5q26 -26.5 26 -63.5q0 -39 -26 -65.5t-65 -26.5q-38 0 -64.5 26.5t-26.5 65.5q0 37 26.5 63.5t64.5 26.5q39 0 65 -26.5zM441 789.5q26 -26.5 26 -63.5q0 -39 -26 -65.5t-65 -26.5q-38 0 -64.5 26.5t-26.5 65.5q0 37 26.5 63.5t64.5 26.5
q39 0 65 -26.5z" />
    <glyph glyph-name="edotaccent" unicode="&#x117;" horiz-adv-x="514" 
d="M500 212h-292q6 -56 27.5 -75.5t61.5 -19.5q27 0 53 11t58 34l78 -104q-39 -35 -91 -56.5t-114 -21.5q-132 0 -199 77t-67 208q0 83 27.5 148.5t83 103t135.5 37.5q112 0 177.5 -72t65.5 -208q0 -26 -4 -62zM314 329q0 52 -10.5 77.5t-39.5 25.5q-27 0 -40 -23.5
t-17 -87.5h107v8zM340 797.5q30 -29.5 30 -74.5t-30 -74.5t-77 -29.5t-77 29.5t-30 74.5t30 74.5t77 29.5t77 -29.5z" />
    <glyph glyph-name="uni1EB9" unicode="&#x1eb9;" horiz-adv-x="514" 
d="M500 212h-292q6 -56 27.5 -75.5t61.5 -19.5q27 0 53 11t58 34l78 -104q-39 -35 -91 -56.5t-114 -21.5q-132 0 -199 77t-67 208q0 83 27.5 148.5t83 103t135.5 37.5q112 0 177.5 -72t65.5 -208q0 -26 -4 -62zM314 329q0 52 -10.5 77.5t-39.5 25.5q-27 0 -40 -23.5
t-17 -87.5h107v8zM194 -232.5q-30 29.5 -30 74.5t30 74.5t77 29.5t77 -29.5t30 -74.5t-30 -74.5t-77 -29.5t-77 29.5z" />
    <glyph glyph-name="egrave" unicode="&#xe8;" horiz-adv-x="514" 
d="M500 212h-292q6 -56 27.5 -75.5t61.5 -19.5q27 0 53 11t58 34l78 -104q-39 -35 -91 -56.5t-114 -21.5q-132 0 -199 77t-67 208q0 83 27.5 148.5t83 103t135.5 37.5q112 0 177.5 -72t65.5 -208q0 -26 -4 -62zM314 329q0 52 -10.5 77.5t-39.5 25.5q-27 0 -40 -23.5
t-17 -87.5h107v8zM203 850l210 -142l-51 -94l-232 99z" />
    <glyph glyph-name="uni1EBB" unicode="&#x1ebb;" horiz-adv-x="514" 
d="M500 212h-292q6 -56 27.5 -75.5t61.5 -19.5q27 0 53 11t58 34l78 -104q-39 -35 -91 -56.5t-114 -21.5q-132 0 -199 77t-67 208q0 83 27.5 148.5t83 103t135.5 37.5q112 0 177.5 -72t65.5 -208q0 -26 -4 -62zM314 329q0 52 -10.5 77.5t-39.5 25.5q-27 0 -40 -23.5
t-17 -87.5h107v8zM212 704q35 2 49.5 9.5t14.5 26.5q0 13 -9 20t-23 7q-16 0 -27 -2.5t-30 -9.5l-27 74q46 26 110 26q60 0 92 -29.5t32 -76.5q0 -40 -20 -65.5t-58 -32.5v-49h-104v102z" />
    <glyph glyph-name="uni0207" unicode="&#x207;" horiz-adv-x="514" 
d="M500 212h-292q6 -56 27.5 -75.5t61.5 -19.5q27 0 53 11t58 34l78 -104q-39 -35 -91 -56.5t-114 -21.5q-132 0 -199 77t-67 208q0 83 27.5 148.5t83 103t135.5 37.5q112 0 177.5 -72t65.5 -208q0 -26 -4 -62zM314 329q0 52 -10.5 77.5t-39.5 25.5q-27 0 -40 -23.5
t-17 -87.5h107v8zM386.5 752q42.5 -54 48.5 -141l-99 -16q-17 81 -72 81q-56 0 -73 -81l-99 16q6 87 48.5 141t123.5 54q80 0 122.5 -54z" />
    <glyph glyph-name="emacron" unicode="&#x113;" horiz-adv-x="514" 
d="M500 212h-292q6 -56 27.5 -75.5t61.5 -19.5q27 0 53 11t58 34l78 -104q-39 -35 -91 -56.5t-114 -21.5q-132 0 -199 77t-67 208q0 83 27.5 148.5t83 103t135.5 37.5q112 0 177.5 -72t65.5 -208q0 -26 -4 -62zM314 329q0 52 -10.5 77.5t-39.5 25.5q-27 0 -40 -23.5
t-17 -87.5h107v8zM413 650h-300v129h300v-129z" />
    <glyph glyph-name="eogonek" unicode="&#x119;" horiz-adv-x="514" 
d="M500 212h-292q6 -56 27.5 -75.5t61.5 -19.5q27 0 53 11t58 34l78 -104q-45 -40 -102 -61q-39 -20 -55 -41t-16 -40q0 -22 12 -33.5t33 -11.5q25 0 55 8l-11 -113q-32 -8 -68 -8q-65 0 -107 33.5t-42 91.5q0 61 55 99q-112 12 -168.5 87.5t-56.5 195.5q0 83 27.5 148.5
t83 103t135.5 37.5q112 0 177.5 -72t65.5 -208q0 -26 -4 -62zM314 329q0 52 -10.5 77.5t-39.5 25.5q-27 0 -40 -23.5t-17 -87.5h107v8z" />
    <glyph glyph-name="uni025B" unicode="&#x25b;" horiz-adv-x="449" 
d="M444 488l-73 -95q-28 16 -50.5 23.5t-46.5 7.5q-21 0 -34 -11.5t-13 -33.5q0 -49 51 -49h58l-17 -116h-49q-56 0 -56 -49q0 -26 14 -38.5t45 -12.5q23 0 47.5 8t57.5 27l77 -104q-82 -64 -217 -64q-98 0 -160.5 43t-62.5 121q0 59 34.5 93t107.5 46q-124 26 -124 121
q0 68 58 108.5t151 40.5q115 0 202 -66z" />
    <glyph glyph-name="uni029A" unicode="&#x29a;" horiz-adv-x="531" 
d="M80.5 25.5q-65.5 44.5 -65.5 126.5q0 59 33.5 90.5t103.5 41.5q-115 28 -115 119q0 44 27 78.5t76.5 53.5t114.5 19q124 0 192.5 -75.5t68.5 -210.5q0 -140 -67.5 -213.5t-189.5 -73.5q-113 0 -178.5 44.5zM301 127.5q14 13.5 19.5 45.5t5.5 95q0 87 -14 121.5t-47 34.5
q-38 0 -38 -46q0 -23 8 -35t30 -12h6l11 -118h-25q-27 0 -37.5 -11t-10.5 -36q0 -26 11 -39t38 -13q29 0 43 13.5z" />
    <glyph glyph-name="uni025C" unicode="&#x25c;" horiz-adv-x="452" 
d="M317.5 535.5q45.5 -18.5 71.5 -52.5t26 -79q0 -91 -119 -120q72 -10 106.5 -41.5t34.5 -90.5q0 -84 -63.5 -127.5t-174.5 -43.5q-125 0 -206 63l86 102q33 -19 56 -25.5t51 -6.5q53 0 53 50q0 25 -13.5 37.5t-43.5 12.5h-73l10 116h51q27 0 38.5 13t11.5 38q0 21 -11 32
t-31 11q-22 0 -41.5 -7t-43.5 -22l-87 96q86 63 208 63q58 0 103.5 -18.5z" />
    <glyph glyph-name="uni025E" unicode="&#x25e;" horiz-adv-x="531" 
d="M82.5 54.5q-67.5 73.5 -67.5 213.5q0 135 68.5 210.5t192.5 75.5q65 0 114.5 -19t76.5 -53.5t27 -78.5q0 -91 -115 -119q70 -10 103.5 -41.5t33.5 -90.5q0 -82 -65.5 -126.5t-178.5 -44.5q-122 0 -189.5 73.5zM311 127q11 13 11 39q0 25 -10.5 36t-37.5 11h-25l11 118h6
q22 0 30 12t8 35q0 46 -38 46q-33 0 -47 -34.5t-14 -121.5q0 -63 5.5 -95t19.5 -45.5t43 -13.5q27 0 38 13z" />
    <glyph glyph-name="uni025D" unicode="&#x25d;" horiz-adv-x="740" 
d="M748 341q-52 -37 -120 -37q-64 0 -101.5 29t-49.5 79l-3 11l-61 -40q-12 -74 -117 -99q72 -10 106.5 -41.5t34.5 -90.5q0 -84 -63.5 -127.5t-174.5 -43.5q-125 0 -206 63l86 102q33 -19 56 -25.5t51 -6.5q53 0 53 50q0 25 -13.5 37.5t-43.5 12.5h-73l10 116h51
q27 0 38.5 13t11.5 38q0 21 -11 32t-31 11q-22 0 -41.5 -7t-43.5 -22l-87 96q86 63 208 63q56 0 101 -17.5t71 -49.5l78 47h153v-61q0 -20 9.5 -30t25.5 -10q17 0 30.5 5t17.5 6z" />
    <glyph glyph-name="uni0258" unicode="&#x258;" horiz-adv-x="514" 
d="M439 478.5q60 -75.5 60 -213.5q0 -132 -67 -208.5t-201 -76.5q-61 0 -112.5 21t-89.5 56l77 105q31 -23 58 -34t53 -11q40 0 61.5 19.5t27.5 75.5h-292q-4 36 -4 62q0 90 31 153t86.5 95t128.5 32q123 0 183 -75.5zM200 321h107q-2 47 -8 70.5t-16.5 32t-29.5 8.5
q-30 0 -41.5 -25.5t-11.5 -77.5v-8z" />
    <glyph glyph-name="uni0283" unicode="&#x283;" horiz-adv-x="259" 
d="M369 727l-49 -118q-31 15 -55 15q-21 0 -29.5 -11.5t-8.5 -37.5v-601q0 -98 -57 -149.5t-152 -51.5q-91 0 -151 46l63 108q17 -9 29.5 -12.5t29.5 -3.5q44 0 44 48v613q0 86 51 139t148 53q76 0 137 -37z" />
    <glyph glyph-name="uni0286" unicode="&#x286;" horiz-adv-x="334" 
d="M301 -5q44 -13 82 -37l-35 -71q-23 12 -60 25q-20 -70 -70 -104.5t-134 -34.5q-73 0 -111 33t-38 91q0 64 39 97.5t108 33.5q18 0 26 -1v545q0 86 51 139t148 53q76 0 137 -37l-49 -118q-31 15 -55 15q-21 0 -29.5 -11.5t-8.5 -37.5v-548q0 -21 -1 -32zM98 -117
q10 16 10 55v7q-8 1 -27 1q-46 0 -46 -43q0 -36 32 -36q21 0 31 16z" />
    <glyph glyph-name="uni01AA" unicode="&#x1aa;" horiz-adv-x="440" 
d="M573 -181q-60 -46 -151 -46q-95 0 -152 51.5t-57 149.5v423q-31 -11 -59 -11q-75 0 -120 51t-45 136t53 138t149 53q67 0 116 -26t74.5 -70.5t25.5 -99.5v-609q0 -48 44 -48q17 0 29.5 3.5t29.5 12.5zM213 519v68q0 25 -7 35.5t-24 10.5q-18 0 -26.5 -12.5t-8.5 -43.5
q0 -33 10.5 -47t31.5 -14q12 0 24 3z" />
    <glyph glyph-name="uni0285" unicode="&#x285;" horiz-adv-x="471" 
d="M486 26q-60 -46 -151 -46q-95 0 -152 51.5t-57 149.5v184q0 26 -8.5 37.5t-29.5 11.5q-23 0 -55 -15l-49 118q61 37 137 37q97 0 148 -53t51 -139v-196q0 -48 44 -48q17 0 29.5 3.5t29.5 12.5z" />
    <glyph glyph-name="uni0247" unicode="&#x247;" horiz-adv-x="514" 
d="M279 216l-23 -97q18 -3 41 -3q27 0 53 11t58 34l78 -103q-39 -35 -91 -56.5t-114 -21.5q-33 0 -57 4l-14 -60l-55 12l15 62q-78 29 -116.5 98.5t-38.5 168.5q0 83 27.5 148.5t83 103t135.5 37.5q20 0 40 -3l12 52l55 -12l-13 -53q71 -26 110 -93t39 -171q0 -20 -4 -58
h-221zM207 411.5q-18 -25.5 -22 -94.5h60l29 120h-10q-39 0 -57 -25.5zM338.5 376q-3.5 21 -13.5 35l-22 -94h39v8q0 30 -3.5 51zM221 216h-35q4 -42 20 -66z" />
    <glyph glyph-name="uni1EBD" unicode="&#x1ebd;" horiz-adv-x="514" 
d="M500 212h-292q6 -56 27.5 -75.5t61.5 -19.5q27 0 53 11t58 34l78 -104q-39 -35 -91 -56.5t-114 -21.5q-132 0 -199 77t-67 208q0 83 27.5 148.5t83 103t135.5 37.5q112 0 177.5 -72t65.5 -208q0 -26 -4 -62zM314 329q0 52 -10.5 77.5t-39.5 25.5q-27 0 -40 -23.5
t-17 -87.5h107v8zM280.5 632.5q-14.5 6.5 -33.5 18.5q-21 16 -35 16q-15 0 -25 -9.5t-22 -31.5l-88 41q19 58 53.5 95t78.5 37q22 0 38 -7t33 -19q23 -15 35 -15q15 0 24.5 9.5t21.5 31.5l88 -41q-18 -58 -52.5 -95t-79.5 -37q-22 0 -36.5 6.5z" />
    <glyph glyph-name="uni01DD" unicode="&#x1dd;" horiz-adv-x="513" 
d="M436 478q62 -76 62 -210q0 -129 -63.5 -208t-183.5 -79q-112 0 -176.5 71t-64.5 207q0 25 4 63h303q-3 53 -22.5 76t-56.5 23q-32 0 -60 -9t-60 -30l-77 101q43 34 92.5 52.5t114.5 18.5q126 0 188 -76zM298.5 134.5q15.5 21.5 18.5 76.5h-128v-7q1 -91 63 -91
q31 0 46.5 21.5z" />
    <glyph glyph-name="uni0259" unicode="&#x259;" horiz-adv-x="513" 
d="M436 478q62 -76 62 -210q0 -129 -63.5 -208t-183.5 -79q-112 0 -176.5 71t-64.5 207q0 25 4 63h303q-3 53 -22.5 76t-56.5 23q-32 0 -60 -9t-60 -30l-77 101q43 34 92.5 52.5t114.5 18.5q126 0 188 -76zM298.5 134.5q15.5 21.5 18.5 76.5h-128v-7q1 -91 63 -91
q31 0 46.5 21.5z" />
    <glyph glyph-name="uni025A" unicode="&#x25a;" horiz-adv-x="795" 
d="M803 341q-52 -37 -120 -37q-64 0 -101.5 29t-49.5 79l-3 11l-48 -31q17 -52 17 -124q0 -129 -63.5 -208t-183.5 -79q-112 0 -176.5 71t-64.5 207q0 25 4 63h303q-3 53 -22.5 76t-56.5 23q-32 0 -60 -9t-60 -30l-77 101q43 34 92.5 52.5t114.5 18.5q120 0 184 -72l87 52
h153v-61q0 -20 9.5 -30t25.5 -10q17 0 30.5 5t17.5 6zM298.5 134.5q15.5 21.5 18.5 76.5h-128v-7q1 -91 63 -91q31 0 46.5 21.5z" />
    <glyph glyph-name="uni0292" unicode="&#x292;" horiz-adv-x="481" 
d="M475 11q0 -68 -31 -122t-90.5 -85t-142.5 -31q-151 0 -232 109l99 95q34 -32 60 -45.5t58 -13.5q38 0 60 25.5t22 77.5q0 48 -24 68.5t-71 20.5h-88v105l135 178h-208v141h418v-129l-150 -191q185 -21 185 -203z" />
    <glyph glyph-name="uni01EF" unicode="&#x1ef;" horiz-adv-x="481" 
d="M475 11q0 -68 -31 -122t-90.5 -85t-142.5 -31q-151 0 -232 109l99 95q34 -32 60 -45.5t58 -13.5q38 0 60 25.5t22 77.5q0 48 -24 68.5t-71 20.5h-88v105l135 178h-208v141h418v-129l-150 -191q185 -21 185 -203zM356 826l64 -71l-131 -152h-115l-132 152l64 71l125 -96z
" />
    <glyph glyph-name="uni0293" unicode="&#x293;" horiz-adv-x="481" 
d="M435.5 -121.5q-39.5 -58.5 -117.5 -85.5l25 -55l-83 -35l-29 72q-30 -2 -47 -2q-88 0 -144 43.5t-56 123.5q0 62 34.5 95.5t86.5 33.5q50 0 81.5 -27t62.5 -95l2 -5q27 27 27 87q0 49 -23 69.5t-66 20.5h-94v106l136 168h-209v141h418v-129l-148 -180q183 -23 183 -210
q0 -78 -39.5 -136.5zM120.5 -74q13.5 -7 51.5 -7q-14 33 -23.5 44.5t-21.5 11.5q-11 0 -15.5 -6t-4.5 -19q0 -17 13.5 -24z" />
    <glyph glyph-name="uni01B9" unicode="&#x1b9;" horiz-adv-x="481" 
d="M502 -118q-81 -109 -234 -109q-82 0 -141 31t-90 85t-31 121q0 93 47.5 143.5t137.5 60.5l-150 191v129h418v-141h-209l136 -180v-103h-88q-46 0 -70.5 -22t-24.5 -70q0 -50 21.5 -75t59.5 -25q32 0 59 13.5t61 44.5z" />
    <glyph glyph-name="uni01BA" unicode="&#x1ba;" horiz-adv-x="488" 
d="M69 -165q-45 40 -45 97q0 56 38 90t116 53q57 14 77 27.5t20 38.5q0 21 -15.5 30t-54.5 9h-104v96l124 127h-208v131h419v-120l-137 -130h7q76 0 120.5 -40.5t44.5 -109.5q0 -78 -47.5 -116t-130.5 -59q-42 -11 -62 -18.5t-27 -14t-7 -16.5q0 -18 29 -34l-37 -102
q-75 21 -120 61z" />
    <glyph glyph-name="f" unicode="f" horiz-adv-x="342" 
d="M265.5 611.5q-11.5 -13.5 -11.5 -43.5v-34h106l-21 -131h-85v-403h-194v403h-61v131h61v33q0 89 54 143t158 54q41 0 79 -10t68 -26l-50 -121q-35 18 -67 18q-25 0 -36.5 -13.5z" />
    <glyph glyph-name="uni1E1F" unicode="&#x1e1f;" horiz-adv-x="342" 
d="M265.5 611.5q-11.5 -13.5 -11.5 -43.5v-34h106l-21 -131h-85v-403h-194v403h-61v131h61v33q0 89 54 143t158 54q41 0 79 -10t68 -26l-50 -121q-35 18 -67 18q-25 0 -36.5 -13.5zM324 971.5q30 -29.5 30 -74.5t-30 -74.5t-77 -29.5t-77 29.5t-30 74.5t30 74.5t77 29.5
t77 -29.5z" />
    <glyph glyph-name="uni02A9" unicode="&#x2a9;" horiz-adv-x="810" 
d="M781 0h-1v-26q0 -98 -57 -149.5t-152 -51.5q-91 0 -151 46l63 108q17 -9 29.5 -12.5t29.5 -3.5q44 0 44 48v42h1v372q0 37 -20 37q-19 0 -50 -48v-362h-194v402h-69v-402h-194v402h-61v131h61v34q0 89 54 143t158 54q41 0 79 -10t68 -26l-50 -121q-35 18 -67 18
q-25 0 -36.5 -13.5t-11.5 -43.5v-35h69v1h170l13 -55q32 39 66 57t78 18q61 0 96 -41t35 -114v-399z" />
    <glyph glyph-name="g" unicode="g" horiz-adv-x="513" 
d="M519 499q-45 -24 -137 -24q51 -21 74 -53.5t23 -86.5q0 -51 -26.5 -91t-76.5 -63t-117 -23q-22 0 -50 4q-12 -7 -12 -21q0 -13 9.5 -20t38.5 -7h62q97 0 151.5 -43t54.5 -114q0 -85 -71 -134.5t-202 -49.5q-98 0 -153 22t-76.5 60.5t-21.5 94.5h174q0 -31 16 -43.5
t64 -12.5q44 0 60 13.5t16 35.5q0 43 -54 43h-56q-87 0 -127.5 29t-40.5 78q0 31 17.5 59t44.5 46q-49 28 -70 64.5t-21 90.5q0 96 63.5 148.5t175.5 50.5q65 -1 116 19.5t108 58.5zM202 357q0 -75 48 -75q25 0 36.5 18t11.5 60q0 38 -11.5 53.5t-35.5 15.5q-49 0 -49 -72z
" />
    <glyph glyph-name="g.ss04" horiz-adv-x="548" 
d="M515 534v-530q0 -116 -67.5 -173.5t-189.5 -57.5q-113 0 -196 53l58 115q27 -14 55.5 -22t64.5 -8q81 0 81 73v69q-47 -52 -116 -52q-91 0 -139.5 73.5t-48.5 204.5q0 80 26 143t73 97.5t107 34.5q32 0 61.5 -14.5t52.5 -41.5l8 36h170zM321 184v206q-21 26 -45 26
q-60 0 -60 -138q0 -84 14 -111.5t39 -27.5q30 0 52 45z" />
    <glyph glyph-name="uni01F5" unicode="&#x1f5;" horiz-adv-x="513" 
d="M519 499q-45 -24 -137 -24q51 -21 74 -53.5t23 -86.5q0 -51 -26.5 -91t-76.5 -63t-117 -23q-22 0 -50 4q-12 -7 -12 -21q0 -13 9.5 -20t38.5 -7h62q97 0 151.5 -43t54.5 -114q0 -85 -71 -134.5t-202 -49.5q-98 0 -153 22t-76.5 60.5t-21.5 94.5h174q0 -31 16 -43.5
t64 -12.5q44 0 60 13.5t16 35.5q0 43 -54 43h-56q-87 0 -127.5 29t-40.5 78q0 31 17.5 59t44.5 46q-49 28 -70 64.5t-21 90.5q0 96 63.5 148.5t175.5 50.5q65 -1 116 19.5t108 58.5zM202 357q0 -75 48 -75q25 0 36.5 18t11.5 60q0 38 -11.5 53.5t-35.5 15.5q-49 0 -49 -72z
M316 850l73 -137l-232 -99l-51 94z" />
    <glyph glyph-name="uni0263" unicode="&#x263;" horiz-adv-x="491" 
d="M338 92q36 -60 52 -101t16 -84q0 -63 -38 -98.5t-120 -35.5q-80 0 -118.5 35.5t-38.5 98.5q0 41 15 82t52 103l-173 442h201l62 -322l65 322h193zM266.5 -53.5q-5.5 16.5 -18.5 46.5q-23 -51 -23 -80q0 -13 6 -19.5t17 -6.5q24 0 24 27q0 16 -5.5 32.5z" />
    <glyph glyph-name="gbreve" unicode="&#x11f;" horiz-adv-x="513" 
d="M519 499q-45 -24 -137 -24q51 -21 74 -53.5t23 -86.5q0 -51 -26.5 -91t-76.5 -63t-117 -23q-22 0 -50 4q-12 -7 -12 -21q0 -13 9.5 -20t38.5 -7h62q97 0 151.5 -43t54.5 -114q0 -85 -71 -134.5t-202 -49.5q-98 0 -153 22t-76.5 60.5t-21.5 94.5h174q0 -31 16 -43.5
t64 -12.5q44 0 60 13.5t16 35.5q0 43 -54 43h-56q-87 0 -127.5 29t-40.5 78q0 31 17.5 59t44.5 46q-49 28 -70 64.5t-21 90.5q0 96 63.5 148.5t175.5 50.5q65 -1 116 19.5t108 58.5zM202 357q0 -75 48 -75q25 0 36.5 18t11.5 60q0 38 -11.5 53.5t-35.5 15.5q-49 0 -49 -72z
M135.5 680q-42.5 54 -48.5 141l99 16q17 -81 73 -81q55 0 72 81l99 -16q-6 -87 -48.5 -141t-122.5 -54q-81 0 -123.5 54z" />
    <glyph glyph-name="gcaron" unicode="&#x1e7;" horiz-adv-x="513" 
d="M519 499q-45 -24 -137 -24q51 -21 74 -53.5t23 -86.5q0 -51 -26.5 -91t-76.5 -63t-117 -23q-22 0 -50 4q-12 -7 -12 -21q0 -13 9.5 -20t38.5 -7h62q97 0 151.5 -43t54.5 -114q0 -85 -71 -134.5t-202 -49.5q-98 0 -153 22t-76.5 60.5t-21.5 94.5h174q0 -31 16 -43.5
t64 -12.5q44 0 60 13.5t16 35.5q0 43 -54 43h-56q-87 0 -127.5 29t-40.5 78q0 31 17.5 59t44.5 46q-49 28 -70 64.5t-21 90.5q0 96 63.5 148.5t175.5 50.5q65 -1 116 19.5t108 58.5zM202 357q0 -75 48 -75q25 0 36.5 18t11.5 60q0 38 -11.5 53.5t-35.5 15.5q-49 0 -49 -72z
M383 826l64 -71l-131 -152h-115l-132 152l64 71l125 -96z" />
    <glyph glyph-name="gcircumflex" unicode="&#x11d;" horiz-adv-x="513" 
d="M519 499q-45 -24 -137 -24q51 -21 74 -53.5t23 -86.5q0 -51 -26.5 -91t-76.5 -63t-117 -23q-22 0 -50 4q-12 -7 -12 -21q0 -13 9.5 -20t38.5 -7h62q97 0 151.5 -43t54.5 -114q0 -85 -71 -134.5t-202 -49.5q-98 0 -153 22t-76.5 60.5t-21.5 94.5h174q0 -31 16 -43.5
t64 -12.5q44 0 60 13.5t16 35.5q0 43 -54 43h-56q-87 0 -127.5 29t-40.5 78q0 31 17.5 59t44.5 46q-49 28 -70 64.5t-21 90.5q0 96 63.5 148.5t175.5 50.5q65 -1 116 19.5t108 58.5zM202 357q0 -75 48 -75q25 0 36.5 18t11.5 60q0 38 -11.5 53.5t-35.5 15.5q-49 0 -49 -72z
M133 616l-64 70l132 152h115l131 -152l-64 -70l-125 95z" />
    <glyph glyph-name="gcommaaccent" unicode="&#x123;" horiz-adv-x="513" 
d="M519 499q-45 -24 -137 -24q51 -21 74 -53.5t23 -86.5q0 -51 -26.5 -91t-76.5 -63t-117 -23q-22 0 -50 4q-12 -7 -12 -21q0 -13 9.5 -20t38.5 -7h62q97 0 151.5 -43t54.5 -114q0 -85 -71 -134.5t-202 -49.5q-98 0 -153 22t-76.5 60.5t-21.5 94.5h174q0 -31 16 -43.5
t64 -12.5q44 0 60 13.5t16 35.5q0 43 -54 43h-56q-87 0 -127.5 29t-40.5 78q0 31 17.5 59t44.5 46q-49 28 -70 64.5t-21 90.5q0 96 63.5 148.5t175.5 50.5q65 -1 116 19.5t108 58.5zM202 357q0 -75 48 -75q25 0 36.5 18t11.5 60q0 38 -11.5 53.5t-35.5 15.5q-49 0 -49 -72z
M189.5 598.5q-24.5 25.5 -24.5 64.5q0 21 5.5 39.5t18.5 47.5l46 102h91l-25 -115q40 -26 40 -74q0 -37 -24.5 -63.5t-63.5 -26.5t-63.5 25.5z" />
    <glyph glyph-name="gdotaccent" unicode="&#x121;" horiz-adv-x="513" 
d="M519 499q-45 -24 -137 -24q51 -21 74 -53.5t23 -86.5q0 -51 -26.5 -91t-76.5 -63t-117 -23q-22 0 -50 4q-12 -7 -12 -21q0 -13 9.5 -20t38.5 -7h62q97 0 151.5 -43t54.5 -114q0 -85 -71 -134.5t-202 -49.5q-98 0 -153 22t-76.5 60.5t-21.5 94.5h174q0 -31 16 -43.5
t64 -12.5q44 0 60 13.5t16 35.5q0 43 -54 43h-56q-87 0 -127.5 29t-40.5 78q0 31 17.5 59t44.5 46q-49 28 -70 64.5t-21 90.5q0 96 63.5 148.5t175.5 50.5q65 -1 116 19.5t108 58.5zM202 357q0 -75 48 -75q25 0 36.5 18t11.5 60q0 38 -11.5 53.5t-35.5 15.5q-49 0 -49 -72z
M335 797.5q30 -29.5 30 -74.5t-30 -74.5t-77 -29.5t-77 29.5t-30 74.5t30 74.5t77 29.5t77 -29.5z" />
    <glyph glyph-name="uni0260" unicode="&#x260;" horiz-adv-x="548" 
d="M657 727l-49 -118q-31 15 -55 15q-21 0 -29.5 -11.5t-8.5 -37.5v-571q0 -116 -67.5 -173.5t-189.5 -57.5q-113 0 -196 53l58 115q27 -14 55.5 -22t64.5 -8q81 0 81 73v69q-47 -52 -116 -52q-91 0 -139.5 73.5t-48.5 204.5q0 80 26 143t73 97.5t107 34.5q54 0 98 -39v57
q0 86 51 139t148 53q76 0 137 -37zM321 184v206q-21 26 -45 26q-60 0 -60 -138q0 -84 14 -111.5t39 -27.5q30 0 52 45z" />
    <glyph glyph-name="uni01BE" unicode="&#x1be;" horiz-adv-x="469" 
d="M423.5 359.5q29.5 -48.5 29.5 -131.5q0 -119 -66.5 -183t-176.5 -64q-67 0 -121.5 24t-101.5 71l92 92q26 -25 49.5 -36.5t50.5 -11.5q35 0 56 26t21 82q0 64 -24 99t-83 51l-37 9v134h-60v104h60v119l194 20v-139h76v-104h-76v-82l27 -8q61 -23 90.5 -71.5z" />
    <glyph glyph-name="uni0294" unicode="&#x294;" horiz-adv-x="459" 
d="M115 357l25 9q59 24 84 56.5t25 94.5q0 55 -21 81t-56 26q-27 0 -50.5 -11.5t-49.5 -36.5l-92 92q93 96 224 96q110 0 176 -63.5t66 -180.5q0 -83 -29 -130t-91 -77l-17 -8v-305h-194v357z" />
    <glyph glyph-name="uni0296" unicode="&#x296;" horiz-adv-x="469" 
d="M306 764v-325l27 -8q61 -23 90.5 -71.5t29.5 -131.5q0 -119 -66.5 -183t-176.5 -64q-67 0 -121.5 24t-101.5 71l92 92q26 -25 49.5 -36.5t50.5 -11.5q35 0 56 26t21 82q0 64 -24 99t-83 51l-37 9v357z" />
    <glyph glyph-name="uni0295" unicode="&#x295;" horiz-adv-x="459" 
d="M149 0v305l-16 8q-62 30 -91.5 77t-29.5 130q0 78 31.5 133t87 83t127.5 28q67 0 120.5 -24t100.5 -72l-93 -92q-25 25 -48 36.5t-50 11.5q-35 0 -56.5 -26.5t-21.5 -82.5q0 -61 24.5 -93t84.5 -56l24 -9v-357h-194z" />
    <glyph glyph-name="uni0242" unicode="&#x242;" horiz-adv-x="434" 
d="M94 206l32 11q48 18 72 45t24 73q0 40 -17 60t-44 20q-23 0 -42 -10t-42 -31l-87 91q81 89 200 89q68 0 120 -27t81 -76t29 -114q0 -68 -26.5 -109t-79.5 -64l-26 -11v-153h-194v206z" />
    <glyph glyph-name="uni02A1" unicode="&#x2a1;" horiz-adv-x="459" 
d="M309 305v-80h79v-104h-79v-121h-194v121h-59v104h59v132l25 9q59 24 84 56.5t25 94.5q0 55 -21 81t-56 26q-27 0 -50.5 -11.5t-49.5 -36.5l-92 92q93 96 224 96q110 0 176 -63.5t66 -180.5q0 -83 -29 -130t-91 -77z" />
    <glyph glyph-name="uni02A2" unicode="&#x2a2;" horiz-adv-x="459" 
d="M343 225h60v-104h-60v-121h-194v121h-77v104h77v80l-16 8q-62 30 -91.5 77t-29.5 130q0 78 31.5 133t87 83t127.5 28q67 0 120.5 -24t100.5 -72l-93 -92q-25 25 -48 36.5t-50 11.5q-35 0 -56.5 -26.5t-21.5 -82.5q0 -61 24.5 -93t84.5 -56l24 -9v-132z" />
    <glyph glyph-name="uni0261" unicode="&#x261;" horiz-adv-x="548" 
d="M515 534v-530q0 -116 -67.5 -173.5t-189.5 -57.5q-113 0 -196 53l58 115q27 -14 55.5 -22t64.5 -8q81 0 81 73v69q-47 -52 -116 -52q-91 0 -139.5 73.5t-48.5 204.5q0 80 26 143t73 97.5t107 34.5q32 0 61.5 -14.5t52.5 -41.5l8 36h170zM321 184v206q-21 26 -45 26
q-60 0 -60 -138q0 -84 14 -111.5t39 -27.5q30 0 52 45z" />
    <glyph glyph-name="uni01E5" unicode="&#x1e5;" horiz-adv-x="513" 
d="M563 -82h-54q-16 -68 -85 -106.5t-184 -38.5q-98 0 -153 22t-76.5 60.5t-21.5 94.5h174q0 -24 6.5 -37t24.5 -19t55 -6q41 0 63.5 7t30.5 23h-95v58h94q-16 27 -77 27h-56q-87 0 -127.5 25t-40.5 69q0 31 17 57t45 44q-49 28 -70 64.5t-21 90.5q0 96 63.5 148.5
t175.5 50.5q65 -1 116 19.5t108 58.5l44 -131q-45 -24 -137 -24q51 -21 74 -53.5t23 -86.5q0 -51 -26.5 -91t-76.5 -63t-117 -23q-22 0 -50 4q-12 -7 -12 -21q0 -12 9 -18t39 -6h62q90 0 144 -38t61 -103h51v-58zM202 357q0 -75 48 -75q25 0 36.5 18t11.5 60
q0 38 -11.5 53.5t-35.5 15.5q-49 0 -49 -72z" />
    <glyph glyph-name="uni021D" unicode="&#x21d;" horiz-adv-x="439" 
d="M346 512.5q57 -41.5 57 -113.5q0 -96 -120 -125q72 -6 106.5 -35.5t34.5 -84.5q0 -89 -97 -157.5t-278 -105.5l-16 123q105 38 149 71t44 76q0 42 -46 42h-75l10 118h38q29 0 42 13t13 42q0 48 -41 48q-22 0 -42.5 -7t-45.5 -22l-86 96q86 63 206 63q90 0 147 -41.5z" />
    <glyph glyph-name="h" unicode="h" horiz-adv-x="520" 
d="M456 513q35 -41 35 -114v-399h-194v373q0 37 -19 37q-20 0 -51 -48v-362h-194v744l194 20v-278q30 36 61.5 52t71.5 16q61 0 96 -41z" />
    <glyph glyph-name="hbar" unicode="&#x127;" horiz-adv-x="528" 
d="M463 513q35 -41 35 -114v-399h-194v373q0 37 -19 37q-20 0 -51 -48v-362h-194v592h-42v104h42v48l194 20v-68h106v-104h-106v-106q30 36 61.5 52t71.5 16q61 0 96 -41z" />
    <glyph glyph-name="uni021F" unicode="&#x21f;" horiz-adv-x="520" 
d="M456 513q35 -41 35 -114v-399h-194v373q0 37 -19 37q-20 0 -51 -48v-362h-194v744l194 20v-278q30 36 61.5 52t71.5 16q61 0 96 -41zM385 1008l64 -70l-132 -142h-114l-132 142l64 70l125 -86z" />
    <glyph glyph-name="hcircumflex" unicode="&#x125;" horiz-adv-x="520" 
d="M456 513q35 -41 35 -114v-399h-194v373q0 37 -19 37q-20 0 -51 -48v-362h-194v744l194 20v-278q30 36 61.5 52t71.5 16q61 0 96 -41zM135 804l-64 70l132 142h115l131 -142l-64 -70l-125 85z" />
    <glyph glyph-name="uni1E25" unicode="&#x1e25;" horiz-adv-x="520" 
d="M456 513q35 -41 35 -114v-399h-194v373q0 37 -19 37q-20 0 -51 -48v-362h-194v744l194 20v-278q30 36 61.5 52t71.5 16q61 0 96 -41zM186 -232.5q-30 29.5 -30 74.5t30 74.5t77 29.5t77 -29.5t30 -74.5t-30 -74.5t-77 -29.5t-77 29.5z" />
    <glyph glyph-name="uni0267" unicode="&#x267;" horiz-adv-x="520" 
d="M491 0h-1v-26q0 -98 -57 -149.5t-152 -51.5q-91 0 -151 46l63 108q17 -9 29.5 -12.5t29.5 -3.5q44 0 44 48v42h1v366q0 43 -19 43q-20 0 -51 -48v-362h-194v572q0 54 23.5 97.5t71.5 69t118 25.5q39 0 78 -10.5t68 -26.5l-52 -119q-33 16 -65 16q-25 0 -36.5 -14
t-11.5 -46v-78q30 36 61.5 52t71.5 16q61 0 96 -42t35 -118v-394z" />
    <glyph glyph-name="uni0266" unicode="&#x266;" horiz-adv-x="520" 
d="M456 512q35 -42 35 -118v-394h-194v367q0 43 -19 43q-20 0 -51 -48v-362h-194v572q0 54 23.5 97.5t71.5 69t118 25.5q39 0 78 -10.5t68 -26.5l-52 -119q-33 16 -65 16q-25 0 -36.5 -14t-11.5 -46v-78q30 36 61.5 52t71.5 16q61 0 96 -42z" />
    <glyph glyph-name="uni0265" unicode="&#x265;" horiz-adv-x="520" 
d="M487 534v-761l-194 20v254q-30 -35 -61.5 -51t-71.5 -16q-61 0 -95.5 41t-34.5 114v399h194v-373q0 -20 5 -28.5t14 -8.5q21 0 50 48v362h194z" />
    <glyph glyph-name="uni02AE" unicode="&#x2ae;" horiz-adv-x="642" 
d="M609 534v-761l-194 20v254q-30 -35 -61.5 -51t-71.5 -16q-61 0 -96 41t-35 114v234q0 48 -44 48q-17 0 -29.5 -3.5t-29.5 -12.5l-63 108q60 46 151 46q95 0 152 -51.5t57 -149.5v-193q0 -37 20 -37q21 0 50 48v362h194z" />
    <glyph glyph-name="uni02AF" unicode="&#x2af;" horiz-adv-x="642" 
d="M775 -181q-60 -46 -151 -46q-95 0 -152 51.5t-57 149.5v73q-30 -35 -61.5 -51t-71.5 -16q-61 0 -96 41t-35 114v234q0 48 -44 48q-17 0 -29.5 -3.5t-29.5 -12.5l-63 108q60 46 151 46q95 0 152 -51.5t57 -149.5v-193q0 -37 20 -37q21 0 50 48v362h194v-575q0 -48 44 -48
q17 0 29.5 3.5t29.5 12.5z" />
    <glyph glyph-name="uni0195" unicode="&#x195;" horiz-adv-x="779" 
d="M752.5 389.5q7.5 -67.5 7.5 -141.5q0 -140 -73 -203.5t-182 -63.5q-93 0 -150.5 49.5t-57.5 148.5v194q0 37 -19 37q-20 0 -51 -48v-362h-194v744l194 20v-278q30 36 61.5 52t71.5 16q61 0 96 -41t35 -114v-226q0 -31 7 -42.5t22 -11.5q23 0 34.5 31.5t11.5 108.5
q0 103 -23 275h189q13 -77 20.5 -144.5z" />
    <glyph glyph-name="i" unicode="i" horiz-adv-x="261" 
d="M227 534v-534h-194v534h194zM207 797.5q30 -29.5 30 -74.5t-30 -74.5t-77 -29.5t-77 29.5t-30 74.5t30 74.5t77 29.5t77 -29.5z" />
    <glyph glyph-name="dotlessi" unicode="&#x131;" horiz-adv-x="261" 
d="M227 534v-534h-194v534h194z" />
    <glyph glyph-name="iacute" unicode="&#xed;" horiz-adv-x="261" 
d="M227 534v-534h-194v534h194zM188 850l73 -137l-232 -99l-51 94z" />
    <glyph glyph-name="ibreve" unicode="&#x12d;" horiz-adv-x="261" 
d="M227 534v-534h-194v534h194zM7.5 680q-42.5 54 -48.5 141l99 16q17 -81 73 -81q55 0 72 81l99 -16q-6 -87 -48.5 -141t-122.5 -54q-81 0 -123.5 54z" />
    <glyph glyph-name="uni01D0" unicode="&#x1d0;" horiz-adv-x="261" 
d="M227 534v-534h-194v534h194zM255 826l64 -71l-131 -152h-115l-132 152l64 71l125 -96z" />
    <glyph glyph-name="icircumflex" unicode="&#xee;" horiz-adv-x="261" 
d="M227 534v-534h-194v534h194zM5 616l-64 70l132 152h115l131 -152l-64 -70l-125 95z" />
    <glyph glyph-name="uni0209" unicode="&#x209;" horiz-adv-x="261" 
d="M227 534v-534h-194v534h194zM17 874l95 -210l-89 -44l-122 195zM194 874l88 -212l-92 -38l-115 196z" />
    <glyph glyph-name="idieresis" unicode="&#xef;" horiz-adv-x="261" 
d="M227 534v-534h-194v534h194zM82 789.5q26 -26.5 26 -63.5q0 -39 -26 -65.5t-65 -26.5q-38 0 -64.5 26.5t-26.5 65.5q0 37 26.5 63.5t64.5 26.5q39 0 65 -26.5zM308 789.5q26 -26.5 26 -63.5q0 -39 -26 -65.5t-65 -26.5q-38 0 -64.5 26.5t-26.5 65.5q0 37 26.5 63.5
t64.5 26.5q39 0 65 -26.5z" />
    <glyph glyph-name="uni1E2F" unicode="&#x1e2f;" horiz-adv-x="261" 
d="M227 534v-534h-194v534h194zM191 981l106 -98l-165 -151l-72 61zM71 744q26 -26 26 -64q0 -39 -26 -65t-65 -26t-65 26t-26 65q0 38 26 64t65 26t65 -26zM318 744q26 -26 26 -64q0 -39 -26 -65t-65 -26t-65 26t-26 65q0 38 26 64t65 26t65 -26z" />
    <glyph glyph-name="i.loclTRK" horiz-adv-x="261" 
d="M227 534v-534h-194v534h194zM207 797.5q30 -29.5 30 -74.5t-30 -74.5t-77 -29.5t-77 29.5t-30 74.5t30 74.5t77 29.5t77 -29.5z" />
    <glyph glyph-name="uni1ECB" unicode="&#x1ecb;" horiz-adv-x="261" 
d="M227 534v-534h-194v534h194zM207 797.5q30 -29.5 30 -74.5t-30 -74.5t-77 -29.5t-77 29.5t-30 74.5t30 74.5t77 29.5t77 -29.5zM53 -232.5q-30 29.5 -30 74.5t30 74.5t77 29.5t77 -29.5t30 -74.5t-30 -74.5t-77 -29.5t-77 29.5z" />
    <glyph glyph-name="igrave" unicode="&#xec;" horiz-adv-x="261" 
d="M227 534v-534h-194v534h194zM70 850l210 -142l-51 -94l-232 99z" />
    <glyph glyph-name="uni1EC9" unicode="&#x1ec9;" horiz-adv-x="261" 
d="M227 534v-534h-194v534h194zM79 704q35 2 49.5 9.5t14.5 26.5q0 13 -9 20t-23 7q-16 0 -27 -2.5t-30 -9.5l-27 74q46 26 110 26q60 0 92 -29.5t32 -76.5q0 -40 -20 -65.5t-58 -32.5v-49h-104v102z" />
    <glyph glyph-name="uni020B" unicode="&#x20b;" horiz-adv-x="261" 
d="M227 534v-534h-194v534h194zM253.5 752q42.5 -54 48.5 -141l-99 -16q-17 81 -72 81q-56 0 -73 -81l-99 16q6 87 48.5 141t123.5 54q80 0 122.5 -54z" />
    <glyph glyph-name="ij" unicode="&#x133;" horiz-adv-x="522" 
d="M227 534v-534h-194v534h194zM207 797.5q30 -29.5 30 -74.5t-30 -74.5t-77 -29.5t-77 29.5t-30 74.5t30 74.5t77 29.5t77 -29.5zM488 65q0 -121 -61 -187.5t-168 -104.5l-67 141q53 27 77.5 57t24.5 87v476h194v-469zM468 797.5q30 -29.5 30 -74.5t-30 -74.5t-77 -29.5
t-77 29.5t-30 74.5t30 74.5t77 29.5t77 -29.5z" />
    <glyph glyph-name="imacron" unicode="&#x12b;" horiz-adv-x="261" 
d="M227 534v-534h-194v534h194zM280 650h-300v129h300v-129z" />
    <glyph glyph-name="iogonek" unicode="&#x12f;" horiz-adv-x="261" 
d="M53 648.5q-30 29.5 -30 74.5t30 74.5t77 29.5t77 -29.5t30 -74.5t-30 -74.5t-77 -29.5t-77 29.5zM33 534h194v-534h-42q-102 -40 -102 -95q0 -45 45 -45q23 0 55 8l-11 -113q-34 -8 -68 -8q-66 0 -109 33t-43 91q0 82 81 135v528z" />
    <glyph glyph-name="uni0269" unicode="&#x269;" horiz-adv-x="278" 
d="M70.5 24q-42.5 44 -42.5 122v388h194v-380q0 -22 21 -22q5 0 17 2l33 -135q-46 -19 -103 -19q-77 0 -119.5 44z" />
    <glyph glyph-name="uni0268" unicode="&#x268;" horiz-adv-x="315" 
d="M80 648.5q-30 29.5 -30 74.5t30 74.5t77 29.5t77 -29.5t30 -74.5t-30 -74.5t-77 -29.5t-77 29.5zM315 347v-131h-61v-216h-194v216h-60v131h60v187h194v-187h61z" />
    <glyph glyph-name="itilde" unicode="&#x129;" horiz-adv-x="261" 
d="M227 534v-534h-194v534h194zM147.5 632.5q-14.5 6.5 -33.5 18.5q-21 16 -35 16q-15 0 -25 -9.5t-22 -31.5l-88 41q19 58 53.5 95t78.5 37q22 0 38 -7t33 -19q23 -15 35 -15q15 0 24.5 9.5t21.5 31.5l88 -41q-18 -58 -52.5 -95t-79.5 -37q-22 0 -36.5 6.5z" />
    <glyph glyph-name="j" unicode="j" horiz-adv-x="261" 
d="M227 65q0 -121 -61 -187.5t-168 -104.5l-67 141q53 27 77.5 57t24.5 87v476h194v-469zM207 797.5q30 -29.5 30 -74.5t-30 -74.5t-77 -29.5t-77 29.5t-30 74.5t30 74.5t77 29.5t77 -29.5z" />
    <glyph glyph-name="uni0237" unicode="&#x237;" horiz-adv-x="261" 
d="M227 65q0 -121 -61 -187.5t-168 -104.5l-67 141q53 27 77.5 57t24.5 87v476h194v-469z" />
    <glyph glyph-name="uni01F0" unicode="&#x1f0;" horiz-adv-x="261" 
d="M227 65q0 -121 -61 -187.5t-168 -104.5l-67 141q53 27 77.5 57t24.5 87v476h194v-469zM255 826l64 -71l-131 -152h-115l-132 152l64 71l125 -96z" />
    <glyph glyph-name="jcircumflex" unicode="&#x135;" horiz-adv-x="261" 
d="M227 65q0 -121 -61 -187.5t-168 -104.5l-67 141q53 27 77.5 57t24.5 87v476h194v-469zM5 616l-64 70l132 152h115l131 -152l-64 -70l-125 95z" />
    <glyph glyph-name="uni029D" unicode="&#x29d;" horiz-adv-x="336" 
d="M348 -113q-23 12 -60 25q-20 -70 -70 -104.5t-134 -34.5q-73 0 -111 33t-38 91q0 64 39 97.5t108 33.5q18 0 26 -1v507h194v-507q0 -21 -1 -32q44 -13 82 -37zM98 -117q10 16 10 55v7q-8 1 -27 1q-46 0 -46 -43q0 -36 32 -36q21 0 31 16zM282 797.5q30 -29.5 30 -74.5
t-30 -74.5t-77 -29.5t-77 29.5t-30 74.5t30 74.5t77 29.5t77 -29.5z" />
    <glyph glyph-name="uni025F" unicode="&#x25f;" horiz-adv-x="317" 
d="M317 195h-60v-130q0 -121 -61 -187.5t-168 -104.5l-67 141q53 27 77.5 57t24.5 87v137h-61v133h61v206h194v-206h60v-133z" />
    <glyph glyph-name="uni0284" unicode="&#x284;" horiz-adv-x="317" 
d="M315 132v-132h-63q-17 -90 -75 -142t-149 -85l-66 136q39 18 62.5 39t32.5 52h-56v132h62v440q0 86 51 139t148 53q76 0 137 -37l-49 -118q-32 15 -55 15q-21 0 -29.5 -11.5t-8.5 -37.5v-443h58z" />
    <glyph glyph-name="uni0249" unicode="&#x249;" horiz-adv-x="317" 
d="M317 195h-60v-130q0 -121 -61 -187.5t-168 -104.5l-67 141q53 27 77.5 57t24.5 87v137h-61v133h61v206h194v-206h60v-133zM237 797.5q30 -29.5 30 -74.5t-30 -74.5t-77 -29.5t-77 29.5t-30 74.5t30 74.5t77 29.5t77 -29.5z" />
    <glyph glyph-name="k" unicode="k" horiz-adv-x="535" 
d="M227 764v-764h-194v744zM542 534l-122 -234l127 -300h-207l-109 292l125 242h186z" />
    <glyph glyph-name="uni01E9" unicode="&#x1e9;" horiz-adv-x="535" 
d="M227 764v-764h-194v744zM542 534l-122 -234l127 -300h-207l-109 292l125 242h186zM409 1008l64 -70l-132 -142h-114l-132 142l64 70l125 -86z" />
    <glyph glyph-name="kcommaaccent" unicode="&#x137;" horiz-adv-x="535" 
d="M227 764v-764h-194v744zM542 534l-122 -234l127 -300h-207l-109 292l125 242h186zM330.5 -87.5q24.5 -25.5 24.5 -64.5q0 -21 -5.5 -39.5t-18.5 -47.5l-46 -102h-91l25 115q-40 26 -40 74q0 37 24.5 63.5t63.5 26.5t63.5 -25.5z" />
    <glyph glyph-name="kgreenlandic" unicode="&#x138;" horiz-adv-x="535" 
d="M227 534v-534h-194v534h194zM542 534l-122 -238l127 -296h-207l-109 288l125 246h186z" />
    <glyph glyph-name="uni0199" unicode="&#x199;" horiz-adv-x="535" 
d="M238.5 610q-11.5 -14 -11.5 -46v-564h-194v572q0 54 23.5 97.5t71.5 69t118 25.5q39 0 78 -10.5t68 -26.5l-52 -119q-33 16 -65 16q-25 0 -36.5 -14zM420 300l127 -300h-207l-109 292l125 242h186z" />
    <glyph glyph-name="uni029E" unicode="&#x29e;" horiz-adv-x="535" 
d="M-7 0l122 234l-127 300h207l109 -292l-125 -242h-186zM308 -207v741h194v-761z" />
    <glyph glyph-name="l" unicode="l" horiz-adv-x="278" 
d="M70.5 24q-42.5 44 -42.5 122v598l194 20v-609q0 -23 21 -23q10 0 17 3l33 -136q-46 -19 -103 -19q-77 0 -119.5 44z" />
    <glyph glyph-name="lacute" unicode="&#x13a;" horiz-adv-x="278" 
d="M70.5 24q-42.5 44 -42.5 122v598l194 20v-609q0 -23 21 -23q10 0 17 3l33 -136q-46 -19 -103 -19q-77 0 -119.5 44zM195 1023l70 -137l-233 -89l-49 94z" />
    <glyph glyph-name="uni019B" unicode="&#x19b;" horiz-adv-x="509" 
d="M458 197q26 -87 71 -157l-187 -59q-35 76 -54 155.5t-37 211.5l-59 -367l-192 39l139 469h91q-6 32 -19 65l-50 -44l-91 64l64 55q-28 10 -80 20l20 113q110 -15 173 -50l69 56l70 -84l-58 -46q47 -67 70 -182q34 -172 60 -259z" />
    <glyph glyph-name="uni019A" unicode="&#x19a;" horiz-adv-x="325" 
d="M325 -1q-46 -19 -103 -19q-77 0 -119.5 44t-42.5 122v160h-60v131h60v307l194 20v-327h61v-131h-61v-151q0 -23 21 -23q10 0 17 3z" />
    <glyph glyph-name="uni026C" unicode="&#x26c;" horiz-adv-x="434" 
d="M385 135l33 -136q-46 -19 -103 -19q-77 0 -119.5 44t-42.5 122v88q-83 3 -123 38t-40 96q0 58 34.5 89.5t92.5 31.5q23 0 36 -4v259l194 20v-428h1q35 3 57 9l15 -93q-28 -11 -72 -14h-1v-83q0 -23 21 -23q10 0 17 3zM153 333v62q-8 3 -19 3q-26 0 -26 -28q0 -37 45 -37z
" />
    <glyph glyph-name="lcaron" unicode="&#x13e;" horiz-adv-x="393" 
d="M70.5 24q-42.5 44 -42.5 122v598l194 20v-609q0 -23 21 -23q10 0 17 3l33 -136q-46 -19 -103 -19q-77 0 -119.5 44zM357 510l53 233l-136 21l-23 -237z" />
    <glyph glyph-name="uni1E3D" unicode="&#x1e3d;" horiz-adv-x="278" 
d="M70.5 24q-42.5 44 -42.5 122v598l194 20v-609q0 -23 21 -23q10 0 17 3l33 -136q-46 -19 -103 -19q-77 0 -119.5 44zM45 -283l-64 70l132 152h115l131 -152l-64 -70l-125 96z" />
    <glyph glyph-name="lcommaaccent" unicode="&#x13c;" horiz-adv-x="278" 
d="M70.5 24q-42.5 44 -42.5 122v598l194 20v-609q0 -23 21 -23q10 0 17 3l33 -136q-46 -19 -103 -19q-77 0 -119.5 44zM234.5 -87.5q24.5 -25.5 24.5 -64.5q0 -21 -5.5 -39.5t-18.5 -47.5l-46 -102h-91l25 115q-40 26 -40 74q0 37 24.5 63.5t63.5 26.5t63.5 -25.5z" />
    <glyph glyph-name="uni0234" unicode="&#x234;" horiz-adv-x="458" 
d="M424.5 223.5q32.5 -32.5 32.5 -89.5q0 -76 -53 -114.5t-135 -38.5q-23 0 -34 1l-31 -72l-83 34l27 59q-56 24 -88 74t-32 129v538l194 20v-558q0 -15 2 -37q24 48 51 67.5t68 19.5q49 0 81.5 -32.5zM335 142q0 20 -16 20q-10 0 -16 -9.5t-18 -38.5q5 -1 17 -1q33 0 33 29
z" />
    <glyph glyph-name="ldot" unicode="&#x140;" horiz-adv-x="483" 
d="M70.5 24q-42.5 44 -42.5 122v598l194 20v-609q0 -23 21 -23q10 0 17 3l33 -136q-46 -19 -103 -19q-77 0 -119.5 44zM445 451.5q30 -29.5 30 -74.5t-30 -74.5t-77 -29.5t-77 29.5t-30 74.5t30 74.5t77 29.5t77 -29.5z" />
    <glyph glyph-name="uni1E37" unicode="&#x1e37;" horiz-adv-x="278" 
d="M70.5 24q-42.5 44 -42.5 122v598l194 20v-609q0 -23 21 -23q10 0 17 3l33 -136q-46 -19 -103 -19q-77 0 -119.5 44zM95 -232.5q-30 29.5 -30 74.5t30 74.5t77 29.5t77 -29.5t30 -74.5t-30 -74.5t-77 -29.5t-77 29.5z" />
    <glyph glyph-name="uni026E" unicode="&#x26e;" horiz-adv-x="675" 
d="M669 11q0 -68 -31 -122t-91 -85t-143 -31q-123 0 -199 74l89 110q25 -21 47 -30t49 -9q38 0 59.5 25.5t21.5 77.5q0 48 -24 68.5t-70 20.5h-83v105l129 178h-201v-238q0 -23 21 -23q10 0 17 3l33 -136q-46 -19 -103 -19q-77 0 -119.5 44t-42.5 122v598l194 20v-230h411
v-129l-145 -191q181 -22 181 -203z" />
    <glyph glyph-name="uni026D" unicode="&#x26d;" horiz-adv-x="261" 
d="M394 -181q-60 -46 -151 -46q-95 0 -152 51.5t-57 149.5v26h-1v744l194 20v-763h1v-42q0 -48 44 -48q17 0 29.5 3.5t29.5 12.5z" />
    <glyph glyph-name="uni01C9" unicode="&#x1c9;" horiz-adv-x="539" 
d="M70.5 24q-42.5 44 -42.5 122v598l194 20v-609q0 -23 21 -23q10 0 17 3l33 -136q-46 -19 -103 -19q-77 0 -119.5 44zM505 65q0 -121 -61 -187.5t-168 -104.5l-67 141q53 27 77.5 57t24.5 87v476h194v-469zM485 797.5q30 -29.5 30 -74.5t-30 -74.5t-77 -29.5t-77 29.5
t-30 74.5t30 74.5t77 29.5t77 -29.5z" />
    <glyph glyph-name="uni026B" unicode="&#x26b;" horiz-adv-x="463" 
d="M417 309q-34 -37 -84 -42v-112q0 -23 21 -23q10 0 17 3l33 -136q-46 -19 -103 -19q-77 0 -119.5 44t-42.5 122v175q-15 -4 -24 -14.5t-23 -32.5l-95 48q27 59 60.5 95.5t81.5 43.5v283l194 20v-357q14 3 23.5 12t17 19.5t10.5 14.5l96 -47q-29 -60 -63 -97z" />
    <glyph glyph-name="uni02AA" unicode="&#x2aa;" horiz-adv-x="646" 
d="M145.5 10.5q-67.5 29.5 -92.5 79.5t-25 122v532l194 20v-555q0 -52 27.5 -73.5t91.5 -21.5t93 10t29 32q0 13 -5.5 21t-22.5 16.5t-55 23.5q-63 24 -93.5 60.5t-30.5 100.5q0 77 51 126.5t142 49.5q50 0 94.5 -17t77.5 -47l-61 -101q-23 14 -48.5 22t-46.5 8
q-37 0 -37 -28q0 -11 6 -18.5t24 -16.5t56 -23q66 -25 96.5 -63t30.5 -98q0 -93 -78 -142t-228 -49q-122 0 -189.5 29.5z" />
    <glyph glyph-name="lslash" unicode="&#x142;" horiz-adv-x="361" 
d="M305 135l33 -136q-46 -19 -103 -19q-77 0 -119.5 44t-42.5 122v104l-29 -19l-61 98l90 60v355l194 20v-251l42 27l61 -98l-103 -67v-220q0 -23 21 -23q10 0 17 3z" />
    <glyph glyph-name="uni02AB" unicode="&#x2ab;" horiz-adv-x="687" 
d="M681 144l-16 -144h-371q-45 -20 -104 -20q-77 0 -119.5 44t-42.5 122v598l194 20v-609q0 -23 21 -23q10 0 16 3v-1l198 259h-181v141h398v-134l-197 -256h204z" />
    <glyph glyph-name="m" unicode="m" horiz-adv-x="758" 
d="M694 512.5q34 -41.5 34 -113.5v-399h-191v374q0 36 -19 36q-22 0 -42 -43v-367h-190v374q0 36 -19 36q-22 0 -42 -43v-367h-192v534h170l12 -56q29 39 63 57.5t76 18.5q38 0 65.5 -20t43.5 -58q29 41 63 59.5t78 18.5q56 0 90 -41.5z" />
    <glyph glyph-name="uni1E3F" unicode="&#x1e3f;" horiz-adv-x="758" 
d="M694 512.5q34 -41.5 34 -113.5v-399h-191v374q0 36 -19 36q-22 0 -42 -43v-367h-190v374q0 36 -19 36q-22 0 -42 -43v-367h-192v534h170l12 -56q29 39 63 57.5t76 18.5q38 0 65.5 -20t43.5 -58q29 41 63 59.5t78 18.5q56 0 90 -41.5zM437 850l73 -137l-232 -99l-51 94z
" />
    <glyph glyph-name="uni1E41" unicode="&#x1e41;" horiz-adv-x="758" 
d="M694 512.5q34 -41.5 34 -113.5v-399h-191v374q0 36 -19 36q-22 0 -42 -43v-367h-190v374q0 36 -19 36q-22 0 -42 -43v-367h-192v534h170l12 -56q29 39 63 57.5t76 18.5q38 0 65.5 -20t43.5 -58q29 41 63 59.5t78 18.5q56 0 90 -41.5zM456 797.5q30 -29.5 30 -74.5
t-30 -74.5t-77 -29.5t-77 29.5t-30 74.5t30 74.5t77 29.5t77 -29.5z" />
    <glyph glyph-name="uni0271" unicode="&#x271;" horiz-adv-x="758" 
d="M694 512.5q34 -41.5 34 -113.5v-422q0 -100 -56.5 -152t-152.5 -52q-91 0 -149 46l63 109q17 -9 30 -13t29 -4q45 0 45 48v415q0 36 -19 36q-22 0 -42 -43v-367h-190v374q0 36 -19 36q-22 0 -42 -43v-367h-192v534h170l12 -56q29 39 63 57.5t76 18.5q38 0 65.5 -20
t43.5 -58q29 41 63 59.5t78 18.5q56 0 90 -41.5z" />
    <glyph glyph-name="uni0270" unicode="&#x270;" horiz-adv-x="758" 
d="M725 534v-761l-194 20v248q-27 -31 -58 -46t-69 -15t-65.5 20t-43.5 58q-29 -41 -63 -59.5t-78 -18.5q-56 0 -90 41.5t-34 113.5v399h191v-374q0 -36 19 -36q22 0 42 43v367h190v-374q0 -36 19 -36q22 0 42 43v367h192z" />
    <glyph glyph-name="uni026F" unicode="&#x26f;" horiz-adv-x="758" 
d="M725 534v-534h-170l-12 56q-29 -39 -63 -57.5t-76 -18.5q-38 0 -65.5 20t-43.5 58q-29 -41 -63 -59.5t-78 -18.5q-56 0 -90 41.5t-34 113.5v399h191v-374q0 -36 19 -36q22 0 42 43v367h190v-374q0 -36 19 -36q22 0 42 43v367h192z" />
    <glyph glyph-name="n" unicode="n" horiz-adv-x="520" 
d="M456 513q35 -41 35 -114v-399h-194v373q0 37 -20 37q-19 0 -50 -48v-362h-194v534h170l13 -55q32 39 66 57t78 18q61 0 96 -41z" />
    <glyph glyph-name="nacute" unicode="&#x144;" horiz-adv-x="520" 
d="M456 513q35 -41 35 -114v-399h-194v373q0 37 -20 37q-19 0 -50 -48v-362h-194v534h170l13 -55q32 39 66 57t78 18q61 0 96 -41zM322 850l73 -137l-232 -99l-51 94z" />
    <glyph glyph-name="nacute.loclPLK" horiz-adv-x="520" 
d="M456 513q35 -41 35 -114v-399h-194v373q0 37 -20 37q-19 0 -50 -48v-362h-194v534h170l13 -55q32 39 66 57t78 18q61 0 96 -41zM264 828l140 -77l-136 -167l-84 48z" />
    <glyph glyph-name="napostrophe" unicode="&#x149;" horiz-adv-x="651" 
d="M151 742.5q20 -20.5 20 -52.5q0 -19 -4.5 -34t-16.5 -40l-37 -81h-75l18 92q-31 24 -31 63q0 30 20.5 51.5t52.5 21.5q33 0 53 -20.5zM587 513q35 -41 35 -114v-399h-194v373q0 37 -20 37q-19 0 -50 -48v-362h-194v534h170l13 -55q32 39 66 57t78 18q61 0 96 -41z" />
    <glyph glyph-name="ncaron" unicode="&#x148;" horiz-adv-x="520" 
d="M456 513q35 -41 35 -114v-399h-194v373q0 37 -20 37q-19 0 -50 -48v-362h-194v534h170l13 -55q32 39 66 57t78 18q61 0 96 -41zM389 826l64 -71l-131 -152h-115l-132 152l64 71l125 -96z" />
    <glyph glyph-name="uni1E4B" unicode="&#x1e4b;" horiz-adv-x="520" 
d="M456 513q35 -41 35 -114v-399h-194v373q0 37 -20 37q-19 0 -50 -48v-362h-194v534h170l13 -55q32 39 66 57t78 18q61 0 96 -41zM133 -283l-64 70l132 152h115l131 -152l-64 -70l-125 96z" />
    <glyph glyph-name="ncommaaccent" unicode="&#x146;" horiz-adv-x="520" 
d="M456 513q35 -41 35 -114v-399h-194v373q0 37 -20 37q-19 0 -50 -48v-362h-194v534h170l13 -55q32 39 66 57t78 18q61 0 96 -41zM322.5 -87.5q24.5 -25.5 24.5 -64.5q0 -21 -5.5 -39.5t-18.5 -47.5l-46 -102h-91l25 115q-40 26 -40 74q0 37 24.5 63.5t63.5 26.5
t63.5 -25.5z" />
    <glyph glyph-name="uni0235" unicode="&#x235;" horiz-adv-x="726" 
d="M693 223.5q33 -32.5 33 -89.5q0 -76 -53 -114.5t-136 -38.5q-23 0 -34 2l-31 -73l-83 34l27 60q-55 23 -87 73t-32 129v167q0 37 -20 37q-19 0 -50 -48v-362h-194v534h170l13 -55q32 39 66 57t78 18q61 0 96 -41t35 -114v-193q0 -16 2 -36q24 47 51 66.5t67 19.5
q49 0 82 -32.5zM603 142q0 20 -15 20q-10 0 -17 -9.5t-18 -38.5q5 -1 17 -1q33 0 33 29z" />
    <glyph glyph-name="uni1E45" unicode="&#x1e45;" horiz-adv-x="520" 
d="M456 513q35 -41 35 -114v-399h-194v373q0 37 -20 37q-19 0 -50 -48v-362h-194v534h170l13 -55q32 39 66 57t78 18q61 0 96 -41zM341 797.5q30 -29.5 30 -74.5t-30 -74.5t-77 -29.5t-77 29.5t-30 74.5t30 74.5t77 29.5t77 -29.5z" />
    <glyph glyph-name="uni1E47" unicode="&#x1e47;" horiz-adv-x="520" 
d="M456 513q35 -41 35 -114v-399h-194v373q0 37 -20 37q-19 0 -50 -48v-362h-194v534h170l13 -55q32 39 66 57t78 18q61 0 96 -41zM183 -232.5q-30 29.5 -30 74.5t30 74.5t77 29.5t77 -29.5t30 -74.5t-30 -74.5t-77 -29.5t-77 29.5z" />
    <glyph glyph-name="uni01F9" unicode="&#x1f9;" horiz-adv-x="520" 
d="M456 513q35 -41 35 -114v-399h-194v373q0 37 -20 37q-19 0 -50 -48v-362h-194v534h170l13 -55q32 39 66 57t78 18q61 0 96 -41zM204 850l210 -142l-51 -94l-232 99z" />
    <glyph glyph-name="eng" unicode="&#x14b;" horiz-adv-x="520" 
d="M491 0h-1v-26q0 -98 -57 -149.5t-152 -51.5q-91 0 -151 46l63 108q17 -9 29.5 -12.5t29.5 -3.5q44 0 44 48v42h1v372q0 37 -20 37q-19 0 -50 -48v-362h-194v534h170l13 -55q32 39 66 57t78 18q61 0 96 -41t35 -114v-399z" />
    <glyph glyph-name="uni0272" unicode="&#x272;" horiz-adv-x="520" 
d="M456 513q35 -41 35 -114v-399h-194v373q0 37 -20 37q-19 0 -50 -48v-388q0 -98 -57 -149.5t-152 -51.5q-91 0 -151 46l63 108q17 -9 29.5 -12.5t29.5 -3.5q44 0 44 48v575h170l13 -55q32 39 66 57t78 18q61 0 96 -41z" />
    <glyph glyph-name="uni0273" unicode="&#x273;" horiz-adv-x="520" 
d="M657 -181q-60 -46 -151 -46q-95 0 -152 51.5t-57 149.5v399q0 37 -20 37q-19 0 -50 -48v-362h-194v534h170l13 -55q32 39 66 57t78 18q61 0 96 -41t35 -114v-440q0 -48 44 -48q17 0 29.5 3.5t29.5 12.5z" />
    <glyph glyph-name="uni01CC" unicode="&#x1cc;" horiz-adv-x="781" 
d="M456 513q35 -41 35 -114v-399h-194v373q0 37 -20 37q-19 0 -50 -48v-362h-194v534h170l13 -55q32 39 66 57t78 18q61 0 96 -41zM747 65q0 -121 -61 -187.5t-168 -104.5l-67 141q53 27 77.5 57t24.5 87v476h194v-469zM727 797.5q30 -29.5 30 -74.5t-30 -74.5t-77 -29.5
t-77 29.5t-30 74.5t30 74.5t77 29.5t77 -29.5z" />
    <glyph glyph-name="uni019E" unicode="&#x19e;" horiz-adv-x="520" 
d="M456 513q35 -41 35 -114v-626l-194 20v580q0 37 -20 37q-19 0 -50 -48v-362h-194v534h170l13 -55q32 39 66 57t78 18q61 0 96 -41z" />
    <glyph glyph-name="ntilde" unicode="&#xf1;" horiz-adv-x="520" 
d="M456 513q35 -41 35 -114v-399h-194v373q0 37 -20 37q-19 0 -50 -48v-362h-194v534h170l13 -55q32 39 66 57t78 18q61 0 96 -41zM281.5 632.5q-14.5 6.5 -33.5 18.5q-21 16 -35 16q-15 0 -25 -9.5t-22 -31.5l-88 41q19 58 53.5 95t78.5 37q22 0 38 -7t33 -19
q23 -15 35 -15q15 0 24.5 9.5t21.5 31.5l88 -41q-18 -58 -52.5 -95t-79.5 -37q-22 0 -36.5 6.5z" />
    <glyph glyph-name="o" unicode="o" horiz-adv-x="537" 
d="M454.5 481q67.5 -73 67.5 -215q0 -135 -67.5 -210.5t-185.5 -75.5q-119 0 -186.5 73t-67.5 215q0 136 67.5 211t186.5 75q118 0 185.5 -73zM226.5 382q-12.5 -33 -12.5 -114q0 -84 12.5 -116.5t42.5 -32.5t42.5 33t12.5 114q0 83 -12.5 116t-42.5 33t-42.5 -33z" />
    <glyph glyph-name="oacute" unicode="&#xf3;" horiz-adv-x="537" 
d="M454.5 481q67.5 -73 67.5 -215q0 -135 -67.5 -210.5t-185.5 -75.5q-119 0 -186.5 73t-67.5 215q0 136 67.5 211t186.5 75q118 0 185.5 -73zM226.5 382q-12.5 -33 -12.5 -114q0 -84 12.5 -116.5t42.5 -32.5t42.5 33t12.5 114q0 83 -12.5 116t-42.5 33t-42.5 -33zM327 850
l73 -137l-232 -99l-51 94z" />
    <glyph glyph-name="oacute.loclPLK" horiz-adv-x="537" 
d="M454.5 481q67.5 -73 67.5 -215q0 -135 -67.5 -210.5t-185.5 -75.5q-119 0 -186.5 73t-67.5 215q0 136 67.5 211t186.5 75q118 0 185.5 -73zM226.5 382q-12.5 -33 -12.5 -114q0 -84 12.5 -116.5t42.5 -32.5t42.5 33t12.5 114q0 83 -12.5 116t-42.5 33t-42.5 -33zM269 828
l140 -77l-136 -167l-84 48z" />
    <glyph glyph-name="uni0275" unicode="&#x275;" horiz-adv-x="537" 
d="M454.5 481q67.5 -73 67.5 -215q0 -135 -67.5 -210.5t-185.5 -75.5q-119 0 -186.5 73t-67.5 215q0 136 67.5 211t186.5 75q118 0 185.5 -73zM225 396q-15 -22 -19 -75h125q-4 54 -18.5 75.5t-43.5 21.5t-44 -22zM313.5 139.5q14.5 24.5 18.5 82.5h-127q4 -59 19 -83
t45 -24t44.5 24.5z" />
    <glyph glyph-name="obreve" unicode="&#x14f;" horiz-adv-x="537" 
d="M454.5 481q67.5 -73 67.5 -215q0 -135 -67.5 -210.5t-185.5 -75.5q-119 0 -186.5 73t-67.5 215q0 136 67.5 211t186.5 75q118 0 185.5 -73zM226.5 382q-12.5 -33 -12.5 -114q0 -84 12.5 -116.5t42.5 -32.5t42.5 33t12.5 114q0 83 -12.5 116t-42.5 33t-42.5 -33z
M146.5 680q-42.5 54 -48.5 141l99 16q17 -81 73 -81q55 0 72 81l99 -16q-6 -87 -48.5 -141t-122.5 -54q-81 0 -123.5 54z" />
    <glyph glyph-name="uni01D2" unicode="&#x1d2;" horiz-adv-x="537" 
d="M454.5 481q67.5 -73 67.5 -215q0 -135 -67.5 -210.5t-185.5 -75.5q-119 0 -186.5 73t-67.5 215q0 136 67.5 211t186.5 75q118 0 185.5 -73zM226.5 382q-12.5 -33 -12.5 -114q0 -84 12.5 -116.5t42.5 -32.5t42.5 33t12.5 114q0 83 -12.5 116t-42.5 33t-42.5 -33zM394 826
l64 -71l-131 -152h-115l-132 152l64 71l125 -96z" />
    <glyph glyph-name="ocircumflex" unicode="&#xf4;" horiz-adv-x="537" 
d="M454.5 481q67.5 -73 67.5 -215q0 -135 -67.5 -210.5t-185.5 -75.5q-119 0 -186.5 73t-67.5 215q0 136 67.5 211t186.5 75q118 0 185.5 -73zM226.5 382q-12.5 -33 -12.5 -114q0 -84 12.5 -116.5t42.5 -32.5t42.5 33t12.5 114q0 83 -12.5 116t-42.5 33t-42.5 -33zM144 616
l-64 70l132 152h115l131 -152l-64 -70l-125 95z" />
    <glyph glyph-name="uni1ED1" unicode="&#x1ed1;" horiz-adv-x="537" 
d="M454.5 481q67.5 -73 67.5 -215q0 -135 -67.5 -210.5t-185.5 -75.5q-119 0 -186.5 73t-67.5 215q0 136 67.5 211t186.5 75q118 0 185.5 -73zM226.5 382q-12.5 -33 -12.5 -114q0 -84 12.5 -116.5t42.5 -32.5t42.5 33t12.5 114q0 83 -12.5 116t-42.5 33t-42.5 -33zM144 586
l-64 70l132 142h115l131 -142l-64 -70l-125 85zM499 993l106 -98l-165 -151l-72 61z" />
    <glyph glyph-name="uni1ED9" unicode="&#x1ed9;" horiz-adv-x="537" 
d="M454.5 481q67.5 -73 67.5 -215q0 -135 -67.5 -210.5t-185.5 -75.5q-119 0 -186.5 73t-67.5 215q0 136 67.5 211t186.5 75q118 0 185.5 -73zM226.5 382q-12.5 -33 -12.5 -114q0 -84 12.5 -116.5t42.5 -32.5t42.5 33t12.5 114q0 83 -12.5 116t-42.5 33t-42.5 -33zM144 616
l-64 70l132 152h115l131 -152l-64 -70l-125 95zM192 -232.5q-30 29.5 -30 74.5t30 74.5t77 29.5t77 -29.5t30 -74.5t-30 -74.5t-77 -29.5t-77 29.5z" />
    <glyph glyph-name="uni1ED3" unicode="&#x1ed3;" horiz-adv-x="537" 
d="M454.5 481q67.5 -73 67.5 -215q0 -135 -67.5 -210.5t-185.5 -75.5q-119 0 -186.5 73t-67.5 215q0 136 67.5 211t186.5 75q118 0 185.5 -73zM226.5 382q-12.5 -33 -12.5 -114q0 -84 12.5 -116.5t42.5 -32.5t42.5 33t12.5 114q0 83 -12.5 116t-42.5 33t-42.5 -33zM143 586
l-64 70l132 142h115l131 -142l-64 -70l-125 85zM40 993l131 -188l-73 -61l-164 151z" />
    <glyph glyph-name="uni1ED5" unicode="&#x1ed5;" horiz-adv-x="537" 
d="M454.5 481q67.5 -73 67.5 -215q0 -135 -67.5 -210.5t-185.5 -75.5q-119 0 -186.5 73t-67.5 215q0 136 67.5 211t186.5 75q118 0 185.5 -73zM226.5 382q-12.5 -33 -12.5 -114q0 -84 12.5 -116.5t42.5 -32.5t42.5 33t12.5 114q0 83 -12.5 116t-42.5 33t-42.5 -33zM144 586
l-64 70l132 142h115l131 -142l-64 -70l-125 85zM362 877q35 2 49.5 9.5t14.5 26.5q0 13 -9 20t-23 7q-16 0 -27 -2.5t-30 -9.5l-27 74q46 26 110 26q60 0 92 -29.5t32 -76.5q0 -40 -20 -65.5t-58 -32.5v-49h-104v102z" />
    <glyph glyph-name="uni1ED7" unicode="&#x1ed7;" horiz-adv-x="537" 
d="M454.5 481q67.5 -73 67.5 -215q0 -135 -67.5 -210.5t-185.5 -75.5q-119 0 -186.5 73t-67.5 215q0 136 67.5 211t186.5 75q118 0 185.5 -73zM226.5 382q-12.5 -33 -12.5 -114q0 -84 12.5 -116.5t42.5 -32.5t42.5 33t12.5 114q0 83 -12.5 116t-42.5 33t-42.5 -33zM143 585
l-64 70l132 142h115l131 -142l-64 -70l-125 85zM285.5 832q-14.5 6 -33.5 17q-21 14 -35 14q-15 0 -25 -8.5t-22 -28.5l-88 37q19 53 53.5 86t78.5 33q22 0 37 -6t34 -17q21 -14 35 -14q15 0 24.5 8.5t21.5 28.5l88 -37q-18 -53 -52.5 -86t-79.5 -33q-22 0 -36.5 6z" />
    <glyph glyph-name="uni020D" unicode="&#x20d;" horiz-adv-x="537" 
d="M454.5 481q67.5 -73 67.5 -215q0 -135 -67.5 -210.5t-185.5 -75.5q-119 0 -186.5 73t-67.5 215q0 136 67.5 211t186.5 75q118 0 185.5 -73zM226.5 382q-12.5 -33 -12.5 -114q0 -84 12.5 -116.5t42.5 -32.5t42.5 33t12.5 114q0 83 -12.5 116t-42.5 33t-42.5 -33zM156 874
l95 -210l-89 -44l-122 195zM333 874l88 -212l-92 -38l-115 196z" />
    <glyph glyph-name="odieresis" unicode="&#xf6;" horiz-adv-x="537" 
d="M454.5 481q67.5 -73 67.5 -215q0 -135 -67.5 -210.5t-185.5 -75.5q-119 0 -186.5 73t-67.5 215q0 136 67.5 211t186.5 75q118 0 185.5 -73zM226.5 382q-12.5 -33 -12.5 -114q0 -84 12.5 -116.5t42.5 -32.5t42.5 33t12.5 114q0 83 -12.5 116t-42.5 33t-42.5 -33z
M221 789.5q26 -26.5 26 -63.5q0 -39 -26 -65.5t-65 -26.5q-38 0 -64.5 26.5t-26.5 65.5q0 37 26.5 63.5t64.5 26.5q39 0 65 -26.5zM447 789.5q26 -26.5 26 -63.5q0 -39 -26 -65.5t-65 -26.5q-38 0 -64.5 26.5t-26.5 65.5q0 37 26.5 63.5t64.5 26.5q39 0 65 -26.5z" />
    <glyph glyph-name="uni022B" unicode="&#x22b;" horiz-adv-x="537" 
d="M454.5 481q67.5 -73 67.5 -215q0 -135 -67.5 -210.5t-185.5 -75.5q-119 0 -186.5 73t-67.5 215q0 136 67.5 211t186.5 75q118 0 185.5 -73zM226.5 382q-12.5 -33 -12.5 -114q0 -84 12.5 -116.5t42.5 -32.5t42.5 33t12.5 114q0 83 -12.5 116t-42.5 33t-42.5 -33z
M221 744.5q26 -26.5 26 -63.5q0 -39 -26 -65.5t-65 -26.5q-38 0 -64.5 26.5t-26.5 65.5q0 37 26.5 63.5t64.5 26.5q39 0 65 -26.5zM447 744.5q26 -26.5 26 -63.5q0 -39 -26 -65.5t-65 -26.5q-38 0 -64.5 26.5t-26.5 65.5q0 37 26.5 63.5t64.5 26.5q39 0 65 -26.5zM419 809
h-300v129h300v-129z" />
    <glyph glyph-name="uni022F" unicode="&#x22f;" horiz-adv-x="537" 
d="M454.5 481q67.5 -73 67.5 -215q0 -135 -67.5 -210.5t-185.5 -75.5q-119 0 -186.5 73t-67.5 215q0 136 67.5 211t186.5 75q118 0 185.5 -73zM226.5 382q-12.5 -33 -12.5 -114q0 -84 12.5 -116.5t42.5 -32.5t42.5 33t12.5 114q0 83 -12.5 116t-42.5 33t-42.5 -33z
M346 797.5q30 -29.5 30 -74.5t-30 -74.5t-77 -29.5t-77 29.5t-30 74.5t30 74.5t77 29.5t77 -29.5z" />
    <glyph glyph-name="uni0231" unicode="&#x231;" horiz-adv-x="537" 
d="M454.5 481q67.5 -73 67.5 -215q0 -135 -67.5 -210.5t-185.5 -75.5q-119 0 -186.5 73t-67.5 215q0 136 67.5 211t186.5 75q118 0 185.5 -73zM226.5 382q-12.5 -33 -12.5 -114q0 -84 12.5 -116.5t42.5 -32.5t42.5 33t12.5 114q0 83 -12.5 116t-42.5 33t-42.5 -33z
M345 766.5q30 -29.5 30 -74.5t-30 -74.5t-77 -29.5t-77 29.5t-30 74.5t30 74.5t77 29.5t77 -29.5zM419 827h-300v129h300v-129z" />
    <glyph glyph-name="uni1ECD" unicode="&#x1ecd;" horiz-adv-x="537" 
d="M454.5 481q67.5 -73 67.5 -215q0 -135 -67.5 -210.5t-185.5 -75.5q-119 0 -186.5 73t-67.5 215q0 136 67.5 211t186.5 75q118 0 185.5 -73zM226.5 382q-12.5 -33 -12.5 -114q0 -84 12.5 -116.5t42.5 -32.5t42.5 33t12.5 114q0 83 -12.5 116t-42.5 33t-42.5 -33z
M192 -232.5q-30 29.5 -30 74.5t30 74.5t77 29.5t77 -29.5t30 -74.5t-30 -74.5t-77 -29.5t-77 29.5z" />
    <glyph glyph-name="ograve" unicode="&#xf2;" horiz-adv-x="537" 
d="M454.5 481q67.5 -73 67.5 -215q0 -135 -67.5 -210.5t-185.5 -75.5q-119 0 -186.5 73t-67.5 215q0 136 67.5 211t186.5 75q118 0 185.5 -73zM226.5 382q-12.5 -33 -12.5 -114q0 -84 12.5 -116.5t42.5 -32.5t42.5 33t12.5 114q0 83 -12.5 116t-42.5 33t-42.5 -33zM209 850
l210 -142l-51 -94l-232 99z" />
    <glyph glyph-name="uni1ECF" unicode="&#x1ecf;" horiz-adv-x="537" 
d="M454.5 481q67.5 -73 67.5 -215q0 -135 -67.5 -210.5t-185.5 -75.5q-119 0 -186.5 73t-67.5 215q0 136 67.5 211t186.5 75q118 0 185.5 -73zM226.5 382q-12.5 -33 -12.5 -114q0 -84 12.5 -116.5t42.5 -32.5t42.5 33t12.5 114q0 83 -12.5 116t-42.5 33t-42.5 -33zM218 704
q35 2 49.5 9.5t14.5 26.5q0 13 -9 20t-23 7q-16 0 -27 -2.5t-30 -9.5l-27 74q46 26 110 26q60 0 92 -29.5t32 -76.5q0 -40 -20 -65.5t-58 -32.5v-49h-104v102z" />
    <glyph glyph-name="ohorn" unicode="&#x1a1;" horiz-adv-x="596" 
d="M585.5 430.5q-28.5 -33.5 -79.5 -43.5q16 -56 16 -121q0 -135 -67.5 -210.5t-185.5 -75.5q-119 0 -186.5 73t-67.5 215q0 136 67.5 211t186.5 75q126 0 193 -81q16 4 23 16t7 36q0 22 -2.5 37t-8.5 34l116 15q8 -21 12.5 -41t4.5 -50q0 -56 -28.5 -89.5zM311.5 152
q12.5 33 12.5 114q0 83 -12.5 116t-42.5 33t-42.5 -33t-12.5 -114q0 -84 12.5 -116.5t42.5 -32.5t42.5 33z" />
    <glyph glyph-name="uni1EDB" unicode="&#x1edb;" horiz-adv-x="596" 
d="M400 713l-232 -99l-51 94l210 142zM585.5 430.5q-28.5 -33.5 -79.5 -43.5q16 -56 16 -121q0 -135 -67.5 -210.5t-185.5 -75.5q-119 0 -186.5 73t-67.5 215q0 136 67.5 211t186.5 75q126 0 193 -81q16 4 23 16t7 36q0 22 -2.5 37t-8.5 34l116 15q8 -21 12.5 -41t4.5 -50
q0 -56 -28.5 -89.5zM311.5 152q12.5 33 12.5 114q0 83 -12.5 116t-42.5 33t-42.5 -33t-12.5 -114q0 -84 12.5 -116.5t42.5 -32.5t42.5 33z" />
    <glyph glyph-name="uni1EE3" unicode="&#x1ee3;" horiz-adv-x="596" 
d="M585.5 430.5q-28.5 -33.5 -79.5 -43.5q16 -56 16 -121q0 -135 -67.5 -210.5t-185.5 -75.5q-119 0 -186.5 73t-67.5 215q0 136 67.5 211t186.5 75q126 0 193 -81q16 4 23 16t7 36q0 22 -2.5 37t-8.5 34l116 15q8 -21 12.5 -41t4.5 -50q0 -56 -28.5 -89.5zM311.5 152
q12.5 33 12.5 114q0 83 -12.5 116t-42.5 33t-42.5 -33t-12.5 -114q0 -84 12.5 -116.5t42.5 -32.5t42.5 33zM346 -83.5q30 -29.5 30 -74.5t-30 -74.5t-77 -29.5t-77 29.5t-30 74.5t30 74.5t77 29.5t77 -29.5z" />
    <glyph glyph-name="uni1EDD" unicode="&#x1edd;" horiz-adv-x="596" 
d="M419 708l-51 -94l-232 99l73 137zM585.5 430.5q-28.5 -33.5 -79.5 -43.5q16 -56 16 -121q0 -135 -67.5 -210.5t-185.5 -75.5q-119 0 -186.5 73t-67.5 215q0 136 67.5 211t186.5 75q126 0 193 -81q16 4 23 16t7 36q0 22 -2.5 37t-8.5 34l116 15q8 -21 12.5 -41t4.5 -50
q0 -56 -28.5 -89.5zM311.5 152q12.5 33 12.5 114q0 83 -12.5 116t-42.5 33t-42.5 -33t-12.5 -114q0 -84 12.5 -116.5t42.5 -32.5t42.5 33z" />
    <glyph glyph-name="uni1EDF" unicode="&#x1edf;" horiz-adv-x="596" 
d="M223 764.5q-11 -2.5 -30 -9.5l-27 74q46 26 110 26q60 0 92 -29.5t32 -76.5q0 -40 -20 -65.5t-58 -32.5v-49h-104v102q35 2 49.5 9.5t14.5 26.5q0 13 -9 20t-23 7q-16 0 -27 -2.5zM585.5 430.5q-28.5 -33.5 -79.5 -43.5q16 -56 16 -121q0 -135 -67.5 -210.5t-185.5 -75.5
q-119 0 -186.5 73t-67.5 215q0 136 67.5 211t186.5 75q126 0 193 -81q16 4 23 16t7 36q0 22 -2.5 37t-8.5 34l116 15q8 -21 12.5 -41t4.5 -50q0 -56 -28.5 -89.5zM311.5 152q12.5 33 12.5 114q0 83 -12.5 116t-42.5 33t-42.5 -33t-12.5 -114q0 -84 12.5 -116.5t42.5 -32.5
t42.5 33z" />
    <glyph glyph-name="uni1EE1" unicode="&#x1ee1;" horiz-adv-x="596" 
d="M193 657.5q-10 -9.5 -22 -31.5l-88 41q19 58 53.5 95t78.5 37q22 0 38 -7t33 -19q22 -15 35 -15q15 0 24.5 9.5t21.5 31.5l88 -41q-18 -58 -52.5 -95t-79.5 -37q-22 0 -36.5 6.5t-33.5 18.5q-21 16 -35 16q-15 0 -25 -9.5zM585.5 430.5q-28.5 -33.5 -79.5 -43.5
q16 -56 16 -121q0 -135 -67.5 -210.5t-185.5 -75.5q-119 0 -186.5 73t-67.5 215q0 136 67.5 211t186.5 75q126 0 193 -81q16 4 23 16t7 36q0 22 -2.5 37t-8.5 34l116 15q8 -21 12.5 -41t4.5 -50q0 -56 -28.5 -89.5zM311.5 152q12.5 33 12.5 114q0 83 -12.5 116t-42.5 33
t-42.5 -33t-12.5 -114q0 -84 12.5 -116.5t42.5 -32.5t42.5 33z" />
    <glyph glyph-name="ohungarumlaut" unicode="&#x151;" horiz-adv-x="537" 
d="M454.5 481q67.5 -73 67.5 -215q0 -135 -67.5 -210.5t-185.5 -75.5q-119 0 -186.5 73t-67.5 215q0 136 67.5 211t186.5 75q118 0 185.5 -73zM226.5 382q-12.5 -33 -12.5 -114q0 -84 12.5 -116.5t42.5 -32.5t42.5 33t12.5 114q0 83 -12.5 116t-42.5 33t-42.5 -33zM210 874
l119 -54l-115 -196l-92 38zM387 874l116 -59l-122 -195l-89 44z" />
    <glyph glyph-name="uni01A3" unicode="&#x1a3;" horiz-adv-x="777" 
d="M689 503q54 -51 54 -152v-578l-194 20v578q0 25 -8.5 35.5t-28.5 10.5q-10 0 -22 -3q27 -60 27 -148q0 -135 -67.5 -210.5t-183.5 -75.5q-117 0 -184 73t-67 215q0 135 67 210.5t184 75.5q81 0 136 -35q32 18 65 26.5t76 8.5q92 0 146 -51zM306.5 152q11.5 33 11.5 114
q0 84 -11.5 116.5t-40.5 32.5t-40.5 -33t-11.5 -114q0 -84 11.5 -116.5t40.5 -32.5t40.5 33z" />
    </font>
</defs>
</svg>
