<?xml version="1.0" standalone="no"?>
<!DOCTYPE svg PUBLIC "-//W3C//DTD SVG 1.1//EN" "http://www.w3.org/Graphics/SVG/1.1/DTD/svg11.dtd" >
<svg>
<metadata>
Created by FontForge 20120731 at Fri May  5 11:19:36 2017
 By www-data
Digitized data copyright (c) 2012-2015, The Mozilla Foundation and Telefonica S.A.
</metadata>
<defs>
<font id="FiraMono-Medium" horiz-adv-x="600" >
  <font-face 
    font-family="Fira Mono Medium"
    font-weight="500"
    font-stretch="normal"
    units-per-em="1000"
    panose-1="2 11 6 9 5 0 0 2 0 4"
    ascent="800"
    descent="-200"
    x-height="528"
    cap-height="690"
    bbox="-628 -500 1192 1050"
    underline-thickness="50"
    underline-position="-50"
    unicode-range="U+000D-1F310"
  />
<missing-glyph 
d="M510 1050v-1400h-420v1400h420zM456 998h-311v-1296h311v1296zM299.5 155.5q-7.5 -6.5 -17.5 -6.5t-17.5 6.5t-7.5 17.5v84q53 3 72 19.5t19 57.5q0 33 -13 51t-48 18q-29 0 -52 -11q-7 -3 -13 -3q-11 0 -17.5 6.5t-6.5 16.5q0 19 29.5 29t63.5 10q60 0 85.5 -32
t25.5 -83q0 -53 -22.5 -82t-72.5 -36v-45q0 -11 -7.5 -17.5zM257 110q10 10 25 10t25 -10t10 -25q0 -16 -10 -26.5t-25 -10.5t-25 10.5t-10 26.5q0 15 10 25z" />
    <glyph glyph-name=".notdef" 
d="M510 1050v-1400h-420v1400h420zM456 998h-311v-1296h311v1296zM299.5 155.5q-7.5 -6.5 -17.5 -6.5t-17.5 6.5t-7.5 17.5v84q53 3 72 19.5t19 57.5q0 33 -13 51t-48 18q-29 0 -52 -11q-7 -3 -13 -3q-11 0 -17.5 6.5t-6.5 16.5q0 19 29.5 29t63.5 10q60 0 85.5 -32
t25.5 -83q0 -53 -22.5 -82t-72.5 -36v-45q0 -11 -7.5 -17.5zM257 110q10 10 25 10t25 -10t10 -25q0 -16 -10 -26.5t-25 -10.5t-25 10.5t-10 26.5q0 15 10 25z" />
    <glyph glyph-name="null" horiz-adv-x="0" 
 />
    <glyph glyph-name="nonmarkingreturn" unicode="&#xd;" 
 />
    <glyph glyph-name="space" unicode=" " 
 />
    <glyph glyph-name="A" unicode="A" 
d="M175 166l-48 -166h-119l220 690h144l220 -690h-123l-48 166h-246zM397 256l-99 344l-99 -344h198z" />
    <glyph glyph-name="Aacute" unicode="&#xc1;" 
d="M175 166l-48 -166h-119l220 690h144l220 -690h-123l-48 166h-246zM397 256l-99 344l-99 -344h198zM427 834l-223 -80l-28 58l205 112z" />
    <glyph glyph-name="Abreve" unicode="&#x102;" 
d="M175 166l-48 -166h-119l220 690h144l220 -690h-123l-48 166h-246zM397 256l-99 344l-99 -344h198zM190 792.5q-42 36.5 -48 95.5l68 14q22 -64 88 -64q35 0 57.5 16.5t32.5 47.5l69 -14q-6 -59 -49 -95.5t-110 -36.5q-66 0 -108 36.5z" />
    <glyph glyph-name="Acircumflex" unicode="&#xc2;" 
d="M175 166l-48 -166h-119l220 690h144l220 -690h-123l-48 166h-246zM397 256l-99 344l-99 -344h198zM473 807l-44 -51l-129 82l-128 -82l-45 51l137 116h72z" />
    <glyph glyph-name="Adieresis" unicode="&#xc4;" 
d="M175 166l-48 -166h-119l220 690h144l220 -690h-123l-48 166h-246zM397 256l-99 344l-99 -344h198zM145.5 784q-18.5 18 -18.5 45t18.5 45.5t46.5 18.5t46.5 -18.5t18.5 -45.5t-18.5 -45t-46.5 -18t-46.5 18zM362 784q-19 18 -19 45t19 45.5t46 18.5q28 0 46.5 -18.5
t18.5 -45.5t-18.5 -45t-46.5 -18q-27 0 -46 18z" />
    <glyph glyph-name="Agrave" unicode="&#xc0;" 
d="M175 166l-48 -166h-119l220 690h144l220 -690h-123l-48 166h-246zM397 256l-99 344l-99 -344h198zM424 812l-30 -58l-217 82l51 90z" />
    <glyph glyph-name="Amacron" unicode="&#x100;" 
d="M175 166l-48 -166h-119l220 690h144l220 -690h-123l-48 166h-246zM397 256l-99 344l-99 -344h198zM159 790v82h282v-82h-282z" />
    <glyph glyph-name="Aogonek" unicode="&#x104;" 
d="M441.5 -54.5q-25.5 -26.5 -25.5 -58.5q0 -48 56 -48q28 0 59 7l-10 -77q-33 -7 -62 -7q-59 0 -96 29.5t-37 77.5q0 51 34.5 87t102.5 63l-42 147h-246l-48 -166h-119l220 690h144l220 -690h-56q-69 -28 -94.5 -54.5zM397 256l-99 344l-99 -344h198z" />
    <glyph glyph-name="Aring" unicode="&#xc5;" 
d="M175 166l-48 -166h-119l220 690h144l220 -690h-123l-48 166h-246zM397 256l-99 344l-99 -344h198zM388 928q34 -33 34 -81t-34 -80.5t-88 -32.5q-53 0 -87 33t-34 80q0 48 34 81t87 33q54 0 88 -33zM263.5 886.5q-13.5 -14.5 -13.5 -39.5q0 -26 13.5 -40t36.5 -14
q24 0 37.5 14t13.5 40q0 25 -14 39.5t-37 14.5t-36.5 -14.5z" />
    <glyph glyph-name="Atilde" unicode="&#xc3;" 
d="M175 166l-48 -166h-119l220 690h144l220 -690h-123l-48 166h-246zM397 256l-99 344l-99 -344h198zM322 778q-16 7 -35 20q-13 10 -23.5 15t-21.5 5q-16 0 -28 -11t-25 -34l-63 31q20 44 49 70.5t67 26.5q21 0 36 -7t35 -20q14 -10 24 -15t21 -5q15 0 27 10.5t25 33.5
l63 -32q-20 -46 -49.5 -70.5t-65.5 -24.5q-20 0 -36 7z" />
    <glyph glyph-name="AE" unicode="&#xc6;" 
d="M144 167l-41 -167h-115l192 690h386l-13 -86h-216l45 -211h175v-86h-160l46 -221h163v-86h-251l-31 167h-180zM307 254l-65 352l-78 -352h143z" />
    <glyph glyph-name="AEacute" unicode="&#x1fc;" 
d="M144 167l-41 -167h-115l192 690h386l-13 -86h-216l45 -211h175v-86h-160l46 -221h163v-86h-251l-31 167h-180zM307 254l-65 352l-78 -352h143zM484 834l-223 -80l-28 58l205 112z" />
    <glyph glyph-name="B" unicode="B" 
d="M476 46q-76 -46 -193 -46h-202v690h189q110 0 181 -40.5t71 -134.5q0 -60 -36.5 -98.5t-91.5 -50.5q68 -12 113 -50.5t45 -116.5q0 -107 -76 -153zM372.5 580q-31.5 23 -92.5 23h-83v-199h90q59 0 88 24.5t29 77.5q0 51 -31.5 74zM395 290.5q-36 26.5 -100 26.5h-98v-227
h94q140 0 140 109q0 65 -36 91.5z" />
    <glyph glyph-name="C" unicode="C" 
d="M474 687q48 -17 92 -53l-60 -72q-63 51 -143 51q-84 0 -137 -64.5t-53 -202.5q0 -136 52 -200.5t139 -64.5q50 0 85.5 15.5t70.5 43.5l56 -71q-84 -82 -216 -82q-89 0 -159 41.5t-109.5 122.5t-39.5 195q0 112 40.5 193t110.5 123t155 42q68 0 116 -17z" />
    <glyph glyph-name="Cacute" unicode="&#x106;" 
d="M474 687q48 -17 92 -53l-60 -72q-63 51 -143 51q-84 0 -137 -64.5t-53 -202.5q0 -136 52 -200.5t139 -64.5q50 0 85.5 15.5t70.5 43.5l56 -71q-84 -82 -216 -82q-89 0 -159 41.5t-109.5 122.5t-39.5 195q0 112 40.5 193t110.5 123t155 42q68 0 116 -17zM491 834l-223 -80
l-28 58l205 112z" />
    <glyph glyph-name="Ccaron" unicode="&#x10c;" 
d="M474 687q48 -17 92 -53l-60 -72q-63 51 -143 51q-84 0 -137 -64.5t-53 -202.5q0 -136 52 -200.5t139 -64.5q50 0 85.5 15.5t70.5 43.5l56 -71q-84 -82 -216 -82q-89 0 -159 41.5t-109.5 122.5t-39.5 195q0 112 40.5 193t110.5 123t155 42q68 0 116 -17zM537 869
l-137 -116h-72l-137 116l45 51l128 -82l129 82z" />
    <glyph glyph-name="Ccedilla" unicode="&#xc7;" 
d="M447.5 -82.5q24.5 -24.5 24.5 -60.5q0 -48 -38 -76t-95 -28q-31 0 -60 7t-49 19l30 58q34 -17 66 -17q57 0 57 38q0 23 -21.5 31t-66.5 8l8 94q-114 19 -182.5 111t-68.5 244q0 112 40.5 193t110.5 123t155 42q68 0 116 -17t92 -53l-60 -72q-63 51 -143 51
q-84 0 -137 -64.5t-53 -202.5q0 -136 52 -200.5t139 -64.5q50 0 85.5 15.5t70.5 43.5l56 -71q-78 -78 -201 -82v-41q48 -4 72.5 -28.5z" />
    <glyph glyph-name="Ccircumflex" unicode="&#x108;" 
d="M474 687q48 -17 92 -53l-60 -72q-63 51 -143 51q-84 0 -137 -64.5t-53 -202.5q0 -136 52 -200.5t139 -64.5q50 0 85.5 15.5t70.5 43.5l56 -71q-84 -82 -216 -82q-89 0 -159 41.5t-109.5 122.5t-39.5 195q0 112 40.5 193t110.5 123t155 42q68 0 116 -17zM537 807l-44 -51
l-129 82l-128 -82l-45 51l137 116h72z" />
    <glyph glyph-name="Cdotaccent" unicode="&#x10a;" 
d="M474 687q48 -17 92 -53l-60 -72q-63 51 -143 51q-84 0 -137 -64.5t-53 -202.5q0 -136 52 -200.5t139 -64.5q50 0 85.5 15.5t70.5 43.5l56 -71q-84 -82 -216 -82q-89 0 -159 41.5t-109.5 122.5t-39.5 195q0 112 40.5 193t110.5 123t155 42q68 0 116 -17zM415.5 888
q20.5 -20 20.5 -50t-20.5 -50.5t-52.5 -20.5t-52.5 20.5t-20.5 50.5t20 50t53 20q32 0 52.5 -20z" />
    <glyph glyph-name="D" unicode="D" 
d="M470 76.5q-91 -76.5 -230 -76.5h-169v690h158q150 0 241 -72.5t91 -268.5t-91 -272.5zM387.5 549q-51.5 52 -136.5 52h-64v-513h65q187 0 187 261q0 148 -51.5 200z" />
    <glyph glyph-name="Eth" unicode="&#xd0;" 
d="M480.5 617q91.5 -73 91.5 -268q0 -196 -91 -272.5t-230 -76.5h-169v314h-66v78h66v298h158q149 0 240.5 -73zM450 349q0 148 -51.5 200t-136.5 52h-64v-209h144v-78h-144v-226h65q187 0 187 261z" />
    <glyph glyph-name="Dcaron" unicode="&#x10e;" 
d="M470 76.5q-91 -76.5 -230 -76.5h-169v690h158q150 0 241 -72.5t91 -268.5t-91 -272.5zM387.5 549q-51.5 52 -136.5 52h-64v-513h65q187 0 187 261q0 148 -51.5 200zM458 869l-137 -116h-72l-137 116l45 51l128 -82l129 82z" />
    <glyph glyph-name="Dcroat" unicode="&#x110;" 
d="M480.5 617q91.5 -73 91.5 -268q0 -196 -91 -272.5t-230 -76.5h-169v314h-66v78h66v298h158q149 0 240.5 -73zM450 349q0 148 -51.5 200t-136.5 52h-64v-209h144v-78h-144v-226h65q187 0 187 261z" />
    <glyph glyph-name="E" unicode="E" 
d="M229 394h250v-87h-250v-219h305v-88h-421v690h415l-13 -88h-286v-208z" />
    <glyph glyph-name="Eacute" unicode="&#xc9;" 
d="M229 394h250v-87h-250v-219h305v-88h-421v690h415l-13 -88h-286v-208zM448 834l-223 -80l-28 58l205 112z" />
    <glyph glyph-name="Ebreve" unicode="&#x114;" 
d="M229 394h250v-87h-250v-219h305v-88h-421v690h415l-13 -88h-286v-208zM211 792.5q-42 36.5 -48 95.5l68 14q22 -64 88 -64q35 0 57.5 16.5t32.5 47.5l69 -14q-6 -59 -49 -95.5t-110 -36.5q-66 0 -108 36.5z" />
    <glyph glyph-name="Ecaron" unicode="&#x11a;" 
d="M229 394h250v-87h-250v-219h305v-88h-421v690h415l-13 -88h-286v-208zM494 869l-137 -116h-72l-137 116l45 51l128 -82l129 82z" />
    <glyph glyph-name="Ecircumflex" unicode="&#xca;" 
d="M229 394h250v-87h-250v-219h305v-88h-421v690h415l-13 -88h-286v-208zM494 807l-44 -51l-129 82l-128 -82l-45 51l137 116h72z" />
    <glyph glyph-name="Edieresis" unicode="&#xcb;" 
d="M229 394h250v-87h-250v-219h305v-88h-421v690h415l-13 -88h-286v-208zM165.5 784q-18.5 18 -18.5 45t18.5 45.5t46.5 18.5t46.5 -18.5t18.5 -45.5t-18.5 -45t-46.5 -18t-46.5 18zM382 784q-19 18 -19 45t19 45.5t46 18.5q28 0 46.5 -18.5t18.5 -45.5t-18.5 -45t-46.5 -18
q-27 0 -46 18z" />
    <glyph glyph-name="Edotaccent" unicode="&#x116;" 
d="M229 394h250v-87h-250v-219h305v-88h-421v690h415l-13 -88h-286v-208zM372.5 888q20.5 -20 20.5 -50t-20.5 -50.5t-52.5 -20.5t-52.5 20.5t-20.5 50.5t20 50t53 20q32 0 52.5 -20z" />
    <glyph glyph-name="Egrave" unicode="&#xc8;" 
d="M229 394h250v-87h-250v-219h305v-88h-421v690h415l-13 -88h-286v-208zM444 812l-30 -58l-217 82l51 90z" />
    <glyph glyph-name="Emacron" unicode="&#x112;" 
d="M229 394h250v-87h-250v-219h305v-88h-421v690h415l-13 -88h-286v-208zM179 790v82h282v-82h-282z" />
    <glyph glyph-name="Eogonek" unicode="&#x118;" 
d="M534 88v-88h-67q-69 -28 -94.5 -54.5t-25.5 -58.5q0 -48 56 -48q28 0 59 7l-10 -77q-33 -7 -62 -7q-59 0 -96 29.5t-37 77.5q0 43 23.5 74.5t71.5 56.5h-239v690h415l-13 -88h-286v-208h250v-87h-250v-219h305z" />
    <glyph glyph-name="F" unicode="F" 
d="M243 382h260v-88h-260v-294h-116v690h424l-12 -88h-296v-220z" />
    <glyph glyph-name="G" unicode="G" 
d="M110.5 78.5q-73.5 91.5 -73.5 267.5q0 114 40.5 195t109 122t151.5 41q67 0 114.5 -19.5t90.5 -60.5l-65 -67q-32 29 -64.5 42.5t-72.5 13.5q-80 0 -131.5 -64.5t-51.5 -202.5q0 -142 40.5 -205.5t124.5 -63.5q64 0 114 29v190h-117l-12 89h242v-335
q-53 -30 -108.5 -46.5t-123.5 -16.5q-134 0 -207.5 91.5z" />
    <glyph glyph-name="Gbreve" unicode="&#x11e;" 
d="M110.5 78.5q-73.5 91.5 -73.5 267.5q0 114 40.5 195t109 122t151.5 41q67 0 114.5 -19.5t90.5 -60.5l-65 -67q-32 29 -64.5 42.5t-72.5 13.5q-80 0 -131.5 -64.5t-51.5 -202.5q0 -142 40.5 -205.5t124.5 -63.5q64 0 114 29v190h-117l-12 89h242v-335
q-53 -30 -108.5 -46.5t-123.5 -16.5q-134 0 -207.5 91.5zM220 792.5q-42 36.5 -48 95.5l68 14q22 -64 88 -64q35 0 57.5 16.5t32.5 47.5l69 -14q-6 -59 -49 -95.5t-110 -36.5q-66 0 -108 36.5z" />
    <glyph glyph-name="Gcircumflex" unicode="&#x11c;" 
d="M110.5 78.5q-73.5 91.5 -73.5 267.5q0 114 40.5 195t109 122t151.5 41q67 0 114.5 -19.5t90.5 -60.5l-65 -67q-32 29 -64.5 42.5t-72.5 13.5q-80 0 -131.5 -64.5t-51.5 -202.5q0 -142 40.5 -205.5t124.5 -63.5q64 0 114 29v190h-117l-12 89h242v-335
q-53 -30 -108.5 -46.5t-123.5 -16.5q-134 0 -207.5 91.5zM503 807l-44 -51l-129 82l-128 -82l-45 51l137 116h72z" />
    <glyph glyph-name="Gcommaaccent" unicode="&#x122;" 
d="M110.5 78.5q-73.5 91.5 -73.5 267.5q0 114 40.5 195t109 122t151.5 41q67 0 114.5 -19.5t90.5 -60.5l-65 -67q-32 29 -64.5 42.5t-72.5 13.5q-80 0 -131.5 -64.5t-51.5 -202.5q0 -142 40.5 -205.5t124.5 -63.5q64 0 114 29v190h-117l-12 89h242v-335
q-53 -30 -108.5 -46.5t-123.5 -16.5q-134 0 -207.5 91.5zM376.5 -86.5q18.5 -17.5 18.5 -44.5q0 -28 -18 -65l-50 -104h-62l29 117q-26 19 -26 52q0 26 18 44t45 18t45.5 -17.5z" />
    <glyph glyph-name="Gdotaccent" unicode="&#x120;" 
d="M110.5 78.5q-73.5 91.5 -73.5 267.5q0 114 40.5 195t109 122t151.5 41q67 0 114.5 -19.5t90.5 -60.5l-65 -67q-32 29 -64.5 42.5t-72.5 13.5q-80 0 -131.5 -64.5t-51.5 -202.5q0 -142 40.5 -205.5t124.5 -63.5q64 0 114 29v190h-117l-12 89h242v-335
q-53 -30 -108.5 -46.5t-123.5 -16.5q-134 0 -207.5 91.5zM382.5 888q20.5 -20 20.5 -50t-20.5 -50.5t-52.5 -20.5t-52.5 20.5t-20.5 50.5t20 50t53 20q32 0 52.5 -20z" />
    <glyph glyph-name="H" unicode="H" 
d="M413 314h-226v-314h-116v690h116v-281h226v281h116v-690h-116v314z" />
    <glyph glyph-name="Hbar" unicode="&#x126;" 
d="M598 506h-71v-506h-116v315h-222v-315h-116v506h-71v75h71v109h116v-109h222v109h116v-109h71v-75zM411 506h-222v-98h222v98z" />
    <glyph glyph-name="Hcircumflex" unicode="&#x124;" 
d="M413 314h-226v-314h-116v690h116v-281h226v281h116v-690h-116v314zM473 807l-44 -51l-129 82l-128 -82l-45 51l137 116h72z" />
    <glyph glyph-name="I" unicode="I" 
d="M508 602h-150v-513h150v-89h-416v89h150v513h-150v88h416v-88z" />
    <glyph glyph-name="IJ" unicode="&#x132;" 
d="M336 -27.5q52 31.5 71.5 82t19.5 127.5v425h-214v-524h69v-83h-272v83h90v524h-90v83h531v-509q0 -139 -76 -226t-262 -109l-14 83q95 12 147 43.5z" />
    <glyph glyph-name="Iacute" unicode="&#xcd;" 
d="M508 602h-150v-513h150v-89h-416v89h150v513h-150v88h416v-88zM427 834l-223 -80l-28 58l205 112z" />
    <glyph glyph-name="Ibreve" unicode="&#x12c;" 
d="M508 602h-150v-513h150v-89h-416v89h150v513h-150v88h416v-88zM190 792.5q-42 36.5 -48 95.5l68 14q22 -64 88 -64q35 0 57.5 16.5t32.5 47.5l69 -14q-6 -59 -49 -95.5t-110 -36.5q-66 0 -108 36.5z" />
    <glyph glyph-name="Icircumflex" unicode="&#xce;" 
d="M508 602h-150v-513h150v-89h-416v89h150v513h-150v88h416v-88zM473 807l-44 -51l-129 82l-128 -82l-45 51l137 116h72z" />
    <glyph glyph-name="Idieresis" unicode="&#xcf;" 
d="M508 602h-150v-513h150v-89h-416v89h150v513h-150v88h416v-88zM145.5 784q-18.5 18 -18.5 45t18.5 45.5t46.5 18.5t46.5 -18.5t18.5 -45.5t-18.5 -45t-46.5 -18t-46.5 18zM362 784q-19 18 -19 45t19 45.5t46 18.5q28 0 46.5 -18.5t18.5 -45.5t-18.5 -45t-46.5 -18
q-27 0 -46 18z" />
    <glyph glyph-name="Idotaccent" unicode="&#x130;" 
d="M508 602h-150v-513h150v-89h-416v89h150v513h-150v88h416v-88zM352.5 888q20.5 -20 20.5 -50t-20.5 -50.5t-52.5 -20.5t-52.5 20.5t-20.5 50.5t20 50t53 20q32 0 52.5 -20z" />
    <glyph glyph-name="Igrave" unicode="&#xcc;" 
d="M508 602h-150v-513h150v-89h-416v89h150v513h-150v88h416v-88zM424 812l-30 -58l-217 82l51 90z" />
    <glyph glyph-name="Imacron" unicode="&#x12a;" 
d="M508 602h-150v-513h150v-89h-416v89h150v513h-150v88h416v-88zM159 790v82h282v-82h-282z" />
    <glyph glyph-name="Iogonek" unicode="&#x12e;" 
d="M358 602v-513h150v-89h-150q-69 -28 -94.5 -54.5t-25.5 -58.5q0 -48 56 -48q28 0 59 7l-10 -77q-33 -7 -62 -7q-59 0 -96 29.5t-37 77.5q0 43 23.5 74.5t71.5 56.5h-151v89h150v513h-150v88h416v-88h-150z" />
    <glyph glyph-name="Itilde" unicode="&#x128;" 
d="M508 602h-150v-513h150v-89h-416v89h150v513h-150v88h416v-88zM322 778q-16 7 -35 20q-13 10 -23.5 15t-21.5 5q-16 0 -28 -11t-25 -34l-63 31q20 44 49 70.5t67 26.5q21 0 36 -7t35 -20q14 -10 24 -15t21 -5q15 0 27 10.5t25 33.5l63 -32q-20 -46 -49.5 -70.5
t-65.5 -24.5q-20 0 -36 7z" />
    <glyph glyph-name="J" unicode="J" 
d="M508 237q0 -109 -62.5 -179.5t-189.5 -70.5q-109 0 -196 64l47 73q39 -25 74 -35.5t71 -10.5q65 0 102.5 42t37.5 119v362h-207v89h323v-453z" />
    <glyph glyph-name="Jcircumflex" unicode="&#x134;" 
d="M508 237q0 -109 -62.5 -179.5t-189.5 -70.5q-109 0 -196 64l47 73q39 -25 74 -35.5t71 -10.5q65 0 102.5 42t37.5 119v362h-207v89h323v-453zM524 807l-44 -51l-129 82l-128 -82l-45 51l137 116h72z" />
    <glyph glyph-name="K" unicode="K" 
d="M88 0v690h116v-690h-116zM448 690h128l-241 -314l260 -376h-139l-247 369z" />
    <glyph glyph-name="Kcommaaccent" unicode="&#x136;" 
d="M88 0v690h116v-690h-116zM448 690h128l-241 -314l260 -376h-139l-247 369zM361.5 -86.5q18.5 -17.5 18.5 -44.5q0 -28 -18 -65l-50 -104h-62l29 117q-26 19 -26 52q0 26 18 44t45 18t45.5 -17.5z" />
    <glyph glyph-name="L" unicode="L" 
d="M120 690h115v-593h310l-13 -97h-412v690z" />
    <glyph glyph-name="Lacute" unicode="&#x139;" 
d="M120 690h115v-593h310l-13 -97h-412v690zM305 834l-223 -80l-28 58l205 112z" />
    <glyph glyph-name="Lcaron" unicode="&#x13d;" 
d="M120 690h115v-593h310l-13 -97h-412v690zM424 691l-63 -198l-67 10l30 201z" />
    <glyph glyph-name="Lcommaaccent" unicode="&#x13b;" 
d="M120 690h115v-593h310l-13 -97h-412v690zM373.5 -86.5q18.5 -17.5 18.5 -44.5q0 -28 -18 -65l-50 -104h-62l29 117q-26 19 -26 52q0 26 18 44t45 18t45.5 -17.5z" />
    <glyph glyph-name="Ldot" unicode="&#x13f;" 
d="M120 690h115v-593h310l-13 -97h-412v690zM522.5 430.5q20.5 -20.5 20.5 -50.5t-20.5 -50t-53.5 -20q-32 0 -52.5 20t-20.5 50t20.5 50.5t52.5 20.5q33 0 53.5 -20.5z" />
    <glyph glyph-name="Lslash" unicode="&#x141;" 
d="M549 97l-13 -97h-412v253l-53 -33l-43 69l96 58v343h116v-271l149 93l44 -67l-193 -120v-228h309z" />
    <glyph glyph-name="M" unicode="M" 
d="M575 0h-107l-16 336q-3 66 -3 127q0 79 3 125l-102 -466h-101l-109 466q4 -51 4 -157q0 -64 -1 -96l-14 -335h-104l39 690h139l99 -462l94 462h140z" />
    <glyph glyph-name="N" unicode="N" 
d="M158 587q16 -164 16 -274v-313h-103v690h151l220 -587q-7 74 -11.5 133.5t-4.5 139.5v314h103v-690h-151z" />
    <glyph glyph-name="Nacute" unicode="&#x143;" 
d="M158 587q16 -164 16 -274v-313h-103v690h151l220 -587q-7 74 -11.5 133.5t-4.5 139.5v314h103v-690h-151zM430 834l-223 -80l-28 58l205 112z" />
    <glyph glyph-name="Ncaron" unicode="&#x147;" 
d="M158 587q16 -164 16 -274v-313h-103v690h151l220 -587q-7 74 -11.5 133.5t-4.5 139.5v314h103v-690h-151zM476 869l-137 -116h-72l-137 116l45 51l128 -82l129 82z" />
    <glyph glyph-name="Ncommaaccent" unicode="&#x145;" 
d="M158 587q16 -164 16 -274v-313h-103v690h151l220 -587q-7 74 -11.5 133.5t-4.5 139.5v314h103v-690h-151zM347.5 -86.5q18.5 -17.5 18.5 -44.5q0 -28 -18 -65l-50 -104h-62l29 117q-26 19 -26 52q0 26 18 44t45 18t45.5 -17.5z" />
    <glyph glyph-name="Eng" unicode="&#x14a;" 
d="M485.5 -175q-43.5 -43 -122.5 -43q-68 0 -121 40l43 70q20 -11 34.5 -16t35.5 -5q58 0 58 72v57h-35l-220 587q16 -164 16 -274v-313h-103v690h151l220 -587q-7 74 -11.5 133.5t-4.5 139.5v314h103v-739q0 -83 -43.5 -126z" />
    <glyph glyph-name="Ntilde" unicode="&#xd1;" 
d="M158 587q16 -164 16 -274v-313h-103v690h151l220 -587q-7 74 -11.5 133.5t-4.5 139.5v314h103v-690h-151zM324 778q-16 7 -35 20q-13 10 -23.5 15t-21.5 5q-16 0 -28 -11t-25 -34l-63 31q20 44 49 70.5t67 26.5q21 0 36 -7t35 -20q14 -10 24 -15t21 -5q15 0 27 10.5
t25 33.5l63 -32q-20 -46 -49.5 -70.5t-65.5 -24.5q-20 0 -36 7z" />
    <glyph glyph-name="O" unicode="O" 
d="M494.5 84q-67.5 -97 -194.5 -97t-194.5 95.5t-67.5 261.5q0 164 67.5 262t194.5 98t194.5 -96.5t67.5 -262.5q0 -164 -67.5 -261zM409 547q-34 66 -109 66t-109 -66t-34 -203q0 -135 34.5 -201t108.5 -66q75 0 109 66t34 202t-34 202z" />
    <glyph glyph-name="Oacute" unicode="&#xd3;" 
d="M494.5 84q-67.5 -97 -194.5 -97t-194.5 95.5t-67.5 261.5q0 164 67.5 262t194.5 98t194.5 -96.5t67.5 -262.5q0 -164 -67.5 -261zM409 547q-34 66 -109 66t-109 -66t-34 -203q0 -135 34.5 -201t108.5 -66q75 0 109 66t34 202t-34 202zM427 834l-223 -80l-28 58l205 112z
" />
    <glyph glyph-name="Obreve" unicode="&#x14e;" 
d="M494.5 84q-67.5 -97 -194.5 -97t-194.5 95.5t-67.5 261.5q0 164 67.5 262t194.5 98t194.5 -96.5t67.5 -262.5q0 -164 -67.5 -261zM409 547q-34 66 -109 66t-109 -66t-34 -203q0 -135 34.5 -201t108.5 -66q75 0 109 66t34 202t-34 202zM190 792.5q-42 36.5 -48 95.5l68 14
q22 -64 88 -64q35 0 57.5 16.5t32.5 47.5l69 -14q-6 -59 -49 -95.5t-110 -36.5q-66 0 -108 36.5z" />
    <glyph glyph-name="Ocircumflex" unicode="&#xd4;" 
d="M494.5 84q-67.5 -97 -194.5 -97t-194.5 95.5t-67.5 261.5q0 164 67.5 262t194.5 98t194.5 -96.5t67.5 -262.5q0 -164 -67.5 -261zM409 547q-34 66 -109 66t-109 -66t-34 -203q0 -135 34.5 -201t108.5 -66q75 0 109 66t34 202t-34 202zM473 807l-44 -51l-129 82l-128 -82
l-45 51l137 116h72z" />
    <glyph glyph-name="Odieresis" unicode="&#xd6;" 
d="M494.5 84q-67.5 -97 -194.5 -97t-194.5 95.5t-67.5 261.5q0 164 67.5 262t194.5 98t194.5 -96.5t67.5 -262.5q0 -164 -67.5 -261zM409 547q-34 66 -109 66t-109 -66t-34 -203q0 -135 34.5 -201t108.5 -66q75 0 109 66t34 202t-34 202zM145.5 784q-18.5 18 -18.5 45
t18.5 45.5t46.5 18.5t46.5 -18.5t18.5 -45.5t-18.5 -45t-46.5 -18t-46.5 18zM362 784q-19 18 -19 45t19 45.5t46 18.5q28 0 46.5 -18.5t18.5 -45.5t-18.5 -45t-46.5 -18q-27 0 -46 18z" />
    <glyph glyph-name="Ograve" unicode="&#xd2;" 
d="M494.5 84q-67.5 -97 -194.5 -97t-194.5 95.5t-67.5 261.5q0 164 67.5 262t194.5 98t194.5 -96.5t67.5 -262.5q0 -164 -67.5 -261zM409 547q-34 66 -109 66t-109 -66t-34 -203q0 -135 34.5 -201t108.5 -66q75 0 109 66t34 202t-34 202zM424 812l-30 -58l-217 82l51 90z
" />
    <glyph glyph-name="Ohungarumlaut" unicode="&#x150;" 
d="M494.5 84q-67.5 -97 -194.5 -97t-194.5 95.5t-67.5 261.5q0 164 67.5 262t194.5 98t194.5 -96.5t67.5 -262.5q0 -164 -67.5 -261zM409 547q-34 66 -109 66t-109 -66t-34 -203q0 -135 34.5 -201t108.5 -66q75 0 109 66t34 202t-34 202zM259 965l87 -40l-107 -171l-66 29z
M430 965l85 -43l-114 -170l-64 32z" />
    <glyph glyph-name="Omacron" unicode="&#x14c;" 
d="M494.5 84q-67.5 -97 -194.5 -97t-194.5 95.5t-67.5 261.5q0 164 67.5 262t194.5 98t194.5 -96.5t67.5 -262.5q0 -164 -67.5 -261zM409 547q-34 66 -109 66t-109 -66t-34 -203q0 -135 34.5 -201t108.5 -66q75 0 109 66t34 202t-34 202zM159 790v82h282v-82h-282z" />
    <glyph glyph-name="Oslash" unicode="&#xd8;" 
d="M531 535.5q31 -81.5 31 -190.5q0 -164 -67.5 -261t-194.5 -97q-32 0 -59 6l-31 -103l-89 25l37 116q-58 43 -89 123.5t-31 189.5q0 164 67.5 262t194.5 98q33 0 60 -7l31 106l88 -25l-37 -118q58 -43 89 -124.5zM190 548q-34 -66 -34 -204q0 -163 45 -223l141 488
q-20 5 -42 5q-76 0 -110 -66zM410 142q34 66 34 203q0 84 -10.5 139t-33.5 86l-142 -489q22 -5 42 -5q76 0 110 66z" />
    <glyph glyph-name="Oslashacute" unicode="&#x1fe;" 
d="M531 535.5q31 -81.5 31 -190.5q0 -164 -67.5 -261t-194.5 -97q-32 0 -59 6l-31 -103l-89 25l37 116q-58 43 -89 123.5t-31 189.5q0 164 67.5 262t194.5 98q33 0 60 -7l31 106l88 -25l-37 -118q58 -43 89 -124.5zM190 548q-34 -66 -34 -204q0 -163 45 -223l141 488
q-20 5 -42 5q-76 0 -110 -66zM410 142q34 66 34 203q0 84 -10.5 139t-33.5 86l-142 -489q22 -5 42 -5q76 0 110 66zM427 834l-223 -80l-28 58l205 112z" />
    <glyph glyph-name="Otilde" unicode="&#xd5;" 
d="M494.5 84q-67.5 -97 -194.5 -97t-194.5 95.5t-67.5 261.5q0 164 67.5 262t194.5 98t194.5 -96.5t67.5 -262.5q0 -164 -67.5 -261zM409 547q-34 66 -109 66t-109 -66t-34 -203q0 -135 34.5 -201t108.5 -66q75 0 109 66t34 202t-34 202zM322 778q-16 7 -35 20
q-13 10 -23.5 15t-21.5 5q-16 0 -28 -11t-25 -34l-63 31q20 44 49 70.5t67 26.5q21 0 36 -7t35 -20q14 -10 24 -15t21 -5q15 0 27 10.5t25 33.5l63 -32q-20 -46 -49.5 -70.5t-65.5 -24.5q-20 0 -36 7z" />
    <glyph glyph-name="OE" unicode="&#x152;" 
d="M297 690h307l-13 -86h-220q48 -66 55 -211h141v-86h-141q-4 -148 -60 -221h243v-86h-315q-41 -13 -77 -13q-109 0 -161.5 90t-52.5 267q0 175 53 267.5t161 92.5q38 0 80 -14zM138 554q-24 -63 -24 -210q0 -145 25 -208.5t78 -63.5q56 0 80.5 63.5t24.5 209.5
q0 100 -10.5 159t-33.5 86t-61 27q-55 0 -79 -63z" />
    <glyph glyph-name="P" unicode="P" 
d="M492 301.5q-72 -55.5 -197 -55.5h-84v-246h-115v690h191q133 0 205 -54.5t72 -162.5q0 -116 -72 -171.5zM295 603h-84v-269h85q70 0 108.5 32t38.5 107q0 130 -148 130z" />
    <glyph glyph-name="Thorn" unicode="&#xde;" 
d="M205 575h82q133 0 205 -55t72 -165q0 -117 -71.5 -174t-197.5 -57h-90v-124h-116v690h116v-115zM205 488v-276h93q69 0 106.5 32t37.5 109q0 70 -38 102.5t-108 32.5h-91z" />
    <glyph glyph-name="Q" unicode="Q" 
d="M528.5 152.5q-33.5 -79.5 -110.5 -120.5q77 -15 120.5 -51.5t69.5 -113.5l-107 -40q-23 57 -49 91.5t-65 52.5t-97 18q-121 0 -185.5 94.5t-64.5 260.5q0 165 67.5 262.5t193.5 97.5q127 0 194 -96t67 -263q0 -113 -33.5 -192.5zM408.5 547.5q-32.5 65.5 -107.5 65.5
t-107.5 -66t-32.5 -203q0 -136 33.5 -201.5t106.5 -65.5q75 0 107.5 65.5t32.5 202.5t-32.5 202.5z" />
    <glyph glyph-name="R" unicode="R" 
d="M503 370q-43 -48 -114 -70l196 -300h-135l-174 284h-75v-284h-116v690h192q269 0 269 -200q0 -72 -43 -120zM390.5 577q-34.5 27 -106.5 27h-83v-235h86q68 0 103 29t35 92q0 60 -34.5 87z" />
    <glyph glyph-name="Racute" unicode="&#x154;" 
d="M503 370q-43 -48 -114 -70l196 -300h-135l-174 284h-75v-284h-116v690h192q269 0 269 -200q0 -72 -43 -120zM390.5 577q-34.5 27 -106.5 27h-83v-235h86q68 0 103 29t35 92q0 60 -34.5 87zM427 834l-223 -80l-28 58l205 112z" />
    <glyph glyph-name="Rcaron" unicode="&#x158;" 
d="M503 370q-43 -48 -114 -70l196 -300h-135l-174 284h-75v-284h-116v690h192q269 0 269 -200q0 -72 -43 -120zM390.5 577q-34.5 27 -106.5 27h-83v-235h86q68 0 103 29t35 92q0 60 -34.5 87zM473 869l-137 -116h-72l-137 116l45 51l128 -82l129 82z" />
    <glyph glyph-name="Rcommaaccent" unicode="&#x156;" 
d="M503 370q-43 -48 -114 -70l196 -300h-135l-174 284h-75v-284h-116v690h192q269 0 269 -200q0 -72 -43 -120zM390.5 577q-34.5 27 -106.5 27h-83v-235h86q68 0 103 29t35 92q0 60 -34.5 87zM350.5 -86.5q18.5 -17.5 18.5 -44.5q0 -28 -18 -65l-50 -104h-62l29 117
q-26 19 -26 52q0 26 18 44t45 18t45.5 -17.5z" />
    <glyph glyph-name="S" unicode="S" 
d="M517.5 86q-31.5 -47 -91 -73t-141.5 -26q-160 0 -254 92l64 71q78 -72 190 -72q62 0 102.5 29t40.5 82q0 31 -12.5 52t-42.5 37.5t-86 33.5q-115 34 -169 81t-54 124q0 55 30.5 97.5t84.5 66t122 23.5q139 0 231 -83l-61 -69q-71 61 -163 61q-56 0 -90.5 -23t-34.5 -66
q0 -27 14.5 -46t49 -34.5t97.5 -34.5q100 -30 152.5 -77t52.5 -137q0 -62 -31.5 -109z" />
    <glyph glyph-name="Sacute" unicode="&#x15a;" 
d="M517.5 86q-31.5 -47 -91 -73t-141.5 -26q-160 0 -254 92l64 71q78 -72 190 -72q62 0 102.5 29t40.5 82q0 31 -12.5 52t-42.5 37.5t-86 33.5q-115 34 -169 81t-54 124q0 55 30.5 97.5t84.5 66t122 23.5q139 0 231 -83l-61 -69q-71 61 -163 61q-56 0 -90.5 -23t-34.5 -66
q0 -27 14.5 -46t49 -34.5t97.5 -34.5q100 -30 152.5 -77t52.5 -137q0 -62 -31.5 -109zM434 834l-223 -80l-28 58l205 112z" />
    <glyph glyph-name="Scaron" unicode="&#x160;" 
d="M517.5 86q-31.5 -47 -91 -73t-141.5 -26q-160 0 -254 92l64 71q78 -72 190 -72q62 0 102.5 29t40.5 82q0 31 -12.5 52t-42.5 37.5t-86 33.5q-115 34 -169 81t-54 124q0 55 30.5 97.5t84.5 66t122 23.5q139 0 231 -83l-61 -69q-71 61 -163 61q-56 0 -90.5 -23t-34.5 -66
q0 -27 14.5 -46t49 -34.5t97.5 -34.5q100 -30 152.5 -77t52.5 -137q0 -62 -31.5 -109zM480 869l-137 -116h-72l-137 116l45 51l128 -82l129 82z" />
    <glyph glyph-name="Scedilla" unicode="&#x15e;" 
d="M489 53q-60 -56 -167 -65v-42q48 -4 72.5 -28.5t24.5 -60.5q0 -48 -38 -76t-95 -28q-31 0 -60 7t-49 19l30 58q34 -17 66 -17q57 0 57 38q0 23 -21.5 31t-66.5 8l8 91q-135 10 -219 91l64 71q78 -72 190 -72q62 0 102.5 29t40.5 82q0 31 -12.5 52t-42.5 37.5t-86 33.5
q-115 34 -169 81t-54 124q0 55 30.5 97.5t84.5 66t122 23.5q139 0 231 -83l-61 -69q-71 61 -163 61q-56 0 -90.5 -23t-34.5 -66q0 -27 14.5 -46t49 -34.5t97.5 -34.5q100 -30 152.5 -77t52.5 -137q0 -86 -60 -142z" />
    <glyph glyph-name="Scircumflex" unicode="&#x15c;" 
d="M517.5 86q-31.5 -47 -91 -73t-141.5 -26q-160 0 -254 92l64 71q78 -72 190 -72q62 0 102.5 29t40.5 82q0 31 -12.5 52t-42.5 37.5t-86 33.5q-115 34 -169 81t-54 124q0 55 30.5 97.5t84.5 66t122 23.5q139 0 231 -83l-61 -69q-71 61 -163 61q-56 0 -90.5 -23t-34.5 -66
q0 -27 14.5 -46t49 -34.5t97.5 -34.5q100 -30 152.5 -77t52.5 -137q0 -62 -31.5 -109zM480 807l-44 -51l-129 82l-128 -82l-45 51l137 116h72z" />
    <glyph glyph-name="Scommaaccent" unicode="&#x218;" 
d="M517.5 86q-31.5 -47 -91 -73t-141.5 -26q-160 0 -254 92l64 71q78 -72 190 -72q62 0 102.5 29t40.5 82q0 31 -12.5 52t-42.5 37.5t-86 33.5q-115 34 -169 81t-54 124q0 55 30.5 97.5t84.5 66t122 23.5q139 0 231 -83l-61 -69q-71 61 -163 61q-56 0 -90.5 -23t-34.5 -66
q0 -27 14.5 -46t49 -34.5t97.5 -34.5q100 -30 152.5 -77t52.5 -137q0 -62 -31.5 -109zM345.5 -86.5q18.5 -17.5 18.5 -44.5q0 -28 -18 -65l-50 -104h-62l29 117q-26 19 -26 52q0 26 18 44t45 18t45.5 -17.5z" />
    <glyph glyph-name="T" unicode="T" 
d="M357 0h-116v596h-208v94h535l-12 -94h-199v-596z" />
    <glyph glyph-name="Tbar" unicode="&#x166;" 
d="M357 596v-183h126v-77h-126v-336h-116v336h-125v77h125v183h-208v94h535l-12 -94h-199z" />
    <glyph glyph-name="Tcaron" unicode="&#x164;" 
d="M357 0h-116v596h-208v94h535l-12 -94h-199v-596zM472 869l-137 -116h-72l-137 116l45 51l128 -82l129 82z" />
    <glyph glyph-name="uni0162" unicode="&#x162;" 
d="M335 0v-54q48 -4 72.5 -28.5t24.5 -60.5q0 -48 -37.5 -76t-94.5 -28q-31 0 -60.5 7t-49.5 19l31 58q32 -17 66 -17q57 0 57 38q0 23 -21.5 31t-67.5 8l10 103h-24v596h-208v94h535l-12 -94h-199v-596h-22z" />
    <glyph glyph-name="uni021A" unicode="&#x21a;" 
d="M357 0h-116v596h-208v94h535l-12 -94h-199v-596zM346.5 -86.5q18.5 -17.5 18.5 -44.5q0 -28 -18 -65l-50 -104h-62l29 117q-26 19 -26 52q0 26 18 44t45 18t45.5 -17.5z" />
    <glyph glyph-name="U" unicode="U" 
d="M539 226q0 -70 -28.5 -124t-82.5 -84.5t-129 -30.5q-113 0 -175.5 65t-62.5 174v464h116v-442q0 -86 29.5 -127.5t92.5 -41.5q64 0 93.5 41.5t29.5 127.5v442h117v-464z" />
    <glyph glyph-name="Uacute" unicode="&#xda;" 
d="M539 226q0 -70 -28.5 -124t-82.5 -84.5t-129 -30.5q-113 0 -175.5 65t-62.5 174v464h116v-442q0 -86 29.5 -127.5t92.5 -41.5q64 0 93.5 41.5t29.5 127.5v442h117v-464zM427 834l-223 -80l-28 58l205 112z" />
    <glyph glyph-name="Ubreve" unicode="&#x16c;" 
d="M539 226q0 -70 -28.5 -124t-82.5 -84.5t-129 -30.5q-113 0 -175.5 65t-62.5 174v464h116v-442q0 -86 29.5 -127.5t92.5 -41.5q64 0 93.5 41.5t29.5 127.5v442h117v-464zM190 792.5q-42 36.5 -48 95.5l68 14q22 -64 88 -64q35 0 57.5 16.5t32.5 47.5l69 -14
q-6 -59 -49 -95.5t-110 -36.5q-66 0 -108 36.5z" />
    <glyph glyph-name="Ucircumflex" unicode="&#xdb;" 
d="M539 226q0 -70 -28.5 -124t-82.5 -84.5t-129 -30.5q-113 0 -175.5 65t-62.5 174v464h116v-442q0 -86 29.5 -127.5t92.5 -41.5q64 0 93.5 41.5t29.5 127.5v442h117v-464zM473 807l-44 -51l-129 82l-128 -82l-45 51l137 116h72z" />
    <glyph glyph-name="Udieresis" unicode="&#xdc;" 
d="M539 226q0 -70 -28.5 -124t-82.5 -84.5t-129 -30.5q-113 0 -175.5 65t-62.5 174v464h116v-442q0 -86 29.5 -127.5t92.5 -41.5q64 0 93.5 41.5t29.5 127.5v442h117v-464zM145.5 784q-18.5 18 -18.5 45t18.5 45.5t46.5 18.5t46.5 -18.5t18.5 -45.5t-18.5 -45t-46.5 -18
t-46.5 18zM362 784q-19 18 -19 45t19 45.5t46 18.5q28 0 46.5 -18.5t18.5 -45.5t-18.5 -45t-46.5 -18q-27 0 -46 18z" />
    <glyph glyph-name="Ugrave" unicode="&#xd9;" 
d="M539 226q0 -70 -28.5 -124t-82.5 -84.5t-129 -30.5q-113 0 -175.5 65t-62.5 174v464h116v-442q0 -86 29.5 -127.5t92.5 -41.5q64 0 93.5 41.5t29.5 127.5v442h117v-464zM424 812l-30 -58l-217 82l51 90z" />
    <glyph glyph-name="Uhungarumlaut" unicode="&#x170;" 
d="M539 226q0 -70 -28.5 -124t-82.5 -84.5t-129 -30.5q-113 0 -175.5 65t-62.5 174v464h116v-442q0 -86 29.5 -127.5t92.5 -41.5q64 0 93.5 41.5t29.5 127.5v442h117v-464zM259 965l87 -40l-107 -171l-66 29zM430 965l85 -43l-114 -170l-64 32z" />
    <glyph glyph-name="Umacron" unicode="&#x16a;" 
d="M539 226q0 -70 -28.5 -124t-82.5 -84.5t-129 -30.5q-113 0 -175.5 65t-62.5 174v464h116v-442q0 -86 29.5 -127.5t92.5 -41.5q64 0 93.5 41.5t29.5 127.5v442h117v-464zM159 790v82h282v-82h-282z" />
    <glyph glyph-name="Uogonek" unicode="&#x172;" 
d="M539 690v-464q0 -85 -41.5 -146t-116.5 -83q-66 -27 -90 -53t-24 -57q0 -48 56 -48q28 0 59 7l-10 -77q-33 -7 -62 -7q-59 0 -96 29.5t-37 77.5q0 38 19.5 67.5t57.5 53.5q-92 13 -142.5 76t-50.5 160v464h116v-442q0 -86 29.5 -127.5t92.5 -41.5q64 0 93.5 41.5
t29.5 127.5v442h117z" />
    <glyph glyph-name="Uring" unicode="&#x16e;" 
d="M539 226q0 -70 -28.5 -124t-82.5 -84.5t-129 -30.5q-113 0 -175.5 65t-62.5 174v464h116v-442q0 -86 29.5 -127.5t92.5 -41.5q64 0 93.5 41.5t29.5 127.5v442h117v-464zM388 928q34 -33 34 -81t-34 -80.5t-88 -32.5q-53 0 -87 33t-34 80q0 48 34 81t87 33q54 0 88 -33z
M263.5 886.5q-13.5 -14.5 -13.5 -39.5q0 -26 13.5 -40t36.5 -14q24 0 37.5 14t13.5 40q0 25 -14 39.5t-37 14.5t-36.5 -14.5z" />
    <glyph glyph-name="Utilde" unicode="&#x168;" 
d="M539 226q0 -70 -28.5 -124t-82.5 -84.5t-129 -30.5q-113 0 -175.5 65t-62.5 174v464h116v-442q0 -86 29.5 -127.5t92.5 -41.5q64 0 93.5 41.5t29.5 127.5v442h117v-464zM322 778q-16 7 -35 20q-13 10 -23.5 15t-21.5 5q-16 0 -28 -11t-25 -34l-63 31q20 44 49 70.5
t67 26.5q21 0 36 -7t35 -20q14 -10 24 -15t21 -5q15 0 27 10.5t25 33.5l63 -32q-20 -46 -49.5 -70.5t-65.5 -24.5q-20 0 -36 7z" />
    <glyph glyph-name="V" unicode="V" 
d="M467 690h118l-219 -690h-132l-219 690h124l163 -580z" />
    <glyph glyph-name="W" unicode="W" 
d="M503 0h-136l-68 511l-71 -511h-138l-88 690h112l54 -578l74 498h119l69 -498l64 578h104z" />
    <glyph glyph-name="Wacute" unicode="&#x1e82;" 
d="M503 0h-136l-68 511l-71 -511h-138l-88 690h112l54 -578l74 498h119l69 -498l64 578h104zM427 834l-223 -80l-28 58l205 112z" />
    <glyph glyph-name="Wcircumflex" unicode="&#x174;" 
d="M503 0h-136l-68 511l-71 -511h-138l-88 690h112l54 -578l74 498h119l69 -498l64 578h104zM473 807l-44 -51l-129 82l-128 -82l-45 51l137 116h72z" />
    <glyph glyph-name="Wdieresis" unicode="&#x1e84;" 
d="M503 0h-136l-68 511l-71 -511h-138l-88 690h112l54 -578l74 498h119l69 -498l64 578h104zM145.5 784q-18.5 18 -18.5 45t18.5 45.5t46.5 18.5t46.5 -18.5t18.5 -45.5t-18.5 -45t-46.5 -18t-46.5 18zM362 784q-19 18 -19 45t19 45.5t46 18.5q28 0 46.5 -18.5t18.5 -45.5
t-18.5 -45t-46.5 -18q-27 0 -46 18z" />
    <glyph glyph-name="Wgrave" unicode="&#x1e80;" 
d="M503 0h-136l-68 511l-71 -511h-138l-88 690h112l54 -578l74 498h119l69 -498l64 578h104zM424 812l-30 -58l-217 82l51 90z" />
    <glyph glyph-name="X" unicode="X" 
d="M167 690l133 -248l135 248h123l-191 -317l213 -373h-129l-153 293l-154 -293h-123l208 367l-191 323h129z" />
    <glyph glyph-name="Y" unicode="Y" 
d="M358 0h-116v263l-231 427h128l163 -327l165 327h122l-231 -426v-264z" />
    <glyph glyph-name="Yacute" unicode="&#xdd;" 
d="M358 0h-116v263l-231 427h128l163 -327l165 327h122l-231 -426v-264zM429 834l-223 -80l-28 58l205 112z" />
    <glyph glyph-name="Ycircumflex" unicode="&#x176;" 
d="M358 0h-116v263l-231 427h128l163 -327l165 327h122l-231 -426v-264zM475 807l-44 -51l-129 82l-128 -82l-45 51l137 116h72z" />
    <glyph glyph-name="Ydieresis" unicode="&#x178;" 
d="M358 0h-116v263l-231 427h128l163 -327l165 327h122l-231 -426v-264zM147.5 784q-18.5 18 -18.5 45t18.5 45.5t46.5 18.5t46.5 -18.5t18.5 -45.5t-18.5 -45t-46.5 -18t-46.5 18zM364 784q-19 18 -19 45t19 45.5t46 18.5q28 0 46.5 -18.5t18.5 -45.5t-18.5 -45t-46.5 -18
q-27 0 -46 18z" />
    <glyph glyph-name="Ygrave" unicode="&#x1ef2;" 
d="M358 0h-116v263l-231 427h128l163 -327l165 327h122l-231 -426v-264zM426 812l-30 -58l-217 82l51 90z" />
    <glyph glyph-name="Z" unicode="Z" 
d="M540 96l-12 -96h-469v90l351 506h-315v94h443v-91l-346 -503h348z" />
    <glyph glyph-name="Zacute" unicode="&#x179;" 
d="M540 96l-12 -96h-469v90l351 506h-315v94h443v-91l-346 -503h348zM443 834l-223 -80l-28 58l205 112z" />
    <glyph glyph-name="Zcaron" unicode="&#x17d;" 
d="M540 96l-12 -96h-469v90l351 506h-315v94h443v-91l-346 -503h348zM490 869l-137 -116h-72l-137 116l45 51l128 -82l129 82z" />
    <glyph glyph-name="Zdotaccent" unicode="&#x17b;" 
d="M540 96l-12 -96h-469v90l351 506h-315v94h443v-91l-346 -503h348zM368.5 888q20.5 -20 20.5 -50t-20.5 -50.5t-52.5 -20.5t-52.5 20.5t-20.5 50.5t20 50t53 20q32 0 52.5 -20z" />
    <glyph glyph-name="Cacute.loclPLK" 
d="M474 687q48 -17 92 -53l-60 -72q-63 51 -143 51q-84 0 -137 -64.5t-53 -202.5q0 -136 52 -200.5t139 -64.5q50 0 85.5 15.5t70.5 43.5l56 -71q-84 -82 -216 -82q-89 0 -159 41.5t-109.5 122.5t-39.5 195q0 112 40.5 193t110.5 123t155 42q68 0 116 -17zM496 880
l-137 -148l-54 34l104 171z" />
    <glyph glyph-name="Nacute.loclPLK" 
d="M158 587q16 -164 16 -274v-313h-103v690h151l220 -587q-7 74 -11.5 133.5t-4.5 139.5v314h103v-690h-151zM435 880l-137 -148l-54 34l104 171z" />
    <glyph glyph-name="Oacute.loclPLK" 
d="M494.5 84q-67.5 -97 -194.5 -97t-194.5 95.5t-67.5 261.5q0 164 67.5 262t194.5 98t194.5 -96.5t67.5 -262.5q0 -164 -67.5 -261zM409 547q-34 66 -109 66t-109 -66t-34 -203q0 -135 34.5 -201t108.5 -66q75 0 109 66t34 202t-34 202zM432 880l-137 -148l-54 34l104 171z
" />
    <glyph glyph-name="Sacute.loclPLK" 
d="M517.5 86q-31.5 -47 -91 -73t-141.5 -26q-160 0 -254 92l64 71q78 -72 190 -72q62 0 102.5 29t40.5 82q0 31 -12.5 52t-42.5 37.5t-86 33.5q-115 34 -169 81t-54 124q0 55 30.5 97.5t84.5 66t122 23.5q139 0 231 -83l-61 -69q-71 61 -163 61q-56 0 -90.5 -23t-34.5 -66
q0 -27 14.5 -46t49 -34.5t97.5 -34.5q100 -30 152.5 -77t52.5 -137q0 -62 -31.5 -109zM439 880l-137 -148l-54 34l104 171z" />
    <glyph glyph-name="Zacute.loclPLK" 
d="M540 96l-12 -96h-469v90l351 506h-315v94h443v-91l-346 -503h348zM448 880l-137 -148l-54 34l104 171z" />
    <glyph glyph-name="a" unicode="a" 
d="M502 84.5q9 -14.5 31 -21.5l-26 -76q-83 10 -109 73q-29 -36 -72.5 -54.5t-95.5 -18.5q-80 0 -127 45t-47 119q0 83 65.5 128t185.5 45h75v34q0 50 -30 73t-87 23q-28 0 -65 -7t-75 -20l-28 79q95 36 185 36q105 0 158 -46t53 -131v-236q0 -30 9 -44.5zM330.5 87
q32.5 18 51.5 50v117h-62q-76 0 -111 -25.5t-35 -73.5q0 -42 22.5 -64t66.5 -22q35 0 67.5 18z" />
    <glyph glyph-name="aacute" unicode="&#xe1;" 
d="M502 84.5q9 -14.5 31 -21.5l-26 -76q-83 10 -109 73q-29 -36 -72.5 -54.5t-95.5 -18.5q-80 0 -127 45t-47 119q0 83 65.5 128t185.5 45h75v34q0 50 -30 73t-87 23q-28 0 -65 -7t-75 -20l-28 79q95 36 185 36q105 0 158 -46t53 -131v-236q0 -30 9 -44.5zM330.5 87
q32.5 18 51.5 50v117h-62q-76 0 -111 -25.5t-35 -73.5q0 -42 22.5 -64t66.5 -22q35 0 67.5 18zM420 722l-219 -89l-33 59l205 119z" />
    <glyph glyph-name="abreve" unicode="&#x103;" 
d="M502 84.5q9 -14.5 31 -21.5l-26 -76q-83 10 -109 73q-29 -36 -72.5 -54.5t-95.5 -18.5q-80 0 -127 45t-47 119q0 83 65.5 128t185.5 45h75v34q0 50 -30 73t-87 23q-28 0 -65 -7t-75 -20l-28 79q95 36 185 36q105 0 158 -46t53 -131v-236q0 -30 9 -44.5zM330.5 87
q32.5 18 51.5 50v117h-62q-76 0 -111 -25.5t-35 -73.5q0 -42 22.5 -64t66.5 -22q35 0 67.5 18zM181.5 668q-40.5 45 -47.5 106l69 13q10 -39 32 -61t56 -22t56.5 22t33.5 61l68 -13q-4 -38 -23.5 -72.5t-54 -56.5t-80.5 -22q-69 0 -109.5 45z" />
    <glyph glyph-name="acircumflex" unicode="&#xe2;" 
d="M502 84.5q9 -14.5 31 -21.5l-26 -76q-83 10 -109 73q-29 -36 -72.5 -54.5t-95.5 -18.5q-80 0 -127 45t-47 119q0 83 65.5 128t185.5 45h75v34q0 50 -30 73t-87 23q-28 0 -65 -7t-75 -20l-28 79q95 36 185 36q105 0 158 -46t53 -131v-236q0 -30 9 -44.5zM330.5 87
q32.5 18 51.5 50v117h-62q-76 0 -111 -25.5t-35 -73.5q0 -42 22.5 -64t66.5 -22q35 0 67.5 18zM119 672l137 127h72l137 -127l-45 -50l-127 92l-128 -92z" />
    <glyph glyph-name="adieresis" unicode="&#xe4;" 
d="M502 84.5q9 -14.5 31 -21.5l-26 -76q-83 10 -109 73q-29 -36 -72.5 -54.5t-95.5 -18.5q-80 0 -127 45t-47 119q0 83 65.5 128t185.5 45h75v34q0 50 -30 73t-87 23q-28 0 -65 -7t-75 -20l-28 79q95 36 185 36q105 0 158 -46t53 -131v-236q0 -30 9 -44.5zM330.5 87
q32.5 18 51.5 50v117h-62q-76 0 -111 -25.5t-35 -73.5q0 -42 22.5 -64t66.5 -22q35 0 67.5 18zM137 662q-19 18 -19 45q0 28 19 46t47 18q27 0 45.5 -18t18.5 -46q0 -27 -18.5 -45t-45.5 -18q-28 0 -47 18zM354 662q-19 18 -19 45t19 45.5t46 18.5q28 0 46.5 -18t18.5 -46
q0 -27 -18.5 -45t-46.5 -18q-27 0 -46 18z" />
    <glyph glyph-name="agrave" unicode="&#xe0;" 
d="M502 84.5q9 -14.5 31 -21.5l-26 -76q-83 10 -109 73q-29 -36 -72.5 -54.5t-95.5 -18.5q-80 0 -127 45t-47 119q0 83 65.5 128t185.5 45h75v34q0 50 -30 73t-87 23q-28 0 -65 -7t-75 -20l-28 79q95 36 185 36q105 0 158 -46t53 -131v-236q0 -30 9 -44.5zM330.5 87
q32.5 18 51.5 50v117h-62q-76 0 -111 -25.5t-35 -73.5q0 -42 22.5 -64t66.5 -22q35 0 67.5 18zM168 715l52 90l197 -124l-34 -59z" />
    <glyph glyph-name="amacron" unicode="&#x101;" 
d="M502 84.5q9 -14.5 31 -21.5l-26 -76q-83 10 -109 73q-29 -36 -72.5 -54.5t-95.5 -18.5q-80 0 -127 45t-47 119q0 83 65.5 128t185.5 45h75v34q0 50 -30 73t-87 23q-28 0 -65 -7t-75 -20l-28 79q95 36 185 36q105 0 158 -46t53 -131v-236q0 -30 9 -44.5zM330.5 87
q32.5 18 51.5 50v117h-62q-76 0 -111 -25.5t-35 -73.5q0 -42 22.5 -64t66.5 -22q35 0 67.5 18zM150 669v81h283v-81h-283z" />
    <glyph glyph-name="aogonek" unicode="&#x105;" 
d="M507 -13v0q-69 -28 -94.5 -54.5t-25.5 -58.5q0 -48 56 -48q28 0 59 7l-10 -77q-33 -7 -62 -7q-59 0 -96 29.5t-37 77.5q0 52 35.5 88.5t107.5 63.5q-27 18 -42 52q-29 -36 -72.5 -54.5t-95.5 -18.5q-80 0 -127 45t-47 119q0 83 65.5 128t185.5 45h75v34q0 50 -30 73
t-87 23q-28 0 -65 -7t-75 -20l-28 79q95 36 185 36q105 0 158 -46t53 -131v-236q0 -30 9 -44.5t31 -21.5zM382 254h-62q-76 0 -111 -25.5t-35 -73.5q0 -42 22.5 -64t66.5 -22q35 0 67.5 18t51.5 50v117z" />
    <glyph glyph-name="aring" unicode="&#xe5;" 
d="M502 84.5q9 -14.5 31 -21.5l-26 -76q-83 10 -109 73q-29 -36 -72.5 -54.5t-95.5 -18.5q-80 0 -127 45t-47 119q0 83 65.5 128t185.5 45h75v34q0 50 -30 73t-87 23q-28 0 -65 -7t-75 -20l-28 79q95 36 185 36q105 0 158 -46t53 -131v-236q0 -30 9 -44.5zM330.5 87
q32.5 18 51.5 50v117h-62q-76 0 -111 -25.5t-35 -73.5q0 -42 22.5 -64t66.5 -22q35 0 67.5 18zM379.5 806.5q33.5 -32.5 33.5 -80.5t-33.5 -81t-87.5 -33t-88 33t-34 81t34 80.5t88 32.5t87.5 -32.5zM254.5 765q-13.5 -14 -13.5 -39q0 -26 13.5 -40.5t37.5 -14.5
q23 0 36.5 14.5t13.5 40.5q0 25 -13.5 39t-36.5 14q-24 0 -37.5 -14z" />
    <glyph glyph-name="atilde" unicode="&#xe3;" 
d="M502 84.5q9 -14.5 31 -21.5l-26 -76q-83 10 -109 73q-29 -36 -72.5 -54.5t-95.5 -18.5q-80 0 -127 45t-47 119q0 83 65.5 128t185.5 45h75v34q0 50 -30 73t-87 23q-28 0 -65 -7t-75 -20l-28 79q95 36 185 36q105 0 158 -46t53 -131v-236q0 -30 9 -44.5zM330.5 87
q32.5 18 51.5 50v117h-62q-76 0 -111 -25.5t-35 -73.5q0 -42 22.5 -64t66.5 -22q35 0 67.5 18zM313.5 657q-15.5 7 -34.5 20q-15 11 -24.5 15.5t-20.5 4.5q-17 0 -28.5 -11t-24.5 -35l-63 31q20 44 49 71t66 27q21 0 37.5 -7.5t34.5 -20.5q14 -10 23.5 -15t20.5 -5
q15 0 27 10.5t26 33.5l63 -31q-20 -46 -49.5 -70.5t-66.5 -24.5q-20 0 -35.5 7z" />
    <glyph glyph-name="ae" unicode="&#xe6;" 
d="M604 278q0 -20 -2 -48h-258q7 -83 32 -121.5t74 -38.5q26 0 48 9t47 28l47 -66q-32 -26 -67 -40t-79 -14q-102 0 -153 87q-33 -47 -66 -67t-82 -20q-69 0 -110 45t-41 119q0 84 53 128t157 44h44v35q0 104 -91 104q-24 0 -45.5 -6t-54.5 -21l-27 72q75 35 138 35
q55 0 87.5 -21t50.5 -60q16 38 48.5 59.5t77.5 21.5q172 0 172 -264zM368 425.5q-20 -35.5 -24 -121.5h164q-1 81 -18.5 119t-61.5 38q-40 0 -60 -35.5zM213 254q-61 0 -87 -24.5t-26 -72.5q0 -44 17 -67.5t47 -23.5q27 0 48.5 20t45.5 63q-10 46 -10 105h-35z" />
    <glyph glyph-name="aeacute" unicode="&#x1fd;" 
d="M604 278q0 -20 -2 -48h-258q7 -83 32 -121.5t74 -38.5q26 0 48 9t47 28l47 -66q-32 -26 -67 -40t-79 -14q-102 0 -153 87q-33 -47 -66 -67t-82 -20q-69 0 -110 45t-41 119q0 84 53 128t157 44h44v35q0 104 -91 104q-24 0 -45.5 -6t-54.5 -21l-27 72q75 35 138 35
q55 0 87.5 -21t50.5 -60q16 38 48.5 59.5t77.5 21.5q172 0 172 -264zM368 425.5q-20 -35.5 -24 -121.5h164q-1 81 -18.5 119t-61.5 38q-40 0 -60 -35.5zM213 254q-61 0 -87 -24.5t-26 -72.5q0 -44 17 -67.5t47 -23.5q27 0 48.5 20t45.5 63q-10 46 -10 105h-35zM434 722
l-219 -89l-33 59l205 119z" />
    <glyph glyph-name="b" unicode="b" 
d="M265.5 522q37.5 20 80.5 20q101 0 149 -73t48 -204q0 -124 -55.5 -201t-155.5 -77q-88 0 -138 65l-6 -52h-99v740l112 13v-288q27 37 64.5 57zM393.5 119.5q30.5 47.5 30.5 144.5q0 100 -27.5 146t-81.5 46q-34 0 -63.5 -21t-50.5 -55v-247q40 -61 104 -61
q58 0 88.5 47.5z" />
    <glyph glyph-name="c" unicode="c" 
d="M474 124l51 -72q-35 -30 -84 -47.5t-101 -17.5q-121 0 -189 74.5t-68 199.5q0 81 31 144.5t89.5 100t138.5 36.5q105 0 183 -64l-52 -70q-64 44 -129 44q-66 0 -104 -47.5t-38 -143.5q0 -94 38 -138t104 -44q63 0 130 45z" />
    <glyph glyph-name="cacute" unicode="&#x107;" 
d="M474 124l51 -72q-35 -30 -84 -47.5t-101 -17.5q-121 0 -189 74.5t-68 199.5q0 81 31 144.5t89.5 100t138.5 36.5q105 0 183 -64l-52 -70q-64 44 -129 44q-66 0 -104 -47.5t-38 -143.5q0 -94 38 -138t104 -44q63 0 130 45zM472 712l-219 -89l-33 59l205 119z" />
    <glyph glyph-name="ccaron" unicode="&#x10d;" 
d="M474 124l51 -72q-35 -30 -84 -47.5t-101 -17.5q-121 0 -189 74.5t-68 199.5q0 81 31 144.5t89.5 100t138.5 36.5q105 0 183 -64l-52 -70q-64 44 -129 44q-66 0 -104 -47.5t-38 -143.5q0 -94 38 -138t104 -44q63 0 130 45zM517 739l-137 -127h-72l-137 127l46 50l128 -92
l127 92z" />
    <glyph glyph-name="ccedilla" unicode="&#xe7;" 
d="M435.5 -82.5q24.5 -24.5 24.5 -60.5q0 -48 -38 -76t-95 -28q-31 0 -60 7t-49 19l30 58q34 -17 66 -17q57 0 57 38q0 23 -21.5 31t-66.5 8l8 93q-99 15 -153.5 87t-54.5 184q0 81 31 144.5t89.5 100t138.5 36.5q105 0 183 -64l-52 -70q-64 44 -129 44q-66 0 -104 -47.5
t-38 -143.5q0 -94 38 -138t104 -44q63 0 130 45l51 -72q-31 -27 -73.5 -44t-88.5 -21v-41q48 -4 72.5 -28.5z" />
    <glyph glyph-name="ccircumflex" unicode="&#x109;" 
d="M474 124l51 -72q-35 -30 -84 -47.5t-101 -17.5q-121 0 -189 74.5t-68 199.5q0 81 31 144.5t89.5 100t138.5 36.5q105 0 183 -64l-52 -70q-64 44 -129 44q-66 0 -104 -47.5t-38 -143.5q0 -94 38 -138t104 -44q63 0 130 45zM171 662l137 127h72l137 -127l-45 -50l-127 92
l-128 -92z" />
    <glyph glyph-name="cdotaccent" unicode="&#x10b;" 
d="M474 124l51 -72q-35 -30 -84 -47.5t-101 -17.5q-121 0 -189 74.5t-68 199.5q0 81 31 144.5t89.5 100t138.5 36.5q105 0 183 -64l-52 -70q-64 44 -129 44q-66 0 -104 -47.5t-38 -143.5q0 -94 38 -138t104 -44q63 0 130 45zM396.5 756.5q20.5 -20.5 20.5 -50.5t-20.5 -50
t-53.5 -20q-32 0 -52.5 20t-20.5 50t20.5 50.5t52.5 20.5q33 0 53.5 -20.5z" />
    <glyph glyph-name="d" unicode="d" 
d="M511 740v-740h-99l-8 65q-26 -38 -64 -58t-84 -20q-99 0 -149 74t-50 203q0 81 25.5 144t72.5 98.5t111 35.5q81 0 133 -58v269zM206.5 408.5q-30.5 -47.5 -30.5 -144.5q0 -192 110 -192q66 0 113 76v249q-41 59 -104 59q-58 0 -88.5 -47.5z" />
    <glyph glyph-name="eth" unicode="&#xf0;" 
d="M225 641q-44 19 -107 31l23 80q85 -15 148 -44l71 74l63 -54l-59 -60q91 -61 134 -159.5t43 -239.5q0 -83 -29.5 -147t-85.5 -99.5t-131 -35.5q-67 0 -121 29.5t-85.5 85.5t-31.5 133q0 72 29 128t78 87t106 31q47 0 83.5 -15.5t65.5 -46.5q-29 116 -121 182l-70 -72
l-75 36zM426 331q-23 32 -57.5 49.5t-76.5 17.5q-53 0 -87 -40.5t-34 -119.5q0 -81 33.5 -123.5t90.5 -42.5q64 0 98.5 48.5t34.5 142.5q0 24 -2 68z" />
    <glyph glyph-name="dcaron" unicode="&#x10f;" 
d="M478 740v-740h-99l-8 65q-26 -38 -64 -58t-84 -20q-99 0 -149 74t-50 203q0 81 25.5 144t72.5 98.5t111 35.5q81 0 133 -58v269zM173.5 408.5q-30.5 -47.5 -30.5 -144.5q0 -192 110 -192q66 0 113 76v249q-41 59 -104 59q-58 0 -88.5 -47.5zM644 741l-63 -198l-67 10
l30 201z" />
    <glyph glyph-name="dcroat" unicode="&#x111;" 
d="M585 596h-79v-596h-99l-8 65q-56 -78 -149 -78q-98 0 -148 74t-50 203q0 81 25 144t72 98.5t111 35.5q82 0 134 -58v112h-153v77h153v80l112 -13v-67h79v-77zM394 397q-43 59 -104 59q-58 0 -89 -47.5t-31 -144.5q0 -192 110 -192q65 0 114 76v249z" />
    <glyph glyph-name="e" unicode="e" 
d="M226.5 112.5q39.5 -38.5 99.5 -38.5q37 0 70.5 11.5t68.5 34.5l48 -68q-37 -31 -87 -48t-105 -17q-121 0 -188 75.5t-67 201.5q0 79 29 142.5t84 99.5t128 36q105 0 166.5 -70.5t61.5 -193.5q0 -30 -3 -50h-350q5 -77 44.5 -115.5zM220 420q-34 -39 -39 -116h245
q-2 75 -32 115t-86 40q-54 0 -88 -39z" />
    <glyph glyph-name="eacute" unicode="&#xe9;" 
d="M226.5 112.5q39.5 -38.5 99.5 -38.5q37 0 70.5 11.5t68.5 34.5l48 -68q-37 -31 -87 -48t-105 -17q-121 0 -188 75.5t-67 201.5q0 79 29 142.5t84 99.5t128 36q105 0 166.5 -70.5t61.5 -193.5q0 -30 -3 -50h-350q5 -77 44.5 -115.5zM220 420q-34 -39 -39 -116h245
q-2 75 -32 115t-86 40q-54 0 -88 -39zM437 722l-219 -89l-33 59l205 119z" />
    <glyph glyph-name="ebreve" unicode="&#x115;" 
d="M226.5 112.5q39.5 -38.5 99.5 -38.5q37 0 70.5 11.5t68.5 34.5l48 -68q-37 -31 -87 -48t-105 -17q-121 0 -188 75.5t-67 201.5q0 79 29 142.5t84 99.5t128 36q105 0 166.5 -70.5t61.5 -193.5q0 -30 -3 -50h-350q5 -77 44.5 -115.5zM220 420q-34 -39 -39 -116h245
q-2 75 -32 115t-86 40q-54 0 -88 -39zM198.5 668q-40.5 45 -47.5 106l69 13q10 -39 32 -61t56 -22t56.5 22t33.5 61l68 -13q-4 -38 -23.5 -72.5t-54 -56.5t-80.5 -22q-69 0 -109.5 45z" />
    <glyph glyph-name="ecaron" unicode="&#x11b;" 
d="M226.5 112.5q39.5 -38.5 99.5 -38.5q37 0 70.5 11.5t68.5 34.5l48 -68q-37 -31 -87 -48t-105 -17q-121 0 -188 75.5t-67 201.5q0 79 29 142.5t84 99.5t128 36q105 0 166.5 -70.5t61.5 -193.5q0 -30 -3 -50h-350q5 -77 44.5 -115.5zM220 420q-34 -39 -39 -116h245
q-2 75 -32 115t-86 40q-54 0 -88 -39zM482 749l-137 -127h-72l-137 127l46 50l128 -92l127 92z" />
    <glyph glyph-name="ecircumflex" unicode="&#xea;" 
d="M226.5 112.5q39.5 -38.5 99.5 -38.5q37 0 70.5 11.5t68.5 34.5l48 -68q-37 -31 -87 -48t-105 -17q-121 0 -188 75.5t-67 201.5q0 79 29 142.5t84 99.5t128 36q105 0 166.5 -70.5t61.5 -193.5q0 -30 -3 -50h-350q5 -77 44.5 -115.5zM220 420q-34 -39 -39 -116h245
q-2 75 -32 115t-86 40q-54 0 -88 -39zM136 672l137 127h72l137 -127l-45 -50l-127 92l-128 -92z" />
    <glyph glyph-name="edieresis" unicode="&#xeb;" 
d="M226.5 112.5q39.5 -38.5 99.5 -38.5q37 0 70.5 11.5t68.5 34.5l48 -68q-37 -31 -87 -48t-105 -17q-121 0 -188 75.5t-67 201.5q0 79 29 142.5t84 99.5t128 36q105 0 166.5 -70.5t61.5 -193.5q0 -30 -3 -50h-350q5 -77 44.5 -115.5zM220 420q-34 -39 -39 -116h245
q-2 75 -32 115t-86 40q-54 0 -88 -39zM154 662q-19 18 -19 45q0 28 19 46t47 18q27 0 45.5 -18t18.5 -46q0 -27 -18.5 -45t-45.5 -18q-28 0 -47 18zM371 662q-19 18 -19 45t19 45.5t46 18.5q28 0 46.5 -18t18.5 -46q0 -27 -18.5 -45t-46.5 -18q-27 0 -46 18z" />
    <glyph glyph-name="edotaccent" unicode="&#x117;" 
d="M226.5 112.5q39.5 -38.5 99.5 -38.5q37 0 70.5 11.5t68.5 34.5l48 -68q-37 -31 -87 -48t-105 -17q-121 0 -188 75.5t-67 201.5q0 79 29 142.5t84 99.5t128 36q105 0 166.5 -70.5t61.5 -193.5q0 -30 -3 -50h-350q5 -77 44.5 -115.5zM220 420q-34 -39 -39 -116h245
q-2 75 -32 115t-86 40q-54 0 -88 -39zM361.5 766.5q20.5 -20.5 20.5 -50.5t-20.5 -50t-53.5 -20q-32 0 -52.5 20t-20.5 50t20.5 50.5t52.5 20.5q33 0 53.5 -20.5z" />
    <glyph glyph-name="egrave" unicode="&#xe8;" 
d="M226.5 112.5q39.5 -38.5 99.5 -38.5q37 0 70.5 11.5t68.5 34.5l48 -68q-37 -31 -87 -48t-105 -17q-121 0 -188 75.5t-67 201.5q0 79 29 142.5t84 99.5t128 36q105 0 166.5 -70.5t61.5 -193.5q0 -30 -3 -50h-350q5 -77 44.5 -115.5zM220 420q-34 -39 -39 -116h245
q-2 75 -32 115t-86 40q-54 0 -88 -39zM185 715l52 90l197 -124l-34 -59z" />
    <glyph glyph-name="emacron" unicode="&#x113;" 
d="M226.5 112.5q39.5 -38.5 99.5 -38.5q37 0 70.5 11.5t68.5 34.5l48 -68q-37 -31 -87 -48t-105 -17q-121 0 -188 75.5t-67 201.5q0 79 29 142.5t84 99.5t128 36q105 0 166.5 -70.5t61.5 -193.5q0 -30 -3 -50h-350q5 -77 44.5 -115.5zM220 420q-34 -39 -39 -116h245
q-2 75 -32 115t-86 40q-54 0 -88 -39zM167 669v81h283v-81h-283z" />
    <glyph glyph-name="eogonek" unicode="&#x119;" 
d="M532 228h-350q5 -77 44.5 -115.5t99.5 -38.5q37 0 70.5 11.5t68.5 34.5l48 -68q-44 -35 -103 -53q-68 -28 -93 -54.5t-25 -57.5q0 -48 56 -48q28 0 59 7l-10 -77q-33 -7 -62 -7q-59 0 -96 29.5t-37 77.5q0 75 87 119q-106 10 -164.5 84.5t-58.5 191.5q0 79 29 142.5
t84 99.5t128 36q105 0 166.5 -70.5t61.5 -193.5q0 -30 -3 -50zM426 304q-2 75 -32 115t-86 40q-54 0 -88 -39t-39 -116h245z" />
    <glyph glyph-name="f" unicode="f" 
d="M568 722l-34 -78q-51 22 -113 22q-52 0 -77 -20t-25 -62v-94h177l-13 -83h-164v-407h-112v407h-120v83h120v95q0 50 25.5 88t71.5 59t106 21q86 0 158 -31z" />
    <glyph glyph-name="g" unicode="g" 
d="M563 502q-29 -10 -65.5 -13.5t-87.5 -3.5q48 -22 72 -55t24 -80q0 -52 -25.5 -92t-72.5 -63t-111 -23q-45 0 -72 9q-11 -8 -17 -19.5t-6 -24.5q0 -40 65 -40h92q56 0 100 -19t68.5 -52.5t24.5 -75.5q0 -79 -68 -122.5t-196 -43.5q-89 0 -140.5 18.5t-73 54t-21.5 91.5
h100q0 -30 11.5 -47.5t40.5 -26t84 -8.5q80 0 115 19.5t35 57.5q0 32 -27.5 49.5t-74.5 17.5h-91q-71 0 -107.5 29t-36.5 73q0 27 15 52t43 43q-47 25 -68.5 60.5t-21.5 87.5q0 55 28 97.5t78 66t114 23.5q86 -1 136.5 12t107.5 41zM211 434.5q-27 -29.5 -27 -79.5
q0 -51 27.5 -80.5t80.5 -29.5q50 0 76 29t26 83q0 107 -103 107q-53 0 -80 -29.5z" />
    <glyph glyph-name="gbreve" unicode="&#x11f;" 
d="M563 502q-29 -10 -65.5 -13.5t-87.5 -3.5q48 -22 72 -55t24 -80q0 -52 -25.5 -92t-72.5 -63t-111 -23q-45 0 -72 9q-11 -8 -17 -19.5t-6 -24.5q0 -40 65 -40h92q56 0 100 -19t68.5 -52.5t24.5 -75.5q0 -79 -68 -122.5t-196 -43.5q-89 0 -140.5 18.5t-73 54t-21.5 91.5
h100q0 -30 11.5 -47.5t40.5 -26t84 -8.5q80 0 115 19.5t35 57.5q0 32 -27.5 49.5t-74.5 17.5h-91q-71 0 -107.5 29t-36.5 73q0 27 15 52t43 43q-47 25 -68.5 60.5t-21.5 87.5q0 55 28 97.5t78 66t114 23.5q86 -1 136.5 12t107.5 41zM211 434.5q-27 -29.5 -27 -79.5
q0 -51 27.5 -80.5t80.5 -29.5q50 0 76 29t26 83q0 107 -103 107q-53 0 -80 -29.5zM185.5 668q-40.5 45 -47.5 106l69 13q10 -39 32 -61t56 -22t56.5 22t33.5 61l68 -13q-4 -38 -23.5 -72.5t-54 -56.5t-80.5 -22q-69 0 -109.5 45z" />
    <glyph glyph-name="gcircumflex" unicode="&#x11d;" 
d="M563 502q-29 -10 -65.5 -13.5t-87.5 -3.5q48 -22 72 -55t24 -80q0 -52 -25.5 -92t-72.5 -63t-111 -23q-45 0 -72 9q-11 -8 -17 -19.5t-6 -24.5q0 -40 65 -40h92q56 0 100 -19t68.5 -52.5t24.5 -75.5q0 -79 -68 -122.5t-196 -43.5q-89 0 -140.5 18.5t-73 54t-21.5 91.5
h100q0 -30 11.5 -47.5t40.5 -26t84 -8.5q80 0 115 19.5t35 57.5q0 32 -27.5 49.5t-74.5 17.5h-91q-71 0 -107.5 29t-36.5 73q0 27 15 52t43 43q-47 25 -68.5 60.5t-21.5 87.5q0 55 28 97.5t78 66t114 23.5q86 -1 136.5 12t107.5 41zM211 434.5q-27 -29.5 -27 -79.5
q0 -51 27.5 -80.5t80.5 -29.5q50 0 76 29t26 83q0 107 -103 107q-53 0 -80 -29.5zM123 672l137 127h72l137 -127l-45 -50l-127 92l-128 -92z" />
    <glyph glyph-name="gcommaaccent" unicode="&#x123;" 
d="M248.5 614.5q-18.5 17.5 -18.5 44.5q0 28 18 65l50 104h62l-29 -117q26 -19 26 -52q0 -26 -18 -44t-45 -18t-45.5 17.5zM563 502q-29 -10 -65.5 -13.5t-87.5 -3.5q48 -22 72 -55t24 -80q0 -52 -25.5 -92t-72.5 -63t-111 -23q-45 0 -72 9q-11 -8 -17 -19.5t-6 -24.5
q0 -40 65 -40h92q56 0 100 -19t68.5 -52.5t24.5 -75.5q0 -79 -68 -122.5t-196 -43.5q-89 0 -140.5 18.5t-73 54t-21.5 91.5h100q0 -30 11.5 -47.5t40.5 -26t84 -8.5q80 0 115 19.5t35 57.5q0 32 -27.5 49.5t-74.5 17.5h-91q-71 0 -107.5 29t-36.5 73q0 27 15 52t43 43
q-47 25 -68.5 60.5t-21.5 87.5q0 55 28 97.5t78 66t114 23.5q86 -1 136.5 12t107.5 41zM211 434.5q-27 -29.5 -27 -79.5q0 -51 27.5 -80.5t80.5 -29.5q50 0 76 29t26 83q0 107 -103 107q-53 0 -80 -29.5z" />
    <glyph glyph-name="gdotaccent" unicode="&#x121;" 
d="M563 502q-29 -10 -65.5 -13.5t-87.5 -3.5q48 -22 72 -55t24 -80q0 -52 -25.5 -92t-72.5 -63t-111 -23q-45 0 -72 9q-11 -8 -17 -19.5t-6 -24.5q0 -40 65 -40h92q56 0 100 -19t68.5 -52.5t24.5 -75.5q0 -79 -68 -122.5t-196 -43.5q-89 0 -140.5 18.5t-73 54t-21.5 91.5
h100q0 -30 11.5 -47.5t40.5 -26t84 -8.5q80 0 115 19.5t35 57.5q0 32 -27.5 49.5t-74.5 17.5h-91q-71 0 -107.5 29t-36.5 73q0 27 15 52t43 43q-47 25 -68.5 60.5t-21.5 87.5q0 55 28 97.5t78 66t114 23.5q86 -1 136.5 12t107.5 41zM211 434.5q-27 -29.5 -27 -79.5
q0 -51 27.5 -80.5t80.5 -29.5q50 0 76 29t26 83q0 107 -103 107q-53 0 -80 -29.5zM348.5 766.5q20.5 -20.5 20.5 -50.5t-20.5 -50t-53.5 -20q-32 0 -52.5 20t-20.5 50t20.5 50.5t52.5 20.5q33 0 53.5 -20.5z" />
    <glyph glyph-name="h" unicode="h" 
d="M201 463q32 39 74.5 59t89.5 20q73 0 110 -40.5t37 -116.5v-385h-112v368q0 47 -18 67.5t-58 20.5q-35 0 -67.5 -22.5t-55.5 -55.5v-378h-112v739l112 12v-288z" />
    <glyph glyph-name="hbar" unicode="&#x127;" 
d="M475 501.5q37 -40.5 37 -116.5v-385h-112v368q0 47 -18 67.5t-58 20.5q-35 0 -67.5 -22.5t-55.5 -55.5v-378h-112v596h-74v77h74v66l112 12v-78h158v-77h-158v-133q32 39 74.5 59t89.5 20q73 0 110 -40.5z" />
    <glyph glyph-name="hcircumflex" unicode="&#x125;" 
d="M201 463q32 39 74.5 59t89.5 20q73 0 110 -40.5t37 -116.5v-385h-112v368q0 47 -18 67.5t-58 20.5q-35 0 -67.5 -22.5t-55.5 -55.5v-378h-112v739l112 12v-288zM473 857l-44 -51l-129 82l-128 -82l-45 51l137 116h72z" />
    <glyph glyph-name="i" unicode="i" 
d="M352.5 766.5q20.5 -20.5 20.5 -50.5t-20.5 -50t-52.5 -20q-33 0 -53 20t-20 50q0 31 20.5 51t52.5 20t52.5 -20.5zM377 82h144v-82h-413v82h157v364h-152v82h264v-446z" />
    <glyph glyph-name="dotlessi" unicode="&#x131;" 
d="M377 82h144v-82h-413v82h157v364h-152v82h264v-446z" />
    <glyph glyph-name="iacute" unicode="&#xed;" 
d="M377 82h144v-82h-413v82h157v364h-152v82h264v-446zM428 722l-219 -89l-33 59l205 119z" />
    <glyph glyph-name="ibreve" unicode="&#x12d;" 
d="M377 82h144v-82h-413v82h157v364h-152v82h264v-446zM189.5 668q-40.5 45 -47.5 106l69 13q10 -39 32 -61t56 -22t56.5 22t33.5 61l68 -13q-4 -38 -23.5 -72.5t-54 -56.5t-80.5 -22q-69 0 -109.5 45z" />
    <glyph glyph-name="icircumflex" unicode="&#xee;" 
d="M377 82h144v-82h-413v82h157v364h-152v82h264v-446zM127 672l137 127h72l137 -127l-45 -50l-127 92l-128 -92z" />
    <glyph glyph-name="idieresis" unicode="&#xef;" 
d="M377 82h144v-82h-413v82h157v364h-152v82h264v-446zM145 662q-19 18 -19 45q0 28 19 46t47 18q27 0 45.5 -18t18.5 -46q0 -27 -18.5 -45t-45.5 -18q-28 0 -47 18zM362 662q-19 18 -19 45t19 45.5t46 18.5q28 0 46.5 -18t18.5 -46q0 -27 -18.5 -45t-46.5 -18q-27 0 -46 18
z" />
    <glyph glyph-name="i.loclTRK" 
d="M377 82h144v-82h-413v82h157v364h-152v82h264v-446zM352.5 766.5q20.5 -20.5 20.5 -50.5t-20.5 -50t-53.5 -20q-32 0 -52.5 20t-20.5 50t20.5 50.5t52.5 20.5q33 0 53.5 -20.5z" />
    <glyph glyph-name="igrave" unicode="&#xec;" 
d="M377 82h144v-82h-413v82h157v364h-152v82h264v-446zM176 715l52 90l197 -124l-34 -59z" />
    <glyph glyph-name="ij" unicode="&#x133;" 
d="M237 766.5q21 -20.5 21 -50.5t-21 -50t-54 -20q-32 0 -52 20t-20 50t20 50.5t52 20.5q33 0 54 -20.5zM504 766.5q21 -20.5 21 -50.5t-21 -50t-53 -20t-52.5 20t-20.5 50t20.5 50.5t52.5 20.5t53 -20.5zM517 80q0 -119 -69.5 -186.5t-202.5 -109.5l-35 85q63 22 104.5 46
t67 62.5t25.5 94.5v376h-170v-366h79v-82h-273v82h85v366h-80v80h469v-448z" />
    <glyph glyph-name="imacron" unicode="&#x12b;" 
d="M377 82h144v-82h-413v82h157v364h-152v82h264v-446zM158 669v81h283v-81h-283z" />
    <glyph glyph-name="iogonek" unicode="&#x12f;" 
d="M246.5 666q-20.5 20 -20.5 50t20.5 50.5t52.5 20.5q33 0 53.5 -20.5t20.5 -50.5t-20.5 -50t-53.5 -20q-32 0 -52.5 20zM521 82v-82h-144q-69 -28 -94.5 -54.5t-25.5 -58.5q0 -48 56 -48q28 0 59 7l-10 -77q-33 -7 -62 -7q-59 0 -96 29.5t-37 77.5q0 43 23.5 74.5
t71.5 56.5h-154v82h157v364h-152v82h264v-446h144z" />
    <glyph glyph-name="itilde" unicode="&#x129;" 
d="M377 82h144v-82h-413v82h157v364h-152v82h264v-446zM321.5 657q-15.5 7 -34.5 20q-15 11 -24.5 15.5t-20.5 4.5q-17 0 -28.5 -11t-24.5 -35l-63 31q20 44 49 71t66 27q21 0 37.5 -7.5t34.5 -20.5q14 -10 23.5 -15t20.5 -5q15 0 27 10.5t26 33.5l63 -31
q-20 -46 -49.5 -70.5t-66.5 -24.5q-20 0 -35.5 7z" />
    <glyph glyph-name="j" unicode="j" 
d="M421 767q20 -20 20 -51q0 -30 -20 -50t-53 -20q-32 0 -52.5 20t-20.5 50t20.5 50.5t52.5 20.5q33 0 53 -20zM455 111q0 -143 -87 -219t-264 -108l-18 86q128 24 192.5 77t64.5 157v342h-208v82h320v-417z" />
    <glyph glyph-name="uni0237" unicode="&#x237;" 
d="M455 111q0 -143 -87 -219t-264 -108l-18 86q128 24 192.5 77t64.5 157v342h-208v82h320v-417z" />
    <glyph glyph-name="jcircumflex" unicode="&#x135;" 
d="M455 111q0 -143 -87 -219t-264 -108l-18 86q128 24 192.5 77t64.5 157v342h-208v82h320v-417zM196 672l137 127h72l137 -127l-45 -50l-127 92l-128 -92z" />
    <glyph glyph-name="k" unicode="k" 
d="M204 0h-112v740l112 13v-753zM341 292l235 -292h-137l-227 289l212 239h130z" />
    <glyph glyph-name="kcommaaccent" unicode="&#x137;" 
d="M204 0h-112v740l112 13v-753zM341 292l235 -292h-137l-227 289l212 239h130zM350.5 -86.5q18.5 -17.5 18.5 -44.5q0 -28 -18 -65l-50 -104h-62l29 117q-26 19 -26 52q0 26 18 44t45 18t45.5 -17.5z" />
    <glyph glyph-name="kgreenlandic" unicode="&#x138;" 
d="M201 0h-112v528h112v-528zM335 288l238 -288h-137l-227 280l211 248h130z" />
    <glyph glyph-name="l" unicode="l" 
d="M321 144q0 -67 80 -67q40 0 84 18l28 -78q-55 -30 -136 -30q-79 0 -123.5 44.5t-44.5 122.5v504h-159v82h271v-596z" />
    <glyph glyph-name="lacute" unicode="&#x13a;" 
d="M321 144q0 -67 80 -67q40 0 84 18l28 -78q-55 -30 -136 -30q-79 0 -123.5 44.5t-44.5 122.5v504h-159v82h271v-596zM390 934l-219 -89l-33 59l205 119z" />
    <glyph glyph-name="lcaron" unicode="&#x13e;" 
d="M321 144q0 -67 80 -67q40 0 84 18l28 -78q-55 -30 -136 -30q-79 0 -123.5 44.5t-44.5 122.5v504h-159v82h271v-596zM496 741l-63 -198l-67 10l30 201z" />
    <glyph glyph-name="lcommaaccent" unicode="&#x13c;" 
d="M321 144q0 -67 80 -67q40 0 84 18l28 -78q-55 -30 -136 -30q-79 0 -123.5 44.5t-44.5 122.5v504h-159v82h271v-596zM405.5 -86.5q18.5 -17.5 18.5 -44.5q0 -28 -18 -65l-50 -104h-62l29 117q-26 19 -26 52q0 26 18 44t45 18t45.5 -17.5z" />
    <glyph glyph-name="ldot" unicode="&#x140;" 
d="M321 144q0 -67 80 -67q40 0 84 18l28 -78q-55 -30 -136 -30q-79 0 -123.5 44.5t-44.5 122.5v504h-159v82h271v-596zM616.5 432.5q20.5 -20.5 20.5 -50.5t-20.5 -50t-53.5 -20q-32 0 -52.5 20t-20.5 50t20.5 50.5t52.5 20.5q33 0 53.5 -20.5z" />
    <glyph glyph-name="lslash" unicode="&#x142;" 
d="M513 17q-55 -30 -136 -30q-79 0 -123.5 44.5t-44.5 122.5v134l-59 -36l-43 67l102 62v277h-159v82h271v-290l80 50l44 -68l-124 -76v-212q0 -67 80 -67q40 0 84 18z" />
    <glyph glyph-name="m" unicode="m" 
d="M530 508q28 -34 28 -116v-392h-99v377q0 44 -6.5 61t-28.5 17q-42 0 -78 -53v-402h-91v377q0 44 -6.5 61t-28.5 17q-42 0 -78 -53v-402h-100v528h84l8 -57q25 35 51 53t62 18q70 0 90 -67q24 32 52 49.5t64 17.5q49 0 77 -34z" />
    <glyph glyph-name="n" unicode="n" 
d="M89 528h97l8 -69q33 40 77.5 61.5t93.5 21.5q73 0 110 -41t37 -116v-385h-112v329q0 49 -5.5 75.5t-21.5 39t-48 12.5q-36 0 -68.5 -22t-55.5 -55v-379h-112v528z" />
    <glyph glyph-name="nacute" unicode="&#x144;" 
d="M89 528h97l8 -69q33 40 77.5 61.5t93.5 21.5q73 0 110 -41t37 -116v-385h-112v329q0 49 -5.5 75.5t-21.5 39t-48 12.5q-36 0 -68.5 -22t-55.5 -55v-379h-112v528zM428 722l-219 -89l-33 59l205 119z" />
    <glyph glyph-name="napostrophe" unicode="&#x149;" 
d="M106.5 738.5q18.5 -17.5 18.5 -43.5q0 -15 -5 -30.5t-20 -45.5l-41 -85h-61l27 109q-27 22 -27 52q0 26 18.5 43.5t45.5 17.5q26 0 44.5 -17.5zM102 528h97l8 -69q33 40 77.5 61.5t92.5 21.5q73 0 110.5 -41t37.5 -116v-385h-112v329q0 49 -5.5 75.5t-22 39t-48.5 12.5
q-36 0 -68 -22t-55 -55v-379h-112v528z" />
    <glyph glyph-name="ncaron" unicode="&#x148;" 
d="M89 528h97l8 -69q33 40 77.5 61.5t93.5 21.5q73 0 110 -41t37 -116v-385h-112v329q0 49 -5.5 75.5t-21.5 39t-48 12.5q-36 0 -68.5 -22t-55.5 -55v-379h-112v528zM473 749l-137 -127h-72l-137 127l46 50l128 -92l127 92z" />
    <glyph glyph-name="ncommaaccent" unicode="&#x146;" 
d="M89 528h97l8 -69q33 40 77.5 61.5t93.5 21.5q73 0 110 -41t37 -116v-385h-112v329q0 49 -5.5 75.5t-21.5 39t-48 12.5q-36 0 -68.5 -22t-55.5 -55v-379h-112v528zM348.5 -86.5q18.5 -17.5 18.5 -44.5q0 -28 -18 -65l-50 -104h-62l29 117q-26 19 -26 52q0 26 18 44t45 18
t45.5 -17.5z" />
    <glyph glyph-name="eng" unicode="&#x14b;" 
d="M492 -83q-20 -47 -56.5 -76t-99.5 -56l-41 82q39 18 60.5 35t33 48t11.5 83v296q0 50 -5.5 76t-21.5 38.5t-49 12.5q-35 0 -67.5 -22.5t-55.5 -55.5v-378h-112v528h97l8 -69q32 40 77.5 61.5t93.5 21.5q73 0 110 -40.5t37 -116.5v-344q0 -77 -20 -124z" />
    <glyph glyph-name="ntilde" unicode="&#xf1;" 
d="M89 528h97l8 -69q33 40 77.5 61.5t93.5 21.5q73 0 110 -41t37 -116v-385h-112v329q0 49 -5.5 75.5t-21.5 39t-48 12.5q-36 0 -68.5 -22t-55.5 -55v-379h-112v528zM321.5 657q-15.5 7 -34.5 20q-15 11 -24.5 15.5t-20.5 4.5q-17 0 -28.5 -11t-24.5 -35l-63 31q20 44 49 71
t66 27q21 0 37.5 -7.5t34.5 -20.5q14 -10 23.5 -15t20.5 -5q15 0 27 10.5t26 33.5l63 -31q-20 -46 -49.5 -70.5t-66.5 -24.5q-20 0 -35.5 7z" />
    <glyph glyph-name="o" unicode="o" 
d="M477 467.5q62 -74.5 62 -202.5t-63 -203t-176 -75q-114 0 -176.5 73.5t-62.5 203.5q0 126 63.5 202t176.5 76q114 0 176 -74.5zM209.5 408q-30.5 -47 -30.5 -144q0 -98 30 -144.5t91 -46.5t91 47t30 145q0 97 -30 143.5t-90 46.5q-61 0 -91.5 -47z" />
    <glyph glyph-name="oacute" unicode="&#xf3;" 
d="M477 467.5q62 -74.5 62 -202.5t-63 -203t-176 -75q-114 0 -176.5 73.5t-62.5 203.5q0 126 63.5 202t176.5 76q114 0 176 -74.5zM209.5 408q-30.5 -47 -30.5 -144q0 -98 30 -144.5t91 -46.5t91 47t30 145q0 97 -30 143.5t-90 46.5q-61 0 -91.5 -47zM428 722l-219 -89
l-33 59l205 119z" />
    <glyph glyph-name="obreve" unicode="&#x14f;" 
d="M477 467.5q62 -74.5 62 -202.5t-63 -203t-176 -75q-114 0 -176.5 73.5t-62.5 203.5q0 126 63.5 202t176.5 76q114 0 176 -74.5zM209.5 408q-30.5 -47 -30.5 -144q0 -98 30 -144.5t91 -46.5t91 47t30 145q0 97 -30 143.5t-90 46.5q-61 0 -91.5 -47zM189.5 668
q-40.5 45 -47.5 106l69 13q10 -39 32 -61t56 -22t56.5 22t33.5 61l68 -13q-4 -38 -23.5 -72.5t-54 -56.5t-80.5 -22q-69 0 -109.5 45z" />
    <glyph glyph-name="ocircumflex" unicode="&#xf4;" 
d="M477 467.5q62 -74.5 62 -202.5t-63 -203t-176 -75q-114 0 -176.5 73.5t-62.5 203.5q0 126 63.5 202t176.5 76q114 0 176 -74.5zM209.5 408q-30.5 -47 -30.5 -144q0 -98 30 -144.5t91 -46.5t91 47t30 145q0 97 -30 143.5t-90 46.5q-61 0 -91.5 -47zM127 672l137 127h72
l137 -127l-45 -50l-127 92l-128 -92z" />
    <glyph glyph-name="odieresis" unicode="&#xf6;" 
d="M477 467.5q62 -74.5 62 -202.5t-63 -203t-176 -75q-114 0 -176.5 73.5t-62.5 203.5q0 126 63.5 202t176.5 76q114 0 176 -74.5zM209.5 408q-30.5 -47 -30.5 -144q0 -98 30 -144.5t91 -46.5t91 47t30 145q0 97 -30 143.5t-90 46.5q-61 0 -91.5 -47zM145 662q-19 18 -19 45
q0 28 19 46t47 18q27 0 45.5 -18t18.5 -46q0 -27 -18.5 -45t-45.5 -18q-28 0 -47 18zM362 662q-19 18 -19 45t19 45.5t46 18.5q28 0 46.5 -18t18.5 -46q0 -27 -18.5 -45t-46.5 -18q-27 0 -46 18z" />
    <glyph glyph-name="ograve" unicode="&#xf2;" 
d="M477 467.5q62 -74.5 62 -202.5t-63 -203t-176 -75q-114 0 -176.5 73.5t-62.5 203.5q0 126 63.5 202t176.5 76q114 0 176 -74.5zM209.5 408q-30.5 -47 -30.5 -144q0 -98 30 -144.5t91 -46.5t91 47t30 145q0 97 -30 143.5t-90 46.5q-61 0 -91.5 -47zM176 715l52 90
l197 -124l-34 -59z" />
    <glyph glyph-name="ohungarumlaut" unicode="&#x151;" 
d="M477 467.5q62 -74.5 62 -202.5t-63 -203t-176 -75q-114 0 -176.5 73.5t-62.5 203.5q0 126 63.5 202t176.5 76q114 0 176 -74.5zM209.5 408q-30.5 -47 -30.5 -144q0 -98 30 -144.5t91 -46.5t91 47t30 145q0 97 -30 143.5t-90 46.5q-61 0 -91.5 -47zM256 844l87 -41
l-108 -171l-65 30zM426 844l86 -44l-115 -170l-63 32z" />
    <glyph glyph-name="omacron" unicode="&#x14d;" 
d="M477 467.5q62 -74.5 62 -202.5t-63 -203t-176 -75q-114 0 -176.5 73.5t-62.5 203.5q0 126 63.5 202t176.5 76q114 0 176 -74.5zM209.5 408q-30.5 -47 -30.5 -144q0 -98 30 -144.5t91 -46.5t91 47t30 145q0 97 -30 143.5t-90 46.5q-61 0 -91.5 -47zM158 669v81h283v-81
h-283z" />
    <glyph glyph-name="oslash" unicode="&#xf8;" 
d="M510 412.5q29 -62.5 29 -147.5q0 -128 -63 -203t-176 -75q-22 0 -43 3l-37 -123l-87 26l41 126q-54 33 -83.5 96t-29.5 149q0 126 63.5 202t176.5 76q21 0 42 -3l38 118l87 -25l-41 -123q54 -34 83 -96.5zM208.5 409q-30.5 -47 -30.5 -145q0 -118 39 -162l110 352
q-16 2 -26 2q-62 0 -92.5 -47zM392 119q30 47 30 146q0 118 -38 160l-110 -351q16 -2 26 -2q62 0 92 47z" />
    <glyph glyph-name="oslashacute" unicode="&#x1ff;" 
d="M510 412.5q29 -62.5 29 -147.5q0 -128 -63 -203t-176 -75q-22 0 -43 3l-37 -123l-87 26l41 126q-54 33 -83.5 96t-29.5 149q0 126 63.5 202t176.5 76q21 0 42 -3l38 118l87 -25l-41 -123q54 -34 83 -96.5zM208.5 409q-30.5 -47 -30.5 -145q0 -118 39 -162l110 352
q-16 2 -26 2q-62 0 -92.5 -47zM392 119q30 47 30 146q0 118 -38 160l-110 -351q16 -2 26 -2q62 0 92 47zM428 722l-219 -89l-33 59l205 119z" />
    <glyph glyph-name="otilde" unicode="&#xf5;" 
d="M477 467.5q62 -74.5 62 -202.5t-63 -203t-176 -75q-114 0 -176.5 73.5t-62.5 203.5q0 126 63.5 202t176.5 76q114 0 176 -74.5zM209.5 408q-30.5 -47 -30.5 -144q0 -98 30 -144.5t91 -46.5t91 47t30 145q0 97 -30 143.5t-90 46.5q-61 0 -91.5 -47zM321.5 657
q-15.5 7 -34.5 20q-15 11 -24.5 15.5t-20.5 4.5q-17 0 -28.5 -11t-24.5 -35l-63 31q20 44 49 71t66 27q21 0 37.5 -7.5t34.5 -20.5q14 -10 23.5 -15t20.5 -5q15 0 27 10.5t26 33.5l63 -31q-20 -46 -49.5 -70.5t-66.5 -24.5q-20 0 -35.5 7z" />
    <glyph glyph-name="oe" unicode="&#x153;" 
d="M572 474.5q40 -67.5 40 -196.5q0 -27 -3 -48h-252q7 -84 31.5 -122t72.5 -38q25 0 45.5 9t45.5 28l47 -66q-32 -27 -66 -40.5t-76 -13.5q-106 0 -151 93q-19 -45 -51 -69t-85 -24q-88 0 -131 72.5t-43 204.5q0 130 43 204t131 74q56 0 88 -24.5t50 -71.5q41 96 137 96
q87 0 127 -67.5zM381.5 425.5q-19.5 -35.5 -24.5 -121.5h159q-2 82 -18 119.5t-57 37.5q-40 0 -59.5 -35.5zM119 410.5q-18 -45.5 -18 -146.5q0 -103 17.5 -147t60.5 -44q29 0 45.5 18.5t24 60t7.5 113.5q0 101 -17.5 146t-59.5 45t-60 -45.5z" />
    <glyph glyph-name="p" unicode="p" 
d="M539 265q0 -125 -53 -201.5t-151 -76.5q-83 0 -134 58v-248l-112 -13v744h97l7 -68q30 40 69.5 61t84.5 21q192 0 192 -277zM252 435q-29 -21 -51 -55v-247q39 -59 104 -59q58 0 87 46t29 144q0 101 -26 146.5t-79 45.5q-35 0 -64 -21z" />
    <glyph glyph-name="thorn" unicode="&#xfe;" 
d="M201 467q27 36 65 55.5t81 19.5q192 0 192 -277q0 -125 -53 -201.5t-151 -76.5q-83 0 -134 58v-248l-112 -13v956l112 13v-286zM252 435q-29 -21 -51 -55v-247q39 -59 104 -59q58 0 87 46t29 144q0 101 -26 146.5t-79 45.5q-35 0 -64 -21z" />
    <glyph glyph-name="q" unicode="q" 
d="M407 476l7 52h97v-744l-112 13v261q-54 -71 -144 -71q-100 0 -147 72.5t-47 204.5q0 124 54.5 201t151.5 77q88 0 140 -66zM179 264q0 -99 26.5 -144.5t79.5 -45.5q36 0 64.5 20t49.5 54v249q-40 59 -104 59q-116 0 -116 -192z" />
    <glyph glyph-name="r" unicode="r" 
d="M543 528l-19 -195h-80v108q-55 -1 -95.5 -44t-64.5 -121v-196h106v-80h-296v80h78v368h-78v80h163l20 -122q31 68 75.5 101.5t110.5 33.5q41 0 80 -13z" />
    <glyph glyph-name="racute" unicode="&#x155;" 
d="M543 528l-19 -195h-80v108q-55 -1 -95.5 -44t-64.5 -121v-196h106v-80h-296v80h78v368h-78v80h163l20 -122q31 68 75.5 101.5t110.5 33.5q41 0 80 -13zM457 722l-219 -89l-33 59l205 119z" />
    <glyph glyph-name="rcaron" unicode="&#x159;" 
d="M543 528l-19 -195h-80v108q-55 -1 -95.5 -44t-64.5 -121v-196h106v-80h-296v80h78v368h-78v80h163l20 -122q31 68 75.5 101.5t110.5 33.5q41 0 80 -13zM502 749l-137 -127h-72l-137 127l46 50l128 -92l127 92z" />
    <glyph glyph-name="rcommaaccent" unicode="&#x157;" 
d="M543 528l-19 -195h-80v108q-55 -1 -95.5 -44t-64.5 -121v-196h106v-80h-296v80h78v368h-78v80h163l20 -122q31 68 75.5 101.5t110.5 33.5q41 0 80 -13zM274.5 -86.5q18.5 -17.5 18.5 -44.5q0 -28 -18 -65l-50 -104h-62l29 117q-26 19 -26 52q0 26 18 44t45 18t45.5 -17.5
z" />
    <glyph glyph-name="s" unicode="s" 
d="M364.5 91q30.5 19 30.5 52q0 23 -9 37.5t-36 27t-81 26.5q-87 22 -130.5 56.5t-43.5 99.5q0 69 57 110.5t154 41.5q117 0 201 -61l-48 -71q-71 47 -150 47q-100 0 -100 -58q0 -20 11.5 -33t39.5 -24.5t83 -26.5q86 -24 128.5 -59t42.5 -105q0 -81 -67 -122.5t-166 -41.5
q-131 0 -217 74l59 68q33 -26 73.5 -41.5t84.5 -15.5q53 0 83.5 19z" />
    <glyph glyph-name="sacute" unicode="&#x15b;" 
d="M364.5 91q30.5 19 30.5 52q0 23 -9 37.5t-36 27t-81 26.5q-87 22 -130.5 56.5t-43.5 99.5q0 69 57 110.5t154 41.5q117 0 201 -61l-48 -71q-71 47 -150 47q-100 0 -100 -58q0 -20 11.5 -33t39.5 -24.5t83 -26.5q86 -24 128.5 -59t42.5 -105q0 -81 -67 -122.5t-166 -41.5
q-131 0 -217 74l59 68q33 -26 73.5 -41.5t84.5 -15.5q53 0 83.5 19zM437 722l-219 -89l-33 59l205 119z" />
    <glyph glyph-name="scaron" unicode="&#x161;" 
d="M364.5 91q30.5 19 30.5 52q0 23 -9 37.5t-36 27t-81 26.5q-87 22 -130.5 56.5t-43.5 99.5q0 69 57 110.5t154 41.5q117 0 201 -61l-48 -71q-71 47 -150 47q-100 0 -100 -58q0 -20 11.5 -33t39.5 -24.5t83 -26.5q86 -24 128.5 -59t42.5 -105q0 -81 -67 -122.5t-166 -41.5
q-131 0 -217 74l59 68q33 -26 73.5 -41.5t84.5 -15.5q53 0 83.5 19zM482 749l-137 -127h-72l-137 127l46 50l128 -92l127 92z" />
    <glyph glyph-name="scedilla" unicode="&#x15f;" 
d="M460 38q-54 -41 -138 -50v-42q48 -4 72.5 -28.5t24.5 -60.5q0 -48 -38 -76t-95 -28q-31 0 -60 7t-49 19l30 58q34 -17 66 -17q57 0 57 38q0 23 -21.5 31t-66.5 8l8 91q-113 8 -186 73l59 68q33 -26 73.5 -41.5t84.5 -15.5q53 0 83.5 19t30.5 52q0 23 -9 37.5t-36 27
t-81 26.5q-87 22 -130.5 56.5t-43.5 99.5q0 69 57 110.5t154 41.5q117 0 201 -61l-48 -71q-71 47 -150 47q-100 0 -100 -58q0 -20 11.5 -33t39.5 -24.5t83 -26.5q86 -24 128.5 -59t42.5 -105q0 -72 -54 -113z" />
    <glyph glyph-name="scircumflex" unicode="&#x15d;" 
d="M364.5 91q30.5 19 30.5 52q0 23 -9 37.5t-36 27t-81 26.5q-87 22 -130.5 56.5t-43.5 99.5q0 69 57 110.5t154 41.5q117 0 201 -61l-48 -71q-71 47 -150 47q-100 0 -100 -58q0 -20 11.5 -33t39.5 -24.5t83 -26.5q86 -24 128.5 -59t42.5 -105q0 -81 -67 -122.5t-166 -41.5
q-131 0 -217 74l59 68q33 -26 73.5 -41.5t84.5 -15.5q53 0 83.5 19zM136 672l137 127h72l137 -127l-45 -50l-127 92l-128 -92z" />
    <glyph glyph-name="scommaaccent" unicode="&#x219;" 
d="M364.5 91q30.5 19 30.5 52q0 23 -9 37.5t-36 27t-81 26.5q-87 22 -130.5 56.5t-43.5 99.5q0 69 57 110.5t154 41.5q117 0 201 -61l-48 -71q-71 47 -150 47q-100 0 -100 -58q0 -20 11.5 -33t39.5 -24.5t83 -26.5q86 -24 128.5 -59t42.5 -105q0 -81 -67 -122.5t-166 -41.5
q-131 0 -217 74l59 68q33 -26 73.5 -41.5t84.5 -15.5q53 0 83.5 19zM345.5 -86.5q18.5 -17.5 18.5 -44.5q0 -28 -18 -65l-50 -104h-62l29 117q-26 19 -26 52q0 26 18 44t45 18t45.5 -17.5z" />
    <glyph glyph-name="germandbls" unicode="&#xdf;" 
d="M429 711q50 -42 50 -107q0 -35 -15.5 -57.5t-45.5 -49.5q-23 -21 -33.5 -34.5t-10.5 -32.5q0 -23 17 -40t53 -41q38 -26 62 -47t41.5 -54.5t17.5 -80.5q0 -56 -25.5 -97t-69 -62t-97.5 -21q-73 0 -128 33l40 76q37 -21 76 -21q43 0 66 22.5t23 66.5q0 39 -22 64t-65 55
q-30 21 -48.5 36.5t-31 39t-12.5 54.5q0 33 14 55.5t40 48.5q23 22 34.5 39.5t11.5 40.5q0 30 -19 51t-59 21q-50 0 -74.5 -31t-24.5 -99v-539h-112v532q0 107 55.5 164t157.5 57q84 0 134 -42z" />
    <glyph glyph-name="t" unicode="t" 
d="M460 -2q-40 -11 -84 -11q-90 0 -139 46.5t-49 126.5v286h-117v82h117v118l112 13v-131h179l-13 -82h-166v-285q0 -43 22 -63.5t70 -20.5q53 0 98 25l40 -74q-30 -19 -70 -30z" />
    <glyph glyph-name="tbar" unicode="&#x167;" 
d="M530 28q-30 -19 -70 -30t-84 -11q-90 0 -139 46.5t-49 126.5v118h-106v77h106v91h-117v82h117v118l112 13v-131h179l-13 -82h-166v-91h166v-77h-166v-117q0 -43 22 -63.5t70 -20.5q53 0 98 25z" />
    <glyph glyph-name="tcaron" unicode="&#x165;" 
d="M460 -2q-40 -11 -84 -11q-90 0 -139 46.5t-49 126.5v286h-117v82h117v118l112 13v-131h179l-13 -82h-166v-285q0 -43 22 -63.5t70 -20.5q53 0 98 25l40 -74q-30 -19 -70 -30zM476 776l-63 -198l-67 10l30 201z" />
    <glyph glyph-name="uni0163" unicode="&#x163;" 
d="M463.5 -82.5q24.5 -24.5 24.5 -60.5q0 -48 -38 -76t-95 -28q-31 0 -60 7t-49 19l30 58q34 -17 66 -17q57 0 57 38q0 23 -21.5 31t-66.5 8l8 95q-64 14 -97.5 58.5t-33.5 109.5v286h-117v82h117v118l112 13v-131h179l-13 -82h-166v-285q0 -43 22 -63.5t70 -20.5
q53 0 98 25l40 -74q-27 -18 -63.5 -29t-75.5 -12v-41q48 -4 72.5 -28.5z" />
    <glyph glyph-name="uni021B" unicode="&#x21b;" 
d="M460 -2q-40 -11 -84 -11q-90 0 -139 46.5t-49 126.5v286h-117v82h117v118l112 13v-131h179l-13 -82h-166v-285q0 -43 22 -63.5t70 -20.5q53 0 98 25l40 -74q-30 -19 -70 -30zM414.5 -86.5q18.5 -17.5 18.5 -44.5q0 -28 -18 -65l-50 -104h-62l29 117q-26 19 -26 52
q0 26 18 44t45 18t45.5 -17.5z" />
    <glyph glyph-name="u" unicode="u" 
d="M201 159q0 -46 18.5 -66.5t56.5 -20.5q36 0 69.5 21t53.5 53v382h112v-528h-97l-7 68q-28 -39 -73 -60t-93 -21q-76 0 -114 41t-38 117v383h112v-369z" />
    <glyph glyph-name="uacute" unicode="&#xfa;" 
d="M201 159q0 -46 18.5 -66.5t56.5 -20.5q36 0 69.5 21t53.5 53v382h112v-528h-97l-7 68q-28 -39 -73 -60t-93 -21q-76 0 -114 41t-38 117v383h112v-369zM428 722l-219 -89l-33 59l205 119z" />
    <glyph glyph-name="ubreve" unicode="&#x16d;" 
d="M201 159q0 -46 18.5 -66.5t56.5 -20.5q36 0 69.5 21t53.5 53v382h112v-528h-97l-7 68q-28 -39 -73 -60t-93 -21q-76 0 -114 41t-38 117v383h112v-369zM189.5 668q-40.5 45 -47.5 106l69 13q10 -39 32 -61t56 -22t56.5 22t33.5 61l68 -13q-4 -38 -23.5 -72.5t-54 -56.5
t-80.5 -22q-69 0 -109.5 45z" />
    <glyph glyph-name="ucircumflex" unicode="&#xfb;" 
d="M201 159q0 -46 18.5 -66.5t56.5 -20.5q36 0 69.5 21t53.5 53v382h112v-528h-97l-7 68q-28 -39 -73 -60t-93 -21q-76 0 -114 41t-38 117v383h112v-369zM127 672l137 127h72l137 -127l-45 -50l-127 92l-128 -92z" />
    <glyph glyph-name="udieresis" unicode="&#xfc;" 
d="M201 159q0 -46 18.5 -66.5t56.5 -20.5q36 0 69.5 21t53.5 53v382h112v-528h-97l-7 68q-28 -39 -73 -60t-93 -21q-76 0 -114 41t-38 117v383h112v-369zM145 662q-19 18 -19 45q0 28 19 46t47 18q27 0 45.5 -18t18.5 -46q0 -27 -18.5 -45t-45.5 -18q-28 0 -47 18zM362 662
q-19 18 -19 45t19 45.5t46 18.5q28 0 46.5 -18t18.5 -46q0 -27 -18.5 -45t-46.5 -18q-27 0 -46 18z" />
    <glyph glyph-name="ugrave" unicode="&#xf9;" 
d="M201 159q0 -46 18.5 -66.5t56.5 -20.5q36 0 69.5 21t53.5 53v382h112v-528h-97l-7 68q-28 -39 -73 -60t-93 -21q-76 0 -114 41t-38 117v383h112v-369zM176 715l52 90l197 -124l-34 -59z" />
    <glyph glyph-name="uhungarumlaut" unicode="&#x171;" 
d="M201 159q0 -46 18.5 -66.5t56.5 -20.5q36 0 69.5 21t53.5 53v382h112v-528h-97l-7 68q-28 -39 -73 -60t-93 -21q-76 0 -114 41t-38 117v383h112v-369zM256 844l87 -41l-108 -171l-65 30zM426 844l86 -44l-115 -170l-63 32z" />
    <glyph glyph-name="umacron" unicode="&#x16b;" 
d="M201 159q0 -46 18.5 -66.5t56.5 -20.5q36 0 69.5 21t53.5 53v382h112v-528h-97l-7 68q-28 -39 -73 -60t-93 -21q-76 0 -114 41t-38 117v383h112v-369zM158 669v81h283v-81h-283z" />
    <glyph glyph-name="uogonek" unicode="&#x173;" 
d="M511 528v-528q-69 -28 -94.5 -54.5t-25.5 -58.5q0 -48 56 -48q28 0 59 7l-10 -77q-33 -7 -62 -7q-59 0 -96 29.5t-37 77.5q0 46 28 80t84 60l-6 59q-28 -39 -73 -60t-93 -21q-76 0 -114 41t-38 117v383h112v-369q0 -46 18.5 -66.5t56.5 -20.5q36 0 69.5 21t53.5 53v382
h112z" />
    <glyph glyph-name="uring" unicode="&#x16f;" 
d="M201 159q0 -46 18.5 -66.5t56.5 -20.5q36 0 69.5 21t53.5 53v382h112v-528h-97l-7 68q-28 -39 -73 -60t-93 -21q-76 0 -114 41t-38 117v383h112v-369zM387.5 806.5q33.5 -32.5 33.5 -80.5t-33.5 -81t-87.5 -33t-88 33t-34 81t34 80.5t88 32.5t87.5 -32.5zM262.5 765
q-13.5 -14 -13.5 -39q0 -26 13.5 -40.5t37.5 -14.5q23 0 36.5 14.5t13.5 40.5q0 25 -13.5 39t-36.5 14q-24 0 -37.5 -14z" />
    <glyph glyph-name="utilde" unicode="&#x169;" 
d="M201 159q0 -46 18.5 -66.5t56.5 -20.5q36 0 69.5 21t53.5 53v382h112v-528h-97l-7 68q-28 -39 -73 -60t-93 -21q-76 0 -114 41t-38 117v383h112v-369zM321.5 657q-15.5 7 -34.5 20q-15 11 -24.5 15.5t-20.5 4.5q-17 0 -28.5 -11t-24.5 -35l-63 31q20 44 49 71t66 27
q21 0 37.5 -7.5t34.5 -20.5q14 -10 23.5 -15t20.5 -5q15 0 27 10.5t26 33.5l63 -31q-20 -46 -49.5 -70.5t-66.5 -24.5q-20 0 -35.5 7z" />
    <glyph glyph-name="v" unicode="v" 
d="M365 0h-130l-187 528h121l133 -435l135 435h115z" />
    <glyph glyph-name="w" unicode="w" 
d="M362 0l-60 375l-64 -375h-137l-89 528h108l55 -458l74 391h112l68 -391l55 458h104l-86 -528h-140z" />
    <glyph glyph-name="wacute" unicode="&#x1e83;" 
d="M362 0l-60 375l-64 -375h-137l-89 528h108l55 -458l74 391h112l68 -391l55 458h104l-86 -528h-140zM428 722l-219 -89l-33 59l205 119z" />
    <glyph glyph-name="wcircumflex" unicode="&#x175;" 
d="M362 0l-60 375l-64 -375h-137l-89 528h108l55 -458l74 391h112l68 -391l55 458h104l-86 -528h-140zM127 672l137 127h72l137 -127l-45 -50l-127 92l-128 -92z" />
    <glyph glyph-name="wdieresis" unicode="&#x1e85;" 
d="M362 0l-60 375l-64 -375h-137l-89 528h108l55 -458l74 391h112l68 -391l55 458h104l-86 -528h-140zM145 662q-19 18 -19 45q0 28 19 46t47 18q27 0 45.5 -18t18.5 -46q0 -27 -18.5 -45t-45.5 -18q-28 0 -47 18zM362 662q-19 18 -19 45t19 45.5t46 18.5q28 0 46.5 -18
t18.5 -46q0 -27 -18.5 -45t-46.5 -18q-27 0 -46 18z" />
    <glyph glyph-name="wgrave" unicode="&#x1e81;" 
d="M362 0l-60 375l-64 -375h-137l-89 528h108l55 -458l74 391h112l68 -391l55 458h104l-86 -528h-140zM176 715l52 90l197 -124l-34 -59z" />
    <glyph glyph-name="x" unicode="x" 
d="M43 0l190 278l-169 250h129l108 -186l108 186h123l-165 -245l190 -283h-131l-130 216l-129 -216h-124z" />
    <glyph glyph-name="y" unicode="y" 
d="M369 -2q-32 -96 -92.5 -150.5t-166.5 -63.5l-14 84q52 8 84 24.5t51 41.5t34 66h-38l-178 528h119l133 -450l135 450h115z" />
    <glyph glyph-name="yacute" unicode="&#xfd;" 
d="M369 -2q-32 -96 -92.5 -150.5t-166.5 -63.5l-14 84q52 8 84 24.5t51 41.5t34 66h-38l-178 528h119l133 -450l135 450h115zM428 722l-219 -89l-33 59l205 119z" />
    <glyph glyph-name="ycircumflex" unicode="&#x177;" 
d="M369 -2q-32 -96 -92.5 -150.5t-166.5 -63.5l-14 84q52 8 84 24.5t51 41.5t34 66h-38l-178 528h119l133 -450l135 450h115zM127 672l137 127h72l137 -127l-45 -50l-127 92l-128 -92z" />
    <glyph glyph-name="ydieresis" unicode="&#xff;" 
d="M369 -2q-32 -96 -92.5 -150.5t-166.5 -63.5l-14 84q52 8 84 24.5t51 41.5t34 66h-38l-178 528h119l133 -450l135 450h115zM145 662q-19 18 -19 45q0 28 19 46t47 18q27 0 45.5 -18t18.5 -46q0 -27 -18.5 -45t-45.5 -18q-28 0 -47 18zM362 662q-19 18 -19 45t19 45.5
t46 18.5q28 0 46.5 -18t18.5 -46q0 -27 -18.5 -45t-46.5 -18q-27 0 -46 18z" />
    <glyph glyph-name="ygrave" unicode="&#x1ef3;" 
d="M369 -2q-32 -96 -92.5 -150.5t-166.5 -63.5l-14 84q52 8 84 24.5t51 41.5t34 66h-38l-178 528h119l133 -450l135 450h115zM176 715l52 90l197 -124l-34 -59z" />
    <glyph glyph-name="z" unicode="z" 
d="M508 90l-12 -90h-405v82l281 356h-259v90h391v-82l-279 -356h283z" />
    <glyph glyph-name="zacute" unicode="&#x17a;" 
d="M508 90l-12 -90h-405v82l281 356h-259v90h391v-82l-279 -356h283zM437 722l-219 -89l-33 59l205 119z" />
    <glyph glyph-name="zcaron" unicode="&#x17e;" 
d="M508 90l-12 -90h-405v82l281 356h-259v90h391v-82l-279 -356h283zM482 749l-137 -127h-72l-137 127l46 50l128 -92l127 92z" />
    <glyph glyph-name="zdotaccent" unicode="&#x17c;" 
d="M508 90l-12 -90h-405v82l281 356h-259v90h391v-82l-279 -356h283zM361.5 766.5q20.5 -20.5 20.5 -50.5t-20.5 -50t-53.5 -20q-32 0 -52.5 20t-20.5 50t20.5 50.5t52.5 20.5q33 0 53.5 -20.5z" />
    <glyph glyph-name="cacute.loclPLK" 
d="M474 124l51 -72q-35 -30 -84 -47.5t-101 -17.5q-121 0 -189 74.5t-68 199.5q0 81 31 144.5t89.5 100t138.5 36.5q105 0 183 -64l-52 -70q-64 44 -129 44q-66 0 -104 -47.5t-38 -143.5q0 -94 38 -138t104 -44q63 0 130 45zM475 725l-136 -157l-54 34l103 179z" />
    <glyph glyph-name="nacute.loclPLK" 
d="M89 528h97l8 -69q33 40 77.5 61.5t93.5 21.5q73 0 110 -41t37 -116v-385h-112v329q0 49 -5.5 75.5t-21.5 39t-48 12.5q-36 0 -68.5 -22t-55.5 -55v-379h-112v528zM431 735l-136 -157l-54 34l103 179z" />
    <glyph glyph-name="oacute.loclPLK" 
d="M477 467.5q62 -74.5 62 -202.5t-63 -203t-176 -75q-114 0 -176.5 73.5t-62.5 203.5q0 126 63.5 202t176.5 76q114 0 176 -74.5zM209.5 408q-30.5 -47 -30.5 -144q0 -98 30 -144.5t91 -46.5t91 47t30 145q0 97 -30 143.5t-90 46.5q-61 0 -91.5 -47zM431 735l-136 -157
l-54 34l103 179z" />
    <glyph glyph-name="sacute.loclPLK" 
d="M364.5 91q30.5 19 30.5 52q0 23 -9 37.5t-36 27t-81 26.5q-87 22 -130.5 56.5t-43.5 99.5q0 69 57 110.5t154 41.5q117 0 201 -61l-48 -71q-71 47 -150 47q-100 0 -100 -58q0 -20 11.5 -33t39.5 -24.5t83 -26.5q86 -24 128.5 -59t42.5 -105q0 -81 -67 -122.5t-166 -41.5
q-131 0 -217 74l59 68q33 -26 73.5 -41.5t84.5 -15.5q53 0 83.5 19zM440 735l-136 -157l-54 34l103 179z" />
    <glyph glyph-name="zacute.loclPLK" 
d="M508 90l-12 -90h-405v82l281 356h-259v90h391v-82l-279 -356h283zM440 735l-136 -157l-54 34l103 179z" />
    <glyph glyph-name="fi" unicode="&#xfb01;" 
d="M314 0v82h81v363h-183v-445h-110v445h-86v83h86v57q0 75 55.5 121.5t146.5 46.5q88 0 158 -31l-33 -78q-51 22 -114 22q-53 0 -78 -20t-25 -62v-56h294v-446h82v-82h-274z" />
    <glyph glyph-name="fl" unicode="&#xfb02;" 
d="M509 -13q-62 0 -98.5 35t-36.5 105v531q-33 9 -70 9q-51 0 -75 -20.5t-24 -62.5v-56h110l-13 -83h-97v-445h-111v445h-83v83h83v57q0 49 25.5 87.5t71.5 59.5t105 21q50 0 101 -18l87 16v-617q0 -31 11.5 -44t34.5 -13q20 0 47 10l26 -80q-45 -20 -94 -20z" />
    <glyph glyph-name="ordfeminine" unicode="&#xaa;" 
d="M422.5 715.5q43.5 -37.5 43.5 -107.5v-185q0 -21 7.5 -32.5t24.5 -16.5l-23 -67q-36 4 -58.5 17.5t-35.5 40.5q-25 -28 -60 -43.5t-74 -15.5q-68 0 -110 37t-42 98q0 67 57 104t160 37h57v23q0 38 -23 54.5t-70 16.5q-22 0 -54 -6t-66 -18l-27 70q85 31 161 31
q89 0 132.5 -37.5zM321 515q-62 0 -90.5 -17.5t-28.5 -52.5q0 -33 18.5 -50t53.5 -17q27 0 52 14t43 39v84h-48zM504 0h-400v88h400v-88z" />
    <glyph glyph-name="ordmasculine" unicode="&#xba;" 
d="M453.5 692q56.5 -61 56.5 -162q0 -66 -25.5 -116.5t-73.5 -79t-111 -28.5q-97 0 -154 61t-57 163q0 65 26 115.5t74 79t111 28.5q97 0 153.5 -61zM222 640q-28 -36 -28 -110t28 -110t78 -36t77.5 36t27.5 110t-27.5 110t-77.5 36t-78 -36zM501 0h-401v88h401v-88z" />
    <glyph glyph-name="uni207F" unicode="&#x207f;" 
d="M414 696.5q25 -26.5 25 -76.5v-242h-88v208q0 40 -7 54.5t-30 14.5q-17 0 -34 -11.5t-31 -30.5v-235h-87v337h78l3 -38q19 24 44.5 35t51.5 11q50 0 75 -26.5z" />
    <glyph glyph-name="uni052C" unicode="&#x52c;" 
d="M571 91v-248h-90l-16 157h-305l-16 -157h-91v248h40q69 84 101 238q-77 18 -113 72t-36 149v140h104v-137q0 -55 14 -86.5t48 -46.5l9 72l20 198h291v-599h40zM325 487q-5 -50 -10 -80h111v195h-90zM426 91v228h-125q-17 -84 -41.5 -136.5t-61.5 -91.5h228z" />
    <glyph glyph-name="uni052A" unicode="&#x52a;" 
d="M613 0h-90l-71 322h-26v-322h-63v-157h-69l-15 157h-209l-15 -157h-69v234h32q22 53 36.5 131.5t24.5 241.5l15 240h205v-292h47v292h80v-292h26l64 292h81l-74 -322zM218 616h-47l-9 -171q-7 -160 -23 -237.5t-48 -130.5h127v539zM299 322v-245h47v245h-47z" />
    <glyph glyph-name="uni052E" unicode="&#x52e;" 
d="M556 91v-248h-90l-16 157h-66v597h-133l-20 -169q-17 -161 -39 -244t-54 -123t-91 -75l-48 80q32 25 50.5 54t35.5 98t32 201l32 271h351v-599h56z" />
    <glyph glyph-name="uni0528" unicode="&#x528;" 
d="M529 690v-690h-116v314h-226v-363q0 -83 -43.5 -126t-122.5 -43q-68 0 -121 40l43 70q20 -11 34.5 -16t35.5 -5q58 0 58 72v747h116v-281h226v281h116z" />
    <glyph glyph-name="uni0410" unicode="&#x410;" 
d="M175 166l-48 -166h-119l220 690h144l220 -690h-123l-48 166h-246zM397 256l-99 344l-99 -344h198z" />
    <glyph glyph-name="uni0411" unicode="&#x411;" 
d="M477 598h-277v-169h80q131 0 201.5 -51.5t70.5 -157.5q0 -112 -72 -166t-196 -54h-200v690h404zM200 342v-252h85q72 0 109.5 28.5t37.5 100.5q0 123 -148 123h-84z" />
    <glyph glyph-name="uni0412" unicode="&#x412;" 
d="M476 46q-76 -46 -193 -46h-202v690h189q110 0 181 -40.5t71 -134.5q0 -60 -36.5 -98.5t-91.5 -50.5q68 -12 113 -50.5t45 -116.5q0 -107 -76 -153zM372.5 580q-31.5 23 -92.5 23h-83v-199h90q59 0 88 24.5t29 77.5q0 51 -31.5 74zM395 290.5q-36 26.5 -100 26.5h-98v-227
h94q140 0 140 109q0 65 -36 91.5z" />
    <glyph glyph-name="uni0413" unicode="&#x413;" 
d="M538 594h-303v-594h-116v690h431z" />
    <glyph glyph-name="uni0403" unicode="&#x403;" 
d="M538 594h-303v-594h-116v690h431zM470 834l-223 -80l-28 58l205 112z" />
    <glyph glyph-name="uni0490" unicode="&#x490;" 
d="M550 840v-150l-12 -96h-303v-594h-116v690h321v150h110z" />
    <glyph glyph-name="uni0414" unicode="&#x414;" 
d="M569 91v-248h-90l-17 157h-359l-16 -157h-91v248h41q26 26 41 65t26.5 109t29.5 220l23 205h361v-599h51zM406 601h-149l-12 -115q-15 -139 -27 -211t-30 -114t-49 -70h267v510z" />
    <glyph glyph-name="uni0415" unicode="&#x415;" 
d="M229 394h250v-87h-250v-219h305v-88h-421v690h415l-13 -88h-286v-208z" />
    <glyph glyph-name="uni0400" unicode="&#x400;" 
d="M229 394h250v-87h-250v-219h305v-88h-421v690h415l-13 -88h-286v-208zM444 812l-30 -58l-217 82l51 90z" />
    <glyph glyph-name="uni0401" unicode="&#x401;" 
d="M229 394h250v-87h-250v-219h305v-88h-421v690h415l-13 -88h-286v-208zM165.5 784q-18.5 18 -18.5 45t18.5 45.5t46.5 18.5t46.5 -18.5t18.5 -45.5t-18.5 -45t-46.5 -18t-46.5 18zM382 784q-19 18 -19 45t19 45.5t46 18.5q28 0 46.5 -18.5t18.5 -45.5t-18.5 -45t-46.5 -18
q-27 0 -46 18z" />
    <glyph glyph-name="uni0416" unicode="&#x416;" 
d="M208 324l-95 -324h-105l117 370l-104 320h103l85 -291h48v291h86v-291h48l86 291h102l-104 -320l117 -370h-107l-94 324h-48v-324h-86v324h-49z" />
    <glyph glyph-name="uni0417" unicode="&#x417;" 
d="M411 681q55 -23 85 -64.5t30 -94.5q0 -62 -40 -100t-108 -49q75 -7 123 -51.5t48 -119.5q0 -63 -33 -111.5t-95 -76t-146 -27.5q-77 0 -141 25t-110 73l66 62q79 -70 184 -70q73 0 114 33.5t41 92.5q0 61 -40.5 91t-110.5 30h-119l14 89h101q59 0 97.5 26t38.5 77
q0 47 -37.5 73t-98.5 26q-51 0 -93.5 -15.5t-80.5 -46.5l-60 64q102 87 242 87q74 0 129 -23z" />
    <glyph glyph-name="uni0418" unicode="&#x418;" 
d="M71 690h111v-305q0 -90 -5 -153t-15 -130l229 588h138v-690h-111v304q0 145 19 280l-225 -584h-141v690z" />
    <glyph glyph-name="uni0419" unicode="&#x419;" 
d="M71 690h111v-305q0 -90 -5 -153t-15 -130l229 588h138v-690h-111v304q0 145 19 280l-225 -584h-141v690zM190.5 795.5q-42.5 35.5 -48.5 92.5l69 14q17 -61 88 -61t90 61l68 -14q-6 -57 -49 -92.5t-109 -35.5t-108.5 35.5z" />
    <glyph glyph-name="uni040D" unicode="&#x40d;" 
d="M71 690h111v-305q0 -90 -5 -153t-15 -130l229 588h138v-690h-111v304q0 145 19 280l-225 -584h-141v690zM424 812l-30 -58l-217 82l51 90z" />
    <glyph glyph-name="uni048A" unicode="&#x48a;" 
d="M190.5 795.5q-42.5 35.5 -48.5 92.5l69 14q17 -61 88 -61t90 61l68 -14q-6 -57 -49 -92.5t-109 -35.5t-108.5 35.5zM618 100l-86 -257h-93l37 157h-58v304q0 145 19 280l-225 -584h-141v690h111v-305q0 -90 -5 -153t-15 -130l229 588h138v-590h89z" />
    <glyph glyph-name="uni041A" unicode="&#x41a;" 
d="M194 317v-317h-115v690h115v-283h74l189 283h119l-211 -320l230 -370h-133l-194 317h-74z" />
    <glyph glyph-name="uni040C" unicode="&#x40c;" 
d="M194 317v-317h-115v690h115v-283h74l189 283h119l-211 -320l230 -370h-133l-194 317h-74zM448 834l-223 -80l-28 58l205 112z" />
    <glyph glyph-name="uni041B" unicode="&#x41b;" 
d="M529 0h-116v597h-157l-19 -169q-18 -161 -39.5 -244t-53.5 -123t-91 -75l-48 80q32 25 50.5 54t35.5 98t32 201l32 271h374v-690z" />
    <glyph glyph-name="uni041C" unicode="&#x41c;" 
d="M575 0h-107l-16 336q-3 66 -3 127q0 79 3 125l-102 -466h-101l-109 466q4 -51 4 -157q0 -64 -1 -96l-14 -335h-104l39 690h139l99 -462l94 462h140z" />
    <glyph glyph-name="uni041D" unicode="&#x41d;" 
d="M413 314h-226v-314h-116v690h116v-281h226v281h116v-690h-116v314z" />
    <glyph glyph-name="uni041E" unicode="&#x41e;" 
d="M494.5 84q-67.5 -97 -194.5 -97t-194.5 95.5t-67.5 261.5q0 164 67.5 262t194.5 98t194.5 -96.5t67.5 -262.5q0 -164 -67.5 -261zM409 547q-34 66 -109 66t-109 -66t-34 -203q0 -135 34.5 -201t108.5 -66q75 0 109 66t34 202t-34 202z" />
    <glyph glyph-name="uni041F" unicode="&#x41f;" 
d="M413 596h-226v-596h-116v690h458v-690h-116v596z" />
    <glyph glyph-name="uni0420" unicode="&#x420;" 
d="M492 301.5q-72 -55.5 -197 -55.5h-84v-246h-115v690h191q133 0 205 -54.5t72 -162.5q0 -116 -72 -171.5zM295 603h-84v-269h85q70 0 108.5 32t38.5 107q0 130 -148 130z" />
    <glyph glyph-name="uni0421" unicode="&#x421;" 
d="M474 687q48 -17 92 -53l-60 -72q-63 51 -143 51q-84 0 -137 -64.5t-53 -202.5q0 -136 52 -200.5t139 -64.5q50 0 85.5 15.5t70.5 43.5l56 -71q-84 -82 -216 -82q-89 0 -159 41.5t-109.5 122.5t-39.5 195q0 112 40.5 193t110.5 123t155 42q68 0 116 -17z" />
    <glyph glyph-name="uni0422" unicode="&#x422;" 
d="M357 0h-116v596h-208v94h535l-12 -94h-199v-596z" />
    <glyph glyph-name="uni0423" unicode="&#x423;" 
d="M393 201q-29 -73 -62 -115.5t-84 -66.5t-131 -32l-16 85q57 7 91 21t54 36t35 58h-43l-223 503h121l177 -432l161 432h117z" />
    <glyph glyph-name="uni040E" unicode="&#x40e;" 
d="M393 201q-29 -73 -62 -115.5t-84 -66.5t-131 -32l-16 85q57 7 91 21t54 36t35 58h-43l-223 503h121l177 -432l161 432h117zM200 792.5q-42 36.5 -48 95.5l68 14q22 -64 88 -64q35 0 57.5 16.5t32.5 47.5l69 -14q-6 -59 -49 -95.5t-110 -36.5q-66 0 -108 36.5z" />
    <glyph glyph-name="uni0424" unicode="&#x424;" 
d="M348 658q123 -9 182.5 -85.5t59.5 -224.5q0 -149 -61.5 -228.5t-180.5 -85.5v-67h-96v67q-120 6 -181 85t-61 229q0 148 59.5 224.5t182.5 85.5v64h96v-64zM153.5 526q-31.5 -54 -31.5 -178q0 -122 31 -177.5t104 -62.5v477q-72 -5 -103.5 -59zM343 108q73 7 104 62.5
t31 177.5q0 124 -31.5 178t-103.5 59v-477z" />
    <glyph glyph-name="uni0425" unicode="&#x425;" 
d="M167 690l133 -248l135 248h123l-191 -317l213 -373h-129l-153 293l-154 -293h-123l208 367l-191 323h129z" />
    <glyph glyph-name="uni0427" unicode="&#x427;" 
d="M529 690v-690h-116v267q-40 -29 -78.5 -42.5t-87.5 -13.5q-95 0 -150.5 57.5t-55.5 158.5v263h116v-257q0 -67 30 -98t91 -31q81 0 135 52v334h116z" />
    <glyph glyph-name="uni0426" unicode="&#x426;" 
d="M585 91v-248h-91l-16 157h-407v690h116v-597h226v597h116v-599h56z" />
    <glyph glyph-name="uni0428" unicode="&#x428;" 
d="M558 0h-516v690h100v-602h112v602h92v-602h112v602h100v-690z" />
    <glyph glyph-name="uni0429" unicode="&#x429;" 
d="M615 91v-248h-91l-16 157h-466v690h100v-602h112v602h92v-602h112v602h100v-599h57z" />
    <glyph glyph-name="uni040F" unicode="&#x40f;" 
d="M529 0h-175v-157h-91l-16 157h-176v690h116v-597h226v597h116v-690z" />
    <glyph glyph-name="uni042C" unicode="&#x42c;" 
d="M195 443h91q132 0 203.5 -53t71.5 -163q0 -115 -72.5 -171t-198.5 -56h-211v690h116v-247zM195 356v-267h98q71 0 108.5 31t37.5 106q0 130 -148 130h-96z" />
    <glyph glyph-name="uni042A" unicode="&#x42a;" 
d="M223 443h85q132 0 203.5 -53t71.5 -163q0 -116 -72.5 -171.5t-197.5 -55.5h-203v597h-111v93h224v-247zM223 357v-269h88q74 0 113.5 30.5t39.5 107.5q0 131 -149 131h-92z" />
    <glyph glyph-name="uni042B" unicode="&#x42b;" 
d="M133 444h42q124 0 187.5 -55t63.5 -162q0 -114 -65 -170.5t-184 -56.5h-150v690h106v-246zM573 0h-106v690h106v-690zM133 361v-275h51q66 0 99 32.5t33 107.5q0 135 -130 135h-53z" />
    <glyph glyph-name="uni0409" unicode="&#x409;" 
d="M358 443q121 0 181.5 -53t60.5 -163q0 -116 -61.5 -171.5t-174.5 -55.5h-106v606h-80l-20 -298q-8 -117 -21.5 -178t-33.5 -89t-58 -55l-49 71q17 17 27.5 41t19.5 75t15 143l27 374h273v-247zM358 362v-278h15q61 0 90.5 32.5t29.5 109.5q0 71 -29.5 103.5t-91.5 32.5
h-14z" />
    <glyph glyph-name="uni040A" unicode="&#x40a;" 
d="M360 422q119 -1 179.5 -51t60.5 -153q0 -113 -61 -165.5t-177 -52.5h-104v339h-120v-339h-102v690h102v-268h120v268h102v-268zM360 340v-255h12q64 1 93 29t29 103q0 67 -29.5 94.5t-92.5 28.5h-12z" />
    <glyph glyph-name="uni0405" unicode="&#x405;" 
d="M517.5 86q-31.5 -47 -91 -73t-141.5 -26q-160 0 -254 92l64 71q78 -72 190 -72q62 0 102.5 29t40.5 82q0 31 -12.5 52t-42.5 37.5t-86 33.5q-115 34 -169 81t-54 124q0 55 30.5 97.5t84.5 66t122 23.5q139 0 231 -83l-61 -69q-71 61 -163 61q-56 0 -90.5 -23t-34.5 -66
q0 -27 14.5 -46t49 -34.5t97.5 -34.5q100 -30 152.5 -77t52.5 -137q0 -62 -31.5 -109z" />
    <glyph glyph-name="uni0404" unicode="&#x404;" 
d="M469 686q49 -18 94 -53l-57 -66q-70 48 -144 48q-79 0 -131.5 -52.5t-61.5 -162.5h286v-92h-288q6 -116 58.5 -173t134.5 -57q51 0 87.5 15.5t68.5 42.5l56 -69q-86 -80 -218 -80q-90 0 -159 41.5t-107.5 122.5t-38.5 195q0 113 40.5 193.5t109.5 122.5t155 42
q66 0 115 -18z" />
    <glyph glyph-name="uni042D" unicode="&#x42d;" 
d="M473 614.5q74 -89.5 74 -262.5q0 -178 -78.5 -271.5t-214.5 -93.5q-67 0 -124 23t-99 65l62 64q36 -31 73.5 -46t83.5 -15q83 0 128 56t50 175h-285v90h285q-6 114 -48.5 165t-121.5 51q-49 0 -86 -16t-74 -45l-59 64q48 40 102.5 63t124.5 23q133 0 207 -89.5z" />
    <glyph glyph-name="uni0406" unicode="&#x406;" 
d="M508 602h-150v-513h150v-89h-416v89h150v513h-150v88h416v-88z" />
    <glyph glyph-name="uni0407" unicode="&#x407;" 
d="M508 602h-150v-513h150v-89h-416v89h150v513h-150v88h416v-88zM145.5 784q-18.5 18 -18.5 45t18.5 45.5t46.5 18.5t46.5 -18.5t18.5 -45.5t-18.5 -45t-46.5 -18t-46.5 18zM362 784q-19 18 -19 45t19 45.5t46 18.5q28 0 46.5 -18.5t18.5 -45.5t-18.5 -45t-46.5 -18
q-27 0 -46 18z" />
    <glyph glyph-name="uni0408" unicode="&#x408;" 
d="M508 237q0 -109 -62.5 -179.5t-189.5 -70.5q-109 0 -196 64l47 73q39 -25 74 -35.5t71 -10.5q65 0 102.5 42t37.5 119v362h-207v89h323v-453z" />
    <glyph glyph-name="uni040B" unicode="&#x40b;" 
d="M411 601h-152v-197q59 54 135 54q89 0 133.5 -53t44.5 -157v-248h-112v250q0 62 -21.5 89t-72.5 27q-35 0 -60 -12.5t-47 -32.5v-321h-112v601h-153v89h429z" />
    <glyph glyph-name="uni042E" unicode="&#x42e;" 
d="M503.5 664q42.5 -40 60.5 -118t18 -201q0 -180 -45 -269t-147 -89q-101 0 -144.5 83t-46.5 244h-59v-314h-99v690h99v-289h60q6 151 50.5 227t139.5 76q71 0 113.5 -40zM339.5 594q-18.5 -25 -26.5 -83.5t-8 -164.5t8 -165t26.5 -84t50.5 -25q31 0 50 25t27.5 84.5
t8.5 163.5q0 105 -8.5 164.5t-27.5 84.5t-50 25q-32 0 -50.5 -25z" />
    <glyph glyph-name="uni042F" unicode="&#x42f;" 
d="M529 0h-116v267h-128l-136 -267h-128l159 291q-119 54 -119 189q0 102 68.5 156t200.5 54h199v-690zM325 604q-72 0 -107.5 -30.5t-35.5 -94.5q0 -65 33.5 -95.5t99.5 -30.5h98v251h-88z" />
    <glyph glyph-name="uni0402" unicode="&#x402;" 
d="M259 404q63 54 135 54q89 0 133.5 -53t44.5 -157v-151q0 -105 -47.5 -159.5t-139.5 -85.5l-29 85q43 18 65 38t30.5 48.5t8.5 74.5v152q0 62 -21.5 89t-72.5 27q-35 0 -60 -12.5t-47 -32.5v-321h-112v601h-153v89h429l-12 -89h-152v-197z" />
    <glyph glyph-name="uni0460" unicode="&#x460;" 
d="M566 515.5q20 -88.5 20 -215.5q0 -161 -45 -237.5t-122 -76.5q-48 0 -76 25t-43 75q-16 -50 -43.5 -75t-72.5 -25q-47 0 -85 32t-61 102.5t-23 179.5q0 126 19.5 212t52.5 178h102q-32 -100 -48.5 -185.5t-16.5 -201.5q0 -121 19.5 -173.5t56.5 -52.5q22 0 36.5 21.5
t14.5 67.5v232h99v-232q0 -45 15 -67t40 -22q34 0 53 49t19 176q0 115 -16.5 199t-48.5 189h101q33 -86 53 -174.5z" />
    <glyph glyph-name="uni0462" unicode="&#x462;" 
d="M505 380.5q70 -53.5 70 -156.5q0 -112 -72 -168t-192 -56h-168v526h-133v76h133v88h116v-88h142v-76h-142v-92h55q121 0 191 -53.5zM454 223q0 124 -141 124h-54v-258h54q141 0 141 134z" />
    <glyph glyph-name="uni0464" unicode="&#x464;" 
d="M600 30q-30 -21 -64 -32t-80 -11q-113 0 -177.5 82.5t-71.5 238.5h-61v-308h-113v691h113v-290h62q11 147 78 225t178 78q42 0 72 -9t59 -29l-45 -71q-21 12 -40.5 17t-43.5 5q-63 0 -100 -52t-44 -166h202v-90h-203q4 -121 40 -177.5t102 -56.5q28 0 49.5 7t44.5 20z
" />
    <glyph glyph-name="uni0466" unicode="&#x466;" 
d="M396 273h-49v-273h-96v273h-50l-79 -273h-114l220 690h144l220 -690h-117zM370 361l-72 248l-72 -248h144z" />
    <glyph glyph-name="uni0468" unicode="&#x468;" 
d="M449 281h-29v-281h-83v281h-30l-58 -281h-97l63 281h-91v-282h-101v691h101v-331h109l75 331h144l157 -690h-101zM433 359l-55 261l-54 -261h109z" />
    <glyph glyph-name="uni046A" unicode="&#x46a;" 
d="M575 0h-99l-80 311h-46v-311h-100v311h-46l-80 -311h-99l112 387h71l-125 234v69h435v-69l-127 -234h76zM302 387l112 229h-226z" />
    <glyph glyph-name="uni046C" unicode="&#x46c;" 
d="M622 0h-97l-57 311h-39v-311h-95v311h-39l-58 -311h-96l70 311h-97v-312h-101v691h101v-303h180l-105 234v69h385v-69l-107 -234h72zM287 618l96 -231l95 231h-191z" />
    <glyph glyph-name="uni046E" unicode="&#x46e;" 
d="M247 753l-137 116l45 51l128 -82l129 82l44 -51l-137 -116h-72zM469.5 328.5q56.5 -50.5 56.5 -144.5q0 -91 -59.5 -141.5t-153.5 -66.5q-68 -12 -91 -23t-23 -31q0 -18 17.5 -33.5t56.5 -36.5l-41 -70q-147 61 -147 151q0 51 38.5 80t125.5 44q79 14 118 44t39 87
q0 59 -33 86.5t-101 27.5h-113v74l201 223h-286v91h417v-89l-207 -221h18q111 -1 167.5 -51.5z" />
    <glyph glyph-name="uni0470" unicode="&#x470;" 
d="M245 189q-117 12 -175 74.5t-58 163.5v263h108v-261q0 -72 28.5 -109t101.5 -46v416h101v-415q71 9 100 46t29 108v261h108v-263q0 -100 -58.5 -162.5t-174.5 -74.5v-190h-110v189z" />
    <glyph glyph-name="uni0472" unicode="&#x472;" 
d="M494.5 84q-67.5 -97 -194.5 -97t-194.5 95.5t-67.5 261.5q0 164 67.5 262t194.5 98t194.5 -96.5t67.5 -262.5q0 -164 -67.5 -261zM196.5 558.5q-34.5 -54.5 -39.5 -167.5h285q-5 112 -39 167t-103 55t-103.5 -54.5zM406 135q34 58 37 177h-287q3 -118 38 -176.5
t106 -58.5q72 0 106 58z" />
    <glyph glyph-name="uni0474" unicode="&#x474;" 
d="M543 618q-16 0 -26 -10.5t-17 -34.5l-150 -573h-136l-193 690h124l137 -580l110 474q15 64 47 92.5t87 28.5q35 0 69 -15l-25 -78q-18 6 -27 6z" />
    <glyph glyph-name="uni0476" unicode="&#x476;" 
d="M543 618q-16 0 -26 -10.5t-17 -34.5l-150 -573h-136l-193 690h124l137 -580l110 474q15 64 47 92.5t87 28.5q35 0 69 -15l-25 -78q-18 6 -27 6zM185 792l-115 170l86 44l92 -182zM347 794l-108 171l87 41l86 -182z" />
    <glyph glyph-name="uni0478" unicode="&#x478;" 
d="M2 344q0 172 38.5 266t119.5 94q83 0 120 -92t37 -267t-37 -266.5t-120 -91.5q-158 0 -158 357zM199.5 94.5q14.5 28.5 20.5 88.5t6 162q0 151 -14.5 215.5t-51.5 64.5q-25 0 -39.5 -29t-20.5 -89.5t-6 -162.5q0 -150 15 -214t51 -64q25 0 39.5 28.5zM332 -149
q46 16 71.5 50t35.5 99h-40l-79 528h85l53 -450l52 450h84l-80 -530q-27 -175 -166 -214z" />
    <glyph glyph-name="uni0492" unicode="&#x492;" 
d="M263 594v-161h152v-79h-152v-354h-116v354h-92v79h92v257h431l-11 -96h-304z" />
    <glyph glyph-name="uni0494" unicode="&#x494;" 
d="M502 399q53 -59 53 -165v-282q0 -83 -43.5 -126t-122.5 -43q-68 0 -121 40l44 70q19 -11 33.5 -16t35.5 -5q59 0 59 72v289q0 66 -28 98.5t-86 32.5q-46 0 -79.5 -16t-62.5 -48v-300h-115v690h11h395l-14 -92h-277v-207q69 67 169 67q96 0 149 -59z" />
    <glyph glyph-name="uni0496" unicode="&#x496;" 
d="M610 91v-248h-84l-17 157h-24l-94 324h-48v-324h-86v324h-49l-95 -324h-105l117 370l-104 320h103l85 -291h48v291h86v-291h48l86 291h102l-104 -320l88 -279h47z" />
    <glyph glyph-name="uni0498" unicode="&#x498;" 
d="M486.5 56.5q-62.5 -58.5 -171.5 -68.5v-42q48 -4 72.5 -28.5t24.5 -60.5q0 -48 -38 -76t-95 -28q-31 0 -60 7t-49 19l30 58q34 -17 66 -17q57 0 57 38q0 23 -21.5 31t-66.5 8l8 91q-67 4 -122.5 29t-96.5 68l66 62q79 -70 184 -70q73 0 114 33.5t41 92.5q0 61 -40.5 91
t-110.5 30h-119l14 89h101q59 0 97.5 26t38.5 77q0 47 -37.5 73t-98.5 26q-51 0 -93.5 -15.5t-80.5 -46.5l-60 64q102 87 242 87q74 0 129 -23t85 -64.5t30 -94.5q0 -62 -40 -100t-108 -49q75 -7 123 -51.5t48 -119.5q0 -87 -62.5 -145.5z" />
    <glyph glyph-name="uni049A" unicode="&#x49a;" 
d="M595 91v-248h-91l-16 157h-26l-194 317h-74v-317h-115v690h115v-283h74l189 283h119l-211 -320l173 -279h57z" />
    <glyph glyph-name="uni049C" unicode="&#x49c;" 
d="M231 320h-43v-320h-109v690h109v-286h43v167h54v-167h23l150 286h116l-178 -320l197 -370h-125l-159 320h-24v-171h-54v171z" />
    <glyph glyph-name="uni049E" unicode="&#x49e;" 
d="M591 0h-133l-174 317h-73v-317h-116v527h-68v80h68v83h116v-83h103v-80h-103v-120h73l170 283h118l-191 -320z" />
    <glyph glyph-name="uni04A0" unicode="&#x4a0;" 
d="M230 317v-317h-112v597h-111v93h223v-284h65l170 284h118l-193 -320l211 -370h-131l-175 317h-65z" />
    <glyph glyph-name="uni04A2" unicode="&#x4a2;" 
d="M585 91v-248h-91l-16 157h-65v314h-226v-314h-116v690h116v-281h226v281h116v-599h56z" />
    <glyph glyph-name="uni04A6" unicode="&#x4a6;" 
d="M552.5 413q36.5 -42 36.5 -112v-354q0 -78 -43 -121t-112 -43q-68 0 -121 40l42 66q18 -11 34 -16.5t37 -5.5q58 0 58 72v358q0 69 -58 69q-36 0 -70 -29v-337h-105v601h-120v-601h-105v690h330v-273q41 38 97 38q63 0 99.5 -42z" />
    <glyph glyph-name="uni0524" unicode="&#x524;" 
d="M585 91v-248h-91l-16 157h-65v596h-226v-596h-116v690h458v-599h56z" />
    <glyph glyph-name="uni04A8" unicode="&#x4a8;" 
d="M550 130q-32 -64 -91 -102l80 -109l-66 -49l-33 44q-11 14 -29.5 38.5t-30.5 41.5q-29 -8 -69 -8q-84 0 -147.5 41.5t-98.5 122.5t-35 195q0 113 37 194.5t99.5 123.5t137.5 42q62 0 106 -18t89 -55l-57 -69q-34 26 -66 38.5t-67 12.5q-69 0 -112.5 -64.5t-43.5 -204.5
q0 -139 42.5 -204t117.5 -65h11q-30 50 -45.5 94.5t-15.5 90.5q0 76 44 123t115 47q73 0 116.5 -44.5t43.5 -121.5q0 -71 -32 -135zM372 181.5q13 -39.5 38 -81.5q70 45 70 167q0 84 -59 84q-30 0 -46 -23t-16 -65t13 -81.5z" />
    <glyph glyph-name="uni04AA" unicode="&#x4aa;" 
d="M474 -131q0 -52 -36.5 -83.5t-99.5 -31.5q-55 0 -100 25l26 61q34 -16 67 -16q28 0 42 14t14 39q0 65 -73 113q-78 10 -137 54.5t-92 121t-33 180.5q0 112 40.5 193t110.5 123t155 42q68 0 116 -17t92 -53l-60 -72q-63 51 -143 51q-84 0 -137 -64.5t-53 -202.5
q0 -136 52 -200.5t139 -64.5q50 0 85.5 15.5t70.5 43.5l56 -71q-71 -69 -177 -81q75 -46 75 -119z" />
    <glyph glyph-name="uni04AC" unicode="&#x4ac;" 
d="M357 596v-505h56v-248h-91l-16 157h-65v596h-208v94h535l-12 -94h-199z" />
    <glyph glyph-name="uni04AE" unicode="&#x4ae;" 
d="M358 0h-116v263l-231 427h128l163 -327l165 327h122l-231 -426v-264z" />
    <glyph glyph-name="uni04B0" unicode="&#x4b0;" 
d="M383 309h99v-77h-124v-232h-116v232h-124v77h99l-206 381h128l163 -327l165 327h122z" />
    <glyph glyph-name="uni04B2" unicode="&#x4b2;" 
d="M583 91v-248h-91l-16 157h-26v1l-152 292l-154 -293h-123l208 367l-191 323h129l133 -248l135 248h123l-191 -317l161 -282h55z" />
    <glyph glyph-name="uni04B6" unicode="&#x4b6;" 
d="M585 91v-248h-91l-16 157h-65v267q-40 -29 -78.5 -42.5t-87.5 -13.5q-95 0 -150.5 57.5t-55.5 158.5v263h116v-257q0 -67 30 -98t91 -31q81 0 135 52v334h116v-599h56z" />
    <glyph glyph-name="uni04B8" unicode="&#x4b8;" 
d="M529 690v-690h-116v267q-49 -35 -92 -47v-99h-61v90h-13q-95 0 -150.5 57.5t-55.5 158.5v263h116v-257q0 -61 25.5 -92t77.5 -36v239h61v-236q53 11 92 48v334h116z" />
    <glyph glyph-name="uni04BA" unicode="&#x4ba;" 
d="M505 399q53 -59 53 -165v-234h-116v233q0 66 -27.5 98.5t-85.5 32.5q-45 0 -79 -16t-63 -47v-301h-116v690h116v-298q71 66 169 66q96 0 149 -59z" />
    <glyph glyph-name="uni0526" unicode="&#x526;" 
d="M602 91v-248h-90l-17 157h-64v233q0 66 -28 98.5t-87 32.5q-41 0 -72 -16t-57 -46v-302h-116v690h116v-295q66 63 158 63q96 0 149 -59t53 -165v-143h55z" />
    <glyph glyph-name="uni04BC" unicode="&#x4bc;" 
d="M567 300h-323q1 -118 36.5 -173t94.5 -55q36 0 62 11.5t57 33.5l48 -63q-76 -67 -170 -67q-108 0 -169 79.5t-67 234.5q-65 1 -101 36.5t-36 90.5q0 53 35 103l67 -29q-10 -24 -14 -37t-4 -30q0 -51 50 -51h3q8 151 68 235.5t158 84.5q101 0 154.5 -89.5t53.5 -257.5
q0 -30 -3 -57zM467 384q-3 127 -29.5 181t-76.5 54q-52 0 -82 -56t-35 -179h223z" />
    <glyph glyph-name="uni04BE" unicode="&#x4be;" 
d="M567 300h-323q1 -118 36.5 -173t94.5 -55q36 0 62 11.5t57 33.5l48 -63q-45 -38 -92 -55q-68 -27 -93 -53.5t-25 -58.5q0 -48 56 -48q28 0 59 7l-10 -77q-33 -7 -62 -7q-59 0 -96 29.5t-37 77.5q0 76 80 122q-85 17 -133 95.5t-53 214.5q-65 1 -101 36.5t-36 90.5
q0 53 35 103l67 -29q-10 -24 -14 -37t-4 -30q0 -51 50 -51h3q8 151 68 235.5t158 84.5q101 0 154.5 -89.5t53.5 -257.5q0 -30 -3 -57zM467 384q-3 127 -29.5 181t-76.5 54q-52 0 -82 -56t-35 -179h223z" />
    <glyph glyph-name="uni04C0" unicode="&#x4c0;" 
d="M508 602h-150v-513h150v-89h-416v89h150v513h-150v88h416v-88z" />
    <glyph glyph-name="uni04C1" unicode="&#x4c1;" 
d="M208 324l-95 -324h-105l117 370l-104 320h103l85 -291h48v291h86v-291h48l86 291h102l-104 -320l117 -370h-107l-94 324h-48v-324h-86v324h-49zM190.5 795.5q-42.5 35.5 -48.5 92.5l69 14q17 -61 88 -61t90 61l68 -14q-6 -57 -49 -92.5t-109 -35.5t-108.5 35.5z" />
    <glyph glyph-name="uni04C3" unicode="&#x4c3;" 
d="M546 -48q0 -83 -44 -126t-122 -43q-70 0 -121 40l43 70q19 -11 34 -16t35 -5q59 0 59 72v237q0 63 -27 93t-85 30h-131v-304h-116v690h116v-295h86l164 295h118l-175 -298q166 -24 166 -209v-231z" />
    <glyph glyph-name="uni04C5" unicode="&#x4c5;" 
d="M592 100l-86 -257h-93l36 157h-63v597h-126l-20 -169q-17 -161 -39 -244t-54 -123t-91 -75l-48 80q32 25 50.5 54t35.5 98t32 201l32 271h344v-590h90z" />
    <glyph glyph-name="uni04C7" unicode="&#x4c7;" 
d="M485.5 -174q-43.5 -43 -122.5 -43q-68 0 -121 40l43 70q20 -11 34.5 -16t35.5 -5q58 0 58 72v370h-226v-314h-116v690h116v-281h226v281h116v-738q0 -83 -43.5 -126z" />
    <glyph glyph-name="uni04C9" unicode="&#x4c9;" 
d="M585 100l-86 -257h-93l37 157h-64v313h-202v-313h-116v690h116v-280h202v280h116v-590h90z" />
    <glyph glyph-name="uni04CB" unicode="&#x4cb;" 
d="M529 690v-690h-71l-16 -157h-91v248h62v176q-40 -29 -78.5 -42.5t-87.5 -13.5q-95 0 -150.5 57.5t-55.5 158.5v263h116v-257q0 -67 30 -98t91 -31q81 0 135 52v334h116z" />
    <glyph glyph-name="uni04CD" unicode="&#x4cd;" 
d="M614 100l-86 -257h-87l36 157h-47l-17 336q-3 71 -3 133q0 73 3 118l-85 -465h-101l-92 465q3 -54 3 -152q0 -67 -1 -100l-14 -335h-103l39 690h139l82 -462l77 462h140l33 -590h84z" />
    <glyph glyph-name="uni04D0" unicode="&#x4d0;" 
d="M175 166l-48 -166h-119l220 690h144l220 -690h-123l-48 166h-246zM397 256l-99 344l-99 -344h198zM190.5 795.5q-42.5 35.5 -48.5 92.5l69 14q17 -61 88 -61t90 61l68 -14q-6 -57 -49 -92.5t-109 -35.5t-108.5 35.5z" />
    <glyph glyph-name="uni04D2" unicode="&#x4d2;" 
d="M175 166l-48 -166h-119l220 690h144l220 -690h-123l-48 166h-246zM397 256l-99 344l-99 -344h198zM145.5 784q-18.5 18 -18.5 45t18.5 45.5t46.5 18.5t46.5 -18.5t18.5 -45.5t-18.5 -45t-46.5 -18t-46.5 18zM362 784q-19 18 -19 45t19 45.5t46 18.5q28 0 46.5 -18.5
t18.5 -45.5t-18.5 -45t-46.5 -18q-27 0 -46 18z" />
    <glyph glyph-name="uni04D6" unicode="&#x4d6;" 
d="M229 394h250v-87h-250v-219h305v-88h-421v690h415l-13 -88h-286v-208zM211.5 795.5q-42.5 35.5 -48.5 92.5l69 14q17 -61 88 -61t90 61l68 -14q-6 -57 -49 -92.5t-109 -35.5t-108.5 35.5z" />
    <glyph glyph-name="uni04D8" unicode="&#x4d8;" 
d="M39 389h405q-4 118 -44.5 172.5t-114.5 54.5q-45 0 -78.5 -14.5t-72.5 -42.5l-57 64q46 39 98 60t118 21q131 0 199.5 -89t68.5 -263q0 -115 -31.5 -197t-91 -125t-141.5 -43q-126 0 -194 89t-68 257q0 20 4 56zM401 130.5q37 55.5 43 172.5h-298q4 -122 41.5 -175
t109.5 -53q67 0 104 55.5z" />
    <glyph glyph-name="uni04DA" unicode="&#x4da;" 
d="M39 389h405q-4 118 -44.5 172.5t-114.5 54.5q-45 0 -78.5 -14.5t-72.5 -42.5l-57 64q46 39 98 60t118 21q131 0 199.5 -89t68.5 -263q0 -115 -31.5 -197t-91 -125t-141.5 -43q-126 0 -194 89t-68 257q0 20 4 56zM401 130.5q37 55.5 43 172.5h-298q4 -122 41.5 -175
t109.5 -53q67 0 104 55.5zM137.5 784q-18.5 18 -18.5 45t18.5 45.5t46.5 18.5t46.5 -18.5t18.5 -45.5t-18.5 -45t-46.5 -18t-46.5 18zM354 784q-19 18 -19 45t19 45.5t46 18.5q28 0 46.5 -18.5t18.5 -45.5t-18.5 -45t-46.5 -18q-27 0 -46 18z" />
    <glyph glyph-name="uni04DC" unicode="&#x4dc;" 
d="M208 324l-95 -324h-105l117 370l-104 320h103l85 -291h48v291h86v-291h48l86 291h102l-104 -320l117 -370h-107l-94 324h-48v-324h-86v324h-49zM145.5 784q-18.5 18 -18.5 45t18.5 45.5t46.5 18.5t46.5 -18.5t18.5 -45.5t-18.5 -45t-46.5 -18t-46.5 18zM362 784
q-19 18 -19 45t19 45.5t46 18.5q28 0 46.5 -18.5t18.5 -45.5t-18.5 -45t-46.5 -18q-27 0 -46 18z" />
    <glyph glyph-name="uni04DE" unicode="&#x4de;" 
d="M411 681q55 -23 85 -64.5t30 -94.5q0 -62 -40 -100t-108 -49q75 -7 123 -51.5t48 -119.5q0 -63 -33 -111.5t-95 -76t-146 -27.5q-77 0 -141 25t-110 73l66 62q79 -70 184 -70q73 0 114 33.5t41 92.5q0 61 -40.5 91t-110.5 30h-119l14 89h101q59 0 97.5 26t38.5 77
q0 47 -37.5 73t-98.5 26q-51 0 -93.5 -15.5t-80.5 -46.5l-60 64q102 87 242 87q74 0 129 -23zM139.5 784q-18.5 18 -18.5 45t18.5 45.5t46.5 18.5t46.5 -18.5t18.5 -45.5t-18.5 -45t-46.5 -18t-46.5 18zM356 784q-19 18 -19 45t19 45.5t46 18.5q28 0 46.5 -18.5t18.5 -45.5
t-18.5 -45t-46.5 -18q-27 0 -46 18z" />
    <glyph glyph-name="uni04E0" unicode="&#x4e0;" 
d="M484.5 350.5q56.5 -50.5 56.5 -142.5q0 -64 -31.5 -114.5t-90 -79t-137.5 -28.5q-76 0 -126.5 20t-96.5 60l57 67q41 -30 77 -43.5t87 -13.5q67 0 103.5 34t36.5 98q0 60 -35 87t-102 27h-111v72l208 205h-289v91h418v-89l-207 -200h13q113 0 169.5 -50.5z" />
    <glyph glyph-name="uni04E2" unicode="&#x4e2;" 
d="M71 690h111v-305q0 -90 -5 -153t-15 -130l229 588h138v-690h-111v304q0 145 19 280l-225 -584h-141v690zM159 790v82h282v-82h-282z" />
    <glyph glyph-name="uni04E4" unicode="&#x4e4;" 
d="M71 690h111v-305q0 -90 -5 -153t-15 -130l229 588h138v-690h-111v304q0 145 19 280l-225 -584h-141v690zM145.5 784q-18.5 18 -18.5 45t18.5 45.5t46.5 18.5t46.5 -18.5t18.5 -45.5t-18.5 -45t-46.5 -18t-46.5 18zM362 784q-19 18 -19 45t19 45.5t46 18.5
q28 0 46.5 -18.5t18.5 -45.5t-18.5 -45t-46.5 -18q-27 0 -46 18z" />
    <glyph glyph-name="uni04E6" unicode="&#x4e6;" 
d="M494.5 84q-67.5 -97 -194.5 -97t-194.5 95.5t-67.5 261.5q0 164 67.5 262t194.5 98t194.5 -96.5t67.5 -262.5q0 -164 -67.5 -261zM409 547q-34 66 -109 66t-109 -66t-34 -203q0 -135 34.5 -201t108.5 -66q75 0 109 66t34 202t-34 202zM145.5 784q-18.5 18 -18.5 45
t18.5 45.5t46.5 18.5t46.5 -18.5t18.5 -45.5t-18.5 -45t-46.5 -18t-46.5 18zM362 784q-19 18 -19 45t19 45.5t46 18.5q28 0 46.5 -18.5t18.5 -45.5t-18.5 -45t-46.5 -18q-27 0 -46 18z" />
    <glyph glyph-name="uni04E8" unicode="&#x4e8;" 
d="M494.5 84q-67.5 -97 -194.5 -97t-194.5 95.5t-67.5 261.5q0 164 67.5 262t194.5 98t194.5 -96.5t67.5 -262.5q0 -164 -67.5 -261zM196.5 558.5q-34.5 -54.5 -39.5 -167.5h285q-5 112 -39 167t-103 55t-103.5 -54.5zM406 135q34 58 37 177h-287q3 -118 38 -176.5
t106 -58.5q72 0 106 58z" />
    <glyph glyph-name="uni04EA" unicode="&#x4ea;" 
d="M494.5 84q-67.5 -97 -194.5 -97t-194.5 95.5t-67.5 261.5q0 164 67.5 262t194.5 98t194.5 -96.5t67.5 -262.5q0 -164 -67.5 -261zM196.5 558.5q-34.5 -54.5 -39.5 -167.5h285q-5 112 -39 167t-103 55t-103.5 -54.5zM406 135q34 58 37 177h-287q3 -118 38 -176.5
t106 -58.5q72 0 106 58zM145.5 784q-18.5 18 -18.5 45t18.5 45.5t46.5 18.5t46.5 -18.5t18.5 -45.5t-18.5 -45t-46.5 -18t-46.5 18zM362 784q-19 18 -19 45t19 45.5t46 18.5q28 0 46.5 -18.5t18.5 -45.5t-18.5 -45t-46.5 -18q-27 0 -46 18z" />
    <glyph glyph-name="uni04EC" unicode="&#x4ec;" 
d="M473 614.5q74 -89.5 74 -262.5q0 -178 -78.5 -271.5t-214.5 -93.5q-67 0 -124 23t-99 65l62 64q36 -31 73.5 -46t83.5 -15q83 0 128 56t50 175h-285v90h285q-6 114 -48.5 165t-121.5 51q-49 0 -86 -16t-74 -45l-59 64q48 40 102.5 63t124.5 23q133 0 207 -89.5z
M130.5 783q-18.5 18 -18.5 45t18.5 45.5t46.5 18.5t46.5 -18.5t18.5 -45.5t-18.5 -45t-46.5 -18t-46.5 18zM347 783q-19 18 -19 45t19 45.5t46 18.5q28 0 46.5 -18.5t18.5 -45.5t-18.5 -45t-46.5 -18q-27 0 -46 18z" />
    <glyph glyph-name="uni04EE" unicode="&#x4ee;" 
d="M393 201q-29 -73 -62 -115.5t-84 -66.5t-131 -32l-16 85q57 7 91 21t54 36t35 58h-43l-223 503h121l177 -432l161 432h117zM169 790v82h282v-82h-282z" />
    <glyph glyph-name="uni04F0" unicode="&#x4f0;" 
d="M393 201q-29 -73 -62 -115.5t-84 -66.5t-131 -32l-16 85q57 7 91 21t54 36t35 58h-43l-223 503h121l177 -432l161 432h117zM155.5 784q-18.5 18 -18.5 45t18.5 45.5t46.5 18.5t46.5 -18.5t18.5 -45.5t-18.5 -45t-46.5 -18t-46.5 18zM372 784q-19 18 -19 45t19 45.5
t46 18.5q28 0 46.5 -18.5t18.5 -45.5t-18.5 -45t-46.5 -18q-27 0 -46 18z" />
    <glyph glyph-name="uni04F2" unicode="&#x4f2;" 
d="M393 201q-29 -73 -62 -115.5t-84 -66.5t-131 -32l-16 85q57 7 91 21t54 36t35 58h-43l-223 503h121l177 -432l161 432h117zM269 965l87 -40l-107 -171l-66 29zM440 965l85 -43l-114 -170l-64 32z" />
    <glyph glyph-name="uni04F4" unicode="&#x4f4;" 
d="M529 690v-690h-116v267q-40 -29 -78.5 -42.5t-87.5 -13.5q-95 0 -150.5 57.5t-55.5 158.5v263h116v-257q0 -67 30 -98t91 -31q81 0 135 52v334h116zM133.5 784q-18.5 18 -18.5 45t18.5 45.5t46.5 18.5t46.5 -18.5t18.5 -45.5t-18.5 -45t-46.5 -18t-46.5 18zM350 784
q-19 18 -19 45t19 45.5t46 18.5q28 0 46.5 -18.5t18.5 -45.5t-18.5 -45t-46.5 -18q-27 0 -46 18z" />
    <glyph glyph-name="uni04F6" unicode="&#x4f6;" 
d="M235 594v-503h62v-248h-91l-16 157h-71v690h431l-12 -96h-303z" />
    <glyph glyph-name="uni04F8" unicode="&#x4f8;" 
d="M133 444h42q124 0 187.5 -55t63.5 -162q0 -114 -65 -170.5t-184 -56.5h-150v690h106v-246zM573 0h-106v690h106v-690zM133 361v-275h51q66 0 99 32.5t33 107.5q0 135 -130 135h-53zM145.5 784q-18.5 18 -18.5 45t18.5 45.5t46.5 18.5t46.5 -18.5t18.5 -45.5t-18.5 -45
t-46.5 -18t-46.5 18zM362 784q-19 18 -19 45t19 45.5t46 18.5q28 0 46.5 -18.5t18.5 -45.5t-18.5 -45t-46.5 -18q-27 0 -46 18z" />
    <glyph glyph-name="uni04FA" unicode="&#x4fa;" 
d="M285 594v-161h152v-79h-152v-263h65v-139q0 -83 -44 -126t-122 -43q-69 0 -122 40l44 70q19 -11 33.5 -16t35.5 -5q59 0 59 72v56h-65v354h-92v79h92v257h431l-11 -96h-304z" />
    <glyph glyph-name="uni04FC" unicode="&#x4fc;" 
d="M545 -174q-44 -43 -122 -43q-68 0 -121 40l43 70q20 -11 34.5 -16t35.5 -5q58 0 58 72v56h-34l-153 293l-153 -293h-124l209 367l-192 323h129l133 -248l135 248h124l-191 -317l160 -282h73v-139q0 -83 -44 -126z" />
    <glyph glyph-name="uni04FE" unicode="&#x4fe;" 
d="M580 0h-129l-153 293l-154 -293h-123l186 328h-143v79h142l-168 283h129l133 -248l135 248h123l-170 -283h148v-79h-143z" />
    <glyph glyph-name="uni0500" unicode="&#x500;" 
d="M110.5 55q-71.5 55 -71.5 163q0 104 72.5 162.5t198.5 58.5h95v251h116v-690h-219q-120 0 -191.5 55zM405 89v263h-94q-150 0 -150 -134q0 -69 38 -99t108 -30h98z" />
    <glyph glyph-name="uni0502" unicode="&#x502;" 
d="M584 249q0 -133 -45 -198.5t-125 -65.5q-42 0 -73.5 19t-50.5 55q-47 -73 -124 -73q-42 0 -78 24t-57.5 71.5t-21.5 115.5q0 111 57.5 173t158.5 62h43v258h101v-541q0 -39 12 -59.5t35 -20.5q67 0 67 178q0 61 -5 131h101q5 -65 5 -129zM230.5 85.5q18.5 16.5 37.5 53.5
v213h-42q-55 0 -85 -38t-30 -116q0 -67 20 -98t54 -31q27 0 45.5 16.5z" />
    <glyph glyph-name="uni0504" unicode="&#x504;" 
d="M578 255q0 -137 -49.5 -202.5t-137.5 -65.5q-68 0 -112 33t-76 103l-76 161h-79v84h73q69 0 104 29t35 93q0 60 -36 87t-113 27h-89v86h90q133 0 201 -50.5t68 -149.5q0 -137 -143 -184l72 -157q18 -41 36 -57.5t45 -16.5q36 0 56 41t20 139q0 55 -5 125h111
q5 -65 5 -125z" />
    <glyph glyph-name="uni0506" unicode="&#x506;" 
d="M559 91v-248h-90l-17 157h-42l-174 284h-140v85h150q69 0 104 29t35 92q0 60 -34.5 87t-106.5 27h-177v86h170q269 0 269 -200q0 -72 -43 -120t-114 -70l137 -209h73z" />
    <glyph glyph-name="uni0508" unicode="&#x508;" 
d="M591 249q0 -133 -45.5 -198.5t-125.5 -65.5q-64 0 -105 43.5t-41 126.5v450h-79l-14 -217q-9 -143 -24 -218t-37.5 -112t-65.5 -72l-53 73q23 22 36.5 52t24 99t20.5 203l20 277h273v-541q0 -39 12.5 -59.5t35.5 -20.5q66 0 66 178q0 61 -5 131h102q5 -65 5 -129z" />
    <glyph glyph-name="uni050A" unicode="&#x50a;" 
d="M591 249q0 -133 -46 -198.5t-127 -65.5q-65 0 -107 43.5t-42 126.5v158h-123v-313h-104v690h104v-288h123v288h104v-541q0 -39 12.5 -59.5t35.5 -20.5q30 0 48 42t18 136q0 61 -5 131h103q6 -58 6 -129z" />
    <glyph glyph-name="uni050C" unicode="&#x50c;" 
d="M110.5 78.5q-73.5 91.5 -73.5 267.5q0 114 40.5 195t109 122t151.5 41q67 0 114.5 -19.5t90.5 -60.5l-65 -67q-32 29 -64.5 42.5t-72.5 13.5q-80 0 -131.5 -64.5t-51.5 -202.5q0 -142 40.5 -205.5t124.5 -63.5q64 0 114 29v190h-117l-12 89h242v-335
q-53 -30 -108.5 -46.5t-123.5 -16.5q-134 0 -207.5 91.5z" />
    <glyph glyph-name="uni050E" unicode="&#x50e;" 
d="M572 252q0 -89 -29.5 -148.5t-77.5 -88t-106 -28.5q-76 0 -125.5 49.5t-49.5 141.5v419h-170v93h478l-12 -93h-180v-425q0 -99 63 -99q44 0 70.5 42t26.5 137q0 59 -5 127h112q5 -65 5 -127z" />
    <glyph glyph-name="uni0510" unicode="&#x510;" 
d="M450 682.5q58 -21.5 110 -65.5l-60 -64q-39 31 -80.5 46.5t-92.5 15.5q-62 0 -99.5 -26t-37.5 -74q0 -50 38 -76t98 -26h115l-13 -89h-106q-70 0 -110.5 -30.5t-40.5 -91.5q0 -58 41 -91.5t113 -33.5q105 0 187 70l64 -62q-47 -48 -112.5 -73t-143.5 -25q-82 0 -143 27
t-93.5 75.5t-32.5 110.5q0 75 48 119.5t123 53.5q-68 10 -108 47t-40 97q0 55 31.5 97.5t87.5 66t128 23.5q71 0 129 -21.5z" />
    <glyph glyph-name="uni0512" unicode="&#x512;" 
d="M485.5 -174q-43.5 -43 -122.5 -43q-68 0 -121 40l43 70q20 -11 34.5 -16t35.5 -5q58 0 58 72v653h-157l-19 -169q-18 -161 -39.5 -244t-53.5 -123t-91 -75l-48 80q32 25 50.5 54t35.5 98t32 201l32 271h374v-738q0 -83 -43.5 -126z" />
    <glyph glyph-name="uni0514" unicode="&#x514;" 
d="M607 0h-104l-104 294l-100 -294h-100l137 368l-91 234h-55l-15 -214q-9 -143 -23.5 -217.5t-37 -112t-65.5 -72.5l-53 73q23 22 36.5 52t24 99t20.5 203l20 277l2 -2l-1 2h217l89 -251l88 251h100l-128 -319z" />
    <glyph glyph-name="uni0516" unicode="&#x516;" 
d="M479 0l-142 314q-28 -32 -67 -50t-85 -18h-36v-246h-107v690h139q99 0 155 -57t57 -158l96 215h103l-159 -331l163 -359h-117zM262.5 366q30.5 33 30.5 107q0 66 -29 99t-81 33h-34v-272h30q53 0 83.5 33z" />
    <glyph glyph-name="uni0518" unicode="&#x518;" 
d="M598 87v-87h-312v267h-55l-104 -267h-122l127 291q-115 57 -115 187q0 64 30 112t85 74t128 26h332l-12 -87h-184v-209h150v-87h-150v-220h202zM286 605h-33q-57 0 -88.5 -32t-31.5 -95t29 -94.5t78 -31.5h46v253z" />
    <glyph glyph-name="uni051A" unicode="&#x51a;" 
d="M528.5 152.5q-33.5 -79.5 -110.5 -120.5q77 -15 120.5 -51.5t69.5 -113.5l-107 -40q-23 57 -49 91.5t-65 52.5t-97 18q-121 0 -185.5 94.5t-64.5 260.5q0 165 67.5 262.5t193.5 97.5q127 0 194 -96t67 -263q0 -113 -33.5 -192.5zM408.5 547.5q-32.5 65.5 -107.5 65.5
t-107.5 -66t-32.5 -203q0 -136 33.5 -201.5t106.5 -65.5q75 0 107.5 65.5t32.5 202.5t-32.5 202.5z" />
    <glyph glyph-name="uni051C" unicode="&#x51c;" 
d="M503 0h-136l-68 511l-71 -511h-138l-88 690h112l54 -578l74 498h119l69 -498l64 578h104z" />
    <glyph glyph-name="uni051E" unicode="&#x51e;" 
d="M591 0h-133l-194 317h-73v-317h-116v690h116v-283h73l79 118l-110 63l38 67l115 -66l68 101h118l-99 -151l104 -59l-39 -67l-108 62l-69 -105z" />
    <glyph glyph-name="uni0520" unicode="&#x520;" 
d="M548.5 414.5q33.5 -40.5 33.5 -106.5v-361q0 -77 -42.5 -120.5t-109.5 -43.5t-120 40l41 65q18 -11 34 -16.5t37 -5.5q58 0 58 71v360q0 69 -51 69q-34 0 -66 -29v-337h-101v605h-79l-15 -217q-9 -142 -23.5 -217t-37 -112.5t-65.5 -72.5l-53 73q23 22 36.5 52t24 99
t20.5 203l20 277h273v-272q40 37 93 37q59 0 92.5 -40.5z" />
    <glyph glyph-name="uni0522" unicode="&#x522;" 
d="M552.5 413q36.5 -42 36.5 -112v-354q0 -78 -43 -121t-112 -43q-68 0 -121 40l42 66q18 -11 34 -16.5t37 -5.5q58 0 58 72v358q0 69 -58 69q-35 0 -70 -29v-337h-103v313h-124v-313h-104v690h104v-288h124v288h103v-272q42 37 97 37q63 0 99.5 -42z" />
    <glyph glyph-name="uni048C" unicode="&#x48c;" 
d="M502 380.5q70 -53.5 70 -156.5q0 -112 -72 -168t-192 -56h-198v527h-80v74h80v89h116v-89h127v-74h-127v-93h86q120 0 190 -53.5zM451 223q0 124 -141 124h-84v-258h84q141 0 141 134z" />
    <glyph glyph-name="uni048E" unicode="&#x48e;" 
d="M539 365.5q-25 -46.5 -70 -74.5l75 -123h-79l-58 94q-54 -16 -112 -16h-84v-246h-115v690h191q133 0 205 -54.5t72 -163.5q0 -60 -25 -106.5zM359 341l-84 138h79l64 -105q28 34 28 97q0 132 -148 132h-87v-269h88q36 0 60 7z" />
    <glyph glyph-name="uni0430" unicode="&#x430;" 
d="M502 84.5q9 -14.5 31 -21.5l-26 -76q-83 10 -109 73q-29 -36 -72.5 -54.5t-95.5 -18.5q-80 0 -127 45t-47 119q0 83 65.5 128t185.5 45h75v34q0 50 -30 73t-87 23q-28 0 -65 -7t-75 -20l-28 79q95 36 185 36q105 0 158 -46t53 -131v-236q0 -30 9 -44.5zM330.5 87
q32.5 18 51.5 50v117h-62q-76 0 -111 -25.5t-35 -73.5q0 -42 22.5 -64t66.5 -22q35 0 67.5 18z" />
    <glyph glyph-name="uni0431" unicode="&#x431;" 
d="M441.5 465.5q44.5 -29.5 69.5 -85t25 -131.5q0 -84 -30 -143t-83.5 -89t-123.5 -30q-110 0 -173 75.5t-63 230.5q0 114 17.5 188t61 121.5t122.5 73.5q61 20 97 35.5t77 41.5l44 -78q-34 -22 -72.5 -39.5t-94.5 -37.5q-46 -16 -73 -36t-42.5 -56.5t-21.5 -98.5
q28 42 68.5 65t92.5 23q58 0 102.5 -29.5zM387 110.5q32 38.5 32 136.5q0 87 -27 125t-79 38q-40 0 -74.5 -23t-58.5 -64v-65q0 -90 31 -138t88 -48q56 0 88 38.5z" />
    <glyph glyph-name="uni0432" unicode="&#x432;" 
d="M542 157q0 -79 -65.5 -118t-166.5 -39h-211v522q105 20 194 20q102 0 162.5 -36.5t60.5 -102.5q0 -44 -26 -72.5t-82 -42.5q134 -15 134 -131zM211 456v-140h93q49 0 74.5 17.5t25.5 56.5q0 38 -27 55t-84 17q-43 0 -82 -6zM391.5 98.5q34.5 16.5 34.5 63.5q0 82 -115 82
h-100v-162h87q59 0 93.5 16.5z" />
    <glyph glyph-name="uni0433" unicode="&#x433;" 
d="M144 0v528h386l-13 -90h-261v-438h-112z" />
    <glyph glyph-name="uni0453" unicode="&#x453;" 
d="M144 0v528h386l-13 -90h-261v-438h-112zM467 722l-219 -89l-33 59l205 119z" />
    <glyph glyph-name="uni0491" unicode="&#x491;" 
d="M530 668v-140l-13 -90h-261v-438h-112v528h278v140h108z" />
    <glyph glyph-name="uni0434" unicode="&#x434;" 
d="M549 87v-244h-88l-16 157h-319l-16 -157h-89v244h38q23 21 37 49.5t23.5 80.5t16.5 141l12 170h358v-441h43zM397 444h-149l-5 -80q-7 -93 -17 -145t-26.5 -81t-46.5 -51h17h227v357z" />
    <glyph glyph-name="uni0435" unicode="&#x435;" 
d="M226.5 112.5q39.5 -38.5 99.5 -38.5q37 0 70.5 11.5t68.5 34.5l48 -68q-37 -31 -87 -48t-105 -17q-121 0 -188 75.5t-67 201.5q0 79 29 142.5t84 99.5t128 36q105 0 166.5 -70.5t61.5 -193.5q0 -30 -3 -50h-350q5 -77 44.5 -115.5zM220 420q-34 -39 -39 -116h245
q-2 75 -32 115t-86 40q-54 0 -88 -39z" />
    <glyph glyph-name="uni0450" unicode="&#x450;" 
d="M226.5 112.5q39.5 -38.5 99.5 -38.5q37 0 70.5 11.5t68.5 34.5l48 -68q-37 -31 -87 -48t-105 -17q-121 0 -188 75.5t-67 201.5q0 79 29 142.5t84 99.5t128 36q105 0 166.5 -70.5t61.5 -193.5q0 -30 -3 -50h-350q5 -77 44.5 -115.5zM220 420q-34 -39 -39 -116h245
q-2 75 -32 115t-86 40q-54 0 -88 -39zM185 715l52 90l197 -124l-34 -59z" />
    <glyph glyph-name="uni0451" unicode="&#x451;" 
d="M226.5 112.5q39.5 -38.5 99.5 -38.5q37 0 70.5 11.5t68.5 34.5l48 -68q-37 -31 -87 -48t-105 -17q-121 0 -188 75.5t-67 201.5q0 79 29 142.5t84 99.5t128 36q105 0 166.5 -70.5t61.5 -193.5q0 -30 -3 -50h-350q5 -77 44.5 -115.5zM220 420q-34 -39 -39 -116h245
q-2 75 -32 115t-86 40q-54 0 -88 -39zM154 662q-19 18 -19 45q0 28 19 46t47 18q27 0 45.5 -18t18.5 -46q0 -27 -18.5 -45t-45.5 -18q-28 0 -47 18zM371 662q-19 18 -19 45t19 45.5t46 18.5q28 0 46.5 -18t18.5 -46q0 -27 -18.5 -45t-46.5 -18q-27 0 -46 18z" />
    <glyph glyph-name="uni0436" unicode="&#x436;" 
d="M257 241h-45l-97 -241h-105l122 284l-115 244h106l88 -213h46v213h86v-213h46l92 213h102l-115 -244l122 -284h-105l-98 241h-44v-241h-86v241z" />
    <glyph glyph-name="uni0437" unicode="&#x437;" 
d="M278 315q48 0 75.5 19.5t27.5 52.5q0 71 -111 71q-40 0 -81.5 -11t-76.5 -32l-50 63q42 31 98 47.5t116 16.5q97 0 158.5 -38t61.5 -107q0 -85 -115 -116q61 -4 102 -36t41 -89q0 -81 -69 -125t-181 -44q-140 0 -231 72l51 68q41 -27 84 -41t97 -14q64 0 97.5 23t33.5 63
q0 38 -30.5 57t-89.5 19h-110l7 81h95z" />
    <glyph glyph-name="uni0438" unicode="&#x438;" 
d="M511 0h-108v217q0 63 5 118.5t10 78.5l-204 -414h-125v528h108v-218q0 -58 -4.5 -115t-10.5 -79l202 412h127v-528z" />
    <glyph glyph-name="uni0439" unicode="&#x439;" 
d="M511 0h-108v217q0 63 5 118.5t10 78.5l-204 -414h-125v528h108v-218q0 -58 -4.5 -115t-10.5 -79l202 412h127v-528zM190 669.5q-42 35.5 -48 92.5l68 14q19 -61 88 -61q73 0 90 61l69 -14q-6 -57 -49 -92.5t-110 -35.5q-66 0 -108 35.5z" />
    <glyph glyph-name="uni045D" unicode="&#x45d;" 
d="M511 0h-108v217q0 63 5 118.5t10 78.5l-204 -414h-125v528h108v-218q0 -58 -4.5 -115t-10.5 -79l202 412h127v-528zM176 715l52 90l197 -124l-34 -59z" />
    <glyph glyph-name="uni048B" unicode="&#x48b;" 
d="M177.5 669.5q-42.5 35.5 -48.5 92.5l69 14q17 -61 88 -61t90 61l69 -14q-6 -57 -49.5 -92.5t-109.5 -35.5t-108.5 35.5zM578 94l-78 -251h-92l37 157h-60v217q0 116 14 207l-192 -424h-125v528h108v-218q0 -60 -5.5 -116.5t-13.5 -91.5l196 426h125v-434h86z" />
    <glyph glyph-name="uni043A" unicode="&#x43a;" 
d="M93 528h112v-209h93l138 209h117l-166 -244l189 -284h-127l-153 237h-91v-237h-112v528z" />
    <glyph glyph-name="uni045C" unicode="&#x45c;" 
d="M93 528h112v-209h93l138 209h117l-166 -244l189 -284h-127l-153 237h-91v-237h-112v528zM448 722l-219 -89l-33 59l205 119z" />
    <glyph glyph-name="uni043B" unicode="&#x43b;" 
d="M517 0h-112v441h-166l-8 -111q-9 -120 -24.5 -183.5t-44 -97.5t-83.5 -63l-48 71q29 18 45.5 41.5t28 75.5t19.5 151l15 203h378v-528z" />
    <glyph glyph-name="uni043C" unicode="&#x43c;" 
d="M566 0h-103l-16 228q-3 60 -3 123q0 46 1 71h-4l-92 -335h-95l-102 335h-4q2 -25 2 -77q0 -61 -3 -118l-11 -227h-102l37 528h133l99 -347l89 347h136z" />
    <glyph glyph-name="uni043D" unicode="&#x43d;" 
d="M399 226h-198v-226h-112v528h112v-215h198v215h112v-528h-112v226z" />
    <glyph glyph-name="uni043E" unicode="&#x43e;" 
d="M477 467.5q62 -74.5 62 -202.5t-63 -203t-176 -75q-114 0 -176.5 73.5t-62.5 203.5q0 126 63.5 202t176.5 76q114 0 176 -74.5zM209.5 408q-30.5 -47 -30.5 -144q0 -98 30 -144.5t91 -46.5t91 47t30 145q0 97 -30 143.5t-90 46.5q-61 0 -91.5 -47z" />
    <glyph glyph-name="uni043F" unicode="&#x43f;" 
d="M400 441h-200v-441h-111v528h422v-528h-111v441z" />
    <glyph glyph-name="uni0440" unicode="&#x440;" 
d="M539 265q0 -125 -53 -201.5t-151 -76.5q-83 0 -134 58v-248l-112 -13v744h97l7 -68q30 40 69.5 61t84.5 21q192 0 192 -277zM252 435q-29 -21 -51 -55v-247q39 -59 104 -59q58 0 87 46t29 144q0 101 -26 146.5t-79 45.5q-35 0 -64 -21z" />
    <glyph glyph-name="uni0441" unicode="&#x441;" 
d="M474 124l51 -72q-35 -30 -84 -47.5t-101 -17.5q-121 0 -189 74.5t-68 199.5q0 81 31 144.5t89.5 100t138.5 36.5q105 0 183 -64l-52 -70q-64 44 -129 44q-66 0 -104 -47.5t-38 -143.5q0 -94 38 -138t104 -44q63 0 130 45z" />
    <glyph glyph-name="uni0442" unicode="&#x442;" 
d="M536 441h-180v-441h-112v441h-187v87h492z" />
    <glyph glyph-name="uni0443" unicode="&#x443;" 
d="M369 -2q-32 -96 -92.5 -150.5t-166.5 -63.5l-14 84q52 8 84 24.5t51 41.5t34 66h-38l-178 528h119l133 -450l135 450h115z" />
    <glyph glyph-name="uni045E" unicode="&#x45e;" 
d="M369 -2q-32 -96 -92.5 -150.5t-166.5 -63.5l-14 84q52 8 84 24.5t51 41.5t34 66h-38l-178 528h119l133 -450l135 450h115zM190 669.5q-42 35.5 -48 92.5l68 14q19 -61 88 -61q73 0 90 61l69 -14q-6 -57 -49 -92.5t-110 -35.5q-66 0 -108 35.5z" />
    <glyph glyph-name="uni0444" unicode="&#x444;" 
d="M345 741v-251q39 52 98 52q76 0 105 -70t29 -208q0 -130 -36.5 -203.5t-107.5 -73.5q-51 0 -88 52v-243l-90 -12v255q-37 -52 -90 -52q-70 0 -106 73.5t-36 203.5q0 135 32 206.5t108 71.5q27 0 49.5 -12t42.5 -38v261zM144.5 415q-14.5 -45 -14.5 -151t14.5 -151
t48.5 -45q17 0 29.5 10t32.5 34v307q-17 22 -30 31.5t-32 9.5q-34 0 -48.5 -45zM377.5 450.5q-15.5 -9.5 -32.5 -31.5v-307q17 -23 30.5 -33.5t31.5 -10.5q33 0 48 45.5t15 150.5q0 108 -12.5 152t-44.5 44q-20 0 -35.5 -9.5z" />
    <glyph glyph-name="uni0445" unicode="&#x445;" 
d="M43 0l190 278l-169 250h129l108 -186l108 186h123l-165 -245l190 -283h-131l-130 216l-129 -216h-124z" />
    <glyph glyph-name="uni0447" unicode="&#x447;" 
d="M503 0h-112v213q-30 -26 -71.5 -40.5t-88.5 -14.5q-78 0 -119 42t-41 117v211h112v-198q0 -46 20.5 -66.5t62.5 -20.5q34 0 69 14t56 37v234h112v-528z" />
    <glyph glyph-name="uni0446" unicode="&#x446;" 
d="M579 87v-244h-89l-16 157h-395v528h112v-440h199v440h112v-441h77z" />
    <glyph glyph-name="uni0448" unicode="&#x448;" 
d="M560 0h-520v528h100v-440h114v440h92v-440h114v440h100v-528z" />
    <glyph glyph-name="uni0449" unicode="&#x449;" 
d="M624 87v-244h-89l-16 157h-479v528h100v-440h114v440h92v-440h114v440h100v-441h64z" />
    <glyph glyph-name="uni045F" unicode="&#x45f;" 
d="M511 0h-159v-157h-89l-16 157h-158v528h111v-440h200v440h111v-528z" />
    <glyph glyph-name="uni044C" unicode="&#x44c;" 
d="M224 365h85q122 0 177.5 -46t55.5 -135q0 -94 -61.5 -139t-158.5 -45h-210v528h112v-163zM224 285v-202h93q52 0 79.5 23t27.5 79q0 52 -26 76t-89 24h-85z" />
    <glyph glyph-name="uni044A" unicode="&#x44a;" 
d="M255 365h54q246 0 246 -180q0 -96 -63 -140.5t-176 -44.5h-173v445h-117v83h229v-163zM255 284v-201h62q58 0 89 22.5t31 80.5q0 52 -30.5 75t-90.5 23h-61z" />
    <glyph glyph-name="uni044B" unicode="&#x44b;" 
d="M149 361h26q228 0 228 -177q0 -93 -58.5 -138.5t-163.5 -45.5h-133v528h101v-167zM552 0h-102v528h102v-528zM149 286v-208h33q56 0 84.5 24t28.5 83q0 54 -27.5 77.5t-87.5 23.5h-31z" />
    <glyph glyph-name="uni0459" unicode="&#x459;" 
d="M370 360h12q214 0 214 -177q0 -90 -55.5 -136.5t-153.5 -46.5h-116v447h-88l-5 -126q-5 -114 -19.5 -176.5t-42 -96t-79.5 -62.5l-38 72q23 18 37.5 41t25 75t15.5 147l10 207h283v-168zM370 285v-208h16q53 0 78 23.5t25 83.5q0 55 -24 78t-80 23h-15z" />
    <glyph glyph-name="uni045A" unicode="&#x45a;" 
d="M373 334h12q214 0 214 -166q0 -87 -56 -127.5t-158 -40.5h-111v258h-116v-258h-101v528h101v-194h116v194h99v-194zM373 260v-182h13q56 0 81.5 18.5t25.5 72.5q0 49 -24.5 70t-79.5 21h-16z" />
    <glyph glyph-name="uni0455" unicode="&#x455;" 
d="M364.5 91q30.5 19 30.5 52q0 23 -9 37.5t-36 27t-81 26.5q-87 22 -130.5 56.5t-43.5 99.5q0 69 57 110.5t154 41.5q117 0 201 -61l-48 -71q-71 47 -150 47q-100 0 -100 -58q0 -20 11.5 -33t39.5 -24.5t83 -26.5q86 -24 128.5 -59t42.5 -105q0 -81 -67 -122.5t-166 -41.5
q-131 0 -217 74l59 68q33 -26 73.5 -41.5t84.5 -15.5q53 0 83.5 19z" />
    <glyph glyph-name="uni0454" unicode="&#x454;" 
d="M525 481l-50 -68q-63 43 -131 43q-60 0 -98.5 -37t-47.5 -109h229v-79h-229q6 -80 45 -118.5t101 -38.5q37 0 68.5 10.5t63.5 32.5l49 -68q-36 -30 -85 -46t-99 -16q-122 0 -190 74t-68 200q0 81 31 144.5t89.5 100t137.5 36.5q108 0 184 -61z" />
    <glyph glyph-name="uni044D" unicode="&#x44d;" 
d="M461.5 467.5q63.5 -74.5 63.5 -202.5q0 -127 -67 -202.5t-189 -75.5q-53 0 -101 16.5t-85 47.5l52 67q30 -23 62 -33.5t70 -10.5q131 0 144 157h-229v79h227q-13 146 -137 146q-74 0 -133 -43l-51 67q79 62 190 62q120 0 183.5 -74.5z" />
    <glyph glyph-name="uni0456" unicode="&#x456;" 
d="M352.5 766.5q20.5 -20.5 20.5 -50.5t-20.5 -50t-52.5 -20q-33 0 -53 20t-20 50q0 31 20.5 51t52.5 20t52.5 -20.5zM377 82h144v-82h-413v82h157v364h-152v82h264v-446z" />
    <glyph glyph-name="uni0457" unicode="&#x457;" 
d="M377 82h144v-82h-413v82h157v364h-152v82h264v-446zM145 662q-19 18 -19 45q0 28 19 46t47 18q27 0 45.5 -18t18.5 -46q0 -27 -18.5 -45t-45.5 -18q-28 0 -47 18zM362 662q-19 18 -19 45t19 45.5t46 18.5q28 0 46.5 -18t18.5 -46q0 -27 -18.5 -45t-46.5 -18q-27 0 -46 18
z" />
    <glyph glyph-name="uni0458" unicode="&#x458;" 
d="M421 767q20 -20 20 -51q0 -30 -20 -50t-53 -20q-32 0 -52.5 20t-20.5 50t20.5 50.5t52.5 20.5q33 0 53 -20zM455 111q0 -143 -87 -219t-264 -108l-18 86q128 24 192.5 77t64.5 157v342h-208v82h320v-417z" />
    <glyph glyph-name="uni045B" unicode="&#x45b;" 
d="M475 501.5q37 -40.5 37 -116.5v-385h-112v368q0 47 -18 67.5t-58 20.5q-35 0 -67.5 -22.5t-55.5 -55.5v-378h-112v596h-74v77h74v66l112 12v-78h158v-77h-158v-133q32 39 74.5 59t89.5 20q73 0 110 -40.5z" />
    <glyph glyph-name="uni044E" unicode="&#x44e;" 
d="M529.5 470q45.5 -72 45.5 -205q0 -132 -45 -205t-140 -73q-88 0 -132 63.5t-50 176.5h-60v-227h-101v528h101v-217h60q7 110 51.5 170.5t130.5 60.5q94 0 139.5 -72zM328.5 415q-16.5 -45 -16.5 -151q0 -102 16.5 -148.5t61.5 -46.5q46 0 62 46.5t16 149.5t-17 149
t-61 46q-45 0 -61.5 -45z" />
    <glyph glyph-name="uni044F" unicode="&#x44f;" 
d="M501 528v-528h-112v197h-119l-107 -197h-123l127 222q-45 21 -68.5 56.5t-23.5 83.5q0 79 58.5 122.5t167.5 43.5h200zM389 275v174h-90q-54 0 -80.5 -21t-26.5 -64q0 -46 25.5 -67.5t80.5 -21.5h91z" />
    <glyph glyph-name="uni0452" unicode="&#x452;" 
d="M201 673h158v-77h-158v-131q31 37 74 57t90 20q73 0 110 -40.5t37 -116.5v-338q0 -79 -19.5 -128t-56.5 -78t-100 -56l-41 82q39 18 60.5 35t33 47.5t11.5 81.5v344q0 43 -18.5 62t-57.5 19q-35 0 -67.5 -22.5t-55.5 -55.5v-378h-112v596h-74v77h74v66l112 12v-78z" />
    <glyph glyph-name="uni0461" unicode="&#x461;" 
d="M578 240q0 -122 -39 -187.5t-114 -65.5q-106 0 -126 111q-27 -111 -124 -111q-76 0 -114.5 64t-38.5 189q0 150 51 288h93q-23 -77 -31.5 -143t-8.5 -142q0 -85 14 -127.5t51 -42.5q36 0 49.5 40.5t13.5 118.5v119l93 15v-133q0 -83 13.5 -121.5t49.5 -38.5q37 0 50.5 42
t13.5 128q0 73 -9.5 139.5t-32.5 145.5h95q51 -153 51 -288z" />
    <glyph glyph-name="uni0463" unicode="&#x463;" 
d="M240 540h133l-12 -77h-121v-102h62q246 0 246 -179q0 -94 -62.5 -138t-174.5 -44h-183v463h-78v77h78v110l112 12v-122zM240 280v-197h70q58 0 89 22t31 78q0 51 -30.5 74t-90.5 23h-69z" />
    <glyph glyph-name="uni0465" unicode="&#x465;" 
d="M485 79.5q21 9.5 42 27.5l52 -58q-30 -30 -67.5 -46t-75.5 -16q-94 0 -149.5 64t-62.5 176h-58v-227h-103v528h103v-217h59q11 105 66.5 168t147.5 63q79 0 142 -57l-51 -59q-22 17 -43 25.5t-47 8.5q-50 0 -77 -37.5t-35 -112.5h178v-79h-179q3 -83 32.5 -122t77.5 -39
q27 0 48 9.5z" />
    <glyph glyph-name="uni0467" unicode="&#x467;" 
d="M392 196h-50v-196h-87v196h-50l-69 -196h-107l204 528h136l203 -528h-109zM363 276l-65 183l-65 -183h130z" />
    <glyph glyph-name="uni0469" unicode="&#x469;" 
d="M457 195h-34v-195h-78v195h-32l-52 -195h-93l57 195h-89v-195h-98v528h98v-254h112l74 254h128l155 -528h-94zM436 274l-51 186l-50 -186h101z" />
    <glyph glyph-name="uni046B" unicode="&#x46b;" 
d="M585 0h-98l-72 221h-64v-221h-101v221h-64l-71 -221h-99l107 300h84l-117 172v56h414v-56l-117 -172h91zM299 300l96 154h-194z" />
    <glyph glyph-name="uni046D" unicode="&#x46d;" 
d="M620 0h-95l-58 222h-35v-222h-91v222h-36l-59 -222h-94l68 222h-101v-222h-98v528h98v-227h180l-103 171v56h373v-56l-102 -171h62zM385 301l83 156h-167z" />
    <glyph glyph-name="uni046F" unicode="&#x46f;" 
d="M461 749l-137 -127h-72l-137 127l46 50l128 -92l127 92zM111.5 -155q-34.5 35 -34.5 80q0 51 40.5 80.5t132.5 44.5q59 9 92 19t48 26t15 43q0 35 -19 50.5t-57 15.5h-168v74l196 163h-278v87h417v-82l-206 -163h60q83 0 129 -37t46 -109q0 -74 -53 -112.5t-154 -54.5
q-54 -9 -81 -16.5t-37 -16t-10 -22.5q0 -17 15.5 -32t46.5 -31l-37 -71q-69 29 -103.5 64z" />
    <glyph glyph-name="uni0471" unicode="&#x471;" 
d="M349 74q50 7 76 28.5t35.5 59t9.5 99.5q0 112 -25 267h101q27 -135 27 -273q0 -119 -54 -185t-170 -79v-194l-96 -13v207q-112 10 -164.5 65.5t-52.5 140.5v331h102v-326q0 -60 26.5 -90.5t88.5 -37.5v454h96v-454z" />
    <glyph glyph-name="uni0473" unicode="&#x473;" 
d="M477 467.5q62 -74.5 62 -202.5t-63 -203t-176 -75q-114 0 -176.5 73.5t-62.5 203.5q0 126 63.5 202t176.5 76q114 0 176 -74.5zM178 306h244q-11 150 -121 150q-114 0 -123 -150zM178 230q6 -82 36 -119.5t86 -37.5t86 37.5t36 119.5h-244z" />
    <glyph glyph-name="uni0475" unicode="&#x475;" 
d="M43 528h121l125 -434l103 362q17 65 45.5 92t80.5 27q32 0 73 -16l-27 -78q-12 6 -28 6t-25 -9.5t-16 -32.5l-140 -445h-134z" />
    <glyph glyph-name="uni0477" unicode="&#x477;" 
d="M43 528h121l125 -434l103 362q17 65 45.5 92t80.5 27q32 0 73 -16l-27 -78q-12 6 -28 6t-25 -9.5t-16 -32.5l-140 -445h-134zM190 630l-115 170l86 44l92 -182zM352 632l-108 171l87 41l86 -182z" />
    <glyph glyph-name="uni0479" unicode="&#x479;" 
d="M37.5 59.5q-39.5 72.5 -39.5 204.5q0 128 40 203t118 75q81 0 119.5 -73t38.5 -204t-39 -204.5t-119 -73.5q-79 0 -118.5 72.5zM288 -149q68 17 102 49.5t48 99.5h-42l-86 528h93l57 -450l58 450h90l-87 -524q-17 -101 -72 -154.5t-145 -65.5zM208 107q15 48 15 158
t-15 157.5t-52 47.5t-52 -48t-15 -158t15 -157.5t52 -47.5t52 48z" />
    <glyph glyph-name="uni0493" unicode="&#x493;" 
d="M285 438v-132h122v-79h-122v-227h-112v227h-87v79h87v222h386l-13 -90h-261z" />
    <glyph glyph-name="uni0495" unicode="&#x495;" 
d="M512 -48q0 -82 -43.5 -125.5t-120.5 -43.5q-68 0 -121 40l43 67q22 -11 35.5 -15.5t34.5 -4.5q60 0 60 72v237q0 44 -18.5 64t-53.5 20q-36 0 -65 -19t-57 -54v-190h-112v528h346l-15 -85h-219v-167q29 33 68.5 52.5t86.5 19.5q69 0 110 -42t41 -119v-235z" />
    <glyph glyph-name="uni0497" unicode="&#x497;" 
d="M607 87v-244h-75l-17 157h-37l-91 241h-44v-241h-86v241h-45l-90 -241h-105l115 284l-108 244h105l82 -213h46v213h86v-213h46l85 213h102l-108 -244l80 -197h59z" />
    <glyph glyph-name="uni0499" unicode="&#x499;" 
d="M469.5 41.5q-54.5 -43.5 -146.5 -52.5v-43q48 -4 72.5 -28.5t24.5 -60.5q0 -48 -38 -76t-95 -28q-31 0 -60 7t-49 19l30 58q34 -17 66 -17q57 0 57 38q0 23 -21.5 31t-66.5 8l8 90q-124 5 -208 72l51 68q41 -27 84 -41t97 -14q64 0 97.5 23t33.5 63q0 38 -30.5 57
t-89.5 19h-110l7 81h95q48 0 75.5 19.5t27.5 52.5q0 71 -111 71q-40 0 -81.5 -11t-76.5 -32l-50 63q42 31 98 47.5t116 16.5q97 0 158.5 -38t61.5 -107q0 -85 -115 -116q61 -4 102 -36t41 -89q0 -71 -54.5 -114.5z" />
    <glyph glyph-name="uni049B" unicode="&#x49b;" 
d="M591 87v-244h-89l-16 157h-37l-153 237h-91v-237h-112v528h112v-209h93l138 209h117l-166 -244l131 -197h73z" />
    <glyph glyph-name="uni049D" unicode="&#x49d;" 
d="M93 528h110v-212h41v115h48v-115h24l125 212h112l-148 -244l171 -284h-120l-140 240h-24v-121h-48v121h-41v-240h-110v528z" />
    <glyph glyph-name="uni049F" unicode="&#x49f;" 
d="M571 0h-127l-153 237h-71v-237h-112v566h-79v77h79v97l112 13v-110h139v-77h-139v-247h73l138 209h117l-165 -244z" />
    <glyph glyph-name="uni04A1" unicode="&#x4a1;" 
d="M592 0h-126l-151 237h-81v-237h-112v445h-117v83h229v-209h84l135 209h117l-163 -244z" />
    <glyph glyph-name="uni04A3" unicode="&#x4a3;" 
d="M572 87v-244h-88l-17 157h-84v226h-199v-226h-112v528h112v-215h199v215h112v-441h77z" />
    <glyph glyph-name="uni0525" unicode="&#x525;" 
d="M580 87v-244h-88l-16 157h-84v441h-199v-441h-112v528h422v-441h77z" />
    <glyph glyph-name="uni04A7" unicode="&#x4a7;" 
d="M563 308.5q36 -39.5 36 -105.5v-254q0 -80 -42.5 -123t-115.5 -43q-67 0 -120 40l42 65q19 -11 34 -16t37 -5q60 0 60 69v263q0 32 -14 49t-41 17q-41 0 -73 -29v-236h-106v443h-130v-443h-106v528h342v-217q42 37 103 37q58 0 94 -39.5z" />
    <glyph glyph-name="uni04A9" unicode="&#x4a9;" 
d="M530.5 108.5q-29.5 -51.5 -82.5 -83.5q8 -11 48 -62q18 -21 36 -45l-60 -48q-66 78 -101 124q-31 -7 -70 -7q-116 0 -182.5 73t-66.5 200q0 83 29.5 147t85 99.5t129.5 35.5q70 0 126 -31l-41 -79q-37 20 -80 20q-61 0 -95.5 -47.5t-34.5 -143.5t35 -140t101 -44h8
q-46 78 -46 139q0 63 39.5 104t106.5 41q65 0 105 -39t40 -106q0 -56 -29.5 -107.5zM399 97q33 18 49.5 49.5t16.5 73.5q0 32 -13 49t-37 17q-26 0 -39.5 -18.5t-13.5 -51.5q0 -54 37 -119z" />
    <glyph glyph-name="uni04AB" unicode="&#x4ab;" 
d="M462 -131q0 -52 -36.5 -83.5t-99.5 -31.5q-55 0 -100 25l26 61q34 -16 67 -16q28 0 42 14t14 39q0 64 -72 112q-104 11 -162 84t-58 188q0 81 31 144.5t89.5 100t138.5 36.5q105 0 183 -64l-52 -70q-64 44 -129 44q-66 0 -104 -47.5t-38 -143.5q0 -94 38 -138t104 -44
q63 0 130 45l51 -72q-27 -23 -64 -39.5t-77 -22.5q78 -48 78 -121z" />
    <glyph glyph-name="uni04AD" unicode="&#x4ad;" 
d="M356 441v-354h77v-244h-89l-16 157h-84v441h-187v87h492l-13 -87h-180z" />
    <glyph glyph-name="uni04AF" unicode="&#x4af;" 
d="M245 12l-200 516h120l137 -416l138 416h115l-200 -516v-215l-110 -13v228z" />
    <glyph glyph-name="uni04B1" unicode="&#x4b1;" 
d="M378 72h78v-76h-101v-199l-110 -13v212h-101v76h78l-177 456h120l137 -416l138 416h115z" />
    <glyph glyph-name="uni04B3" unicode="&#x4b3;" 
d="M296 216l-77 -129h133v-244h-89l-16 157h-37l-5 63l-38 -63h-124l190 278l-169 250h129l108 -186l108 186h123l-165 -245l190 -283h-131z" />
    <glyph glyph-name="uni04B7" unicode="&#x4b7;" 
d="M570 87v-244h-88l-17 157h-84v213q-30 -26 -71.5 -40.5t-88.5 -14.5q-78 0 -119 42t-41 117v211h112v-198q0 -46 20.5 -66.5t62.5 -20.5q34 0 69 14t56 37v234h112v-441h77z" />
    <glyph glyph-name="uni04B9" unicode="&#x4b9;" 
d="M503 528v-528h-112v213q-34 -29 -83 -44v-82h-56v72q-7 -1 -21 -1q-78 0 -119 42t-41 117v211h112v-198q0 -42 17 -62.5t52 -23.5v149h56v-144q53 13 83 45v234h112z" />
    <glyph glyph-name="uni04BB" unicode="&#x4bb;" 
d="M469.5 441q41.5 -43 41.5 -120v-321h-112v309q0 48 -19 68.5t-56 20.5q-38 0 -67 -19.5t-55 -56.5v-322h-112v739l112 12v-343q28 36 67 56t87 20q72 0 113.5 -43z" />
    <glyph glyph-name="uni0527" unicode="&#x527;" 
d="M582 87v-244h-88l-17 157h-84v309q0 48 -19 68.5t-56 20.5q-38 0 -67.5 -20t-54.5 -57v-321h-112v739l112 12v-343q28 36 67.5 56t86.5 20q72 0 113.5 -43t41.5 -120v-234h77z" />
    <glyph glyph-name="uni04BD" unicode="&#x4bd;" 
d="M560 228h-308q2 -78 36.5 -117t90.5 -39q35 0 60 9.5t54 28.5l49 -63q-32 -27 -74.5 -43.5t-90.5 -16.5q-104 0 -163 64.5t-67 176.5q-67 1 -102.5 33.5t-35.5 88.5q0 28 9 50.5t26 48.5l65 -29q-10 -24 -14 -37t-4 -30q0 -23 12.5 -36t37.5 -13h6q10 106 66.5 172
t146.5 66q97 0 150 -70t53 -194q0 -30 -3 -50zM459 304q-3 157 -99 157q-48 0 -76 -39t-32 -118h207z" />
    <glyph glyph-name="uni04BF" unicode="&#x4bf;" 
d="M560 228h-308q2 -78 36.5 -117t90.5 -39q35 0 60 9.5t54 28.5l49 -63q-39 -32 -85 -47q-69 -28 -94 -54.5t-25 -58.5q0 -48 56 -48q28 0 59 7l-10 -77q-33 -7 -62 -7q-59 0 -96 29.5t-37 77.5q0 39 20 68.5t59 53.5q-81 15 -127 77.5t-53 159.5q-67 1 -102.5 33.5
t-35.5 88.5q0 28 9 50.5t26 48.5l65 -29q-10 -24 -14 -37t-4 -30q0 -23 12.5 -36t37.5 -13h6q10 106 66.5 172t146.5 66q97 0 150 -70t53 -194q0 -30 -3 -50zM459 304q-3 157 -99 157q-48 0 -76 -39t-32 -118h207z" />
    <glyph glyph-name="uni04CF" unicode="&#x4cf;" 
d="M321 144q0 -67 80 -67q40 0 84 18l28 -78q-55 -30 -136 -30q-79 0 -123.5 44.5t-44.5 122.5v504h-159v82h271v-596z" />
    <glyph glyph-name="uni04C2" unicode="&#x4c2;" 
d="M257 241h-45l-97 -241h-105l122 284l-115 244h106l88 -213h46v213h86v-213h46l92 213h102l-115 -244l122 -284h-105l-98 241h-44v-241h-86v241zM190 669.5q-42 35.5 -48 92.5l68 14q19 -61 88 -61q73 0 90 61l69 -14q-6 -57 -49 -92.5t-110 -35.5q-66 0 -108 35.5z" />
    <glyph glyph-name="uni04C4" unicode="&#x4c4;" 
d="M474.5 252q34.5 -41 34.5 -112v-188q0 -82 -43.5 -125.5t-120.5 -43.5q-68 0 -121 40l43 67q20 -10 34.5 -15t35.5 -5q60 0 60 72v194q0 48 -20.5 67.5t-68.5 19.5h-103v-223h-112v528h112v-223h66l132 223h113l-141 -227q65 -8 99.5 -49z" />
    <glyph glyph-name="uni04C6" unicode="&#x4c6;" 
d="M570 94l-79 -251h-91l37 157h-65v441h-135l-9 -111q-8 -120 -23.5 -183.5t-44 -97.5t-84.5 -63l-47 71q28 19 44.5 42t28.5 75t19 151l16 203h347v-434h86z" />
    <glyph glyph-name="uni04C8" unicode="&#x4c8;" 
d="M511 -48q0 -82 -43.5 -125.5t-120.5 -43.5q-68 0 -121 40l43 67q22 -11 35.5 -15.5t34.5 -4.5q60 0 60 72v284h-198v-226h-112v528h112v-215h198v215h112v-576z" />
    <glyph glyph-name="uni04CA" unicode="&#x4ca;" 
d="M573 94l-78 -251h-92l37 157h-64v226h-176v-226h-112v528h112v-215h176v215h112v-434h85z" />
    <glyph glyph-name="uni04CC" unicode="&#x4cc;" 
d="M503 528v-528h-80l-16 -157h-88v244h72v142q-29 -25 -71 -40t-89 -15q-78 0 -119 41.5t-41 116.5v196h112v-182q0 -46 20.5 -66.5t62.5 -20.5q34 0 69 14t56 37v218h112z" />
    <glyph glyph-name="uni04CE" unicode="&#x4ce;" 
d="M604 94l-79 -251h-83l36 157h-52l-15 228q-5 85 -5 165v41l-74 -347h-95l-83 347q1 -26 1 -76q0 -69 -3 -131l-11 -227h-101l37 528h133l76 -347l67 347h137l31 -434h83z" />
    <glyph glyph-name="uni04D1" unicode="&#x4d1;" 
d="M502 84.5q9 -14.5 31 -21.5l-26 -76q-83 10 -109 73q-29 -36 -72.5 -54.5t-95.5 -18.5q-80 0 -127 45t-47 119q0 83 65.5 128t185.5 45h75v34q0 50 -30 73t-87 23q-28 0 -65 -7t-75 -20l-28 79q95 36 185 36q105 0 158 -46t53 -131v-236q0 -30 9 -44.5zM330.5 87
q32.5 18 51.5 50v117h-62q-76 0 -111 -25.5t-35 -73.5q0 -42 22.5 -64t66.5 -22q35 0 67.5 18zM183 669.5q-42 35.5 -48 92.5l68 14q19 -61 88 -61q73 0 90 61l69 -14q-6 -57 -49 -92.5t-110 -35.5q-66 0 -108 35.5z" />
    <glyph glyph-name="uni04D3" unicode="&#x4d3;" 
d="M502 84.5q9 -14.5 31 -21.5l-26 -76q-83 10 -109 73q-29 -36 -72.5 -54.5t-95.5 -18.5q-80 0 -127 45t-47 119q0 83 65.5 128t185.5 45h75v34q0 50 -30 73t-87 23q-28 0 -65 -7t-75 -20l-28 79q95 36 185 36q105 0 158 -46t53 -131v-236q0 -30 9 -44.5zM330.5 87
q32.5 18 51.5 50v117h-62q-76 0 -111 -25.5t-35 -73.5q0 -42 22.5 -64t66.5 -22q35 0 67.5 18zM137 662q-19 18 -19 45q0 28 19 46t47 18q27 0 45.5 -18t18.5 -46q0 -27 -18.5 -45t-45.5 -18q-28 0 -47 18zM354 662q-19 18 -19 45t19 45.5t46 18.5q28 0 46.5 -18t18.5 -46
q0 -27 -18.5 -45t-46.5 -18q-27 0 -46 18z" />
    <glyph glyph-name="uni04D7" unicode="&#x4d7;" 
d="M226.5 112.5q39.5 -38.5 99.5 -38.5q37 0 70.5 11.5t68.5 34.5l48 -68q-37 -31 -87 -48t-105 -17q-121 0 -188 75.5t-67 201.5q0 79 29 142.5t84 99.5t128 36q105 0 166.5 -70.5t61.5 -193.5q0 -30 -3 -50h-350q5 -77 44.5 -115.5zM220 420q-34 -39 -39 -116h245
q-2 75 -32 115t-86 40q-54 0 -88 -39zM199 669.5q-42 35.5 -48 92.5l68 14q19 -61 88 -61q73 0 90 61l69 -14q-6 -57 -49 -92.5t-110 -35.5q-66 0 -108 35.5z" />
    <glyph glyph-name="uni04D9" unicode="&#x4d9;" 
d="M477 468.5q61 -73.5 61 -203.5q0 -127 -64.5 -202.5t-178.5 -75.5q-108 0 -171 69.5t-63 193.5q0 28 3 50h359q-4 81 -37.5 118.5t-96.5 37.5q-41 0 -74.5 -11t-65.5 -37l-50 69q81 65 193 65q124 0 185 -73.5zM388.5 107q31.5 36 34.5 117h-254v-7q1 -70 33.5 -108
t92.5 -38q62 0 93.5 36z" />
    <glyph glyph-name="uni04DB" unicode="&#x4db;" 
d="M477 468.5q61 -73.5 61 -203.5q0 -127 -64.5 -202.5t-178.5 -75.5q-108 0 -171 69.5t-63 193.5q0 28 3 50h359q-4 81 -37.5 118.5t-96.5 37.5q-41 0 -74.5 -11t-65.5 -37l-50 69q81 65 193 65q124 0 185 -73.5zM388.5 107q31.5 36 34.5 117h-254v-7q1 -70 33.5 -108
t92.5 -38q62 0 93.5 36zM149 662q-19 18 -19 45q0 28 19 46t47 18q27 0 45.5 -18t18.5 -46q0 -27 -18.5 -45t-45.5 -18q-28 0 -47 18zM366 662q-19 18 -19 45t19 45.5t46 18.5q28 0 46.5 -18t18.5 -46q0 -27 -18.5 -45t-46.5 -18q-27 0 -46 18z" />
    <glyph glyph-name="uni04DD" unicode="&#x4dd;" 
d="M257 241h-45l-97 -241h-105l122 284l-115 244h106l88 -213h46v213h86v-213h46l92 213h102l-115 -244l122 -284h-105l-98 241h-44v-241h-86v241zM145 662q-19 18 -19 45q0 28 19 46t47 18q27 0 45.5 -18t18.5 -46q0 -27 -18.5 -45t-45.5 -18q-28 0 -47 18zM362 662
q-19 18 -19 45t19 45.5t46 18.5q28 0 46.5 -18t18.5 -46q0 -27 -18.5 -45t-46.5 -18q-27 0 -46 18z" />
    <glyph glyph-name="uni04DF" unicode="&#x4df;" 
d="M278 315q48 0 75.5 19.5t27.5 52.5q0 71 -111 71q-40 0 -81.5 -11t-76.5 -32l-50 63q42 31 98 47.5t116 16.5q97 0 158.5 -38t61.5 -107q0 -85 -115 -116q61 -4 102 -36t41 -89q0 -81 -69 -125t-181 -44q-140 0 -231 72l51 68q41 -27 84 -41t97 -14q64 0 97.5 23t33.5 63
q0 38 -30.5 57t-89.5 19h-110l7 81h95zM136 661q-19 18 -19 45q0 28 19 46t47 18q27 0 45.5 -18t18.5 -46q0 -27 -18.5 -45t-45.5 -18q-28 0 -47 18zM353 661q-19 18 -19 45t19 45.5t46 18.5q28 0 46.5 -18t18.5 -46q0 -27 -18.5 -45t-46.5 -18q-27 0 -46 18z" />
    <glyph glyph-name="uni04E1" unicode="&#x4e1;" 
d="M464.5 158q62.5 -51 62.5 -148q0 -66 -31.5 -117.5t-88.5 -80t-131 -28.5q-77 0 -129.5 22.5t-94.5 66.5l60 61q36 -32 72.5 -47t87.5 -15q64 0 100.5 35.5t36.5 101.5q0 64 -37.5 93t-109.5 29h-94v76l207 233h-291v88h417v-81l-214 -238h10q105 0 167.5 -51z" />
    <glyph glyph-name="uni04E3" unicode="&#x4e3;" 
d="M511 0h-108v217q0 63 5 118.5t10 78.5l-204 -414h-125v528h108v-218q0 -58 -4.5 -115t-10.5 -79l202 412h127v-528zM158 669v81h283v-81h-283z" />
    <glyph glyph-name="uni04E5" unicode="&#x4e5;" 
d="M511 0h-108v217q0 63 5 118.5t10 78.5l-204 -414h-125v528h108v-218q0 -58 -4.5 -115t-10.5 -79l202 412h127v-528zM145 662q-19 18 -19 45q0 28 19 46t47 18q27 0 45.5 -18t18.5 -46q0 -27 -18.5 -45t-45.5 -18q-28 0 -47 18zM362 662q-19 18 -19 45t19 45.5t46 18.5
q28 0 46.5 -18t18.5 -46q0 -27 -18.5 -45t-46.5 -18q-27 0 -46 18z" />
    <glyph glyph-name="uni04E7" unicode="&#x4e7;" 
d="M477 467.5q62 -74.5 62 -202.5t-63 -203t-176 -75q-114 0 -176.5 73.5t-62.5 203.5q0 126 63.5 202t176.5 76q114 0 176 -74.5zM209.5 408q-30.5 -47 -30.5 -144q0 -98 30 -144.5t91 -46.5t91 47t30 145q0 97 -30 143.5t-90 46.5q-61 0 -91.5 -47zM145 662q-19 18 -19 45
q0 28 19 46t47 18q27 0 45.5 -18t18.5 -46q0 -27 -18.5 -45t-45.5 -18q-28 0 -47 18zM362 662q-19 18 -19 45t19 45.5t46 18.5q28 0 46.5 -18t18.5 -46q0 -27 -18.5 -45t-46.5 -18q-27 0 -46 18z" />
    <glyph glyph-name="uni04E9" unicode="&#x4e9;" 
d="M477 467.5q62 -74.5 62 -202.5t-63 -203t-176 -75q-114 0 -176.5 73.5t-62.5 203.5q0 126 63.5 202t176.5 76q114 0 176 -74.5zM178 306h244q-11 150 -121 150q-114 0 -123 -150zM178 230q6 -82 36 -119.5t86 -37.5t86 37.5t36 119.5h-244z" />
    <glyph glyph-name="uni04EB" unicode="&#x4eb;" 
d="M477 467.5q62 -74.5 62 -202.5t-63 -203t-176 -75q-114 0 -176.5 73.5t-62.5 203.5q0 126 63.5 202t176.5 76q114 0 176 -74.5zM178 306h244q-11 150 -121 150q-114 0 -123 -150zM178 230q6 -82 36 -119.5t86 -37.5t86 37.5t36 119.5h-244zM146 662q-19 18 -19 45
q0 28 19 46t47 18q27 0 45.5 -18t18.5 -46q0 -27 -18.5 -45t-45.5 -18q-28 0 -47 18zM363 662q-19 18 -19 45t19 45.5t46 18.5q28 0 46.5 -18t18.5 -46q0 -27 -18.5 -45t-46.5 -18q-27 0 -46 18z" />
    <glyph glyph-name="uni04ED" unicode="&#x4ed;" 
d="M461.5 467.5q63.5 -74.5 63.5 -202.5q0 -127 -67 -202.5t-189 -75.5q-53 0 -101 16.5t-85 47.5l52 67q30 -23 62 -33.5t70 -10.5q131 0 144 157h-229v79h227q-13 146 -137 146q-74 0 -133 -43l-51 67q79 62 190 62q120 0 183.5 -74.5zM142 662q-19 18 -19 45q0 28 19 46
t47 18q27 0 45.5 -18t18.5 -46q0 -27 -18.5 -45t-45.5 -18q-28 0 -47 18zM359 662q-19 18 -19 45t19 45.5t46 18.5q28 0 46.5 -18t18.5 -46q0 -27 -18.5 -45t-46.5 -18q-27 0 -46 18z" />
    <glyph glyph-name="uni04EF" unicode="&#x4ef;" 
d="M369 -2q-32 -96 -92.5 -150.5t-166.5 -63.5l-14 84q52 8 84 24.5t51 41.5t34 66h-38l-178 528h119l133 -450l135 450h115zM158 669v81h283v-81h-283z" />
    <glyph glyph-name="uni04F1" unicode="&#x4f1;" 
d="M369 -2q-32 -96 -92.5 -150.5t-166.5 -63.5l-14 84q52 8 84 24.5t51 41.5t34 66h-38l-178 528h119l133 -450l135 450h115zM145 662q-19 18 -19 45q0 28 19 46t47 18q27 0 45.5 -18t18.5 -46q0 -27 -18.5 -45t-45.5 -18q-28 0 -47 18zM362 662q-19 18 -19 45t19 45.5
t46 18.5q28 0 46.5 -18t18.5 -46q0 -27 -18.5 -45t-46.5 -18q-27 0 -46 18z" />
    <glyph glyph-name="uni04F3" unicode="&#x4f3;" 
d="M369 -2q-32 -96 -92.5 -150.5t-166.5 -63.5l-14 84q52 8 84 24.5t51 41.5t34 66h-38l-178 528h119l133 -450l135 450h115zM256 844l87 -41l-108 -171l-65 30zM426 844l86 -44l-115 -170l-63 32z" />
    <glyph glyph-name="uni04F5" unicode="&#x4f5;" 
d="M503 0h-112v213q-30 -26 -71.5 -40.5t-88.5 -14.5q-78 0 -119 42t-41 117v211h112v-198q0 -46 20.5 -66.5t62.5 -20.5q34 0 69 14t56 37v234h112v-528zM132 662q-19 18 -19 45q0 28 19 46t47 18q27 0 45.5 -18t18.5 -46q0 -27 -18.5 -45t-45.5 -18q-28 0 -47 18zM349 662
q-19 18 -19 45t19 45.5t46 18.5q28 0 46.5 -18t18.5 -46q0 -27 -18.5 -45t-46.5 -18q-27 0 -46 18z" />
    <glyph glyph-name="uni04F7" unicode="&#x4f7;" 
d="M256 438v-351h78v-244h-89l-16 157h-85v528h386l-13 -90h-261z" />
    <glyph glyph-name="uni04F9" unicode="&#x4f9;" 
d="M149 361h26q228 0 228 -177q0 -93 -58.5 -138.5t-163.5 -45.5h-133v528h101v-167zM552 0h-102v528h102v-528zM149 286v-208h33q56 0 84.5 24t28.5 83q0 54 -27.5 77.5t-87.5 23.5h-31zM145 662q-19 18 -19 45q0 28 19 46t47 18q27 0 45.5 -18t18.5 -46q0 -27 -18.5 -45
t-45.5 -18q-28 0 -47 18zM362 662q-19 18 -19 45t19 45.5t46 18.5q28 0 46.5 -18t18.5 -46q0 -27 -18.5 -45t-46.5 -18q-27 0 -46 18z" />
    <glyph glyph-name="uni04FB" unicode="&#x4fb;" 
d="M285 438v-132h122v-79h-122v-140h75v-135q0 -82 -43.5 -125.5t-120.5 -43.5q-68 0 -121 40l43 67q21 -11 35 -15.5t35 -4.5q60 0 60 72v58h-75v227h-87v79h87v222h386l-13 -90h-261z" />
    <glyph glyph-name="uni04FD" unicode="&#x4fd;" 
d="M563 -48q0 -82 -43.5 -125.5t-120.5 -43.5q-68 0 -121 40l43 67q22 -11 35.5 -15.5t34.5 -4.5q60 0 60 72v58h-35l-130 216l-129 -216h-124l190 278l-169 250h129l108 -186l108 186h123l-165 -245l132 -196h74v-135z" />
    <glyph glyph-name="uni04FF" unicode="&#x4ff;" 
d="M557 0h-131l-127 226l-132 -226h-124l169 248h-117v70h111l-142 210h128l107 -197l110 197h123l-141 -210h114v-70h-115z" />
    <glyph glyph-name="uni0501" unicode="&#x501;" 
d="M511 740v-740h-99l-8 65q-26 -38 -64 -58t-84 -20q-99 0 -149 74t-50 203q0 81 25.5 144t72.5 98.5t111 35.5q81 0 133 -58v269zM206.5 408.5q-30.5 -47.5 -30.5 -144.5q0 -192 110 -192q66 0 113 76v249q-41 59 -104 59q-58 0 -88.5 -47.5z" />
    <glyph glyph-name="uni0503" unicode="&#x503;" 
d="M595 254q0 -137 -47.5 -203t-129.5 -66q-44 0 -78.5 21.5t-54.5 64.5q-24 -44 -52 -64t-63 -20q-78 0 -121 74t-43 202q0 80 21 143.5t59 99.5t86 36q57 0 93 -46v256l104 -12v-586q0 -42 14 -63.5t38 -21.5q33 0 50.5 42t17.5 141q0 56 -5 126h105q6 -58 6 -124z
M226 86.5q19 16.5 39 54.5v269q-17 24 -33 36.5t-38 12.5q-37 0 -57.5 -48t-20.5 -147q0 -194 69 -194q22 0 41 16.5z" />
    <glyph glyph-name="uni0505" unicode="&#x505;" 
d="M579 254q0 -136 -52.5 -202.5t-142.5 -66.5q-66 0 -111.5 31.5t-84.5 101.5l-41 75h-99v83h88q52 0 78 20.5t26 65.5q0 43 -28 63.5t-84 20.5h-120v82h120q112 0 170 -42.5t58 -122.5q0 -54 -27 -89.5t-80 -56.5l44 -80q21 -37 43 -51.5t49 -14.5q40 0 61.5 42t21.5 139
q0 56 -5 126h110q6 -58 6 -124z" />
    <glyph glyph-name="uni0507" unicode="&#x507;" 
d="M536 87v-244h-89l-16 157h-45l-119 192h-151v84h135q51 0 77 20.5t26 65.5q0 44 -28 64t-84 20h-167v82h168q111 0 169 -42.5t58 -122.5q0 -52 -25 -87.5t-77 -58.5l86 -130h82z" />
    <glyph glyph-name="uni0509" unicode="&#x509;" 
d="M592 254q0 -135 -48.5 -202t-128.5 -67q-66 0 -109 43.5t-43 125.5v288h-83l-10 -130q-8 -112 -23 -173t-38 -92.5t-65 -60.5l-47 67q20 18 32.5 41.5t22 74.5t16.5 142l17 217h283v-391q0 -30 12.5 -49t35.5 -19q70 0 70 183q0 56 -5 126h105q6 -58 6 -124z" />
    <glyph glyph-name="uni050B" unicode="&#x50b;" 
d="M595 254q0 -135 -49 -202t-129 -67q-66 0 -109 43.5t-43 125.5v72h-123v-226h-105v528h105v-217h123v217h104v-391q0 -31 12.5 -49.5t36.5 -18.5q71 0 71 183q0 56 -5 126h105q6 -58 6 -124z" />
    <glyph glyph-name="uni050D" unicode="&#x50d;" 
d="M419.5 525.5q42.5 -16.5 84.5 -49.5l-57 -68q-32 24 -61 35t-63 11q-62 0 -101 -48t-39 -142q0 -100 31.5 -145.5t92.5 -45.5q51 0 94 19v128h-83l-12 81h203v-259q-95 -55 -203 -55q-114 0 -177.5 70.5t-63.5 206.5q0 85 34.5 148t93 96.5t126.5 33.5q58 0 100.5 -16.5z
" />
    <glyph glyph-name="uni050F" unicode="&#x50f;" 
d="M551 238q0 -83 -29.5 -140t-78.5 -85t-108 -28q-80 0 -129.5 48t-49.5 133v275h-154v87h431l-13 -87h-152v-282q0 -44 18.5 -66t51.5 -22q44 0 73 40t29 128q0 61 -5 128h111q5 -63 5 -129z" />
    <glyph glyph-name="uni0511" unicode="&#x511;" 
d="M418 234h-104q-59 0 -89.5 -19t-30.5 -57q0 -40 33.5 -63t97.5 -23q53 0 96.5 13.5t84.5 40.5l51 -67q-93 -72 -233 -72q-111 0 -179.5 43.5t-68.5 124.5q0 57 41.5 90t101.5 36q-115 28 -115 114q0 44 29 77.5t79 51.5t113 18q60 0 115.5 -16.5t97.5 -47.5l-50 -63
q-35 21 -76 32t-81 11q-112 0 -112 -71q0 -33 27.5 -52.5t75.5 -19.5h103z" />
    <glyph glyph-name="uni0513" unicode="&#x513;" 
d="M517 0h-1v-48q0 -82 -43.5 -125.5t-120.5 -43.5q-68 0 -121 40l43 67q21 -11 35 -15.5t35 -4.5q60 0 60 72v59h1v440h-166l-8 -111q-9 -120 -24.5 -183.5t-44 -97.5t-83.5 -63l-48 71q29 18 45.5 41.5t28 75.5t19.5 151l15 203h378v-528z" />
    <glyph glyph-name="uni0515" unicode="&#x515;" 
d="M602 0h-107l-92 216l-90 -216h-102l134 278l-79 167h-73l-10 -133q-9 -112 -23.5 -173t-37.5 -92.5t-65 -60.5l-47 67q20 18 32.5 41.5t22 74.5t16.5 142l17 217h235l75 -186l76 186h100l-116 -245z" />
    <glyph glyph-name="uni0517" unicode="&#x517;" 
d="M488 0l-97 220q-5 -71 -26.5 -124t-55 -81t-73.5 -28q-33 0 -56 12.5t-43 39.5v-243l-104 -12v744h89l7 -58q25 36 53 54t66 18q67 0 102.5 -60t41.5 -172l90 218h106l-118 -257l129 -271h-111zM269 118q21 46 21 146q0 107 -15.5 150t-51.5 43q-45 0 -86 -61v-270
q37 -54 76 -54q35 0 56 46z" />
    <glyph glyph-name="uni0519" unicode="&#x519;" 
d="M593 228h-256q2 -81 28 -119.5t70 -38.5q32 0 54.5 9t54.5 32l48 -60q-31 -28 -72.5 -46t-90.5 -18q-79 0 -129.5 57t-63.5 153h-39l-89 -197h-104l102 218q-92 41 -92 142q0 49 24.5 87t70.5 59.5t109 21.5h137q31 14 67 14q84 0 129 -70t45 -194q0 -30 -3 -50zM498 303
q-2 80 -20.5 119.5t-55.5 39.5q-38 0 -59.5 -38.5t-26.5 -120.5h162zM140.5 295q24.5 -22 71.5 -22h20q2 111 44 182h-58q-49 0 -75.5 -24t-26.5 -71q0 -43 24.5 -65z" />
    <glyph glyph-name="uni051B" unicode="&#x51b;" 
d="M407 476l7 52h97v-744l-112 13v261q-54 -71 -144 -71q-100 0 -147 72.5t-47 204.5q0 124 54.5 201t151.5 77q88 0 140 -66zM179 264q0 -99 26.5 -144.5t79.5 -45.5q36 0 64.5 20t49.5 54v249q-40 59 -104 59q-116 0 -116 -192z" />
    <glyph glyph-name="uni051D" unicode="&#x51d;" 
d="M362 0l-60 375l-64 -375h-137l-89 528h108l55 -458l74 391h112l68 -391l55 458h104l-86 -528h-140z" />
    <glyph glyph-name="uni051F" unicode="&#x51f;" 
d="M575 0h-127l-153 237h-91v-237h-112v528h112v-209h93l46 69l-83 48l36 62l86 -50l53 80h117l-87 -127l82 -47l-36 -62l-86 49l-39 -57z" />
    <glyph glyph-name="uni0521" unicode="&#x521;" 
d="M563.5 308.5q36.5 -39.5 36.5 -105.5v-254q0 -79 -43 -122.5t-115 -43.5q-68 0 -121 40l42 65q20 -11 34.5 -16t36.5 -5q61 0 61 69v263q0 32 -14.5 49t-41.5 17q-39 0 -73 -29v-236h-106v442h-92l-10 -130q-8 -112 -22.5 -173t-37.5 -92.5t-65 -60.5l-48 67
q20 18 32.5 41.5t22.5 74.5t17 142l16 217h293v-217q42 37 103 37q58 0 94.5 -39.5z" />
    <glyph glyph-name="uni0523" unicode="&#x523;" 
d="M563 308.5q36 -39.5 36 -105.5v-254q0 -80 -42.5 -123t-115.5 -43q-67 0 -120 40l42 65q19 -11 34 -16t37 -5q60 0 60 69v263q0 32 -14 49t-41 17q-41 0 -73 -29v-236h-104v226h-133v-226h-105v528h105v-217h133v217h104v-217q42 37 103 37q58 0 94 -39.5z" />
    <glyph glyph-name="uni048D" unicode="&#x48d;" 
d="M483 298.5q58 -43.5 58 -123.5q0 -89 -64.5 -132t-179.5 -43h-163v401h-77v73h77v54h112v-54h143l-11 -73h-132v-59h69q110 0 168 -43.5zM392 104q31 21 31 72q0 85 -108 85h-69v-178h59q56 0 87 21z" />
    <glyph glyph-name="uni048F" unicode="&#x48f;" 
d="M510 121.5q-23 -62.5 -67 -97.5l71 -116h-79l-52 86q-24 -7 -54 -7q-83 0 -134 58v-248l-112 -13v744h97l7 -68q31 40 70 61t84 21q192 0 192 -277q0 -81 -23 -143.5zM333 76l-88 143h79l66 -108q28 41 28 153q0 101 -26.5 146.5t-81.5 45.5q-35 0 -64 -21t-51 -55v-247
q39 -59 107 -59q11 0 31 2z" />
    <glyph glyph-name="uni052D" unicode="&#x52d;" 
d="M565 84v-241h-86l-16 157h-301l-16 -157h-86v241h42q28 23 47.5 58t31.5 105q-71 12 -105.5 58t-34.5 120v103h98v-102q0 -43 12.5 -66t39.5 -32q1 4 1 12l14 188h300v-444h59zM292 350q0 -11 -2 -29h114v129h-105zM404 242h-125q-12 -64 -32.5 -100.5t-47.5 -57.5h205
v158z" />
    <glyph glyph-name="uni052B" unicode="&#x52b;" 
d="M612 0h-90l-79 240h-24v-240h-63v-157h-72l-13 157h-198l-13 -157h-72v238h25q15 18 23.5 41.5t16 73.5t13.5 144l13 188h211v-212h47v212h82v-212h25l72 212h83l-86 -244zM207 453h-47l-6 -103q-5 -93 -11.5 -142t-18 -76.5t-33.5 -50.5h116v372zM290 240v-159h47v159
h-47z" />
    <glyph glyph-name="uni052F" unicode="&#x52f;" 
d="M570 87v-244h-88l-16 157h-85v441h-145l-9 -111q-8 -120 -23.5 -183.5t-44 -97.5t-84.5 -63l-47 71q28 19 44.5 42t28.5 75t19 151l16 203h357v-441h77z" />
    <glyph glyph-name="uni0529" unicode="&#x529;" 
d="M511 528v-528h-112v226h-198v-275q0 -82 -43.5 -125.5t-120.5 -43.5q-68 0 -121 40l43 67q22 -11 35.5 -15.5t34.5 -4.5q60 0 60 72v587h112v-215h198v215h112z" />
    <glyph glyph-name="uni04A4" unicode="&#x4a4;" 
d="M597 597h-128v-597h-116v313h-183v-313h-115v690h115v-280h183v280h257z" />
    <glyph glyph-name="uni04A5" unicode="&#x4a5;" 
d="M590 441h-126v-441h-112v226h-168v-226h-112v528h112v-215h168v215h252z" />
    <glyph glyph-name="uni04B4" unicode="&#x4b4;" 
d="M565 91v-248h-85l-16 157h-350v606h-114v84h339l-11 -84h-104v-513h181v597h110v-599h50z" />
    <glyph glyph-name="uni04B5" unicode="&#x4b5;" 
d="M559 87v-244h-86l-17 157h-346v448h-110v80h333l-15 -80h-99v-360h171v440h109v-441h60z" />
    <glyph glyph-name="uni04D4" unicode="&#x4d4;" 
d="M144 167l-41 -167h-115l192 690h386l-13 -86h-216l45 -211h175v-86h-160l46 -221h163v-86h-251l-31 167h-180zM307 254l-65 352l-78 -352h143z" />
    <glyph glyph-name="uni04D5" unicode="&#x4d5;" 
d="M604 278q0 -20 -2 -48h-258q7 -83 32 -121.5t74 -38.5q26 0 48 9t47 28l47 -66q-32 -26 -67 -40t-79 -14q-102 0 -153 87q-33 -47 -66 -67t-82 -20q-69 0 -110 45t-41 119q0 84 53 128t157 44h44v35q0 104 -91 104q-24 0 -45.5 -6t-54.5 -21l-27 72q75 35 138 35
q55 0 87.5 -21t50.5 -60q16 38 48.5 59.5t77.5 21.5q172 0 172 -264zM368 425.5q-20 -35.5 -24 -121.5h164q-1 81 -18.5 119t-61.5 38q-40 0 -60 -35.5zM213 254q-61 0 -87 -24.5t-26 -72.5q0 -44 17 -67.5t47 -23.5q27 0 48.5 20t45.5 63q-10 46 -10 105h-35z" />
    <glyph glyph-name="uni037F" unicode="&#x37f;" 
d="M508 237q0 -109 -62.5 -179.5t-189.5 -70.5q-109 0 -196 64l47 73q39 -25 74 -35.5t71 -10.5q65 0 102.5 42t37.5 119v362h-207v89h323v-453z" />
    <glyph glyph-name="Alpha" unicode="&#x391;" 
d="M175 166l-48 -166h-119l220 690h144l220 -690h-123l-48 166h-246zM397 256l-99 344l-99 -344h198z" />
    <glyph glyph-name="Beta" unicode="&#x392;" 
d="M476 46q-76 -46 -193 -46h-202v690h189q110 0 181 -40.5t71 -134.5q0 -60 -36.5 -98.5t-91.5 -50.5q68 -12 113 -50.5t45 -116.5q0 -107 -76 -153zM372.5 580q-31.5 23 -92.5 23h-83v-199h90q59 0 88 24.5t29 77.5q0 51 -31.5 74zM395 290.5q-36 26.5 -100 26.5h-98v-227
h94q140 0 140 109q0 65 -36 91.5z" />
    <glyph glyph-name="Gamma" unicode="&#x393;" 
d="M538 594h-303v-594h-116v690h431z" />
    <glyph glyph-name="uni0394" unicode="&#x394;" 
d="M592 0h-584l220 690h144zM153 95h289l-144 504z" />
    <glyph glyph-name="Epsilon" unicode="&#x395;" 
d="M229 394h250v-87h-250v-219h305v-88h-421v690h415l-13 -88h-286v-208z" />
    <glyph glyph-name="Zeta" unicode="&#x396;" 
d="M540 96l-12 -96h-469v90l351 506h-315v94h443v-91l-346 -503h348z" />
    <glyph glyph-name="Eta" unicode="&#x397;" 
d="M413 314h-226v-314h-116v690h116v-281h226v281h116v-690h-116v314z" />
    <glyph glyph-name="Theta" unicode="&#x398;" 
d="M494.5 84q-67.5 -97 -194.5 -97t-194.5 95.5t-67.5 261.5q0 164 67.5 262t194.5 98t194.5 -96.5t67.5 -262.5q0 -164 -67.5 -261zM409.5 547q-34.5 66 -109.5 66t-109.5 -66t-34.5 -203q0 -135 35 -201t109 -66q75 0 109.5 66t34.5 202t-34.5 202zM207 313v79h185v-79
h-185z" />
    <glyph glyph-name="Iota" unicode="&#x399;" 
d="M508 602h-150v-513h150v-89h-416v89h150v513h-150v88h416v-88z" />
    <glyph glyph-name="Kappa" unicode="&#x39a;" 
d="M88 0v690h116v-690h-116zM448 690h128l-241 -314l260 -376h-139l-247 369z" />
    <glyph glyph-name="Lambda" unicode="&#x39b;" 
d="M587 0h-123l-166 594l-166 -594h-120l216 690h144z" />
    <glyph glyph-name="Mu" unicode="&#x39c;" 
d="M575 0h-107l-16 336q-3 66 -3 127q0 79 3 125l-102 -466h-101l-109 466q4 -51 4 -157q0 -64 -1 -96l-14 -335h-104l39 690h139l99 -462l94 462h140z" />
    <glyph glyph-name="Nu" unicode="&#x39d;" 
d="M158 587q16 -164 16 -274v-313h-103v690h151l220 -587q-7 74 -11.5 133.5t-4.5 139.5v314h103v-690h-151z" />
    <glyph glyph-name="Xi" unicode="&#x39e;" 
d="M511 592h-443v98h458zM472 302h-351v96h351v-96zM532 0h-464v101h464v-101z" />
    <glyph glyph-name="Omicron" unicode="&#x39f;" 
d="M494.5 84q-67.5 -97 -194.5 -97t-194.5 95.5t-67.5 261.5q0 164 67.5 262t194.5 98t194.5 -96.5t67.5 -262.5q0 -164 -67.5 -261zM409 547q-34 66 -109 66t-109 -66t-34 -203q0 -135 34.5 -201t108.5 -66q75 0 109 66t34 202t-34 202z" />
    <glyph glyph-name="Pi" unicode="&#x3a0;" 
d="M413 596h-226v-596h-116v690h458v-690h-116v596z" />
    <glyph glyph-name="Rho" unicode="&#x3a1;" 
d="M492 301.5q-72 -55.5 -197 -55.5h-84v-246h-115v690h191q133 0 205 -54.5t72 -162.5q0 -116 -72 -171.5zM295 603h-84v-269h85q70 0 108.5 32t38.5 107q0 130 -148 130z" />
    <glyph glyph-name="Sigma" unicode="&#x3a3;" 
d="M197 91h337v-91h-468v90l239 253l-239 256v91h468v-90h-337l214 -223v-63z" />
    <glyph glyph-name="Tau" unicode="&#x3a4;" 
d="M357 0h-116v596h-208v94h535l-12 -94h-199v-596z" />
    <glyph glyph-name="Upsilon" unicode="&#x3a5;" 
d="M358 0h-116v263l-231 427h128l163 -327l165 327h122l-231 -426v-264z" />
    <glyph glyph-name="Phi" unicode="&#x3a6;" 
d="M348 611q123 -5 183.5 -70t60.5 -193q0 -129 -62 -196t-182 -71v-81h-96v81q-121 4 -182.5 70.5t-61.5 196.5q0 128 60 193t184 70v79h96v-79zM150.5 492.5q-32.5 -43.5 -32.5 -144.5q0 -98 32 -143.5t107 -49.5v383q-74 -2 -106.5 -45.5zM343 155q75 4 107 49.5
t32 143.5q0 101 -33 145t-106 45v-383z" />
    <glyph glyph-name="Chi" unicode="&#x3a7;" 
d="M167 690l133 -248l135 248h123l-191 -317l213 -373h-129l-153 293l-154 -293h-123l208 367l-191 323h129z" />
    <glyph glyph-name="Psi" unicode="&#x3a8;" 
d="M245 189q-117 12 -175 74.5t-58 163.5v263h108v-261q0 -72 28.5 -109t101.5 -46v416h101v-415q71 9 100 46t29 108v261h108v-263q0 -100 -58.5 -162.5t-174.5 -74.5v-190h-110v189z" />
    <glyph glyph-name="uni03A9" unicode="&#x3a9;" 
d="M192.5 552.5q-35.5 -60.5 -35.5 -192.5q0 -115 27.5 -181t84.5 -95v-84h-220v88h118q-129 66 -129 272q0 105 31.5 183t90.5 119.5t140 41.5t140 -41.5t90.5 -119.5t31.5 -183q0 -103 -32.5 -170t-97.5 -102h119v-88h-219v84q56 29 83.5 95t27.5 181q0 131 -35.5 192
t-107.5 61t-107.5 -60.5z" />
    <glyph glyph-name="Alphatonos" unicode="&#x386;" 
d="M175 166l-48 -166h-119l220 690h144l220 -690h-123l-48 166h-246zM397 256l-99 344l-99 -344h198zM179 690l-77 -207l-79 13l37 216z" />
    <glyph glyph-name="Epsilontonos" unicode="&#x388;" 
d="M229 394h250v-87h-250v-219h305v-88h-421v690h415l-13 -88h-286v-208zM91 690l-77 -207l-79 13l37 216z" />
    <glyph glyph-name="Etatonos" unicode="&#x389;" 
d="M413 314h-226v-314h-116v690h116v-281h226v281h116v-690h-116v314zM50 690l-77 -207l-79 13l37 216z" />
    <glyph glyph-name="Iotatonos" unicode="&#x38a;" 
d="M508 602h-150v-513h150v-89h-416v89h150v513h-150v88h416v-88zM71 690l-77 -207l-79 13l37 216z" />
    <glyph glyph-name="Omicrontonos" unicode="&#x38c;" 
d="M494.5 84q-67.5 -97 -194.5 -97t-194.5 95.5t-67.5 261.5q0 164 67.5 262t194.5 98t194.5 -96.5t67.5 -262.5q0 -164 -67.5 -261zM409 547q-34 66 -109 66t-109 -66t-34 -203q0 -135 34.5 -201t108.5 -66q75 0 109 66t34 202t-34 202zM89 690l-77 -207l-79 13l37 216z
" />
    <glyph glyph-name="Upsilontonos" unicode="&#x38e;" 
d="M358 0h-116v263l-231 427h128l163 -327l165 327h122l-231 -426v-264zM0 690l-77 -207l-79 13l37 216z" />
    <glyph glyph-name="Omegatonos" unicode="&#x38f;" 
d="M192.5 552.5q-35.5 -60.5 -35.5 -192.5q0 -115 27.5 -181t84.5 -95v-84h-220v88h118q-129 66 -129 272q0 105 31.5 183t90.5 119.5t140 41.5t140 -41.5t90.5 -119.5t31.5 -183q0 -103 -32.5 -170t-97.5 -102h119v-88h-219v84q56 29 83.5 95t27.5 181q0 131 -35.5 192
t-107.5 61t-107.5 -60.5zM90 690l-77 -207l-79 13l37 216z" />
    <glyph glyph-name="Iotadieresis" unicode="&#x3aa;" 
d="M508 602h-150v-513h150v-89h-416v89h150v513h-150v88h416v-88zM145.5 784q-18.5 18 -18.5 45t18.5 45.5t46.5 18.5t46.5 -18.5t18.5 -45.5t-18.5 -45t-46.5 -18t-46.5 18zM362 784q-19 18 -19 45t19 45.5t46 18.5q28 0 46.5 -18.5t18.5 -45.5t-18.5 -45t-46.5 -18
q-27 0 -46 18z" />
    <glyph glyph-name="Upsilondieresis" unicode="&#x3ab;" 
d="M358 0h-116v263l-231 427h128l163 -327l165 327h122l-231 -426v-264zM147.5 784q-18.5 18 -18.5 45t18.5 45.5t46.5 18.5t46.5 -18.5t18.5 -45.5t-18.5 -45t-46.5 -18t-46.5 18zM364 784q-19 18 -19 45t19 45.5t46 18.5q28 0 46.5 -18.5t18.5 -45.5t-18.5 -45t-46.5 -18
q-27 0 -46 18z" />
    <glyph glyph-name="uni0370" unicode="&#x370;" 
d="M223 314v-314h-116v690h116v-281h270v-95h-270z" />
    <glyph glyph-name="uni0372" unicode="&#x372;" 
d="M572 690v-275h-93v181h-121v-596h-116v596h-120v-182h-93v276h543z" />
    <glyph glyph-name="uni0376" unicode="&#x376;" 
d="M71 690h111v-305q0 -90 -5 -153t-15 -130l229 588h138v-690h-111v304q0 145 19 280l-225 -584h-141v690z" />
    <glyph glyph-name="uni03D8" unicode="&#x3d8;" 
d="M509 106.5q-53 -93.5 -153 -114.5v-196h-112v196q-100 20 -153 113t-53 239q0 164 67.5 262t194.5 98t194.5 -96.5t67.5 -262.5q0 -145 -53 -238.5zM409 143q34 66 34 202t-34 202t-109 66t-109 -66t-34 -203q0 -135 34.5 -201t108.5 -66q75 0 109 66z" />
    <glyph glyph-name="uni03DA" unicode="&#x3da;" 
d="M320 -146q46 22 68.5 43.5t22.5 51.5q0 19 -11.5 32.5t-39 27t-83.5 36.5q-110 45 -162.5 116t-52.5 196q0 94 36.5 169t113 119.5t191.5 44.5h160l-15 -95h-140q-113 0 -169 -63t-56 -172q0 -67 15.5 -109.5t52 -72t104.5 -56.5q92 -37 132.5 -72t40.5 -93
q0 -56 -38.5 -96.5t-124.5 -77.5z" />
    <glyph glyph-name="uni03DC" unicode="&#x3dc;" 
d="M227 594v-206h142q37 0 61.5 -5.5t48.5 -18.5l-29 -81q-20 8 -40 11.5t-50 3.5h-133v-298h-116v690h431l-12 -96h-303z" />
    <glyph glyph-name="uni03DE" unicode="&#x3de;" 
d="M540 300h-1l-222 -300h-127l223 300h-332l-20 96l221 294h127l-221 -294h331z" />
    <glyph glyph-name="uni03E0" unicode="&#x3e0;" 
d="M473 0l-92 268l-82 -268l-90 2l130 387l-36 104l-174 -493h-112l241 610l-34 80h99l260 -690h-110z" />
    <glyph glyph-name="uni03CF" unicode="&#x3cf;" 
d="M81 690h116v-690h-116v690zM577 -48q0 -83 -43.5 -126t-122.5 -43q-68 0 -121 40l43 70q20 -11 34.5 -16t35.5 -5q58 0 58 72v56h-31l-228 369l219 321h127l-220 -314l181 -284h68v-140z" />
    <glyph glyph-name="uni03D2" unicode="&#x3d2;" 
d="M549 615q-18 0 -31 -11.5t-26 -40.5l-137 -299v-264h-117v263l-210 427h128l143 -328l95 226q27 65 58 90.5t86 25.5q34 0 59 -11l-21 -82q-16 4 -27 4z" />
    <glyph glyph-name="uni03D3" unicode="&#x3d3;" 
d="M549 615q-18 0 -31 -11.5t-26 -40.5l-137 -299v-264h-117v263l-210 427h128l143 -328l95 226q27 65 58 90.5t86 25.5q34 0 59 -11l-21 -82q-16 4 -27 4zM13 690l-77 -207l-79 13l37 216z" />
    <glyph glyph-name="uni03D4" unicode="&#x3d4;" 
d="M549 615q-18 0 -31 -11.5t-26 -40.5l-137 -299v-264h-117v263l-210 427h128l143 -328l95 226q27 65 58 90.5t86 25.5q34 0 59 -11l-21 -82q-16 4 -27 4zM148.5 784q-18.5 18 -18.5 45t18.5 45.5t46.5 18.5t46.5 -18.5t18.5 -45.5t-18.5 -45t-46.5 -18t-46.5 18zM365 784
q-19 18 -19 45t19 45.5t46 18.5q28 0 46.5 -18.5t18.5 -45.5t-18.5 -45t-46.5 -18q-27 0 -46 18z" />
    <glyph glyph-name="uni03F4" unicode="&#x3f4;" 
d="M494.5 84q-67.5 -97 -194.5 -97t-194.5 95.5t-67.5 261.5q0 164 67.5 262t194.5 98t194.5 -96.5t67.5 -262.5q0 -164 -67.5 -261zM409.5 547q-34.5 66 -109.5 66t-109.5 -66t-34.5 -203q0 -135 35 -201t109 -66q75 0 109.5 66t34.5 202t-34.5 202zM207 313v79h185v-79
h-185z" />
    <glyph glyph-name="uni03F7" unicode="&#x3f7;" 
d="M205 575h82q133 0 205 -55t72 -165q0 -117 -71.5 -174t-197.5 -57h-90v-124h-116v690h116v-115zM205 488v-276h93q69 0 106.5 32t37.5 109q0 70 -38 102.5t-108 32.5h-91z" />
    <glyph glyph-name="uni03F9" unicode="&#x3f9;" 
d="M474 687q48 -17 92 -53l-60 -72q-63 51 -143 51q-84 0 -137 -64.5t-53 -202.5q0 -136 52 -200.5t139 -64.5q50 0 85.5 15.5t70.5 43.5l56 -71q-84 -82 -216 -82q-89 0 -159 41.5t-109.5 122.5t-39.5 195q0 112 40.5 193t110.5 123t155 42q68 0 116 -17z" />
    <glyph glyph-name="uni03FA" unicode="&#x3fa;" 
d="M575 0h-107l-16 336q-3 66 -3 127q0 79 3 125l-102 -466h-101l-109 466q4 -51 4 -157q0 -64 -1 -96l-14 -335h-104l39 690h139l99 -462l94 462h140z" />
    <glyph glyph-name="uni03FD" unicode="&#x3fd;" 
d="M469 611q79 -93 79 -265q0 -114 -39.5 -195t-109.5 -122.5t-159 -41.5q-132 0 -216 82l56 70q36 -27 71 -42.5t85 -15.5q87 0 139 64.5t52 200.5q0 141 -46 204t-136 63q-84 0 -160 -51l-51 72q50 36 101 53t117 17q138 0 217 -93z" />
    <glyph glyph-name="uni03FE" unicode="&#x3fe;" 
d="M474 687q48 -17 92 -53l-60 -72q-63 51 -143 51q-84 0 -137 -64.5t-53 -202.5q0 -136 52 -200.5t139 -64.5q50 0 85.5 15.5t70.5 43.5l56 -71q-84 -82 -216 -82q-89 0 -159 41.5t-109.5 122.5t-39.5 195q0 112 40.5 193t110.5 123t155 42q68 0 116 -17zM417 397.5
q20 -19.5 20 -49.5t-20 -49.5t-53 -19.5q-31 0 -51 19.5t-20 49.5t20 49.5t51 19.5q33 0 53 -19.5z" />
    <glyph glyph-name="uni03FF" unicode="&#x3ff;" 
d="M469 611q79 -93 79 -265q0 -114 -39.5 -195t-109.5 -122.5t-159 -41.5q-132 0 -216 82l56 70q36 -27 71 -42.5t85 -15.5q87 0 139 64.5t52 200.5q0 141 -46 204t-136 63q-84 0 -160 -51l-51 72q50 36 101 53t117 17q138 0 217 -93zM286 397.5q20 -19.5 20 -49.5
t-20 -49.5t-53 -19.5q-31 0 -51 19.5t-20 49.5t20 49.5t51 19.5q33 0 53 -19.5z" />
    <glyph glyph-name="uni1F08" unicode="&#x1f08;" 
d="M175 166l-48 -166h-119l220 690h144l220 -690h-123l-48 166h-246zM397 256l-99 344l-99 -344h198zM145.5 689q18.5 -18 18.5 -44q0 -27 -18 -66l-50 -103h-62l29 116q-26 21 -26 53q0 26 18 44t45 18t45.5 -18z" />
    <glyph glyph-name="uni1F09" unicode="&#x1f09;" 
d="M175 166l-48 -166h-119l220 690h144l220 -690h-123l-48 166h-246zM397 256l-99 344l-99 -344h198zM125 689q18 -18 18 -44q0 -32 -26 -53l29 -116h-62l-50 103q-18 39 -18 66q0 26 18.5 44t45.5 18t45 -18z" />
    <glyph glyph-name="uni1F0A" unicode="&#x1f0a;" 
d="M175 166l-48 -166h-119l220 690h144l220 -690h-123l-48 166h-246zM397 256l-99 344l-99 -344h198zM-48.5 676q18.5 -18 18.5 -44q0 -27 -18 -66l-50 -103h-62l29 116q-26 21 -26 53q0 26 18 44t45 18t45.5 -18zM140 476l-68 -17l-75 207l98 25z" />
    <glyph glyph-name="uni1F0B" unicode="&#x1f0b;" 
d="M175 166l-48 -166h-119l220 690h144l220 -690h-123l-48 166h-246zM397 256l-99 344l-99 -344h198zM-56.5 676.5q18.5 -18.5 18.5 -44.5q0 -31 -26 -52l28 -117h-61l-50 104q-18 39 -18 65q0 27 18 45t45 18t45.5 -18.5zM136 476l-68 -17l-75 207l98 25z" />
    <glyph glyph-name="uni1F0C" unicode="&#x1f0c;" 
d="M175 166l-48 -166h-119l220 690h144l220 -690h-123l-48 166h-246zM397 256l-99 344l-99 -344h198zM-17.5 676q18.5 -18 18.5 -44q0 -27 -18 -66l-50 -103h-62l29 116q-26 21 -26 53q0 26 18 44t45 18t45.5 -18zM167 666l-75 -207l-69 17l46 215z" />
    <glyph glyph-name="uni1F0D" unicode="&#x1f0d;" 
d="M175 166l-48 -166h-119l220 690h144l220 -690h-123l-48 166h-246zM397 256l-99 344l-99 -344h198zM-18.5 677q18.5 -18 18.5 -44q0 -32 -26 -52l29 -117h-62l-50 103q-18 39 -18 66t18 44.5t45 17.5t45.5 -18zM171 666l-75 -207l-69 17l46 215z" />
    <glyph glyph-name="uni1F0E" unicode="&#x1f0e;" 
d="M175 166l-48 -166h-119l220 690h144l220 -690h-123l-48 166h-246zM397 256l-99 344l-99 -344h198zM46.5 577.5q-14.5 6.5 -36.5 20.5q-15 11 -24.5 15.5t-20.5 4.5q-16 0 -28 -11t-25 -35l-63 32q20 44 49 70.5t66 26.5q21 0 37.5 -7.5t34.5 -20.5q15 -10 24 -14.5
t20 -4.5q15 0 27 10t26 33l63 -31q-20 -46 -49.5 -70.5t-65.5 -24.5q-20 0 -34.5 6.5zM-5 447q-19 11 -27.5 24t-8.5 32q0 26 18.5 44t46.5 18q27 0 45 -18t18 -44q0 -15 -6 -32t-23 -47l-21 -39h-60z" />
    <glyph glyph-name="uni1F0F" unicode="&#x1f0f;" 
d="M175 166l-48 -166h-119l220 690h144l220 -690h-123l-48 166h-246zM397 256l-99 344l-99 -344h198zM45.5 578.5q-14.5 6.5 -36.5 20.5q-15 11 -24.5 15.5t-20.5 4.5q-16 0 -28 -11t-25 -35l-63 32q20 44 49 70.5t66 26.5q21 0 37.5 -7.5t34.5 -20.5q15 -10 24 -14.5
t20 -4.5q15 0 27 10t26 33l63 -31q-20 -46 -49.5 -70.5t-65.5 -24.5q-20 0 -34.5 6.5zM6 386l-21 38q-17 31 -23 47.5t-6 31.5q0 27 17.5 45t45.5 18t46.5 -18t18.5 -45q0 -36 -35 -55l17 -62h-60z" />
    <glyph glyph-name="uni1FBA" unicode="&#x1fba;" 
d="M175 166l-48 -166h-119l220 690h144l220 -690h-123l-48 166h-246zM397 256l-99 344l-99 -344h198zM136 496l-79 -13l-77 207l119 22z" />
    <glyph glyph-name="uni1FBB" unicode="&#x1fbb;" 
d="M175 166l-48 -166h-119l220 690h144l220 -690h-123l-48 166h-246zM397 256l-99 344l-99 -344h198zM159 690l-77 -207l-79 13l37 216z" />
    <glyph glyph-name="uni1FB8" unicode="&#x1fb8;" 
d="M175 166l-48 -166h-119l220 690h144l220 -690h-123l-48 166h-246zM397 256l-99 344l-99 -344h198zM190 792.5q-42 36.5 -48 95.5l68 14q22 -64 88 -64q35 0 57.5 16.5t32.5 47.5l69 -14q-6 -59 -49 -95.5t-110 -36.5q-66 0 -108 36.5z" />
    <glyph glyph-name="uni1FB9" unicode="&#x1fb9;" 
d="M175 166l-48 -166h-119l220 690h144l220 -690h-123l-48 166h-246zM397 256l-99 344l-99 -344h198zM159 790v82h282v-82h-282z" />
    <glyph glyph-name="uni1FBC" unicode="&#x1fbc;" 
d="M175 166l-48 -166h-119l220 690h144l220 -690h-123l-48 166h-246zM397 256l-99 344l-99 -344h198zM284 -163.5q-31 30.5 -31 81.5v42h89v-40q0 -41 41 -41q17 0 29 3.5t26 12.5l36 -54q-45 -35 -103 -35q-56 0 -87 30.5z" />
    <glyph glyph-name="uni1F88" unicode="&#x1f88;" 
d="M175 166l-48 -166h-119l220 690h144l220 -690h-123l-48 166h-246zM397 256l-99 344l-99 -344h198zM145.5 689q18.5 -18 18.5 -44q0 -27 -18 -66l-50 -103h-62l29 116q-26 21 -26 53q0 26 18 44t45 18t45.5 -18zM284 -163.5q-31 30.5 -31 81.5v42h89v-40q0 -41 41 -41
q17 0 29 3.5t26 12.5l36 -54q-45 -35 -103 -35q-56 0 -87 30.5z" />
    <glyph glyph-name="uni1F89" unicode="&#x1f89;" 
d="M175 166l-48 -166h-119l220 690h144l220 -690h-123l-48 166h-246zM397 256l-99 344l-99 -344h198zM125 689q18 -18 18 -44q0 -32 -26 -53l29 -116h-62l-50 103q-18 39 -18 66q0 26 18.5 44t45.5 18t45 -18zM284 -163.5q-31 30.5 -31 81.5v42h89v-40q0 -41 41 -41
q17 0 29 3.5t26 12.5l36 -54q-45 -35 -103 -35q-56 0 -87 30.5z" />
    <glyph glyph-name="uni1F8A" unicode="&#x1f8a;" 
d="M175 166l-48 -166h-119l220 690h144l220 -690h-123l-48 166h-246zM397 256l-99 344l-99 -344h198zM-48.5 676q18.5 -18 18.5 -44q0 -27 -18 -66l-50 -103h-62l29 116q-26 21 -26 53q0 26 18 44t45 18t45.5 -18zM140 476l-68 -17l-75 207l98 25zM284 -163.5
q-31 30.5 -31 81.5v42h89v-40q0 -41 41 -41q17 0 29 3.5t26 12.5l36 -54q-45 -35 -103 -35q-56 0 -87 30.5z" />
    <glyph glyph-name="uni1F8B" unicode="&#x1f8b;" 
d="M175 166l-48 -166h-119l220 690h144l220 -690h-123l-48 166h-246zM397 256l-99 344l-99 -344h198zM-56.5 676.5q18.5 -18.5 18.5 -44.5q0 -31 -26 -52l28 -117h-61l-50 104q-18 39 -18 65q0 27 18 45t45 18t45.5 -18.5zM136 476l-68 -17l-75 207l98 25zM284 -163.5
q-31 30.5 -31 81.5v42h89v-40q0 -41 41 -41q17 0 29 3.5t26 12.5l36 -54q-45 -35 -103 -35q-56 0 -87 30.5z" />
    <glyph glyph-name="uni1F8C" unicode="&#x1f8c;" 
d="M175 166l-48 -166h-119l220 690h144l220 -690h-123l-48 166h-246zM397 256l-99 344l-99 -344h198zM-17.5 676q18.5 -18 18.5 -44q0 -27 -18 -66l-50 -103h-62l29 116q-26 21 -26 53q0 26 18 44t45 18t45.5 -18zM167 666l-75 -207l-69 17l46 215zM284 -163.5
q-31 30.5 -31 81.5v42h89v-40q0 -41 41 -41q17 0 29 3.5t26 12.5l36 -54q-45 -35 -103 -35q-56 0 -87 30.5z" />
    <glyph glyph-name="uni1F8D" unicode="&#x1f8d;" 
d="M175 166l-48 -166h-119l220 690h144l220 -690h-123l-48 166h-246zM397 256l-99 344l-99 -344h198zM-18.5 677q18.5 -18 18.5 -44q0 -32 -26 -52l29 -117h-62l-50 103q-18 39 -18 66t18 44.5t45 17.5t45.5 -18zM171 666l-75 -207l-69 17l46 215zM284 -163.5
q-31 30.5 -31 81.5v42h89v-40q0 -41 41 -41q17 0 29 3.5t26 12.5l36 -54q-45 -35 -103 -35q-56 0 -87 30.5z" />
    <glyph glyph-name="uni1F8E" unicode="&#x1f8e;" 
d="M175 166l-48 -166h-119l220 690h144l220 -690h-123l-48 166h-246zM397 256l-99 344l-99 -344h198zM46.5 577.5q-14.5 6.5 -36.5 20.5q-15 11 -24.5 15.5t-20.5 4.5q-16 0 -28 -11t-25 -35l-63 32q20 44 49 70.5t66 26.5q21 0 37.5 -7.5t34.5 -20.5q15 -10 24 -14.5
t20 -4.5q15 0 27 10t26 33l63 -31q-20 -46 -49.5 -70.5t-65.5 -24.5q-20 0 -34.5 6.5zM-5 447q-19 11 -27.5 24t-8.5 32q0 26 18.5 44t46.5 18q27 0 45 -18t18 -44q0 -15 -6 -32t-23 -47l-21 -39h-60zM284 -163.5q-31 30.5 -31 81.5v42h89v-40q0 -41 41 -41q17 0 29 3.5
t26 12.5l36 -54q-45 -35 -103 -35q-56 0 -87 30.5z" />
    <glyph glyph-name="uni1F8F" unicode="&#x1f8f;" 
d="M175 166l-48 -166h-119l220 690h144l220 -690h-123l-48 166h-246zM397 256l-99 344l-99 -344h198zM45.5 578.5q-14.5 6.5 -36.5 20.5q-15 11 -24.5 15.5t-20.5 4.5q-16 0 -28 -11t-25 -35l-63 32q20 44 49 70.5t66 26.5q21 0 37.5 -7.5t34.5 -20.5q15 -10 24 -14.5
t20 -4.5q15 0 27 10t26 33l63 -31q-20 -46 -49.5 -70.5t-65.5 -24.5q-20 0 -34.5 6.5zM6 386l-21 38q-17 31 -23 47.5t-6 31.5q0 27 17.5 45t45.5 18t46.5 -18t18.5 -45q0 -36 -35 -55l17 -62h-60zM284 -163.5q-31 30.5 -31 81.5v42h89v-40q0 -41 41 -41q17 0 29 3.5
t26 12.5l36 -54q-45 -35 -103 -35q-56 0 -87 30.5z" />
    <glyph glyph-name="uni1F18" unicode="&#x1f18;" 
d="M229 394h250v-87h-250v-219h305v-88h-421v690h415l-13 -88h-286v-208zM57.5 689q18.5 -18 18.5 -44q0 -27 -18 -66l-50 -103h-62l29 116q-26 21 -26 53q0 26 18 44t45 18t45.5 -18z" />
    <glyph glyph-name="uni1F19" unicode="&#x1f19;" 
d="M229 394h250v-87h-250v-219h305v-88h-421v690h415l-13 -88h-286v-208zM37 689q18 -18 18 -44q0 -32 -26 -53l29 -116h-62l-50 103q-18 39 -18 66q0 26 18.5 44t45.5 18t45 -18z" />
    <glyph glyph-name="uni1F1A" unicode="&#x1f1a;" 
d="M229 394h250v-87h-250v-219h305v-88h-421v690h415l-13 -88h-286v-208zM-115.5 676q18.5 -18 18.5 -44q0 -27 -18 -66l-50 -103h-62l29 116q-26 21 -26 53q0 26 18 44t45 18t45.5 -18zM73 476l-68 -17l-75 207l98 25z" />
    <glyph glyph-name="uni1F1B" unicode="&#x1f1b;" 
d="M229 394h250v-87h-250v-219h305v-88h-421v690h415l-13 -88h-286v-208zM-119.5 676.5q18.5 -18.5 18.5 -44.5q0 -31 -26 -52l28 -117h-61l-50 104q-18 39 -18 65q0 27 18 45t45 18t45.5 -18.5zM73 476l-68 -17l-75 207l98 25z" />
    <glyph glyph-name="uni1F1C" unicode="&#x1f1c;" 
d="M229 394h250v-87h-250v-219h305v-88h-421v690h415l-13 -88h-286v-208zM-105.5 676q18.5 -18 18.5 -44q0 -27 -18 -66l-50 -103h-62l29 116q-26 21 -26 53q0 26 18 44t45 18t45.5 -18zM79 666l-75 -207l-69 17l46 215z" />
    <glyph glyph-name="uni1F1D" unicode="&#x1f1d;" 
d="M229 394h250v-87h-250v-219h305v-88h-421v690h415l-13 -88h-286v-208zM-106.5 677q18.5 -18 18.5 -44q0 -32 -26 -52l29 -117h-62l-50 103q-18 39 -18 66t18 44.5t45 17.5t45.5 -18zM83 666l-75 -207l-69 17l46 215z" />
    <glyph glyph-name="uni1FC8" unicode="&#x1fc8;" 
d="M229 394h250v-87h-250v-219h305v-88h-421v690h415l-13 -88h-286v-208zM81 496l-79 -13l-77 207l119 22z" />
    <glyph glyph-name="uni1FC9" unicode="&#x1fc9;" 
d="M229 394h250v-87h-250v-219h305v-88h-421v690h415l-13 -88h-286v-208zM91 690l-77 -207l-79 13l37 216z" />
    <glyph glyph-name="uni1F28" unicode="&#x1f28;" 
d="M413 314h-226v-314h-116v690h116v-281h226v281h116v-690h-116v314zM15.5 689q18.5 -18 18.5 -44q0 -27 -18 -66l-50 -103h-62l29 116q-26 21 -26 53q0 26 18 44t45 18t45.5 -18z" />
    <glyph glyph-name="uni1F29" unicode="&#x1f29;" 
d="M413 314h-226v-314h-116v690h116v-281h226v281h116v-690h-116v314zM-5 689q18 -18 18 -44q0 -32 -26 -53l29 -116h-62l-50 103q-18 39 -18 66q0 26 18.5 44t45.5 18t45 -18z" />
    <glyph glyph-name="uni1F2A" unicode="&#x1f2a;" 
d="M413 314h-226v-314h-116v690h116v-281h226v281h116v-690h-116v314zM-157.5 676q18.5 -18 18.5 -44q0 -27 -18 -66l-50 -103h-62l29 116q-26 21 -26 53q0 26 18 44t45 18t45.5 -18zM31 476l-68 -17l-75 207l98 25z" />
    <glyph glyph-name="uni1F2B" unicode="&#x1f2b;" 
d="M413 314h-226v-314h-116v690h116v-281h226v281h116v-690h-116v314zM-161.5 676.5q18.5 -18.5 18.5 -44.5q0 -31 -26 -52l28 -117h-61l-50 104q-18 39 -18 65q0 27 18 45t45 18t45.5 -18.5zM31 476l-68 -17l-75 207l98 25z" />
    <glyph glyph-name="uni1F2C" unicode="&#x1f2c;" 
d="M413 314h-226v-314h-116v690h116v-281h226v281h116v-690h-116v314zM-147.5 676q18.5 -18 18.5 -44q0 -27 -18 -66l-50 -103h-62l29 116q-26 21 -26 53q0 26 18 44t45 18t45.5 -18zM37 666l-75 -207l-69 17l46 215z" />
    <glyph glyph-name="uni1F2D" unicode="&#x1f2d;" 
d="M413 314h-226v-314h-116v690h116v-281h226v281h116v-690h-116v314zM-147.5 677q18.5 -18 18.5 -44q0 -32 -26 -52l29 -117h-62l-50 103q-18 39 -18 66t18 44.5t45 17.5t45.5 -18zM42 666l-75 -207l-69 17l46 215z" />
    <glyph glyph-name="uni1F2E" unicode="&#x1f2e;" 
d="M413 314h-226v-314h-116v690h116v-281h226v281h116v-690h-116v314zM-91.5 577.5q-14.5 6.5 -36.5 20.5q-15 11 -24.5 15.5t-20.5 4.5q-16 0 -28 -11t-25 -35l-63 32q20 44 49 70.5t66 26.5q21 0 37.5 -7.5t34.5 -20.5q15 -10 24 -14.5t20 -4.5q15 0 27 10t26 33l63 -31
q-20 -46 -49.5 -70.5t-65.5 -24.5q-20 0 -34.5 6.5zM-143 447q-19 11 -27.5 24t-8.5 32q0 26 18.5 44t46.5 18q27 0 45 -18t18 -44q0 -15 -6 -32t-23 -47l-21 -39h-60z" />
    <glyph glyph-name="uni1F2F" unicode="&#x1f2f;" 
d="M413 314h-226v-314h-116v690h116v-281h226v281h116v-690h-116v314zM-92.5 578.5q-14.5 6.5 -36.5 20.5q-15 11 -24.5 15.5t-20.5 4.5q-16 0 -28 -11t-25 -35l-63 32q20 44 49 70.5t66 26.5q21 0 37.5 -7.5t34.5 -20.5q15 -10 24 -14.5t20 -4.5q15 0 27 10t26 33l63 -31
q-20 -46 -49.5 -70.5t-65.5 -24.5q-20 0 -34.5 6.5zM-132 386l-21 38q-17 31 -23 47.5t-6 31.5q0 27 17.5 45t45.5 18t46.5 -18t18.5 -45q0 -36 -35 -55l17 -62h-60z" />
    <glyph glyph-name="uni1FCA" unicode="&#x1fca;" 
d="M413 314h-226v-314h-116v690h116v-281h226v281h116v-690h-116v314zM40 496l-79 -13l-77 207l119 22z" />
    <glyph glyph-name="uni1FCB" unicode="&#x1fcb;" 
d="M413 314h-226v-314h-116v690h116v-281h226v281h116v-690h-116v314zM50 690l-77 -207l-79 13l37 216z" />
    <glyph glyph-name="uni1FCC" unicode="&#x1fcc;" 
d="M413 314h-226v-314h-116v690h116v-281h226v281h116v-690h-116v314zM286 -163.5q-31 30.5 -31 81.5v42h89v-40q0 -41 41 -41q17 0 29 3.5t26 12.5l36 -54q-45 -35 -103 -35q-56 0 -87 30.5z" />
    <glyph glyph-name="uni1F98" unicode="&#x1f98;" 
d="M413 314h-226v-314h-116v690h116v-281h226v281h116v-690h-116v314zM15.5 689q18.5 -18 18.5 -44q0 -27 -18 -66l-50 -103h-62l29 116q-26 21 -26 53q0 26 18 44t45 18t45.5 -18zM286 -163.5q-31 30.5 -31 81.5v42h89v-40q0 -41 41 -41q17 0 29 3.5t26 12.5l36 -54
q-45 -35 -103 -35q-56 0 -87 30.5z" />
    <glyph glyph-name="uni1F99" unicode="&#x1f99;" 
d="M413 314h-226v-314h-116v690h116v-281h226v281h116v-690h-116v314zM-5 689q18 -18 18 -44q0 -32 -26 -53l29 -116h-62l-50 103q-18 39 -18 66q0 26 18.5 44t45.5 18t45 -18zM286 -163.5q-31 30.5 -31 81.5v42h89v-40q0 -41 41 -41q17 0 29 3.5t26 12.5l36 -54
q-45 -35 -103 -35q-56 0 -87 30.5z" />
    <glyph glyph-name="uni1F9A" unicode="&#x1f9a;" 
d="M413 314h-226v-314h-116v690h116v-281h226v281h116v-690h-116v314zM-157.5 676q18.5 -18 18.5 -44q0 -27 -18 -66l-50 -103h-62l29 116q-26 21 -26 53q0 26 18 44t45 18t45.5 -18zM31 476l-68 -17l-75 207l98 25zM286 -163.5q-31 30.5 -31 81.5v42h89v-40q0 -41 41 -41
q17 0 29 3.5t26 12.5l36 -54q-45 -35 -103 -35q-56 0 -87 30.5z" />
    <glyph glyph-name="uni1F9B" unicode="&#x1f9b;" 
d="M413 314h-226v-314h-116v690h116v-281h226v281h116v-690h-116v314zM-161.5 676.5q18.5 -18.5 18.5 -44.5q0 -31 -26 -52l28 -117h-61l-50 104q-18 39 -18 65q0 27 18 45t45 18t45.5 -18.5zM31 476l-68 -17l-75 207l98 25zM286 -163.5q-31 30.5 -31 81.5v42h89v-40
q0 -41 41 -41q17 0 29 3.5t26 12.5l36 -54q-45 -35 -103 -35q-56 0 -87 30.5z" />
    <glyph glyph-name="uni1F9C" unicode="&#x1f9c;" 
d="M413 314h-226v-314h-116v690h116v-281h226v281h116v-690h-116v314zM-147.5 676q18.5 -18 18.5 -44q0 -27 -18 -66l-50 -103h-62l29 116q-26 21 -26 53q0 26 18 44t45 18t45.5 -18zM37 666l-75 -207l-69 17l46 215zM286 -163.5q-31 30.5 -31 81.5v42h89v-40q0 -41 41 -41
q17 0 29 3.5t26 12.5l36 -54q-45 -35 -103 -35q-56 0 -87 30.5z" />
    <glyph glyph-name="uni1F9D" unicode="&#x1f9d;" 
d="M413 314h-226v-314h-116v690h116v-281h226v281h116v-690h-116v314zM-147.5 677q18.5 -18 18.5 -44q0 -32 -26 -52l29 -117h-62l-50 103q-18 39 -18 66t18 44.5t45 17.5t45.5 -18zM42 666l-75 -207l-69 17l46 215zM286 -163.5q-31 30.5 -31 81.5v42h89v-40q0 -41 41 -41
q17 0 29 3.5t26 12.5l36 -54q-45 -35 -103 -35q-56 0 -87 30.5z" />
    <glyph glyph-name="uni1F9E" unicode="&#x1f9e;" 
d="M413 314h-226v-314h-116v690h116v-281h226v281h116v-690h-116v314zM-91.5 577.5q-14.5 6.5 -36.5 20.5q-15 11 -24.5 15.5t-20.5 4.5q-16 0 -28 -11t-25 -35l-63 32q20 44 49 70.5t66 26.5q21 0 37.5 -7.5t34.5 -20.5q15 -10 24 -14.5t20 -4.5q15 0 27 10t26 33l63 -31
q-20 -46 -49.5 -70.5t-65.5 -24.5q-20 0 -34.5 6.5zM-143 447q-19 11 -27.5 24t-8.5 32q0 26 18.5 44t46.5 18q27 0 45 -18t18 -44q0 -15 -6 -32t-23 -47l-21 -39h-60zM286 -163.5q-31 30.5 -31 81.5v42h89v-40q0 -41 41 -41q17 0 29 3.5t26 12.5l36 -54q-45 -35 -103 -35
q-56 0 -87 30.5z" />
    <glyph glyph-name="uni1F9F" unicode="&#x1f9f;" 
d="M413 314h-226v-314h-116v690h116v-281h226v281h116v-690h-116v314zM-92.5 578.5q-14.5 6.5 -36.5 20.5q-15 11 -24.5 15.5t-20.5 4.5q-16 0 -28 -11t-25 -35l-63 32q20 44 49 70.5t66 26.5q21 0 37.5 -7.5t34.5 -20.5q15 -10 24 -14.5t20 -4.5q15 0 27 10t26 33l63 -31
q-20 -46 -49.5 -70.5t-65.5 -24.5q-20 0 -34.5 6.5zM-132 386l-21 38q-17 31 -23 47.5t-6 31.5q0 27 17.5 45t45.5 18t46.5 -18t18.5 -45q0 -36 -35 -55l17 -62h-60zM286 -163.5q-31 30.5 -31 81.5v42h89v-40q0 -41 41 -41q17 0 29 3.5t26 12.5l36 -54q-45 -35 -103 -35
q-56 0 -87 30.5z" />
    <glyph glyph-name="uni1F38" unicode="&#x1f38;" 
d="M508 602h-150v-513h150v-89h-416v89h150v513h-150v88h416v-88zM36.5 689q18.5 -18 18.5 -44q0 -27 -18 -66l-50 -103h-62l29 116q-26 21 -26 53q0 26 18 44t45 18t45.5 -18z" />
    <glyph glyph-name="uni1F39" unicode="&#x1f39;" 
d="M508 602h-150v-513h150v-89h-416v89h150v513h-150v88h416v-88zM36 689q18 -18 18 -44q0 -32 -26 -53l29 -116h-62l-50 103q-18 39 -18 66q0 26 18.5 44t45.5 18t45 -18z" />
    <glyph glyph-name="uni1F3A" unicode="&#x1f3a;" 
d="M508 602h-150v-513h150v-89h-416v89h150v513h-150v88h416v-88zM-99.5 676q18.5 -18 18.5 -44q0 -27 -18 -66l-50 -103h-62l29 116q-26 21 -26 53q0 26 18 44t45 18t45.5 -18zM89 476l-68 -17l-75 207l98 25z" />
    <glyph glyph-name="uni1F3B" unicode="&#x1f3b;" 
d="M508 602h-150v-513h150v-89h-416v89h150v513h-150v88h416v-88zM-104.5 676.5q18.5 -18.5 18.5 -44.5q0 -31 -26 -52l28 -117h-61l-50 104q-18 39 -18 65q0 27 18 45t45 18t45.5 -18.5zM88 476l-68 -17l-75 207l98 25z" />
    <glyph glyph-name="uni1F3C" unicode="&#x1f3c;" 
d="M508 602h-150v-513h150v-89h-416v89h150v513h-150v88h416v-88zM-126.5 676q18.5 -18 18.5 -44q0 -27 -18 -66l-50 -103h-62l29 116q-26 21 -26 53q0 26 18 44t45 18t45.5 -18zM58 666l-75 -207l-69 17l46 215z" />
    <glyph glyph-name="uni1F3D" unicode="&#x1f3d;" 
d="M508 602h-150v-513h150v-89h-416v89h150v513h-150v88h416v-88zM-127.5 677q18.5 -18 18.5 -44q0 -32 -26 -52l29 -117h-62l-50 103q-18 39 -18 66t18 44.5t45 17.5t45.5 -18zM62 666l-75 -207l-69 17l46 215z" />
    <glyph glyph-name="uni1F3E" unicode="&#x1f3e;" 
d="M508 602h-150v-513h150v-89h-416v89h150v513h-150v88h416v-88zM-70.5 577.5q-14.5 6.5 -36.5 20.5q-15 11 -24.5 15.5t-20.5 4.5q-16 0 -28 -11t-25 -35l-63 32q20 44 49 70.5t66 26.5q21 0 37.5 -7.5t34.5 -20.5q15 -10 24 -14.5t20 -4.5q15 0 27 10t26 33l63 -31
q-20 -46 -49.5 -70.5t-65.5 -24.5q-20 0 -34.5 6.5zM-122 447q-19 11 -27.5 24t-8.5 32q0 26 18.5 44t46.5 18q27 0 45 -18t18 -44q0 -15 -6 -32t-23 -47l-21 -39h-60z" />
    <glyph glyph-name="uni1F3F" unicode="&#x1f3f;" 
d="M508 602h-150v-513h150v-89h-416v89h150v513h-150v88h416v-88zM-71.5 578.5q-14.5 6.5 -36.5 20.5q-15 11 -24.5 15.5t-20.5 4.5q-16 0 -28 -11t-25 -35l-63 32q20 44 49 70.5t66 26.5q21 0 37.5 -7.5t34.5 -20.5q15 -10 24 -14.5t20 -4.5q15 0 27 10t26 33l63 -31
q-20 -46 -49.5 -70.5t-65.5 -24.5q-20 0 -34.5 6.5zM-111 386l-21 38q-17 31 -23 47.5t-6 31.5q0 27 17.5 45t45.5 18t46.5 -18t18.5 -45q0 -36 -35 -55l17 -62h-60z" />
    <glyph glyph-name="uni1FDA" unicode="&#x1fda;" 
d="M508 602h-150v-513h150v-89h-416v89h150v513h-150v88h416v-88zM78 496l-79 -13l-77 207l119 22z" />
    <glyph glyph-name="uni1FDB" unicode="&#x1fdb;" 
d="M508 602h-150v-513h150v-89h-416v89h150v513h-150v88h416v-88zM71 690l-77 -207l-79 13l37 216z" />
    <glyph glyph-name="uni1FD8" unicode="&#x1fd8;" 
d="M508 602h-150v-513h150v-89h-416v89h150v513h-150v88h416v-88zM190 792.5q-42 36.5 -48 95.5l68 14q22 -64 88 -64q35 0 57.5 16.5t32.5 47.5l69 -14q-6 -59 -49 -95.5t-110 -36.5q-66 0 -108 36.5z" />
    <glyph glyph-name="uni1FD9" unicode="&#x1fd9;" 
d="M508 602h-150v-513h150v-89h-416v89h150v513h-150v88h416v-88zM159 790v82h282v-82h-282z" />
    <glyph glyph-name="uni1F48" unicode="&#x1f48;" 
d="M494.5 84q-67.5 -97 -194.5 -97t-194.5 95.5t-67.5 261.5q0 164 67.5 262t194.5 98t194.5 -96.5t67.5 -262.5q0 -164 -67.5 -261zM409 547q-34 66 -109 66t-109 -66t-34 -203q0 -135 34.5 -201t108.5 -66q75 0 109 66t34 202t-34 202zM54.5 689q18.5 -18 18.5 -44
q0 -27 -18 -66l-50 -103h-62l29 116q-26 21 -26 53q0 26 18 44t45 18t45.5 -18z" />
    <glyph glyph-name="uni1F49" unicode="&#x1f49;" 
d="M494.5 84q-67.5 -97 -194.5 -97t-194.5 95.5t-67.5 261.5q0 164 67.5 262t194.5 98t194.5 -96.5t67.5 -262.5q0 -164 -67.5 -261zM409 547q-34 66 -109 66t-109 -66t-34 -203q0 -135 34.5 -201t108.5 -66q75 0 109 66t34 202t-34 202zM15 689q18 -18 18 -44
q0 -32 -26 -53l29 -116h-62l-50 103q-18 39 -18 66q0 26 18.5 44t45.5 18t45 -18z" />
    <glyph glyph-name="uni1F4A" unicode="&#x1f4a;" 
d="M494.5 84q-67.5 -97 -194.5 -97t-194.5 95.5t-67.5 261.5q0 164 67.5 262t194.5 98t194.5 -96.5t67.5 -262.5q0 -164 -67.5 -261zM409 547q-34 66 -109 66t-109 -66t-34 -203q0 -135 34.5 -201t108.5 -66q75 0 109 66t34 202t-34 202zM-157.5 676q18.5 -18 18.5 -44
q0 -27 -18 -66l-50 -103h-62l29 116q-26 21 -26 53q0 26 18 44t45 18t45.5 -18zM31 476l-68 -17l-75 207l98 25z" />
    <glyph glyph-name="uni1F4B" unicode="&#x1f4b;" 
d="M494.5 84q-67.5 -97 -194.5 -97t-194.5 95.5t-67.5 261.5q0 164 67.5 262t194.5 98t194.5 -96.5t67.5 -262.5q0 -164 -67.5 -261zM409 547q-34 66 -109 66t-109 -66t-34 -203q0 -135 34.5 -201t108.5 -66q75 0 109 66t34 202t-34 202zM-161.5 676.5
q18.5 -18.5 18.5 -44.5q0 -31 -26 -52l28 -117h-61l-50 104q-18 39 -18 65q0 27 18 45t45 18t45.5 -18.5zM31 476l-68 -17l-75 207l98 25z" />
    <glyph glyph-name="uni1F4C" unicode="&#x1f4c;" 
d="M494.5 84q-67.5 -97 -194.5 -97t-194.5 95.5t-67.5 261.5q0 164 67.5 262t194.5 98t194.5 -96.5t67.5 -262.5q0 -164 -67.5 -261zM409 547q-34 66 -109 66t-109 -66t-34 -203q0 -135 34.5 -201t108.5 -66q75 0 109 66t34 202t-34 202zM-127.5 676q18.5 -18 18.5 -44
q0 -27 -18 -66l-50 -103h-62l29 116q-26 21 -26 53q0 26 18 44t45 18t45.5 -18zM57 666l-75 -207l-69 17l46 215z" />
    <glyph glyph-name="uni1F4D" unicode="&#x1f4d;" 
d="M494.5 84q-67.5 -97 -194.5 -97t-194.5 95.5t-67.5 261.5q0 164 67.5 262t194.5 98t194.5 -96.5t67.5 -262.5q0 -164 -67.5 -261zM409 547q-34 66 -109 66t-109 -66t-34 -203q0 -135 34.5 -201t108.5 -66q75 0 109 66t34 202t-34 202zM-128.5 677q18.5 -18 18.5 -44
q0 -32 -26 -52l29 -117h-62l-50 103q-18 39 -18 66t18 44.5t45 17.5t45.5 -18zM61 666l-75 -207l-69 17l46 215z" />
    <glyph glyph-name="uni1FF8" unicode="&#x1ff8;" 
d="M494.5 84q-67.5 -97 -194.5 -97t-194.5 95.5t-67.5 261.5q0 164 67.5 262t194.5 98t194.5 -96.5t67.5 -262.5q0 -164 -67.5 -261zM409 547q-34 66 -109 66t-109 -66t-34 -203q0 -135 34.5 -201t108.5 -66q75 0 109 66t34 202t-34 202zM36 496l-79 -13l-77 207l119 22z
" />
    <glyph glyph-name="uni1FF9" unicode="&#x1ff9;" 
d="M494.5 84q-67.5 -97 -194.5 -97t-194.5 95.5t-67.5 261.5q0 164 67.5 262t194.5 98t194.5 -96.5t67.5 -262.5q0 -164 -67.5 -261zM409 547q-34 66 -109 66t-109 -66t-34 -203q0 -135 34.5 -201t108.5 -66q75 0 109 66t34 202t-34 202zM69 690l-77 -207l-79 13l37 216z
" />
    <glyph glyph-name="uni1FEC" unicode="&#x1fec;" 
d="M492 301.5q-72 -55.5 -197 -55.5h-84v-246h-115v690h191q133 0 205 -54.5t72 -162.5q0 -116 -72 -171.5zM295 603h-84v-269h85q70 0 108.5 32t38.5 107q0 130 -148 130zM19 689q18 -18 18 -44q0 -32 -26 -53l29 -116h-62l-50 103q-18 39 -18 66q0 26 18.5 44t45.5 18
t45 -18z" />
    <glyph glyph-name="uni1F59" unicode="&#x1f59;" 
d="M358 0h-116v263l-231 427h128l163 -327l165 327h122l-231 -426v-264zM-18 689q18 -18 18 -44q0 -32 -26 -53l29 -116h-62l-50 103q-18 39 -18 66q0 26 18.5 44t45.5 18t45 -18z" />
    <glyph glyph-name="uni1F5B" unicode="&#x1f5b;" 
d="M358 0h-116v263l-231 427h128l163 -327l165 327h122l-231 -426v-264zM-171.5 676.5q18.5 -18.5 18.5 -44.5q0 -31 -26 -52l28 -117h-61l-50 104q-18 39 -18 65q0 27 18 45t45 18t45.5 -18.5zM21 476l-68 -17l-75 207l98 25z" />
    <glyph glyph-name="uni1F5D" unicode="&#x1f5d;" 
d="M358 0h-116v263l-231 427h128l163 -327l165 327h122l-231 -426v-264zM-197.5 677q18.5 -18 18.5 -44q0 -32 -26 -52l29 -117h-62l-50 103q-18 39 -18 66t18 44.5t45 17.5t45.5 -18zM-8 666l-75 -207l-69 17l46 215z" />
    <glyph glyph-name="uni1F5F" unicode="&#x1f5f;" 
d="M358 0h-116v263l-231 427h128l163 -327l165 327h122l-231 -426v-264zM-139.5 578.5q-14.5 6.5 -36.5 20.5q-15 11 -24.5 15.5t-20.5 4.5q-16 0 -28 -11t-25 -35l-63 32q20 44 49 70.5t66 26.5q21 0 37.5 -7.5t34.5 -20.5q15 -10 24 -14.5t20 -4.5q15 0 27 10t26 33
l63 -31q-20 -46 -49.5 -70.5t-65.5 -24.5q-20 0 -34.5 6.5zM-179 386l-21 38q-17 31 -23 47.5t-6 31.5q0 27 17.5 45t45.5 18t46.5 -18t18.5 -45q0 -36 -35 -55l17 -62h-60z" />
    <glyph glyph-name="uni1FEA" unicode="&#x1fea;" 
d="M358 0h-116v263l-231 427h128l163 -327l165 327h122l-231 -426v-264zM22 496l-79 -13l-77 207l119 22z" />
    <glyph glyph-name="uni1FEB" unicode="&#x1feb;" 
d="M358 0h-116v263l-231 427h128l163 -327l165 327h122l-231 -426v-264zM0 690l-77 -207l-79 13l37 216z" />
    <glyph glyph-name="uni1FE8" unicode="&#x1fe8;" 
d="M358 0h-116v263l-231 427h128l163 -327l165 327h122l-231 -426v-264zM192 792.5q-42 36.5 -48 95.5l68 14q22 -64 88 -64q35 0 57.5 16.5t32.5 47.5l69 -14q-6 -59 -49 -95.5t-110 -36.5q-66 0 -108 36.5z" />
    <glyph glyph-name="uni1FE9" unicode="&#x1fe9;" 
d="M358 0h-116v263l-231 427h128l163 -327l165 327h122l-231 -426v-264zM161 790v82h282v-82h-282z" />
    <glyph glyph-name="uni1F68" unicode="&#x1f68;" 
d="M192.5 552.5q-35.5 -60.5 -35.5 -192.5q0 -115 27.5 -181t84.5 -95v-84h-220v88h118q-129 66 -129 272q0 105 31.5 183t90.5 119.5t140 41.5t140 -41.5t90.5 -119.5t31.5 -183q0 -103 -32.5 -170t-97.5 -102h119v-88h-219v84q56 29 83.5 95t27.5 181q0 131 -35.5 192
t-107.5 61t-107.5 -60.5zM55.5 689q18.5 -18 18.5 -44q0 -27 -18 -66l-50 -103h-62l29 116q-26 21 -26 53q0 26 18 44t45 18t45.5 -18z" />
    <glyph glyph-name="uni1F69" unicode="&#x1f69;" 
d="M192.5 552.5q-35.5 -60.5 -35.5 -192.5q0 -115 27.5 -181t84.5 -95v-84h-220v88h118q-129 66 -129 272q0 105 31.5 183t90.5 119.5t140 41.5t140 -41.5t90.5 -119.5t31.5 -183q0 -103 -32.5 -170t-97.5 -102h119v-88h-219v84q56 29 83.5 95t27.5 181q0 131 -35.5 192
t-107.5 61t-107.5 -60.5zM12 689q18 -18 18 -44q0 -32 -26 -53l29 -116h-62l-50 103q-18 39 -18 66q0 26 18.5 44t45.5 18t45 -18z" />
    <glyph glyph-name="uni1F6A" unicode="&#x1f6a;" 
d="M192.5 552.5q-35.5 -60.5 -35.5 -192.5q0 -115 27.5 -181t84.5 -95v-84h-220v88h118q-129 66 -129 272q0 105 31.5 183t90.5 119.5t140 41.5t140 -41.5t90.5 -119.5t31.5 -183q0 -103 -32.5 -170t-97.5 -102h119v-88h-219v84q56 29 83.5 95t27.5 181q0 131 -35.5 192
t-107.5 61t-107.5 -60.5zM-159.5 676q18.5 -18 18.5 -44q0 -27 -18 -66l-50 -103h-62l29 116q-26 21 -26 53q0 26 18 44t45 18t45.5 -18zM29 476l-68 -17l-75 207l98 25z" />
    <glyph glyph-name="uni1F6B" unicode="&#x1f6b;" 
d="M192.5 552.5q-35.5 -60.5 -35.5 -192.5q0 -115 27.5 -181t84.5 -95v-84h-220v88h118q-129 66 -129 272q0 105 31.5 183t90.5 119.5t140 41.5t140 -41.5t90.5 -119.5t31.5 -183q0 -103 -32.5 -170t-97.5 -102h119v-88h-219v84q56 29 83.5 95t27.5 181q0 131 -35.5 192
t-107.5 61t-107.5 -60.5zM-163.5 676.5q18.5 -18.5 18.5 -44.5q0 -31 -26 -52l28 -117h-61l-50 104q-18 39 -18 65q0 27 18 45t45 18t45.5 -18.5zM29 476l-68 -17l-75 207l98 25z" />
    <glyph glyph-name="uni1F6C" unicode="&#x1f6c;" 
d="M192.5 552.5q-35.5 -60.5 -35.5 -192.5q0 -115 27.5 -181t84.5 -95v-84h-220v88h118q-129 66 -129 272q0 105 31.5 183t90.5 119.5t140 41.5t140 -41.5t90.5 -119.5t31.5 -183q0 -103 -32.5 -170t-97.5 -102h119v-88h-219v84q56 29 83.5 95t27.5 181q0 131 -35.5 192
t-107.5 61t-107.5 -60.5zM-126.5 676q18.5 -18 18.5 -44q0 -27 -18 -66l-50 -103h-62l29 116q-26 21 -26 53q0 26 18 44t45 18t45.5 -18zM58 666l-75 -207l-69 17l46 215z" />
    <glyph glyph-name="uni1F6D" unicode="&#x1f6d;" 
d="M192.5 552.5q-35.5 -60.5 -35.5 -192.5q0 -115 27.5 -181t84.5 -95v-84h-220v88h118q-129 66 -129 272q0 105 31.5 183t90.5 119.5t140 41.5t140 -41.5t90.5 -119.5t31.5 -183q0 -103 -32.5 -170t-97.5 -102h119v-88h-219v84q56 29 83.5 95t27.5 181q0 131 -35.5 192
t-107.5 61t-107.5 -60.5zM-127.5 677q18.5 -18 18.5 -44q0 -32 -26 -52l29 -117h-62l-50 103q-18 39 -18 66t18 44.5t45 17.5t45.5 -18zM62 666l-75 -207l-69 17l46 215z" />
    <glyph glyph-name="uni1F6E" unicode="&#x1f6e;" 
d="M192.5 552.5q-35.5 -60.5 -35.5 -192.5q0 -115 27.5 -181t84.5 -95v-84h-220v88h118q-129 66 -129 272q0 105 31.5 183t90.5 119.5t140 41.5t140 -41.5t90.5 -119.5t31.5 -183q0 -103 -32.5 -170t-97.5 -102h119v-88h-219v84q56 29 83.5 95t27.5 181q0 131 -35.5 192
t-107.5 61t-107.5 -60.5zM-50.5 577.5q-14.5 6.5 -36.5 20.5q-15 11 -24.5 15.5t-20.5 4.5q-16 0 -28 -11t-25 -35l-63 32q20 44 49 70.5t66 26.5q21 0 37.5 -7.5t34.5 -20.5q15 -10 24 -14.5t20 -4.5q15 0 27 10t26 33l63 -31q-20 -46 -49.5 -70.5t-65.5 -24.5
q-20 0 -34.5 6.5zM-102 447q-19 11 -27.5 24t-8.5 32q0 26 18.5 44t46.5 18q27 0 45 -18t18 -44q0 -15 -6 -32t-23 -47l-21 -39h-60z" />
    <glyph glyph-name="uni1F6F" unicode="&#x1f6f;" 
d="M192.5 552.5q-35.5 -60.5 -35.5 -192.5q0 -115 27.5 -181t84.5 -95v-84h-220v88h118q-129 66 -129 272q0 105 31.5 183t90.5 119.5t140 41.5t140 -41.5t90.5 -119.5t31.5 -183q0 -103 -32.5 -170t-97.5 -102h119v-88h-219v84q56 29 83.5 95t27.5 181q0 131 -35.5 192
t-107.5 61t-107.5 -60.5zM-52.5 578.5q-14.5 6.5 -36.5 20.5q-15 11 -24.5 15.5t-20.5 4.5q-16 0 -28 -11t-25 -35l-63 32q20 44 49 70.5t66 26.5q21 0 37.5 -7.5t34.5 -20.5q15 -10 24 -14.5t20 -4.5q15 0 27 10t26 33l63 -31q-20 -46 -49.5 -70.5t-65.5 -24.5
q-20 0 -34.5 6.5zM-92 386l-21 38q-17 31 -23 47.5t-6 31.5q0 27 17.5 45t45.5 18t46.5 -18t18.5 -45q0 -36 -35 -55l17 -62h-60z" />
    <glyph glyph-name="uni1FFA" unicode="&#x1ffa;" 
d="M192.5 552.5q-35.5 -60.5 -35.5 -192.5q0 -115 27.5 -181t84.5 -95v-84h-220v88h118q-129 66 -129 272q0 105 31.5 183t90.5 119.5t140 41.5t140 -41.5t90.5 -119.5t31.5 -183q0 -103 -32.5 -170t-97.5 -102h119v-88h-219v84q56 29 83.5 95t27.5 181q0 131 -35.5 192
t-107.5 61t-107.5 -60.5zM36 496l-79 -13l-77 207l119 22z" />
    <glyph glyph-name="uni1FFB" unicode="&#x1ffb;" 
d="M192.5 552.5q-35.5 -60.5 -35.5 -192.5q0 -115 27.5 -181t84.5 -95v-84h-220v88h118q-129 66 -129 272q0 105 31.5 183t90.5 119.5t140 41.5t140 -41.5t90.5 -119.5t31.5 -183q0 -103 -32.5 -170t-97.5 -102h119v-88h-219v84q56 29 83.5 95t27.5 181q0 131 -35.5 192
t-107.5 61t-107.5 -60.5zM70 690l-77 -207l-79 13l37 216z" />
    <glyph glyph-name="uni1FFC" unicode="&#x1ffc;" 
d="M192.5 552.5q-35.5 -60.5 -35.5 -192.5q0 -115 27.5 -181t84.5 -95v-84h-220v88h118q-129 66 -129 272q0 105 31.5 183t90.5 119.5t140 41.5t140 -41.5t90.5 -119.5t31.5 -183q0 -103 -32.5 -170t-97.5 -102h119v-88h-219v84q56 29 83.5 95t27.5 181q0 131 -35.5 192
t-107.5 61t-107.5 -60.5zM287 -163.5q-31 30.5 -31 81.5v42h89v-40q0 -41 41 -41q17 0 29 3.5t26 12.5l36 -54q-45 -35 -103 -35q-56 0 -87 30.5z" />
    <glyph glyph-name="uni1FA8" unicode="&#x1fa8;" 
d="M192.5 552.5q-35.5 -60.5 -35.5 -192.5q0 -115 27.5 -181t84.5 -95v-84h-220v88h118q-129 66 -129 272q0 105 31.5 183t90.5 119.5t140 41.5t140 -41.5t90.5 -119.5t31.5 -183q0 -103 -32.5 -170t-97.5 -102h119v-88h-219v84q56 29 83.5 95t27.5 181q0 131 -35.5 192
t-107.5 61t-107.5 -60.5zM55.5 689q18.5 -18 18.5 -44q0 -27 -18 -66l-50 -103h-62l29 116q-26 21 -26 53q0 26 18 44t45 18t45.5 -18zM287 -163.5q-31 30.5 -31 81.5v42h89v-40q0 -41 41 -41q17 0 29 3.5t26 12.5l36 -54q-45 -35 -103 -35q-56 0 -87 30.5z" />
    <glyph glyph-name="uni1FA9" unicode="&#x1fa9;" 
d="M192.5 552.5q-35.5 -60.5 -35.5 -192.5q0 -115 27.5 -181t84.5 -95v-84h-220v88h118q-129 66 -129 272q0 105 31.5 183t90.5 119.5t140 41.5t140 -41.5t90.5 -119.5t31.5 -183q0 -103 -32.5 -170t-97.5 -102h119v-88h-219v84q56 29 83.5 95t27.5 181q0 131 -35.5 192
t-107.5 61t-107.5 -60.5zM12 689q18 -18 18 -44q0 -32 -26 -53l29 -116h-62l-50 103q-18 39 -18 66q0 26 18.5 44t45.5 18t45 -18zM287 -163.5q-31 30.5 -31 81.5v42h89v-40q0 -41 41 -41q17 0 29 3.5t26 12.5l36 -54q-45 -35 -103 -35q-56 0 -87 30.5z" />
    <glyph glyph-name="uni1FAA" unicode="&#x1faa;" 
d="M192.5 552.5q-35.5 -60.5 -35.5 -192.5q0 -115 27.5 -181t84.5 -95v-84h-220v88h118q-129 66 -129 272q0 105 31.5 183t90.5 119.5t140 41.5t140 -41.5t90.5 -119.5t31.5 -183q0 -103 -32.5 -170t-97.5 -102h119v-88h-219v84q56 29 83.5 95t27.5 181q0 131 -35.5 192
t-107.5 61t-107.5 -60.5zM-159.5 676q18.5 -18 18.5 -44q0 -27 -18 -66l-50 -103h-62l29 116q-26 21 -26 53q0 26 18 44t45 18t45.5 -18zM29 476l-68 -17l-75 207l98 25zM287 -163.5q-31 30.5 -31 81.5v42h89v-40q0 -41 41 -41q17 0 29 3.5t26 12.5l36 -54q-45 -35 -103 -35
q-56 0 -87 30.5z" />
    <glyph glyph-name="uni1FAB" unicode="&#x1fab;" 
d="M192.5 552.5q-35.5 -60.5 -35.5 -192.5q0 -115 27.5 -181t84.5 -95v-84h-220v88h118q-129 66 -129 272q0 105 31.5 183t90.5 119.5t140 41.5t140 -41.5t90.5 -119.5t31.5 -183q0 -103 -32.5 -170t-97.5 -102h119v-88h-219v84q56 29 83.5 95t27.5 181q0 131 -35.5 192
t-107.5 61t-107.5 -60.5zM-163.5 676.5q18.5 -18.5 18.5 -44.5q0 -31 -26 -52l28 -117h-61l-50 104q-18 39 -18 65q0 27 18 45t45 18t45.5 -18.5zM29 476l-68 -17l-75 207l98 25zM287 -163.5q-31 30.5 -31 81.5v42h89v-40q0 -41 41 -41q17 0 29 3.5t26 12.5l36 -54
q-45 -35 -103 -35q-56 0 -87 30.5z" />
    <glyph glyph-name="uni1FAC" unicode="&#x1fac;" 
d="M192.5 552.5q-35.5 -60.5 -35.5 -192.5q0 -115 27.5 -181t84.5 -95v-84h-220v88h118q-129 66 -129 272q0 105 31.5 183t90.5 119.5t140 41.5t140 -41.5t90.5 -119.5t31.5 -183q0 -103 -32.5 -170t-97.5 -102h119v-88h-219v84q56 29 83.5 95t27.5 181q0 131 -35.5 192
t-107.5 61t-107.5 -60.5zM-126.5 676q18.5 -18 18.5 -44q0 -27 -18 -66l-50 -103h-62l29 116q-26 21 -26 53q0 26 18 44t45 18t45.5 -18zM58 666l-75 -207l-69 17l46 215zM287 -163.5q-31 30.5 -31 81.5v42h89v-40q0 -41 41 -41q17 0 29 3.5t26 12.5l36 -54
q-45 -35 -103 -35q-56 0 -87 30.5z" />
    </font>
</defs>
</svg>
